osu file format v14

[General]
AudioFilename: audio.mp3
AudioLeadIn: 0
PreviewTime: 52012
Countdown: 0
SampleSet: Soft
StackLeniency: 0.7
Mode: 0
LetterboxInBreaks: 0
WidescreenStoryboard: 0

[Editor]
DistanceSpacing: 0.4
BeatDivisor: 4
GridSize: 32
TimelineZoom: 1.2

[Metadata]
Title:Monochrome Butterfly
TitleUnicode:Monochrome Butterfly
Artist:Aitsuki Nakuru
ArtistUnicode:藍月なくる
Creator:Settia
Version:Mysterious
Source:
Tags:トコロクラニスト よーすけ@KG
BeatmapID:1095855
BeatmapSetID:516109

[Difficulty]
HPDrainRate:4
CircleSize:4
OverallDifficulty:9
ApproachRate:9.5
SliderMultiplier:2
SliderTickRate:1

[Events]
//Background and Video events
0,0,"bg.jpg",0,0
//Break Periods
2,76470,84487
2,130984,139859
//Storyboard Layer 0 (Background)
//Storyboard Layer 1 (Fail)
//Storyboard Layer 2 (Pass)
//Storyboard Layer 3 (Foreground)
//Storyboard Sound Samples

[TimingPoints]
1870,342.857142857143,4,2,1,70,1,0
2041,-100,4,2,1,20,0,0
2212,-100,4,2,1,30,0,0
2384,-100,4,2,1,40,0,0
2555,-100,4,2,1,50,0,0
2727,-100,4,2,1,60,0,0
2898,-100,4,2,1,70,0,0
52612,-100,4,2,1,70,0,1
63241,-100,4,2,1,70,0,0
63584,-100,4,2,1,70,0,1
74555,-100,4,2,1,70,0,0
107469,-100,4,2,1,70,0,0
107470,-100,4,2,1,70,0,1
118098,-100,4,2,1,70,0,0
118441,-100,4,2,1,70,0,1
123927,-100,4,2,1,70,0,1
129412,-100,4,2,1,70,0,0
151355,-100,4,2,1,70,0,1
161984,-71.4285714285714,4,2,1,70,0,0
162327,-100,4,2,1,70,0,1
173298,-100,4,2,1,70,0,0
178784,-100,4,2,1,70,0,1
184441,-100,4,2,1,70,0,0
189070,-100,4,2,1,5,0,0

[Colours]
Combo1 : 174,131,176
Combo2 : 15,195,180
Combo3 : 253,79,183
Combo4 : 105,198,215

[HitObjects]
259,320,1869,5,8,0:0:0:0:
116,123,2041,1,8,0:0:0:0:
347,198,2212,1,8,0:0:0:0:
116,273,2384,1,8,0:0:0:0:
259,77,2555,1,8,0:0:0:0:
116,273,2727,1,2,0:0:0:0:
347,198,2898,6,0,P|285:164|200:186,1,150,12|0,0:0|0:0,0:0:0:0:
446,339,3241,6,0,B|461:291|461:291|444:224,1,100,6|0,0:0|0:0,0:0:0:0:
379,88,3584,1,8,0:0:0:0:
271,287,3755,1,2,0:0:0:0:
144,161,3927,1,0,0:0:0:0:
192,169,4012,1,0,0:0:0:0:
234,196,4098,1,2,0:0:0:0:
262,237,4184,1,0,0:0:0:0:
270,286,4269,1,8,0:0:0:0:
92,349,4441,1,0,0:0:0:0:
262,237,4612,6,0,P|312:224|371:247,2,100,2|2|8,0:0|0:0|0:0,0:0:0:0:
451,344,5127,1,2,0:0:0:0:
357,140,5298,2,0,B|343:191|343:191|363:257,1,100,0|2,0:0|0:0,0:0:0:0:
470,366,5641,1,8,0:0:0:0:
357,140,5812,1,0,0:0:0:0:
233,313,5984,6,0,L|338:313,1,100,2|0,0:0|0:0,0:0:0:0:
57,377,6327,1,8,0:0:0:0:
180,119,6498,1,2,0:0:0:0:
233,313,6670,2,0,B|251:263|251:263|232:202,1,100,0|2,0:0|0:0,0:0:0:0:
81,143,7012,1,8,0:0:0:0:
233,313,7184,1,0,0:0:0:0:
314,78,7355,5,2,0:0:0:0:
160,252,7527,1,2,0:0:0:0:
461,281,7698,1,8,0:0:0:0:
133,250,7870,1,2,0:0:0:0:
470,160,8041,1,0,0:0:0:0:
295,377,8212,1,2,0:0:0:0:
218,84,8384,2,0,B|273:67|273:67|333:83,1,100,8|0,0:0|0:0,0:0:0:0:
461,281,8727,6,0,B|369:240|369:327|251:280,1,200,6|8,0:0|0:0,0:0:0:0:
308,189,9241,1,2,0:0:0:0:
413,377,9412,1,0,0:0:0:0:
413,377,9498,1,0,0:0:0:0:
413,377,9584,1,2,0:0:0:0:
182,327,9755,2,0,B|170:278|170:278|187:225,1,100,8|0,0:0|0:0,0:0:0:0:
415,81,10098,5,2,0:0:0:0:
267,285,10270,1,2,0:0:0:0:
267,32,10441,1,8,0:0:0:0:
415,237,10612,1,2,0:0:0:0:
175,159,10784,1,0,0:0:0:0:
415,81,10955,1,2,0:0:0:0:
147,170,11127,1,8,0:0:0:0:
478,316,11298,1,0,0:0:0:0:
301,113,11470,6,0,B|287:161|287:161|302:214,1,100,2|0,0:0|0:0,0:0:0:0:
478,316,11812,1,8,0:0:0:0:
267,285,11984,1,2,0:0:0:0:
482,167,12155,1,0,0:0:0:0:
482,167,12241,1,0,0:0:0:0:
482,167,12327,1,2,0:0:0:0:
332,370,12498,1,8,0:0:0:0:
415,81,12670,1,0,0:0:0:0:
478,316,12841,5,2,0:0:0:0:
267,285,13012,1,2,0:0:0:0:
482,167,13184,1,8,0:0:0:0:
332,370,13355,1,2,0:0:0:0:
206,117,13527,2,0,B|258:99|258:99|324:120,1,100,2|10,0:0|0:0,0:0:0:0:
60,330,13870,1,8,0:0:0:0:
206,117,14041,1,8,0:0:0:0:
206,117,14127,1,8,0:0:0:0:
206,117,14212,6,0,L|206:222,1,100,6|0,0:0|0:0,0:0:0:0:
308,342,14555,1,8,0:0:0:0:
449,234,14727,2,0,P|376:244|307:344,1,200,2|2,0:0|0:0,0:0:0:0:
206,217,15241,1,8,0:0:0:0:
447,329,15412,6,0,B|462:276|462:276|445:222,1,100,0|2,0:0|0:0,0:0:0:0:
355,45,15755,1,2,0:0:0:0:
206,217,15927,1,8,0:0:0:0:
355,45,16098,1,2,0:0:0:0:
355,332,16270,1,0,0:0:0:0:
276,139,16441,1,2,0:0:0:0:
459,154,16612,2,0,L|447:278,1,100,8|0,0:0|0:0,0:0:0:0:
159,324,16955,6,0,B|270:281|270:358|388:325,1,200,2|8,0:0|0:0,0:0:0:0:
203,121,17470,2,0,B|219:172|219:172|202:228,1,100,2|0,0:0|0:0,0:0:0:0:
12,363,17812,1,2,0:0:0:0:
129,169,17984,1,8,0:0:0:0:
221,302,18155,6,0,P|162:290|129:167,1,200,0|2,0:0|0:0,0:0:0:0:
281,53,18670,1,8,0:0:0:0:
351,256,18841,1,2,0:0:0:0:
497,140,19012,2,0,B|449:126|449:126|387:141,1,100,0|2,0:0|0:0,0:0:0:0:
307,338,19355,2,0,P|362:352|407:332,1,100,8|0,0:0|0:0,0:0:0:0:
497,140,19698,5,2,0:0:0:0:
307,338,19870,1,0,0:0:0:0:
371,54,20041,1,8,0:0:0:0:
486,237,20212,2,0,L|376:237,1,100,2|0,0:0|0:0,0:0:0:0:
137,56,20555,1,2,0:0:0:0:
266,253,20727,1,8,0:0:0:0:
387,131,20898,6,0,P|294:163|271:272,1,200,0|2,0:0|0:0,0:0:0:0:
125,354,21412,1,8,0:0:0:0:
386,236,21584,1,2,0:0:0:0:
125,163,21755,1,0,0:0:0:0:
410,246,21927,1,2,0:0:0:0:
125,354,22098,2,0,L|125:242,1,100,8|0,0:0|0:0,0:0:0:0:
36,43,22441,6,0,B|20:95|20:95|39:145,1,100,2|0,0:0|0:0,0:0:0:0:
259,203,22784,1,8,0:0:0:0:
125,254,22955,1,2,0:0:0:0:
307,90,23127,1,0,0:0:0:0:
355,337,23298,2,0,B|307:350|307:350|249:330,1,100,2|8,0:0|0:0,0:0:0:0:
112,89,23641,6,0,B|219:48|219:118|326:86,1,200,0|2,0:0|0:0,0:0:0:0:
271,7,24155,1,8,0:0:0:0:
360,252,24327,1,2,0:0:0:0:
485,135,24498,2,0,P|500:83|481:34,1,100,0|2,0:0|0:0,0:0:0:0:
170,178,24841,1,8,0:0:0:0:
410,87,25012,1,8,0:0:0:0:
410,87,25098,1,8,0:0:0:0:
410,87,25184,5,6,0:0:0:0:
229,335,25355,1,0,0:0:0:0:
435,223,25527,1,8,0:0:0:0:
170,178,25698,1,2,0:0:0:0:
321,383,25870,2,0,B|332:329|332:329|315:272,1,100,0|2,0:0|0:0,0:0:0:0:
239,86,26212,1,8,0:0:0:0:
95,331,26384,1,0,0:0:0:0:
41,151,26555,5,2,0:0:0:0:
104,356,26727,1,2,0:0:0:0:
239,86,26898,1,8,0:0:0:0:
95,331,27070,1,2,0:0:0:0:
420,255,27241,1,0,0:0:0:0:
132,171,27412,1,2,0:0:0:0:
446,266,27584,1,8,0:0:0:0:
179,381,27755,1,0,0:0:0:0:
343,115,27927,6,0,B|355:165|355:165|337:221,1,100,2|0,0:0|0:0,0:0:0:0:
179,381,28270,1,8,0:0:0:0:
271,166,28441,1,2,0:0:0:0:
67,237,28612,1,0,0:0:0:0:
294,299,28784,1,2,0:0:0:0:
43,229,28955,1,8,0:0:0:0:
179,94,29127,1,0,0:0:0:0:
179,381,29298,6,0,L|178:264,1,100,2|2,0:0|0:0,0:0:0:0:
287,59,29641,1,8,0:0:0:0:
372,271,29812,1,2,0:0:0:0:
128,186,29984,2,0,B|181:172|181:172|243:188,1,100,0|8,0:0|0:0,0:0:0:0:
452,299,30327,1,8,0:0:0:0:
413,76,30498,1,8,0:0:0:0:
289,248,30670,6,0,B|274:297|274:297|291:365,1,100,6|0,0:0|0:0,0:0:0:0:
452,299,31012,1,8,0:0:0:0:
90,341,31184,2,0,B|203:298|203:369|306:339,1,200,2|2,0:0|0:0,0:0:0:0:
325,171,31698,1,8,0:0:0:0:
452,299,31870,6,0,L|452:192,1,100,0|2,0:0|0:0,0:0:0:0:
240,5,32212,1,2,0:0:0:0:
325,171,32384,1,8,0:0:0:0:
413,76,32555,1,2,0:0:0:0:
199,258,32727,1,0,0:0:0:0:
313,73,32898,1,2,0:0:0:0:
376,322,33070,2,0,P|330:334|265:310,1,100,8|0,0:0|0:0,0:0:0:0:
94,149,33412,5,2,0:0:0:0:
199,258,33584,1,0,0:0:0:0:
199,44,33755,1,8,0:0:0:0:
8,226,33927,2,0,B|82:226|82:226|129:258|129:258|213:258,1,200,2|2,0:0|0:0,0:0:0:0:
274,384,34441,1,8,0:0:0:0:
248,185,34612,6,0,P|152:186|105:269,1,200,0|2,0:0|0:0,0:0:0:0:
419,297,35127,1,8,0:0:0:0:
198,257,35298,1,2,0:0:0:0:
452,164,35470,1,0,0:0:0:0:
274,384,35641,1,2,0:0:0:0:
214,86,35812,2,0,B|268:69|268:69|334:88,1,100,8|0,0:0|0:0,0:0:0:0:
419,297,36155,5,2,0:0:0:0:
163,384,36327,1,0,0:0:0:0:
309,81,36498,1,8,0:0:0:0:
309,316,36670,2,0,L|307:203,1,100,2|0,0:0|0:0,0:0:0:0:
193,41,37012,1,2,0:0:0:0:
307,216,37184,1,8,0:0:0:0:
33,160,37355,6,0,B|145:117|145:184|241:160,1,200,0|2,0:0|0:0,0:0:0:0:
396,68,37870,1,8,0:0:0:0:
390,257,38041,2,0,L|385:384,1,100,2|0,0:0|0:0,0:0:0:0:
228,162,38384,1,2,0:0:0:0:
386,356,38555,2,0,B|340:368|340:368|283:352,1,100,8|0,0:0|0:0,0:0:0:0:
133,168,38898,6,0,P|183:151|236:167,1,100,2|0,0:0|0:0,0:0:0:0:
386,356,39241,1,8,0:0:0:0:
295,76,39412,1,2,0:0:0:0:
183,238,39584,2,0,B|165:287|165:287|184:349,1,100,0|2,0:0|0:0,0:0:0:0:
466,280,39927,1,8,0:0:0:0:
339,163,40098,6,0,P|431:189|461:301,1,200,0|2,0:0|0:0,0:0:0:0:
179,332,40612,1,8,0:0:0:0:
309,39,40784,1,2,0:0:0:0:
368,250,40955,1,0,0:0:0:0:
144,146,41127,5,8,0:0:0:0:
188,124,41212,1,8,0:0:0:0:
238,119,41298,1,8,0:0:0:0:
286,131,41384,1,8,0:0:0:0:
327,160,41469,1,8,0:0:0:0:
355,201,41555,1,8,0:0:0:0:
368,250,41641,6,0,B|381:299|381:299|370:356,1,100,6|0,0:0|0:0,0:0:0:0:
144,146,41984,1,8,0:0:0:0:
284,302,42155,1,2,0:0:0:0:
31,357,42327,2,0,P|19:305|40:254,1,100,0|2,0:0|0:0,0:0:0:0:
238,119,42670,1,8,0:0:0:0:
284,302,42841,6,0,B|193:266|193:353|85:307,1,200,0|2,0:0|0:0,0:0:0:0:
147,221,43355,1,8,0:0:0:0:
241,376,43527,1,2,0:0:0:0:
363,61,43698,1,0,0:0:0:0:
258,205,43870,1,2,0:0:0:0:
258,27,44041,1,8,0:0:0:0:
363,171,44212,1,0,0:0:0:0:
194,116,44384,6,0,B|248:100|248:100|304:115,1,100,2|0,0:0|0:0,0:0:0:0:
386,245,44727,1,8,0:0:0:0:
512,127,44898,2,0,P|414:161|388:258,1,200,2|2,0:0|0:0,0:0:0:0:
512,348,45412,1,8,0:0:0:0:
385,245,45584,6,0,B|343:234|343:234|289:250,1,100,0|0,0:0|0:0,0:0:0:0:
64,288,45927,1,2,0:0:0:0:
338,353,46098,1,8,0:0:0:0:
208,147,46270,1,2,0:0:0:0:
208,378,46441,1,0,0:0:0:0:
207,62,46612,1,2,0:0:0:0:
66,192,46784,2,0,P|52:238|66:293,1,100,8|0,0:0|0:0,0:0:0:0:
338,353,47127,6,0,P|303:280|186:251,1,200,6|8,0:0|0:0,0:0:0:0:
63,287,47641,1,2,0:0:0:0:
208,147,47812,2,0,B|259:132|259:132|321:149,1,100,0|2,0:0|0:0,0:0:0:0:
432,215,48155,1,8,0:0:0:0:
445,51,48327,6,0,P|349:60|305:162,1,200,0|2,0:0|0:0,0:0:0:0:
481,317,48841,1,8,0:0:0:0:
303,144,49012,1,2,0:0:0:0:
432,215,49184,1,0,0:0:0:0:
168,313,49355,1,2,0:0:0:0:
397,134,49527,1,8,0:0:0:0:
249,380,49698,1,0,0:0:0:0:
118,104,49870,6,0,B|169:87|169:87|225:103,1,100,2|0,0:0|0:0,0:0:0:0:
432,215,50212,1,8,0:0:0:0:
332,369,50384,2,0,B|371:270|288:270|328:163,1,200,2|2,0:0|0:0,0:0:0:0:
207,17,50898,1,8,0:0:0:0:
323,175,51070,6,0,P|279:149|222:149,1,100,0|0,0:0|0:0,0:0:0:0:
129,291,51412,2,0,P|173:265|230:265,1,100,2|8,0:0|0:0,0:0:0:0:
332,369,51755,1,6,0:0:0:0:
442,153,52098,5,0,0:0:0:0:
220,262,52270,1,0,0:0:0:0:
442,153,52441,1,0,0:0:0:0:
332,369,52612,6,0,B|315:321|315:321|332:257,1,100,6|0,0:0|0:0,0:0:0:0:
483,73,52955,1,8,0:0:0:0:
476,226,53127,2,0,L|470:331,1,100,2|0,0:0|0:0,0:0:0:0:
259,132,53470,1,2,0:0:0:0:
470,325,53641,1,8,0:0:0:0:
141,265,53812,1,0,0:0:0:0:
363,162,53984,5,2,0:0:0:0:
326,372,54155,1,2,0:0:0:0:
368,122,54327,1,8,0:0:0:0:
215,281,54498,2,0,B|324:237|324:315|412:282,1,200,2|2,0:0|0:0,0:0:0:0:
137,86,55012,1,8,0:0:0:0:
278,365,55184,1,0,0:0:0:0:
363,162,55355,6,0,B|314:149|314:149|255:165,1,100,2|0,0:0|0:0,0:0:0:0:
129,329,55698,1,8,0:0:0:0:
78,148,55869,1,2,0:0:0:0:
215,281,56041,1,0,0:0:0:0:
26,242,56212,1,2,0:0:0:0:
248,286,56384,1,8,0:0:0:0:
44,384,56555,1,0,0:0:0:0:
202,179,56727,6,0,P|251:164|304:180,2,100,2|2|8,0:0|0:0|0:0,0:0:0:0:
436,240,57241,2,0,B|450:189|450:189|433:128,1,100,2|0,0:0|0:0,0:0:0:0:
320,40,57584,1,2,0:0:0:0:
436,240,57755,1,8,0:0:0:0:
320,40,57927,1,0,0:0:0:0:
289,300,58098,6,0,B|373:300|373:300|408:325|408:325|502:325,1,200,6|8,0:0|0:0,0:0:0:0:
186,384,58612,2,0,L|196:275,1,100,2|0,0:0|0:0,0:0:0:0:
320,40,58955,1,2,0:0:0:0:
207,206,59127,1,8,0:0:0:0:
260,117,59298,1,0,0:0:0:0:
384,302,59470,6,0,B|340:316|340:316|279:296,1,100,2|2,0:0|0:0,0:0:0:0:
180,364,59812,1,8,0:0:0:0:
53,242,59984,2,0,P|137:267|178:379,1,200,2|2,0:0|0:0,0:0:0:0:
53,242,60498,2,0,L|53:132,1,100,8|0,0:0|0:0,0:0:0:0:
286,187,60841,5,2,0:0:0:0:
143,35,61012,1,0,0:0:0:0:
288,299,61184,1,8,0:0:0:0:
434,94,61355,2,0,P|357:96|284:208,1,200,2|2,0:0|0:0,0:0:0:0:
458,343,61870,1,8,0:0:0:0:
205,272,62041,1,0,0:0:0:0:
390,179,62212,6,0,B|406:226|406:226|385:290,1,100,2|2,0:0|0:0,0:0:0:0:
211,384,62555,1,8,0:0:0:0:
89,185,62727,2,0,B|200:145|200:216|304:181,1,200,2|2,0:0|0:0,0:0:0:0:
232,64,63241,1,8,0:0:0:0:
337,341,63412,1,8,0:0:0:0:
399,191,63584,5,12,0:0:0:0:
111,191,63755,1,0,0:0:0:0:
357,293,63927,5,8,0:0:0:0:
153,89,64098,1,2,0:0:0:0:
255,335,64270,5,8,0:0:0:0:
255,47,64441,1,2,0:0:0:0:
153,293,64612,5,8,0:0:0:0:
357,89,64784,1,0,0:0:0:0:
111,191,64955,5,8,0:0:0:0:
399,191,65126,1,2,0:0:0:0:
153,89,65298,5,8,0:0:0:0:
356,292,65469,1,2,0:0:0:0:
255,47,65641,5,8,0:0:0:0:
255,335,65812,1,2,0:0:0:0:
356,89,65984,5,8,0:0:0:0:
153,292,66155,1,0,0:0:0:0:
420,191,66327,5,12,0:0:0:0:
89,191,66498,1,0,0:0:0:0:
372,308,66670,5,8,0:0:0:0:
137,73,66841,1,2,0:0:0:0:
255,356,67013,5,8,0:0:0:0:
255,25,67184,1,2,0:0:0:0:
137,308,67355,5,8,0:0:0:0:
372,73,67527,1,0,0:0:0:0:
89,191,67698,5,8,0:0:0:0:
420,191,67869,1,2,0:0:0:0:
138,74,68041,5,8,0:0:0:0:
371,307,68212,1,2,0:0:0:0:
255,25,68384,5,8,0:0:0:0:
255,356,68555,1,2,0:0:0:0:
371,74,68727,5,8,0:0:0:0:
138,307,68898,1,0,0:0:0:0:
445,191,69070,5,12,0:0:0:0:
64,191,69241,1,0,0:0:0:0:
389,325,69413,5,8,0:0:0:0:
120,56,69584,1,2,0:0:0:0:
255,381,69756,5,8,0:0:0:0:
255,0,69927,1,2,0:0:0:0:
120,325,70098,5,8,0:0:0:0:
389,56,70270,1,0,0:0:0:0:
64,191,70441,5,8,0:0:0:0:
445,191,70612,1,2,0:0:0:0:
120,56,70784,5,8,0:0:0:0:
389,325,70955,1,2,0:0:0:0:
255,0,71127,5,8,0:0:0:0:
255,381,71298,1,2,0:0:0:0:
389,56,71470,5,8,0:0:0:0:
120,325,71641,1,0,0:0:0:0:
187,67,71812,5,12,0:0:0:0:
394,188,71984,1,0,0:0:0:0:
187,308,72155,1,8,0:0:0:0:
280,52,72327,5,2,0:0:0:0:
362,277,72499,1,8,0:0:0:0:
125,235,72670,1,2,0:0:0:0:
362,98,72841,5,8,0:0:0:0:
280,324,73013,1,0,0:0:0:0:
160,50,73184,5,8,0:0:0:0:
415,250,73355,1,2,0:0:0:0:
92,238,73527,1,8,0:0:0:0:
360,57,73698,1,2,0:0:0:0:
250,362,73870,5,8,0:0:0:0:
250,362,73955,1,8,0:0:0:0:
250,362,74041,1,10,0:0:0:0:
360,57,74212,1,8,0:0:0:0:
92,238,74384,6,0,L|170:238,1,50,8|8,0:0|0:0,0:0:0:0:
433,238,74555,1,6,0:0:0:0:
256,192,74727,12,0,76270,0:0:0:0:
127,111,85012,5,0,0:0:0:0:
136,149,85184,1,0,0:0:0:0:
144,187,85355,1,0,0:0:0:0:
324,253,85527,6,0,B|341:203|341:203|321:139,1,100,6|0,0:0|0:0,0:0:0:0:
144,187,85870,1,8,0:0:0:0:
211,314,86041,2,0,B|270:313|270:313|296:337|296:337|421:337,1,200,2|2,0:0|0:0,0:0:0:0:
478,166,86555,1,8,0:0:0:0:
480,384,86727,6,0,L|480:284,1,100,0|2,0:0|0:0,0:0:0:0:
352,69,87070,1,2,0:0:0:0:
478,166,87241,1,8,0:0:0:0:
247,208,87412,1,2,0:0:0:0:
478,166,87584,1,0,0:0:0:0:
247,111,87755,1,2,0:0:0:0:
352,216,87927,2,0,L|352:328,1,100,8|0,0:0|0:0,0:0:0:0:
110,355,88270,5,2,0:0:0:0:
247,208,88441,1,0,0:0:0:0:
247,315,88612,1,8,0:0:0:0:
110,155,88784,1,2,0:0:0:0:
268,338,88955,1,0,0:0:0:0:
27,373,89127,1,2,0:0:0:0:
247,208,89298,1,8,0:0:0:0:
110,355,89470,6,0,L|110:142,1,200,0|2,0:0|0:0,0:0:0:0:
330,28,89984,1,8,0:0:0:0:
247,208,90155,1,2,0:0:0:0:
186,85,90327,1,0,0:0:0:0:
426,167,90498,1,2,0:0:0:0:
293,304,90670,2,0,L|168:304,1,100,8|0,0:0|0:0,0:0:0:0:
426,167,91012,5,2,0:0:0:0:
356,365,91184,1,0,0:0:0:0:
247,208,91355,1,8,0:0:0:0:
446,262,91527,2,0,B|460:310|460:310|445:361,1,100,2|0,0:0|0:0,0:0:0:0:
193,304,91870,1,2,0:0:0:0:
239,75,92041,1,8,0:0:0:0:
47,198,92212,6,0,P|138:217|193:328,1,200,0|2,0:0|0:0,0:0:0:0:
41,345,92727,1,8,0:0:0:0:
218,150,92898,1,2,0:0:0:0:
329,268,93070,1,0,0:0:0:0:
160,87,93241,1,2,0:0:0:0:
160,281,93412,2,0,L|160:395,1,100,8|0,0:0|0:0,0:0:0:0:
339,234,93755,6,0,B|354:187|354:187|335:128,1,100,2|0,0:0|0:0,0:0:0:0:
133,163,94098,1,8,0:0:0:0:
246,326,94270,1,2,0:0:0:0:
246,67,94441,1,0,0:0:0:0:
87,249,94612,2,0,L|198:249,1,100,2|8,0:0|0:0,0:0:0:0:
383,224,94955,6,0,P|287:240|245:327,1,200,0|2,0:0|0:0,0:0:0:0:
470,278,95470,2,0,B|485:229|485:229|462:155,1,100,8|2,0:0|0:0,0:0:0:0:
245,325,95812,1,0,0:0:0:0:
192,159,95984,5,8,0:0:0:0:
226,135,96069,1,8,0:0:0:0:
266,126,96155,1,8,0:0:0:0:
307,131,96241,1,8,0:0:0:0:
343,152,96326,1,8,0:0:0:0:
369,184,96412,1,8,0:0:0:0:
383,224,96498,6,0,L|383:334,1,100,6|0,0:0|0:0,0:0:0:0:
93,360,96841,1,8,0:0:0:0:
226,135,97012,1,2,0:0:0:0:
278,317,97184,2,0,B|232:331|232:331|176:316,1,100,0|2,0:0|0:0,0:0:0:0:
118,91,97527,1,8,0:0:0:0:
226,227,97698,6,0,B|152:227|152:227|111:256|111:256|29:256,1,200,0|2,0:0|0:0,0:0:0:0:
118,91,98212,1,8,0:0:0:0:
415,198,98384,1,2,0:0:0:0:
227,258,98555,1,0,0:0:0:0:
344,98,98727,1,2,0:0:0:0:
344,295,98898,1,8,0:0:0:0:
227,137,99070,1,0,0:0:0:0:
438,207,99241,5,2,0:0:0:0:
255,353,99412,1,0,0:0:0:0:
344,98,99584,1,8,0:0:0:0:
484,303,99755,2,0,B|438:318|438:318|374:301,1,100,2|0,0:0|0:0,0:0:0:0:
131,138,100098,2,0,B|177:123|177:123|241:140,1,100,2|8,0:0|0:0,0:0:0:0:
305,358,100441,6,0,B|257:259|341:259|295:153,1,200,0|2,0:0|0:0,0:0:0:0:
272,39,100955,1,8,0:0:0:0:
181,217,101127,1,2,0:0:0:0:
419,138,101298,1,0,0:0:0:0:
158,226,101470,1,2,0:0:0:0:
419,333,101641,2,0,L|419:231,1,100,8|0,0:0|0:0,0:0:0:0:
181,122,101984,6,0,P|167:168|193:233,1,100,6|0,0:0|0:0,0:0:0:0:
295,314,102327,1,8,0:0:0:0:
29,282,102498,1,2,0:0:0:0:
257,173,102670,1,0,0:0:0:0:
120,365,102841,1,2,0:0:0:0:
181,122,103012,1,8,0:0:0:0:
295,314,103184,6,0,B|244:314|244:314|213:338|213:338|101:338,1,200,0|2,0:0|0:0,0:0:0:0:
262,76,103698,1,8,0:0:0:0:
357,231,103870,1,2,0:0:0:0:
416,149,104041,1,0,0:0:0:0:
295,314,104212,1,2,0:0:0:0:
500,274,104384,1,8,0:0:0:0:
259,201,104555,1,0,0:0:0:0:
413,384,104727,6,0,B|430:335|430:335|411:281,1,100,2|0,0:0|0:0,0:0:0:0:
336,114,105070,1,8,0:0:0:0:
144,233,105241,2,0,P|229:229|295:328,1,200,2|2,0:0|0:0,0:0:0:0:
183,347,105755,1,8,0:0:0:0:
41,145,105927,6,0,P|85:119|142:119,1,100,0|0,0:0|0:0,0:0:0:0:
235,261,106269,2,0,P|191:235|134:235,1,100,2|8,0:0|0:0,0:0:0:0:
40,338,106612,1,6,0:0:0:0:
358,75,106955,5,0,0:0:0:0:
358,266,107127,1,0,0:0:0:0:
358,51,107298,1,0,0:0:0:0:
453,212,107470,6,0,B|472:261|472:261|454:324,1,100,6|0,0:0|0:0,0:0:0:0:
284,360,107812,1,8,0:0:0:0:
156,245,107984,2,0,P|242:264|278:385,1,200,2|2,0:0|0:0,0:0:0:0:
121,365,108498,1,8,0:0:0:0:
358,266,108670,1,0,0:0:0:0:
252,156,108841,5,2,0:0:0:0:
416,325,109012,1,2,0:0:0:0:
236,136,109184,1,8,0:0:0:0:
121,365,109355,2,0,B|219:327|219:327|327:369,1,200,2|2,0:0|0:0,0:0:0:0:
416,325,109870,1,8,0:0:0:0:
252,156,110041,1,0,0:0:0:0:
308,361,110212,5,2,0:0:0:0:
387,215,110384,1,0,0:0:0:0:
183,245,110555,1,8,0:0:0:0:
418,211,110727,1,2,0:0:0:0:
252,156,110898,5,0,0:0:0:0:
416,325,111070,1,2,0:0:0:0:
183,245,111241,1,8,0:0:0:0:
440,337,111412,1,0,0:0:0:0:
126,325,111584,5,2,0:0:0:0:
418,211,111755,1,2,0:0:0:0:
252,156,111927,1,8,0:0:0:0:
308,361,112098,2,0,L|308:253,1,100,2|0,0:0|0:0,0:0:0:0:
315,73,112441,5,2,0:0:0:0:
183,245,112612,1,8,0:0:0:0:
418,211,112784,1,0,0:0:0:0:
174,101,112955,6,0,L|182:216,1,100,6|0,0:0|0:0,0:0:0:0:
191,356,113298,1,8,0:0:0:0:
37,282,113470,2,0,P|152:290|191:385,1,200,2|2,0:0|0:0,0:0:0:0:
344,300,113984,1,8,0:0:0:0:
180,200,114155,1,0,0:0:0:0:
370,321,114327,5,2,0:0:0:0:
271,123,114498,1,2,0:0:0:0:
271,375,114670,1,8,0:0:0:0:
452,242,114841,2,0,P|366:200|275:255,1,200,2|2,0:0|0:0,0:0:0:0:
112,365,115355,2,0,B|98:315|98:315|117:267,1,100,8|0,0:0|0:0,0:0:0:0:
218,25,115698,5,2,0:0:0:0:
360,162,115870,1,0,0:0:0:0:
168,217,116041,1,8,0:0:0:0:
328,51,116212,5,2,0:0:0:0:
280,245,116384,1,0,0:0:0:0:
137,107,116555,1,2,0:0:0:0:
360,162,116727,5,8,0:0:0:0:
168,217,116898,1,0,0:0:0:0:
218,25,117070,5,2,0:0:0:0:
218,309,117241,1,2,0:0:0:0:
360,162,117412,1,8,0:0:0:0:
168,217,117584,2,0,B|251:217|251:217|293:246|293:246|386:246,1,200,2|2,0:0|0:0,0:0:0:0:
435,101,118098,1,8,0:0:0:0:
324,377,118270,1,8,0:0:0:0:
110,190,118441,5,12,0:0:0:0:
398,190,118612,1,0,0:0:0:0:
152,292,118784,5,8,0:0:0:0:
356,88,118955,1,2,0:0:0:0:
254,334,119127,5,8,0:0:0:0:
254,46,119298,1,2,0:0:0:0:
356,292,119469,5,8,0:0:0:0:
152,88,119641,1,0,0:0:0:0:
398,190,119812,5,8,0:0:0:0:
110,190,119983,1,2,0:0:0:0:
356,88,120155,5,8,0:0:0:0:
152,292,120326,1,2,0:0:0:0:
254,46,120498,5,8,0:0:0:0:
254,334,120669,1,2,0:0:0:0:
152,88,120841,5,8,0:0:0:0:
356,292,121012,1,0,0:0:0:0:
89,190,121184,5,12,0:0:0:0:
420,190,121355,1,0,0:0:0:0:
137,308,121527,5,8,0:0:0:0:
372,73,121698,1,2,0:0:0:0:
254,356,121870,5,8,0:0:0:0:
254,25,122041,1,2,0:0:0:0:
371,307,122212,5,8,0:0:0:0:
138,74,122384,1,0,0:0:0:0:
420,190,122555,5,8,0:0:0:0:
89,190,122726,1,2,0:0:0:0:
372,73,122898,5,8,0:0:0:0:
137,308,123069,1,2,0:0:0:0:
254,25,123241,5,8,0:0:0:0:
254,356,123412,1,2,0:0:0:0:
138,74,123584,5,8,0:0:0:0:
371,307,123755,1,0,0:0:0:0:
64,190,123927,5,12,0:0:0:0:
445,190,124098,1,0,0:0:0:0:
120,325,124270,5,8,0:0:0:0:
389,56,124441,1,2,0:0:0:0:
254,381,124613,5,8,0:0:0:0:
254,0,124784,1,2,0:0:0:0:
389,325,124955,5,8,0:0:0:0:
120,56,125127,1,0,0:0:0:0:
445,190,125298,5,8,0:0:0:0:
64,190,125469,1,2,0:0:0:0:
389,56,125641,5,8,0:0:0:0:
120,325,125812,1,2,0:0:0:0:
254,0,125984,5,8,0:0:0:0:
254,381,126155,1,2,0:0:0:0:
120,56,126327,5,8,0:0:0:0:
389,325,126498,1,0,0:0:0:0:
257,53,126670,5,10,0:0:0:0:
141,262,126842,1,0,0:0:0:0:
382,258,127013,1,8,0:0:0:0:
160,96,127184,5,2,0:0:0:0:
215,323,127354,1,8,0:0:0:0:
395,165,127527,1,2,0:0:0:0:
118,193,127698,5,8,0:0:0:0:
317,314,127870,1,0,0:0:0:0:
352,50,128041,5,2,0:0:0:0:
97,250,128212,1,0,0:0:0:0:
420,238,128384,1,8,0:0:0:0:
152,57,128555,1,2,0:0:0:0:
262,362,128727,5,8,0:0:0:0:
262,362,128812,1,8,0:0:0:0:
262,362,128898,1,10,0:0:0:0:
152,57,129069,1,8,0:0:0:0:
420,238,129241,6,0,L|342:238,1,50,8|8,0:0|0:0,0:0:0:0:
79,238,129412,1,6,0:0:0:0:
256,192,129585,12,0,130784,0:0:0:0:
125,86,140384,6,0,B|106:132|106:132|125:197,1,100,6|0,0:0|0:0,0:0:0:0:
168,321,140727,1,8,0:0:0:0:
318,231,140898,2,0,P|225:238|166:340,1,200,2|2,0:0|0:0,0:0:0:0:
289,372,141412,1,8,0:0:0:0:
365,123,141584,1,0,0:0:0:0:
463,290,141755,5,0,0:0:0:0:
294,220,141927,1,2,0:0:0:0:
441,85,142098,1,8,0:0:0:0:
350,317,142270,1,2,0:0:0:0:
194,198,142441,2,0,B|248:180|248:180|310:200,1,100,0|2,0:0|0:0,0:0:0:0:
370,346,142784,2,0,L|253:346,1,100,8|0,0:0|0:0,0:0:0:0:
168,206,143127,6,0,P|246:241|269:347,1,200,2|8,0:0|0:0,0:0:0:0:
60,256,143641,2,0,B|47:206|47:206|64:145,1,100,2|0,0:0|0:0,0:0:0:0:
326,127,143984,1,2,0:0:0:0:
170,311,144155,1,8,0:0:0:0:
237,36,144327,1,0,0:0:0:0:
406,171,144498,6,0,P|321:217|240:162,1,200,0|8,0:0|0:0,0:0:0:0:
147,29,145012,2,0,L|164:243,1,200,2|2,0:0|0:0,0:0:0:0:
170,303,145527,1,8,0:0:0:0:
170,303,145698,1,0,0:0:0:0:
337,163,145870,6,0,B|293:149|293:149|230:169,1,100,6|0,0:0|0:0,0:0:0:0:
123,360,146212,2,0,P|177:376|225:355,1,100,8|2,0:0|0:0,0:0:0:0:
337,163,146555,1,0,0:0:0:0:
421,248,146727,2,0,L|421:348,1,100,2|8,0:0|0:0,0:0:0:0:
170,303,147070,1,0,0:0:0:0:
120,170,147241,6,0,P|219:158|287:246,1,200,0|8,0:0|0:0,0:0:0:0:
72,360,147755,1,2,0:0:0:0:
72,99,147927,1,0,0:0:0:0:
170,303,148098,1,2,0:0:0:0:
5,224,148270,1,8,0:0:0:0:
169,99,148441,1,0,0:0:0:0:
72,360,148612,6,0,B|55:314|55:314|76:254,1,100,2|0,0:0|0:0,0:0:0:0:
169,99,148955,1,8,0:0:0:0:
15,190,149127,2,0,B|125:144|125:230|230:181,1,200,2|2,0:0|0:0,0:0:0:0:
364,99,149641,1,8,0:0:0:0:
169,99,149812,1,0,0:0:0:0:
305,241,149984,5,0,0:0:0:0:
305,25,150155,1,6,0:0:0:0:
126,241,150327,5,8,0:0:0:0:
445,241,150498,1,6,0:0:0:0:
165,130,150841,5,0,0:0:0:0:
310,62,151012,1,0,0:0:0:0:
377,207,151184,1,0,0:0:0:0:
232,275,151355,6,0,B|215:227|215:227|237:161,1,100,6|0,0:0|0:0,0:0:0:0:
310,62,151698,1,8,0:0:0:0:
426,353,151870,2,0,P|383:365|320:346,1,100,2|0,0:0|0:0,0:0:0:0:
230,180,152212,1,2,0:0:0:0:
377,288,152384,1,8,0:0:0:0:
109,342,152555,1,0,0:0:0:0:
357,175,152727,5,2,0:0:0:0:
109,342,152898,1,2,0:0:0:0:
357,175,153070,1,8,0:0:0:0:
202,380,153241,2,0,L|202:180,1,200,2|2,0:0|0:0,0:0:0:0:
362,50,153755,2,0,P|410:57|447:89,1,100,8|0,0:0|0:0,0:0:0:0:
309,258,154098,5,2,0:0:0:0:
158,109,154270,1,0,0:0:0:0:
309,258,154441,1,8,0:0:0:0:
83,207,154612,1,2,0:0:0:0:
282,69,154784,5,0,0:0:0:0:
281,279,154955,1,2,0:0:0:0:
158,109,155127,1,8,0:0:0:0:
358,174,155298,1,0,0:0:0:0:
158,239,155470,5,2,0:0:0:0:
282,69,155641,1,2,0:0:0:0:
384,325,155813,1,8,0:0:0:0:
158,239,155984,2,0,B|213:225|213:225|262:241,1,100,2|0,0:0|0:0,0:0:0:0:
410,343,156327,5,2,0:0:0:0:
358,174,156498,1,8,0:0:0:0:
420,368,156670,1,0,0:0:0:0:
481,190,156841,6,0,L|481:78,1,100,6|0,0:0|0:0,0:0:0:0:
254,238,157184,1,8,0:0:0:0:
201,122,157355,2,0,P|297:103|359:191,1,200,2|2,0:0|0:0,0:0:0:0:
247,337,157870,2,0,L|254:232,1,100,8|0,0:0|0:0,0:0:0:0:
273,21,158212,5,2,0:0:0:0:
140,212,158384,1,2,0:0:0:0:
298,124,158555,1,8,0:0:0:0:
108,94,158727,2,0,B|191:94|191:94|231:124|231:124|313:124,1,200,2|2,0:0|0:0,0:0:0:0:
436,27,159241,2,0,P|380:68|368:118,1,100,8|0,0:0|0:0,0:0:0:0:
379,300,159584,5,2,0:0:0:0:
454,115,159755,1,0,0:0:0:0:
337,367,159927,1,8,0:0:0:0:
210,175,160098,5,2,0:0:0:0:
476,275,160269,1,0,0:0:0:0:
290,201,160441,1,2,0:0:0:0:
337,367,160612,5,8,0:0:0:0:
337,93,160784,1,0,0:0:0:0:
138,316,160955,5,6,0:0:0:0:
476,275,161127,1,6,0:0:0:0:
194,185,161984,6,0,B|322:142|296:226|419:184,1,209.999993591309,6|0,0:0|0:0,0:0:0:0:
399,191,162327,5,12,0:0:0:0:
153,293,162498,1,0,0:0:0:0:
357,293,162670,5,8,0:0:0:0:
111,191,162841,1,2,0:0:0:0:
255,335,163013,5,8,0:0:0:0:
153,89,163184,1,2,0:0:0:0:
153,292,163355,5,8,0:0:0:0:
255,47,163527,1,0,0:0:0:0:
111,191,163698,5,8,0:0:0:0:
357,89,163869,1,2,0:0:0:0:
153,89,164041,5,8,0:0:0:0:
399,191,164212,1,2,0:0:0:0:
255,47,164384,5,8,0:0:0:0:
356,292,164555,1,2,0:0:0:0:
357,89,164727,5,8,0:0:0:0:
255,335,164898,1,0,0:0:0:0:
420,191,165070,5,12,0:0:0:0:
137,308,165241,1,0,0:0:0:0:
372,308,165413,5,8,0:0:0:0:
89,191,165584,1,2,0:0:0:0:
255,356,165756,5,8,0:0:0:0:
137,73,165927,1,2,0:0:0:0:
137,308,166098,5,8,0:0:0:0:
255,25,166270,1,0,0:0:0:0:
89,191,166441,5,8,0:0:0:0:
372,73,166612,1,2,0:0:0:0:
138,74,166784,5,8,0:0:0:0:
420,191,166955,1,2,0:0:0:0:
255,25,167127,5,8,0:0:0:0:
371,307,167298,1,2,0:0:0:0:
372,73,167470,5,8,0:0:0:0:
255,356,167641,1,0,0:0:0:0:
445,191,167813,5,12,0:0:0:0:
120,325,167984,1,0,0:0:0:0:
389,325,168156,5,8,0:0:0:0:
64,191,168327,1,2,0:0:0:0:
255,381,168499,5,8,0:0:0:0:
120,56,168670,1,2,0:0:0:0:
120,325,168841,5,8,0:0:0:0:
255,0,169013,1,0,0:0:0:0:
64,191,169184,5,8,0:0:0:0:
389,56,169355,1,2,0:0:0:0:
120,56,169527,5,8,0:0:0:0:
445,191,169698,1,2,0:0:0:0:
255,0,169870,5,8,0:0:0:0:
389,325,170041,1,2,0:0:0:0:
389,56,170213,5,8,0:0:0:0:
255,381,170384,1,0,0:0:0:0:
192,64,170555,5,10,0:0:0:0:
398,194,170727,1,0,0:0:0:0:
190,313,170898,1,8,0:0:0:0:
284,57,171070,5,2,0:0:0:0:
129,241,171242,1,8,0:0:0:0:
365,282,171413,1,2,0:0:0:0:
192,64,171584,5,8,0:0:0:0:
190,313,171756,1,0,0:0:0:0:
411,102,171927,5,10,0:0:0:0:
100,282,172098,1,2,0:0:0:0:
256,12,172270,1,8,0:0:0:0:
256,372,172441,1,2,0:0:0:0:
100,101,172612,5,8,0:0:0:0:
100,101,172698,1,8,0:0:0:0:
100,101,172784,1,8,0:0:0:0:
411,282,172955,1,8,0:0:0:0:
256,12,173127,2,0,L|228:77,1,50,8|8,0:0|0:0,0:0:0:0:
111,319,173298,5,6,0:0:0:0:
225,161,173469,1,0,0:0:0:0:
225,356,173640,1,8,0:0:0:0:
111,199,173812,1,2,0:0:0:0:
295,259,173983,1,0,0:0:0:0:
295,259,174155,1,2,0:0:0:0:
111,319,174327,1,8,0:0:0:0:
225,161,174498,1,0,0:0:0:0:
374,367,174670,5,2,0:0:0:0:
197,257,174841,1,2,0:0:0:0:
374,367,175012,1,8,0:0:0:0:
374,160,175184,1,2,0:0:0:0:
225,356,175355,1,0,0:0:0:0:
487,256,175527,1,2,0:0:0:0:
197,257,175698,1,8,0:0:0:0:
374,367,175870,1,0,0:0:0:0:
285,108,176041,6,0,L|285:227,1,100,2|0,0:0|0:0,0:0:0:0:
100,352,176384,1,8,0:0:0:0:
168,150,176555,1,2,0:0:0:0:
7,224,176727,2,0,B|84:224|84:224|127:256|127:256|215:257,1,200,0|8,0:0|0:0,0:0:0:0:
401,172,177241,1,0,0:0:0:0:
270,384,177412,5,2,0:0:0:0:
270,384,177584,2,0,B|255:336|255:336|274:272,1,100,2|8,0:0|0:0,0:0:0:0:
470,119,177927,2,0,P|485:175|455:239,1,100,2|0,0:0|0:0,0:0:0:0:
220,172,178270,2,0,L|347:172,1,100,2|8,0:0|0:0,0:0:0:0:
401,172,178612,1,0,0:0:0:0:
115,198,178784,5,14,0:0:0:0:
401,172,178955,1,0,0:0:0:0:
100,199,179127,5,8,0:0:0:0:
415,170,179298,1,2,0:0:0:0:
155,306,179470,5,8,0:0:0:0:
360,62,179641,1,2,0:0:0:0:
145,318,179812,5,8,0:0:0:0:
370,50,179984,1,0,0:0:0:0:
273,356,180155,5,8,0:0:0:0:
242,12,180326,1,2,0:0:0:0:
274,368,180498,5,8,0:0:0:0:
241,0,180670,1,2,0:0:0:0:
401,305,180841,5,8,0:0:0:0:
113,64,181012,1,2,0:0:0:0:
415,317,181184,5,8,0:0:0:0:
99,52,181355,1,0,0:0:0:0:
426,192,181527,5,8,0:0:0:0:
118,292,181698,1,0,0:0:0:0:
308,30,181870,1,8,0:0:0:0:
308,353,182041,1,2,0:0:0:0:
308,30,182212,5,8,0:0:0:0:
118,292,182384,1,8,0:0:0:0:
118,292,182470,1,8,0:0:0:0:
118,292,182555,1,8,0:0:0:0:
426,192,182727,1,8,0:0:0:0:
25,62,182898,5,8,0:0:0:0:
456,201,183070,1,8,0:0:0:0:
456,201,183155,1,8,0:0:0:0:
456,201,183241,1,8,0:0:0:0:
118,292,183412,1,8,0:0:0:0:
250,10,183584,5,8,0:0:0:0:
282,369,183755,1,8,0:0:0:0:
413,86,183927,5,8,0:0:0:0:
118,292,184098,1,8,0:0:0:0:
429,265,184270,5,14,0:0:0:0:
103,113,184441,1,14,0:0:0:0:
256,192,184612,12,0,189070,0:0:0:0:
