osu file format v14

[General]
AudioFilename: audio.mp3
AudioLeadIn: 0
PreviewTime: 52012
Countdown: 0
SampleSet: Soft
StackLeniency: 0.7
Mode: 0
LetterboxInBreaks: 0
WidescreenStoryboard: 0

[Editor]
DistanceSpacing: 1.1
BeatDivisor: 4
GridSize: 32
TimelineZoom: 1.2

[Metadata]
Title:Monochrome Butterfly
TitleUnicode:Monochrome Butterfly
Artist:Aitsuki Nakuru
ArtistUnicode:藍月なくる
Creator:Settia
Version:Extra
Source:
Tags:トコロクラニスト よーすけ@KG
BeatmapID:1095854
BeatmapSetID:516109

[Difficulty]
HPDrainRate:4
CircleSize:4
OverallDifficulty:9
ApproachRate:9.5
SliderMultiplier:2
SliderTickRate:1

[Events]
//Background and Video events
0,0,"bg.jpg",0,0
//Break Periods
//Storyboard Layer 0 (Background)
//Storyboard Layer 1 (Fail)
//Storyboard Layer 2 (Pass)
//Storyboard Layer 3 (Foreground)
//Storyboard Sound Samples

[TimingPoints]
1870,342.857142857143,4,2,1,70,1,0
2041,-100,4,2,1,20,0,0
2212,-100,4,2,1,30,0,0
2384,-100,4,2,1,40,0,0
2555,-100,4,2,1,50,0,0
2727,-100,4,2,1,60,0,0
2898,-100,4,2,1,70,0,0
52612,-100,4,2,1,70,0,1
63241,-100,4,2,1,70,0,0
63584,-100,4,2,1,70,0,1
74555,-100,4,2,1,70,0,0

[Colours]
Combo1 : 174,131,176
Combo2 : 15,195,180
Combo3 : 253,79,183
Combo4 : 105,198,215

[HitObjects]
259,320,1869,5,8,0:0:0:0:
116,123,2041,1,8,0:0:0:0:
347,198,2212,1,8,0:0:0:0:
116,273,2384,1,8,0:0:0:0:
259,77,2555,1,8,0:0:0:0:
116,273,2727,1,2,0:0:0:0:
347,198,2898,6,0,P|285:164|200:186,1,150,12|0,0:0|0:0,0:0:0:0:
446,339,3241,6,0,B|461:291|461:291|444:224,1,100,6|0,0:0|0:0,0:0:0:0:
379,88,3584,1,8,0:0:0:0:
271,287,3755,1,2,0:0:0:0:
144,161,3927,1,0,0:0:0:0:
192,169,4012,1,0,0:0:0:0:
234,196,4098,1,2,0:0:0:0:
262,237,4184,1,0,0:0:0:0:
270,286,4269,1,8,0:0:0:0:
92,349,4441,1,0,0:0:0:0:
262,237,4612,6,0,P|312:224|371:247,2,100,2|2|8,0:0|0:0|0:0,0:0:0:0:
451,344,5127,1,2,0:0:0:0:
357,140,5298,2,0,B|343:191|343:191|363:257,1,100,0|2,0:0|0:0,0:0:0:0:
470,366,5641,1,8,0:0:0:0:
357,140,5812,1,0,0:0:0:0:
233,313,5984,6,0,L|338:313,1,100,2|0,0:0|0:0,0:0:0:0:
57,377,6327,1,8,0:0:0:0:
180,119,6498,1,2,0:0:0:0:
233,313,6670,2,0,B|251:263|251:263|232:202,1,100,0|2,0:0|0:0,0:0:0:0:
81,143,7012,1,8,0:0:0:0:
233,313,7184,1,0,0:0:0:0:
314,78,7355,5,2,0:0:0:0:
160,252,7527,1,2,0:0:0:0:
461,281,7698,1,8,0:0:0:0:
133,250,7870,1,2,0:0:0:0:
470,160,8041,1,0,0:0:0:0:
295,377,8212,1,2,0:0:0:0:
218,84,8384,2,0,B|273:67|273:67|333:83,1,100,8|0,0:0|0:0,0:0:0:0:
461,281,8727,6,0,B|369:240|369:327|251:280,1,200,6|8,0:0|0:0,0:0:0:0:
308,189,9241,1,2,0:0:0:0:
413,377,9412,1,0,0:0:0:0:
413,377,9498,1,0,0:0:0:0:
413,377,9584,1,2,0:0:0:0:
182,327,9755,2,0,B|170:278|170:278|187:225,1,100,8|0,0:0|0:0,0:0:0:0:
415,81,10098,5,2,0:0:0:0:
267,285,10270,1,2,0:0:0:0:
267,32,10441,1,8,0:0:0:0:
415,237,10612,1,2,0:0:0:0:
175,159,10784,1,0,0:0:0:0:
415,81,10955,1,2,0:0:0:0:
147,170,11127,1,8,0:0:0:0:
478,316,11298,1,0,0:0:0:0:
301,113,11470,6,0,B|287:161|287:161|302:214,1,100,2|0,0:0|0:0,0:0:0:0:
478,316,11812,1,8,0:0:0:0:
267,285,11984,1,2,0:0:0:0:
482,167,12155,1,0,0:0:0:0:
482,167,12241,1,0,0:0:0:0:
482,167,12327,1,2,0:0:0:0:
332,370,12498,1,8,0:0:0:0:
415,81,12670,1,0,0:0:0:0:
478,316,12841,5,2,0:0:0:0:
267,285,13012,1,2,0:0:0:0:
482,167,13184,1,8,0:0:0:0:
332,370,13355,1,2,0:0:0:0:
206,117,13527,2,0,B|258:99|258:99|324:120,1,100,2|10,0:0|0:0,0:0:0:0:
60,330,13870,1,8,0:0:0:0:
206,117,14041,1,8,0:0:0:0:
206,117,14127,1,8,0:0:0:0:
206,117,14212,6,0,L|206:222,1,100,6|0,0:0|0:0,0:0:0:0:
308,342,14555,1,8,0:0:0:0:
449,234,14727,2,0,P|376:244|307:344,1,200,2|2,0:0|0:0,0:0:0:0:
206,217,15241,1,8,0:0:0:0:
447,329,15412,6,0,B|462:276|462:276|445:222,1,100,0|2,0:0|0:0,0:0:0:0:
355,45,15755,1,2,0:0:0:0:
206,217,15927,1,8,0:0:0:0:
355,45,16098,1,2,0:0:0:0:
355,332,16270,1,0,0:0:0:0:
276,139,16441,1,2,0:0:0:0:
459,154,16612,2,0,L|447:278,1,100,8|0,0:0|0:0,0:0:0:0:
159,324,16955,6,0,B|270:281|270:358|388:325,1,200,2|8,0:0|0:0,0:0:0:0:
203,121,17470,2,0,B|219:172|219:172|202:228,1,100,2|0,0:0|0:0,0:0:0:0:
12,363,17812,1,2,0:0:0:0:
129,169,17984,1,8,0:0:0:0:
221,302,18155,6,0,P|162:290|129:167,1,200,0|2,0:0|0:0,0:0:0:0:
281,53,18670,1,8,0:0:0:0:
351,256,18841,1,2,0:0:0:0:
497,140,19012,2,0,B|449:126|449:126|387:141,1,100,0|2,0:0|0:0,0:0:0:0:
307,338,19355,2,0,P|362:352|407:332,1,100,8|0,0:0|0:0,0:0:0:0:
497,140,19698,5,2,0:0:0:0:
307,338,19870,1,0,0:0:0:0:
371,54,20041,1,8,0:0:0:0:
486,237,20212,2,0,L|376:237,1,100,2|0,0:0|0:0,0:0:0:0:
137,56,20555,1,2,0:0:0:0:
266,253,20727,1,8,0:0:0:0:
387,131,20898,6,0,P|294:163|271:272,1,200,0|2,0:0|0:0,0:0:0:0:
125,354,21412,1,8,0:0:0:0:
386,236,21584,1,2,0:0:0:0:
125,163,21755,1,0,0:0:0:0:
410,246,21927,1,2,0:0:0:0:
125,354,22098,2,0,L|125:242,1,100,8|0,0:0|0:0,0:0:0:0:
36,43,22441,6,0,B|20:95|20:95|39:145,1,100,2|0,0:0|0:0,0:0:0:0:
259,203,22784,1,8,0:0:0:0:
125,254,22955,1,2,0:0:0:0:
307,90,23127,1,0,0:0:0:0:
355,337,23298,2,0,B|307:350|307:350|249:330,1,100,2|8,0:0|0:0,0:0:0:0:
112,89,23641,6,0,B|219:48|219:118|326:86,1,200,0|2,0:0|0:0,0:0:0:0:
271,7,24155,1,8,0:0:0:0:
360,252,24327,1,2,0:0:0:0:
485,135,24498,2,0,P|500:83|481:34,1,100,0|2,0:0|0:0,0:0:0:0:
170,178,24841,1,8,0:0:0:0:
410,87,25012,1,8,0:0:0:0:
410,87,25098,1,8,0:0:0:0:
410,87,25184,5,6,0:0:0:0:
229,335,25355,1,0,0:0:0:0:
435,223,25527,1,8,0:0:0:0:
170,178,25698,1,2,0:0:0:0:
321,383,25870,2,0,B|332:329|332:329|315:272,1,100,0|2,0:0|0:0,0:0:0:0:
239,86,26212,1,8,0:0:0:0:
95,331,26384,1,0,0:0:0:0:
41,151,26555,5,2,0:0:0:0:
104,356,26727,1,2,0:0:0:0:
239,86,26898,1,8,0:0:0:0:
95,331,27070,1,2,0:0:0:0:
420,255,27241,1,0,0:0:0:0:
132,171,27412,1,2,0:0:0:0:
446,266,27584,1,8,0:0:0:0:
179,381,27755,1,0,0:0:0:0:
343,115,27927,6,0,B|355:165|355:165|337:221,1,100,2|0,0:0|0:0,0:0:0:0:
179,381,28270,1,8,0:0:0:0:
271,166,28441,1,2,0:0:0:0:
67,237,28612,1,0,0:0:0:0:
294,299,28784,1,2,0:0:0:0:
43,229,28955,1,8,0:0:0:0:
179,94,29127,1,0,0:0:0:0:
179,381,29298,6,0,L|178:264,1,100,2|2,0:0|0:0,0:0:0:0:
287,59,29641,1,8,0:0:0:0:
372,271,29812,1,2,0:0:0:0:
128,186,29984,2,0,B|181:172|181:172|243:188,1,100,0|8,0:0|0:0,0:0:0:0:
452,299,30327,1,8,0:0:0:0:
413,76,30498,1,8,0:0:0:0:
289,248,30670,6,0,B|274:297|274:297|291:365,1,100,6|0,0:0|0:0,0:0:0:0:
452,299,31012,1,8,0:0:0:0:
90,341,31184,2,0,B|203:298|203:369|306:339,1,200,2|2,0:0|0:0,0:0:0:0:
325,171,31698,1,8,0:0:0:0:
452,299,31870,6,0,L|452:192,1,100,0|2,0:0|0:0,0:0:0:0:
240,5,32212,1,2,0:0:0:0:
325,171,32384,1,8,0:0:0:0:
413,76,32555,1,2,0:0:0:0:
199,258,32727,1,0,0:0:0:0:
313,73,32898,1,2,0:0:0:0:
376,322,33070,2,0,P|330:334|265:310,1,100,8|0,0:0|0:0,0:0:0:0:
94,149,33412,5,2,0:0:0:0:
199,258,33584,1,0,0:0:0:0:
199,44,33755,1,8,0:0:0:0:
8,226,33927,2,0,B|82:226|82:226|129:258|129:258|213:258,1,200,2|2,0:0|0:0,0:0:0:0:
274,384,34441,1,8,0:0:0:0:
248,185,34612,6,0,P|152:186|105:269,1,200,0|2,0:0|0:0,0:0:0:0:
419,297,35127,1,8,0:0:0:0:
198,257,35298,1,2,0:0:0:0:
452,164,35470,1,0,0:0:0:0:
274,384,35641,1,2,0:0:0:0:
214,86,35812,2,0,B|268:69|268:69|334:88,1,100,8|0,0:0|0:0,0:0:0:0:
419,297,36155,5,2,0:0:0:0:
163,384,36327,1,0,0:0:0:0:
309,81,36498,1,8,0:0:0:0:
309,316,36670,2,0,L|307:203,1,100,2|0,0:0|0:0,0:0:0:0:
193,41,37012,1,2,0:0:0:0:
307,216,37184,1,8,0:0:0:0:
33,160,37355,6,0,B|145:117|145:184|241:160,1,200,0|2,0:0|0:0,0:0:0:0:
396,68,37870,1,8,0:0:0:0:
390,257,38041,2,0,L|385:384,1,100,2|0,0:0|0:0,0:0:0:0:
228,162,38384,1,2,0:0:0:0:
386,356,38555,2,0,B|340:368|340:368|283:352,1,100,8|0,0:0|0:0,0:0:0:0:
133,168,38898,6,0,P|183:151|236:167,1,100,2|0,0:0|0:0,0:0:0:0:
386,356,39241,1,8,0:0:0:0:
295,76,39412,1,2,0:0:0:0:
183,238,39584,2,0,B|165:287|165:287|184:349,1,100,0|2,0:0|0:0,0:0:0:0:
466,280,39927,1,8,0:0:0:0:
339,163,40098,6,0,P|431:189|461:301,1,200,0|2,0:0|0:0,0:0:0:0:
179,332,40612,1,8,0:0:0:0:
309,39,40784,1,2,0:0:0:0:
368,250,40955,1,0,0:0:0:0:
144,146,41127,5,8,0:0:0:0:
188,124,41212,1,8,0:0:0:0:
238,119,41298,1,8,0:0:0:0:
286,131,41384,1,8,0:0:0:0:
327,160,41469,1,8,0:0:0:0:
355,201,41555,1,8,0:0:0:0:
368,250,41641,6,0,B|381:299|381:299|370:356,1,100,6|0,0:0|0:0,0:0:0:0:
144,146,41984,1,8,0:0:0:0:
284,302,42155,1,2,0:0:0:0:
31,357,42327,2,0,P|19:305|40:254,1,100,0|2,0:0|0:0,0:0:0:0:
238,119,42670,1,8,0:0:0:0:
284,302,42841,6,0,B|193:266|193:353|85:307,1,200,0|2,0:0|0:0,0:0:0:0:
147,221,43355,1,8,0:0:0:0:
241,376,43527,1,2,0:0:0:0:
363,61,43698,1,0,0:0:0:0:
258,205,43870,1,2,0:0:0:0:
258,27,44041,1,8,0:0:0:0:
363,171,44212,1,0,0:0:0:0:
194,116,44384,6,0,B|248:100|248:100|304:115,1,100,2|0,0:0|0:0,0:0:0:0:
386,245,44727,1,8,0:0:0:0:
512,127,44898,2,0,P|414:161|388:258,1,200,2|2,0:0|0:0,0:0:0:0:
512,348,45412,1,8,0:0:0:0:
385,245,45584,6,0,B|343:234|343:234|289:250,1,100
64,288,45927,1,2,0:0:0:0:
338,353,46098,1,8,0:0:0:0:
208,147,46270,1,2,0:0:0:0:
208,378,46441,1,0,0:0:0:0:
207,62,46612,1,2,0:0:0:0:
66,192,46784,2,0,P|52:238|66:293,1,100,8|0,0:0|0:0,0:0:0:0:
338,353,47127,6,0,P|303:280|186:251,1,200,6|8,0:0|0:0,0:0:0:0:
63,287,47641,1,2,0:0:0:0:
208,147,47812,2,0,B|259:132|259:132|321:149,1,100,0|2,0:0|0:0,0:0:0:0:
432,215,48155,1,8,0:0:0:0:
445,51,48327,6,0,P|349:60|305:162,1,200,0|2,0:0|0:0,0:0:0:0:
481,317,48841,1,8,0:0:0:0:
303,144,49012,1,2,0:0:0:0:
432,215,49184,1,0,0:0:0:0:
168,313,49355,1,2,0:0:0:0:
397,134,49527,1,8,0:0:0:0:
249,380,49698,1,0,0:0:0:0:
118,104,49870,6,0,B|169:87|169:87|225:103,1,100,2|0,0:0|0:0,0:0:0:0:
432,215,50212,1,8,0:0:0:0:
332,369,50384,2,0,B|371:270|288:270|328:163,1,200,2|2,0:0|0:0,0:0:0:0:
207,17,50898,1,8,0:0:0:0:
323,175,51070,6,0,P|279:149|222:149,1,100
129,291,51412,2,0,P|173:265|230:265,1,100,2|8,0:0|0:0,0:0:0:0:
332,369,51755,1,6,0:0:0:0:
442,153,52098,5,0,0:0:0:0:
220,262,52270,1,0,0:0:0:0:
442,153,52441,1,0,0:0:0:0:
332,369,52612,6,0,B|315:321|315:321|332:257,1,100,6|0,0:0|0:0,0:0:0:0:
483,73,52955,1,8,0:0:0:0:
476,226,53127,2,0,L|470:331,1,100,2|0,0:0|0:0,0:0:0:0:
259,132,53470,1,2,0:0:0:0:
470,325,53641,1,8,0:0:0:0:
141,265,53812,1,0,0:0:0:0:
363,162,53984,5,2,0:0:0:0:
326,372,54155,1,2,0:0:0:0:
368,122,54327,1,8,0:0:0:0:
215,281,54498,2,0,B|324:237|324:315|412:282,1,200,2|2,0:0|0:0,0:0:0:0:
137,86,55012,1,8,0:0:0:0:
278,365,55184,1,0,0:0:0:0:
363,162,55355,6,0,B|314:149|314:149|255:165,1,100,2|0,0:0|0:0,0:0:0:0:
129,329,55698,1,8,0:0:0:0:
78,148,55869,1,2,0:0:0:0:
215,281,56041,1,0,0:0:0:0:
26,242,56212,1,2,0:0:0:0:
248,286,56384,1,8,0:0:0:0:
44,384,56555,1,0,0:0:0:0:
202,179,56727,6,0,P|251:164|304:180,2,100,2|2|8,0:0|0:0|0:0,0:0:0:0:
436,240,57241,2,0,B|450:189|450:189|433:128,1,100,2|0,0:0|0:0,0:0:0:0:
320,40,57584,1,2,0:0:0:0:
436,240,57755,1,8,0:0:0:0:
320,40,57927,1,0,0:0:0:0:
289,300,58098,6,0,B|373:300|373:300|408:325|408:325|502:325,1,200,6|8,0:0|0:0,0:0:0:0:
186,384,58612,2,0,L|196:275,1,100,2|0,0:0|0:0,0:0:0:0:
320,40,58955,1,2,0:0:0:0:
207,206,59127,1,8,0:0:0:0:
260,117,59298,1,0,0:0:0:0:
384,302,59470,6,0,B|340:316|340:316|279:296,1,100,2|2,0:0|0:0,0:0:0:0:
180,364,59812,1,8,0:0:0:0:
53,242,59984,2,0,P|137:267|178:379,1,200,2|2,0:0|0:0,0:0:0:0:
53,242,60498,2,0,L|53:132,1,100,8|0,0:0|0:0,0:0:0:0:
286,187,60841,5,2,0:0:0:0:
143,35,61012,1,0,0:0:0:0:
288,299,61184,1,8,0:0:0:0:
434,94,61355,2,0,P|357:96|284:208,1,200,2|2,0:0|0:0,0:0:0:0:
458,343,61870,1,8,0:0:0:0:
205,272,62041,1,0,0:0:0:0:
390,179,62212,6,0,B|406:226|406:226|385:290,1,100,2|2,0:0|0:0,0:0:0:0:
211,384,62555,1,8,0:0:0:0:
89,185,62727,2,0,B|200:145|200:216|304:181,1,200,2|2,0:0|0:0,0:0:0:0:
232,64,63241,1,8,0:0:0:0:
337,341,63412,1,8,0:0:0:0:
399,191,63584,5,12,0:0:0:0:
111,191,63755,1,0,0:0:0:0:
357,293,63927,5,8,0:0:0:0:
153,89,64098,1,2,0:0:0:0:
255,335,64270,5,8,0:0:0:0:
255,47,64441,1,2,0:0:0:0:
153,293,64612,5,8,0:0:0:0:
357,89,64784,1,0,0:0:0:0:
111,191,64955,5,8,0:0:0:0:
399,191,65126,1,2,0:0:0:0:
153,89,65298,5,8,0:0:0:0:
356,292,65469,1,2,0:0:0:0:
255,47,65641,5,8,0:0:0:0:
255,335,65812,1,2,0:0:0:0:
356,89,65984,5,8,0:0:0:0:
153,292,66155,1,0,0:0:0:0:
420,191,66327,5,12,0:0:0:0:
89,191,66498,1,0,0:0:0:0:
372,308,66670,5,8,0:0:0:0:
137,73,66841,1,2,0:0:0:0:
255,356,67013,5,8,0:0:0:0:
255,25,67184,1,2,0:0:0:0:
137,308,67355,5,8,0:0:0:0:
372,73,67527,1,0,0:0:0:0:
89,191,67698,5,8,0:0:0:0:
420,191,67869,1,2,0:0:0:0:
138,74,68041,5,8,0:0:0:0:
371,307,68212,1,2,0:0:0:0:
255,25,68384,5,8,0:0:0:0:
255,356,68555,1,2,0:0:0:0:
371,74,68727,5,8,0:0:0:0:
138,307,68898,1,0,0:0:0:0:
445,191,69070,5,12,0:0:0:0:
64,191,69241,1,0,0:0:0:0:
389,325,69413,5,8,0:0:0:0:
120,56,69584,1,2,0:0:0:0:
255,381,69756,5,8,0:0:0:0:
255,0,69927,1,2,0:0:0:0:
120,325,70098,5,8,0:0:0:0:
389,56,70270,1,0,0:0:0:0:
64,191,70441,5,8,0:0:0:0:
445,191,70612,1,2,0:0:0:0:
120,56,70784,5,8,0:0:0:0:
389,325,70955,1,2,0:0:0:0:
255,0,71127,5,8,0:0:0:0:
255,381,71298,1,2,0:0:0:0:
389,56,71470,5,8,0:0:0:0:
120,325,71641,1,0,0:0:0:0:
187,67,71812,5,12,0:0:0:0:
394,188,71984,1,0,0:0:0:0:
187,308,72155,1,8,0:0:0:0:
280,52,72327,5,2,0:0:0:0:
362,277,72499,1,8,0:0:0:0:
125,235,72670,1,2,0:0:0:0:
362,98,72841,5,8,0:0:0:0:
280,324,73013,1,0,0:0:0:0:
160,50,73184,5,8,0:0:0:0:
415,250,73355,1,2,0:0:0:0:
92,238,73527,1,8,0:0:0:0:
360,57,73698,1,2,0:0:0:0:
250,362,73870,5,8,0:0:0:0:
250,362,73955,1,8,0:0:0:0:
250,362,74041,1,10,0:0:0:0:
360,57,74212,1,8,0:0:0:0:
92,238,74384,6,0,L|170:238,1,50,8|8,0:0|0:0,0:0:0:0:
433,238,74555,1,6,0:0:0:0:
256,192,74727,12,0,76270,0:0:0:0:
