osu file format v14

[General]
AudioFilename: audio.mp3
AudioLeadIn: 0
PreviewTime: 51895
Countdown: 1
SampleSet: Soft
StackLeniency: 0.7
Mode: 0
LetterboxInBreaks: 0
WidescreenStoryboard: 0

[Editor]
Bookmarks: 63638,80438
DistanceSpacing: 1.8
BeatDivisor: 4
GridSize: 32
TimelineZoom: 3.400004

[Metadata]
Title:Monochrome Butterfly
TitleUnicode:Monochrome Butterfly
Artist:Aitsuki Nakuru
ArtistUnicode:Aitsuki Nakuru
Creator:Omar_4252
Version:Extra
Source:
Tags:
BeatmapID:1661325
BeatmapSetID:791992

[Difficulty]
HPDrainRate:5
CircleSize:3.8
OverallDifficulty:8
ApproachRate:9.2
SliderMultiplier:1.8
SliderTickRate:1

[Events]
//Background and Video events
0,0,"monochrome butterfly.jpg",0,0
//Break Periods
//Storyboard Layer 0 (Background)
//Storyboard Layer 1 (Fail)
//Storyboard Layer 2 (Pass)
//Storyboard Layer 3 (Foreground)
//Storyboard Layer 4 (Overlay)
//Storyboard Sound Samples

[TimingPoints]
572,342.857142857143,4,2,1,100,1,0
572,-333.333333333333,4,2,1,20,0,0
1857,-333.333333333333,4,2,1,5,0,0
1924,342.857142857143,4,2,1,100,1,0
1924,-125,4,2,1,40,0,0
3295,-100,4,2,1,60,0,0
14267,-125,4,2,1,50,0,0
25238,-100,4,2,1,60,0,0
30724,-125,4,2,1,50,0,0
41695,-125,4,2,1,45,0,0
52667,-100,4,2,1,75,0,1
62438,-100,4,2,1,75,0,0
63295,-142.857142857143,4,2,1,65,0,0
63552,-142.857142857143,4,2,1,5,0,0
63638,-100,4,2,1,75,0,1
76324,-100,4,2,1,70,0,0
80095,-100,4,2,1,75,0,1
85752,-100,4,2,1,70,0,0
90038,-100,4,2,1,5,0,0

[Colours]
Combo1 : 163,163,163
Combo2 : 198,181,140
Combo3 : 255,149,43
Combo4 : 241,234,141
SliderBorder : 255,255,255
SliderTrackOverride : 0,0,0

[HitObjects]
217,201,572,6,0,B|330:201|275:281|404:266,1,202.499993820191,2|0,0:0|0:0,0:0:0:0:
438,196,1924,5,8,0:0:0:0:
374,349,2095,1,0,3:2:0:0:
334,113,2267,5,8,0:0:0:0:
398,266,2438,1,0,3:2:0:0:
427,36,2610,5,8,0:0:0:0:
363,189,2781,1,0,3:2:0:0:
299,36,2952,1,4,3:2:0:0:
299,36,3295,6,0,P|253:28|191:41,1,90,4|2,3:2|0:0,0:0:0:0:
98,103,3638,1,8,0:0:0:0:
253,238,3810,2,0,P|261:192|248:130,1,90,0|2,3:2|0:0,0:0:0:0:
210,33,4152,1,0,3:2:0:0:
133,216,4324,2,0,P|125:262|138:324,1,90,8|2,0:0|0:0,0:0:0:0:
253,238,4667,5,2,3:2:0:0:
220,78,4838,1,2,3:2:0:0:
133,216,5010,1,8,0:0:0:0:
299,146,5181,1,2,3:2:0:0:
156,142,5352,5,2,0:0:0:0:
336,238,5524,1,2,3:2:0:0:
236,99,5695,1,8,0:0:0:0:
189,314,5867,1,2,0:0:0:0:
383,208,6038,6,0,P|425:216|476:203,1,90,4|2,3:2|0:0,0:0:0:0:
495,90,6381,1,8,0:0:0:0:
302,90,6552,2,0,P|259:98|206:133,1,90,2|2,3:2|0:0,0:0:0:0:
156,221,6895,1,2,3:2:0:0:
380,210,7067,2,0,P|403:164|401:114,1,90,8|2,0:0|0:0,0:0:0:0:
254,121,7410,5,2,3:2:0:0:
246,288,7581,1,2,3:2:0:0:
380,210,7752,1,8,0:0:0:0:
181,193,7924,1,2,3:2:0:0:
360,298,8095,5,2,0:0:0:0:
334,94,8267,1,2,3:2:0:0:
187,241,8438,1,8,0:0:0:0:
180,154,8781,6,0,P|191:192|185:250,1,90,4|2,3:2|0:0,0:0:0:0:
118,361,9124,1,8,0:0:0:0:
282,274,9295,2,0,P|322:247|344:204,1,90,2|2,3:2|0:0,0:0:0:0:
399,96,9638,1,2,3:2:0:0:
496,277,9810,2,0,P|454:289|402:273,1,90,8|2,0:0|0:0,0:0:0:0:
262,241,10152,5,2,3:2:0:0:
398,119,10324,1,2,3:2:0:0:
410,278,10495,1,8,0:0:0:0:
288,141,10667,1,2,3:2:0:0:
421,196,10838,5,2,0:0:0:0:
230,265,11010,1,2,3:2:0:0:
364,124,11181,1,8,0:0:0:0:
402,322,11352,1,2,0:0:0:0:
230,265,11524,6,0,P|187:254|128:266,1,90,4|2,3:2|0:0,0:0:0:0:
24,327,11867,1,8,0:0:0:0:
56,158,12038,2,0,P|103:151|141:121,1,90,2|2,3:2|0:0,0:0:0:0:
280,90,12381,1,2,3:2:0:0:
279,281,12552,2,0,P|240:311|188:316,1,90,8|2,0:0|0:0,0:0:0:0:
80,257,12895,5,2,3:2:0:0:
200,317,13067,1,2,3:2:0:0:
107,170,13238,1,8,0:0:0:0:
43,350,13410,1,2,3:2:0:0:
195,208,13581,5,2,0:0:0:0:
6,280,13752,1,2,3:2:0:0:
210,355,13924,1,10,0:0:0:0:
227,117,14095,1,10,0:0:0:0:
227,117,14181,1,8,0:0:0:0:
227,117,14267,6,0,P|160:100|86:117,1,144,6|10,3:2|0:0,0:0:0:0:
32,243,14781,2,0,P|67:235|102:239,1,72,2|2,3:2|0:0,0:0:0:0:
235,329,15124,1,2,3:2:0:0:
126,324,15295,1,10,0:0:0:0:
234,241,15467,1,2,0:0:0:0:
374,342,15638,5,2,3:2:0:0:
415,209,15810,1,2,3:2:0:0:
322,283,15981,1,10,0:0:0:0:
374,123,16152,1,2,3:2:0:0:
464,290,16324,1,2,0:0:0:0:
462,81,16495,1,2,3:2:0:0:
383,235,16667,1,14,3:2:0:0:
383,235,17009,6,0,P|341:219|291:115,1,144,2|10,3:2|0:0,0:0:0:0:
219,25,17524,2,0,P|227:59|223:95,1,72,2|2,3:2|0:0,0:0:0:0:
130,242,17867,1,2,3:2:0:0:
132,100,18038,1,10,0:0:0:0:
216,252,18210,1,2,0:0:0:0:
96,338,18381,5,2,3:2:0:0:
181,176,18553,1,2,3:2:0:0:
237,294,18724,1,10,0:0:0:0:
245,108,18895,1,2,3:2:0:0:
130,242,19067,1,2,0:0:0:0:
140,51,19238,1,2,3:2:0:0:
250,190,19410,1,14,3:2:0:0:
250,190,19752,6,0,P|319:214|401:173,1,144,2|10,3:2|0:0,0:0:0:0:
488,139,20267,2,0,P|495:177|488:215,1,72,2|2,3:2|0:0,0:0:0:0:
379,323,20610,1,2,3:2:0:0:
500,339,20781,1,10,0:0:0:0:
384,237,20952,1,2,0:0:0:0:
245,327,21124,5,2,3:2:0:0:
204,194,21296,1,2,3:2:0:0:
297,268,21467,1,10,0:0:0:0:
245,108,21638,1,2,3:2:0:0:
155,275,21810,1,2,0:0:0:0:
175,50,21981,1,2,3:2:0:0:
252,211,22152,1,14,3:2:0:0:
252,211,22495,6,0,P|219:211|181:191,1,72,2|2,3:2|0:0,0:0:0:0:
269,115,22838,2,0,P|302:115|340:135,1,72,10|2,0:0|3:2,0:0:0:0:
403,249,23181,1,2,0:0:0:0:
255,281,23352,2,0,P|247:251|254:203,1,72,2|8,3:2|0:0,0:0:0:0:
396,214,23695,2,0,P|404:184|397:136,1,72,2|0,0:0|3:2,0:0:0:0:
271,66,24038,5,2,3:2:0:0:
416,49,24210,1,2,0:0:0:0:
278,157,24381,1,2,3:2:0:0:
341,20,24552,1,2,0:0:0:0:
396,214,24724,1,0,3:2:0:0:
209,119,24895,1,10,0:0:0:0:
395,128,25067,1,8,0:0:0:0:
275,324,25152,1,8,0:0:0:0:
275,324,25238,6,0,P|231:336|184:324,1,90,6|2,3:2|0:0,0:0:0:0:
84,204,25581,1,8,0:0:0:0:
257,131,25752,2,0,P|269:175|257:222,1,90,0|2,3:2|0:0,0:0:0:0:
188,326,26095,1,0,3:2:0:0:
84,204,26267,2,0,P|72:160|84:113,1,90,8|2,0:0|0:0,0:0:0:0:
220,28,26610,5,2,3:2:0:0:
187,174,26781,1,2,3:2:0:0:
312,45,26952,1,8,0:0:0:0:
150,85,27124,1,2,3:2:0:0:
322,213,27295,5,2,0:0:0:0:
237,105,27467,1,2,3:2:0:0:
203,283,27638,1,8,0:0:0:0:
379,131,27810,1,2,0:0:0:0:
231,192,27981,6,0,P|184:181|151:148,1,90,4|2,3:2|0:0,0:0:0:0:
106,31,28324,1,8,0:0:0:0:
37,217,28495,2,0,P|25:266|36:312,1,90,2|2,3:2|0:0,0:0:0:0:
142,357,28838,1,2,3:2:0:0:
231,192,29010,2,0,P|239:142|230:90,1,90,8|2,0:0|0:0,0:0:0:0:
106,31,29352,5,2,3:2:0:0:
48,189,29524,1,2,3:2:0:0:
233,103,29695,1,8,0:0:0:0:
39,88,29867,1,2,3:2:0:0:
200,267,30038,5,2,0:0:0:0:
131,114,30210,1,2,3:2:0:0:
71,299,30381,1,10,0:0:0:0:
227,180,30552,1,10,0:0:0:0:
344,346,30724,6,0,P|335:294|373:199,1,144,6|10,3:2|0:0,0:0:0:0:
429,105,31238,2,0,P|392:95|357:102,1,72,2|2,3:2|0:0,0:0:0:0:
271,184,31581,1,2,3:2:0:0:
268,61,31752,1,10,0:0:0:0:
364,209,31924,1,2,0:0:0:0:
163,299,32095,5,2,3:2:0:0:
194,138,32267,1,2,3:2:0:0:
298,263,32438,1,10,0:0:0:0:
118,194,32610,1,2,3:2:0:0:
298,93,32781,1,2,0:0:0:0:
203,234,32952,1,2,3:2:0:0:
140,55,33124,1,14,3:2:0:0:
140,55,33467,6,0,B|153:128|105:119|120:206,1,144,2|10,3:2|0:0,0:0:0:0:
188,307,33981,2,0,P|232:315|272:303,1,72,2|2,3:2|0:0,0:0:0:0:
361,192,34324,1,2,3:2:0:0:
349,333,34495,1,10,0:0:0:0:
244,211,34667,1,2,0:0:0:0:
398,268,34838,5,2,3:2:0:0:
349,108,35010,1,2,3:2:0:0:
279,234,35181,1,10,0:0:0:0:
444,121,35352,1,2,3:2:0:0:
256,41,35524,1,2,0:0:0:0:
361,192,35695,1,2,3:2:0:0:
442,14,35867,1,14,3:2:0:0:
442,14,36210,6,0,B|431:89|476:70|458:179,1,144,2|10,3:2|0:0,0:0:0:0:
476,278,36724,2,0,P|440:285|394:274,1,72,2|2,3:2|0:0,0:0:0:0:
296,198,37067,1,2,3:2:0:0:
327,339,37238,1,10,0:0:0:0:
411,167,37410,1,2,0:0:0:0:
233,272,37581,5,2,3:2:0:0:
405,278,37752,1,2,3:2:0:0:
278,159,37924,1,10,0:0:0:0:
327,339,38095,1,2,3:2:0:0:
411,167,38267,1,2,0:0:0:0:
233,272,38438,1,2,3:2:0:0:
437,348,38610,1,14,3:2:0:0:
437,348,38952,6,0,P|439:304|435:263,1,72,2|2,3:2|0:0,0:0:0:0:
328,250,39295,2,0,P|327:207|342:161,1,72,10|2,0:0|3:2,0:0:0:0:
422,80,39638,1,2,0:0:0:0:
422,80,39810,2,0,P|378:86|339:72,1,72,2|8,3:2|0:0,0:0:0:0:
333,179,40152,2,0,P|289:173|250:187,1,72,2|0,0:0|3:2,0:0:0:0:
145,263,40495,5,2,3:2:0:0:
71,136,40667,1,2,0:0:0:0:
51,308,40838,1,2,3:2:0:0:
157,178,41010,1,2,0:0:0:0:
245,319,41181,1,8,0:0:0:0:
268,335,41266,1,8,0:0:0:0:
295,346,41352,1,8,0:0:0:0:
323,348,41438,1,8,0:0:0:0:
352,344,41523,1,8,0:0:0:0:
378,332,41609,1,8,0:0:0:0:
402,315,41695,6,0,P|418:243|383:169,1,144,6|8,3:2|0:0,0:0:0:0:
304,78,42210,1,0,3:2:0:0:
218,194,42381,2,0,P|180:199|132:189,1,72,2|0,0:0|3:2,0:0:0:0:
74,97,42724,1,8,0:0:0:0:
304,78,42895,6,0,P|329:133|324:234,1,144,2|0,0:0|3:2,0:0:0:0:
225,339,43410,1,8,0:0:0:0:
347,308,43581,1,2,3:2:0:0:
192,244,43752,2,0,P|185:207|197:160,1,72,2|0,0:0|3:2,0:0:0:0:
304,78,44095,1,8,0:0:0:0:
180,43,44267,1,2,0:0:0:0:
343,218,44438,6,0,P|407:200|443:114,1,144,2|8,3:2|0:0,0:0:0:0:
373,12,44952,1,0,3:2:0:0:
230,107,45124,2,0,P|219:148|231:196,1,72,2|0,0:0|3:2,0:0:0:0:
320,308,45467,1,8,0:0:0:0:
471,163,45638,6,0,B|393:163|418:221|322:218,1,144,2|0,0:0|3:2,0:0:0:0:
194,196,46152,1,8,0:0:0:0:
240,311,46324,1,2,3:2:0:0:
342,217,46495,2,0,P|349:161|333:123,1,72,2|0,0:0|3:2,0:0:0:0:
226,61,46838,1,8,0:0:0:0:
369,24,47010,1,2,0:0:0:0:
213,182,47181,6,0,P|151:167|106:85,1,144,6|8,3:2|0:0,0:0:0:0:
226,61,47695,1,0,3:2:0:0:
345,146,47867,2,0,P|354:183|341:221,1,72,2|0,0:0|3:2,0:0:0:0:
248,314,48210,1,8,0:0:0:0:
39,224,48381,6,0,B|127:225|90:276|181:277,1,144,2|0,0:0|3:2,0:0:0:0:
268,186,48895,1,8,0:0:0:0:
248,314,49067,1,2,3:2:0:0:
171,174,49238,2,0,P|166:138|186:87,1,72,2|0,0:0|3:2,0:0:0:0:
330,68,49581,1,10,0:0:0:0:
174,8,49752,1,2,0:0:0:0:
268,186,49924,6,0,P|350:207|423:173,1,144,2|8,3:2|0:0,0:0:0:0:
330,68,50438,2,0,P|284:73|243:92,1,72,0|2,3:2|0:0,0:0:0:0:
112,178,50781,2,0,P|158:173|199:154,1,72,0|8,3:2|0:0,0:0:0:0:
151,46,51124,5,2,0:0:0:0:
271,177,51467,1,0,3:2:0:0:
391,308,51810,1,2,3:2:0:0:
391,308,52152,5,2,0:0:0:0:
384,288,52324,1,2,0:0:0:0:
377,268,52495,1,2,0:0:0:0:
370,248,52667,6,0,P|324:245|274:249,1,90,6|0,3:2|0:0,0:0:0:0:
95,313,53010,1,8,0:0:0:0:
119,159,53181,2,0,P|162:145|215:143,1,90,2|2,3:2|0:0,0:0:0:0:
360,66,53524,2,0,P|374:109|376:162,1,90,2|8,3:2|0:0,0:0:0:0:
276,274,53867,1,2,0:0:0:0:
206,142,54038,5,2,3:2:0:0:
376,153,54210,1,2,3:2:0:0:
184,237,54381,1,10,0:0:0:0:
321,53,54552,2,0,P|417:51|481:102,1,180,2|0,3:2|3:2,0:0:0:0:
439,264,55067,2,0,P|405:230|392:187,1,90,8|0,0:0|0:0,0:0:0:0:
258,114,55410,5,6,3:2:0:0:
452,102,55581,1,2,0:0:0:0:
287,233,55752,1,8,0:0:0:0:
347,28,55924,1,2,3:2:0:0:
432,198,56095,5,2,0:0:0:0:
220,194,56266,1,2,3:2:0:0:
404,100,56437,1,8,0:0:0:0:
338,298,56610,1,2,0:0:0:0:
273,65,56781,6,0,L|372:66,2,90,2|2|10,3:2|3:2|0:0,0:0:0:0:
118,179,57295,2,0,L|25:178,1,90,2|2,3:2|0:0,0:0:0:0:
176,84,57638,1,2,3:2:0:0:
240,250,57810,1,10,0:0:0:0:
363,151,57981,1,2,0:0:0:0:
456,269,58152,6,0,P|412:275|356:267,1,90,6|2,3:2|0:0,0:0:0:0:
219,144,58495,1,8,0:0:0:0:
147,258,58667,2,0,P|141:302|146:351,1,90,2|2,3:2|0:0,0:0:0:0:
304,218,59010,2,0,P|310:174|305:125,1,90,2|8,3:2|0:0,0:0:0:0:
223,25,59352,1,2,0:0:0:0:
138,142,59524,5,2,3:2:0:0:
306,129,59695,1,2,3:2:0:0:
135,53,59867,1,10,0:0:0:0:
250,227,60038,2,0,P|335:229|412:161,1,180,2|0,3:2|3:2,0:0:0:0:
336,47,60552,2,0,P|311:87|306:139,1,90,8|0,0:0|0:0,0:0:0:0:
378,310,60895,5,2,3:2:0:0:
238,211,61067,1,2,0:0:0:0:
423,225,61238,1,8,0:0:0:0:
235,358,61410,1,2,3:2:0:0:
278,113,61581,5,2,0:0:0:0:
336,307,61753,1,2,3:2:0:0:
181,129,61924,1,8,0:0:0:0:
411,143,62095,1,2,0:0:0:0:
212,287,62267,5,2,3:2:0:0:
338,50,62438,1,0,3:2:0:0:
338,50,63295,6,0,L|327:149,1,94.499997116089,12|0,0:0|0:0,0:0:0:0:
274,224,63638,5,6,3:2:0:0:
430,161,63810,1,2,3:2:0:0:
231,324,63981,5,8,0:0:0:0:
345,166,64153,1,2,3:2:0:0:
335,349,64324,5,8,0:0:0:0:
193,217,64496,1,2,3:2:0:0:
386,252,64667,5,10,0:0:0:0:
158,290,64838,1,2,3:2:0:0:
279,140,65010,5,10,0:0:0:0:
229,365,65181,1,2,3:2:0:0:
128,159,65352,5,10,0:0:0:0:
327,310,65524,1,2,3:2:0:0:
103,358,65695,5,8,0:0:0:0:
279,140,65866,1,0,3:2:0:0:
328,350,66038,5,8,0:0:0:0:
71,239,66209,1,0,3:2:0:0:
273,288,66381,6,0,L|309:200,1,90,10|2,0:0|3:2,0:0:0:0:
374,66,66724,1,10,0:0:0:0:
198,137,66895,1,2,3:2:0:0:
378,257,67067,5,10,0:0:0:0:
289,71,67239,1,2,3:2:0:0:
250,302,67410,5,10,0:0:0:0:
353,140,67582,1,0,0:0:0:0:
351,352,67752,5,10,0:0:0:0:
262,166,67924,1,2,3:2:0:0:
146,312,68095,5,10,0:0:0:0:
343,238,68267,1,2,3:2:0:0:
140,212,68438,5,8,0:0:0:0:
329,360,68610,2,0,L|433:367,2,90,2|10|2,3:2|0:0|3:2,0:0:0:0:
213,279,69124,2,0,L|227:176,1,90,10|0,0:0|3:2,0:0:0:0:
209,72,69467,5,10,0:0:0:0:
334,259,69639,1,0,0:0:0:0:
338,92,69810,5,8,0:0:0:0:
213,279,69982,1,2,3:2:0:0:
124,134,70152,5,8,0:0:0:0:
376,187,70324,1,2,3:2:0:0:
108,295,70495,5,10,0:0:0:0:
258,97,70667,1,2,3:2:0:0:
274,332,70838,5,10,0:0:0:0:
124,134,71010,1,2,3:2:0:0:
65,368,71181,5,8,0:0:0:0:
215,170,71353,1,0,3:2:0:0:
350,304,71524,5,8,0:0:0:0:
89,214,71695,1,0,3:2:0:0:
385,171,71867,5,10,0:0:0:0:
147,293,72038,1,2,3:2:0:0:
476,337,72210,5,10,0:0:0:0:
222,229,72381,1,2,3:2:0:0:
465,137,72552,5,10,0:0:0:0:
344,344,72724,1,2,3:2:0:0:
331,84,72895,5,10,0:0:0:0:
452,291,73067,1,2,3:2:0:0:
267,145,73238,5,10,0:0:0:0:
146,352,73410,1,0,3:2:0:0:
133,92,73581,5,10,0:0:0:0:
254,299,73753,1,2,3:2:0:0:
70,224,73924,2,0,L|144:225,1,45,8|8,0:0|0:0,0:0:0:0:
260,190,74095,1,10,3:2:0:0:
133,92,74267,1,10,0:0:0:0:
350,60,74438,2,0,L|279:58,1,45,8|8,3:2|0:0,0:0:0:0:
196,142,74610,1,6,0:0:0:0:
256,192,74695,12,2,75981,3:2:0:0:
427,270,76324,6,0,P|380:279|320:271,1,90,10|2,0:0|3:2,0:0:0:0:
221,201,76667,1,2,0:0:0:0:
361,94,76838,2,0,P|370:141|362:201,1,90,0|8,3:2|0:0,0:0:0:0:
313,306,77181,1,0,0:0:0:0:
221,201,77352,6,0,P|214:161|231:107,1,90,2|2,3:2|0:0,0:0:0:0:
361,40,77695,1,8,0:0:0:0:
366,182,77867,1,2,3:2:0:0:
226,114,78038,2,0,P|219:66|232:22,1,90,2|2,0:0|3:2,0:0:0:0:
276,204,78381,2,0,P|224:216|173:197,1,90,8|2,0:0|0:0,0:0:0:0:
64,132,78724,5,2,3:2:0:0:
233,94,78895,1,2,3:2:0:0:
103,238,79067,1,10,0:0:0:0:
134,43,79238,1,2,3:2:0:0:
276,204,79410,5,2,0:0:0:0:
70,256,79581,1,0,3:2:0:0:
222,143,79753,1,8,0:0:0:0:
223,345,79924,1,2,0:0:0:0:
70,256,80095,6,0,P|63:206|79:156,1,90,6|0,3:2|0:0,0:0:0:0:
224,55,80438,2,0,P|231:105|215:155,1,90,10|2,0:0|3:2,0:0:0:0:
274,332,80781,2,0,P|267:282|283:232,1,90,8|2,0:0|3:2,0:0:0:0:
413,130,81124,1,10,0:0:0:0:
207,160,81295,1,0,3:2:0:0:
439,280,81467,5,10,0:0:0:0:
292,104,81638,1,2,3:2:0:0:
274,332,81810,5,8,0:0:0:0:
413,130,81981,1,2,3:2:0:0:
244,263,82152,5,10,0:0:0:0:
97,87,82323,1,2,3:2:0:0:
107,318,82495,5,10,0:0:0:0:
218,113,82666,1,2,3:2:0:0:
289,351,82838,5,10,0:0:0:0:
129,199,83010,1,2,3:2:0:0:
338,199,83181,5,10,0:0:0:0:
133,352,83352,1,2,3:2:0:0:
388,322,83524,5,8,0:0:0:0:
174,178,83695,1,2,3:2:0:0:
389,113,83867,1,10,0:0:0:0:
209,305,84038,1,0,3:2:0:0:
274,49,84210,1,10,0:0:0:0:
429,291,84381,1,8,3:2:0:0:
429,291,84467,1,8,0:0:0:0:
429,291,84552,5,8,0:0:0:0:
153,241,84724,1,8,3:0:0:0:
412,101,84895,1,8,3:0:0:0:
260,343,85067,1,8,3:0:0:0:
191,81,85238,1,8,3:0:0:0:
472,213,85410,1,8,3:0:0:0:
170,324,85581,5,6,3:2:0:0:
338,40,85752,1,6,3:2:0:0:
256,192,85838,12,0,90038,0:0:0:0:
