osu file format v14

[General]
AudioFilename: audio.mp3
AudioLeadIn: 0
PreviewTime: 150709
Countdown: 0
SampleSet: Soft
StackLeniency: 0.6
Mode: 0
LetterboxInBreaks: 0
WidescreenStoryboard: 1

[Editor]
Bookmarks: 1823,57023
DistanceSpacing: 0.5
BeatDivisor: 4
GridSize: 32
TimelineZoom: 2.7

[Metadata]
Title:Monochrome Butterfly
TitleUnicode:Monochrome Butterfly
Artist:Aitsuki Nakuru
ArtistUnicode:藍月なくる
Creator:FuJu
Version:Hard
Source:
Tags:よーすけ@KG Yosuke@KG トコロクラニスト elicz1 gibune deca amateurre mnyui gelidium jpop j-pop japanese pop tokoro cranist mpg fa featured artist mappers' guild
BeatmapID:3003409
BeatmapSetID:1458599

[Difficulty]
HPDrainRate:4.5
CircleSize:3.5
OverallDifficulty:6.5
ApproachRate:7.5
SliderMultiplier:1.3
SliderTickRate:1

[Events]
//Background and Video events
0,0,"hi airin and akito.jpg",0,0
//Break Periods
//Storyboard Layer 0 (Background)
//Storyboard Layer 1 (Fail)
//Storyboard Layer 2 (Pass)
//Storyboard Layer 3 (Foreground)
//Storyboard Layer 4 (Overlay)
//Storyboard Sound Samples

[TimingPoints]
452,342.857142857143,4,2,11,45,1,0
1823,-95.2380952380952,4,2,11,60,0,0
2852,-133.333333333333,4,2,11,50,0,0
3109,-222.222222222221,4,2,11,5,0,0
3194,-95.2380952380952,4,2,11,60,0,0
5252,-95.2380952380951,4,2,11,70,0,0
5852,-95.2380952380951,4,2,11,5,0,0
5937,-95.2380952380951,4,2,11,70,0,0
8594,-222.222222222221,4,2,11,5,0,0
8680,-95.2380952380951,4,2,11,70,0,0
11337,-95.2380952380951,4,2,11,5,0,0
11423,-95.2380952380951,4,2,11,70,0,0
14166,-105.263157894737,4,2,11,55,0,0
16823,-222.222222222221,4,2,11,5,0,0
16909,-105.263157894737,4,2,11,55,0,0
18366,-222.222222222221,4,2,11,5,0,0
18452,-105.263157894737,4,2,11,55,0,0
22652,-222.222222222221,4,2,11,5,0,0
22737,-117.647058823529,4,2,11,55,0,0
25137,-95.2380952380951,4,2,11,70,0,0
27794,-95.2380952380951,4,2,11,5,0,0
27880,-95.2380952380951,4,2,11,70,0,0
30623,-105.263157894737,4,2,11,55,0,0
30880,-222.222222222221,4,2,11,5,0,0
30966,-105.263157894737,4,2,11,55,0,0
39109,-222.222222222221,4,2,11,5,0,0
39194,-105.263157894737,4,2,11,55,0,0
41594,-105.263157894737,4,2,11,50,0,0
52052,-133.333333333333,4,2,11,40,0,0
52566,-86.9565217391303,4,2,11,80,0,0
55223,-86.9565217391303,4,2,11,5,0,0
55309,-86.9565217391303,4,2,11,80,0,0
58309,-86.9565217391303,4,2,11,5,0,0
58395,-86.9565217391303,4,2,11,80,0,0
58823,-86.9565217391303,4,2,11,5,0,0
58909,-86.9565217391303,4,2,11,80,0,0
60194,-86.9565217391303,4,2,11,5,0,0
60280,-86.9565217391303,4,2,11,80,0,0
69280,-86.9565217391303,4,2,11,5,0,0
69366,-86.9565217391303,4,2,11,80,0,0
74509,-95.2380952380952,4,2,11,70,0,0
77166,-95.2380952380952,4,2,11,5,0,0
77252,-95.2380952380952,4,2,11,70,0,0
79909,-95.2380952380952,4,2,11,5,0,0
79995,-95.2380952380952,4,2,11,70,0,0
82652,-95.2380952380952,4,2,11,5,0,0
82738,-95.2380952380952,4,2,11,70,0,0
84109,-95.2380952380951,4,2,11,50,0,0
84366,-222.222222222221,4,2,11,5,0,0
84452,-222.222222222221,4,2,11,40,0,0
85480,-105.263157894737,4,2,11,60,0,0
85737,-105.263157894737,4,2,11,5,0,0
85823,-105.263157894737,4,2,11,60,0,0
88137,-105.263157894737,4,2,11,5,0,0
88223,-105.263157894737,4,2,11,60,0,0
90880,-105.263157894737,4,2,11,5,0,0
90966,-105.263157894737,4,2,11,60,0,0
91223,-105.263157894737,4,2,11,5,0,0
91309,-105.263157894737,4,2,11,60,0,0
91737,-105.263157894737,4,2,11,5,0,0
91823,-105.263157894737,4,2,11,60,0,0
93623,-105.263157894737,4,2,11,5,0,0
93709,-105.263157894737,4,2,11,60,0,0
96452,-117.64705882353,4,2,11,55,0,0
99452,-117.64705882353,4,2,11,5,0,0
99537,-117.64705882353,4,2,11,55,0,0
101852,-117.64705882353,4,2,11,5,0,0
101937,-117.64705882353,4,2,11,55,0,0
104937,-117.64705882353,4,2,11,5,0,0
105022,-117.64705882353,4,2,11,55,0,0
106137,-117.64705882353,4,2,11,5,0,0
106222,-117.64705882353,4,2,11,70,0,0
106909,-117.64705882353,4,2,11,40,0,0
107423,-86.9565217391307,4,2,11,80,0,0
110080,-86.9565217391307,4,2,11,5,0,0
110166,-86.9565217391307,4,2,11,80,0,0
113680,-86.9565217391307,4,2,11,5,0,0
113766,-86.9565217391307,4,2,11,80,0,0
115052,-86.9565217391307,4,2,11,5,0,0
115138,-86.9565217391307,4,2,11,80,0,0
117794,-86.9565217391307,4,2,11,5,0,0
117880,-86.9565217391307,4,2,11,80,0,0
121052,-86.9565217391307,4,2,11,5,0,0
121138,-86.9565217391307,4,2,11,80,0,0
124137,-86.9565217391307,4,2,11,5,0,0
124223,-86.9565217391307,4,2,11,80,0,0
126537,-86.9565217391307,4,2,11,5,0,0
126623,-86.9565217391307,4,2,11,80,0,0
129366,-95.2380952380952,4,2,11,70,0,0
135794,-95.2380952380952,4,2,11,5,0,0
135880,-95.2380952380952,4,2,11,70,0,0
136823,-95.2380952380952,4,2,11,5,0,0
136909,-95.2380952380952,4,2,11,70,0,0
137852,-95.2380952380952,4,2,11,5,0,0
137938,-95.2380952380952,4,2,11,70,0,0
140337,-117.64705882353,4,2,11,60,0,0
140594,-117.64705882353,4,2,11,5,0,0
140680,-117.64705882353,4,2,11,60,0,0
142994,-117.64705882353,4,2,11,5,0,0
143080,-117.64705882353,4,2,11,60,0,0
143852,-117.64705882353,4,2,11,5,0,0
143938,-117.64705882353,4,2,11,60,0,0
144194,-117.64705882353,4,2,11,5,0,0
144280,-117.64705882353,4,2,11,60,0,0
145737,-117.64705882353,4,2,11,5,0,0
145823,-117.64705882353,4,2,11,60,0,0
146080,-117.64705882353,4,2,11,5,0,0
146166,-117.64705882353,4,2,11,60,0,0
146423,-117.64705882353,4,2,11,5,0,0
146509,-117.64705882353,4,2,11,60,0,0
150109,-117.64705882353,4,2,11,70,0,0
150794,-117.64705882353,4,2,11,40,0,0
151309,-86.9565217391307,4,2,11,80,0,0
153966,-86.9565217391307,4,2,11,5,0,0
154052,-86.9565217391307,4,2,11,80,0,0
157052,-86.9565217391307,4,2,11,5,0,0
157138,-86.9565217391307,4,2,11,80,0,0
157566,-86.9565217391307,4,2,11,5,0,0
157652,-86.9565217391307,4,2,11,80,0,0
158937,-86.9565217391307,4,2,11,5,0,0
159023,-86.9565217391307,4,2,11,80,0,0
159452,-86.9565217391307,4,2,11,5,0,0
159538,-86.9565217391307,4,2,11,80,0,0
161937,-105.263157894737,4,2,11,80,0,0
162280,-86.9565217391307,4,2,11,80,0,0
163309,-86.9565217391307,4,2,11,80,0,0
168023,-86.9565217391307,4,2,11,5,0,0
168109,-86.9565217391307,4,2,11,80,0,0
169394,-86.9565217391307,4,2,11,5,0,0
169480,-86.9565217391307,4,2,11,80,0,0
170423,-86.9565217391307,4,2,11,5,0,0
170509,-86.9565217391307,4,2,11,80,0,0
171880,-86.9565217391307,4,2,11,80,0,0
173251,-86.9565217391307,4,2,11,80,0,0
173252,-95.2380952380952,4,2,11,70,0,0
173509,-95.2380952380952,4,2,11,5,0,0
173595,-95.2380952380952,4,2,11,70,0,0
174023,-95.2380952380952,4,2,11,5,0,0
174109,-95.2380952380952,4,2,11,70,0,0
176766,-95.2380952380952,4,2,11,5,0,0
176852,-95.2380952380952,4,2,11,70,0,0
177280,-95.2380952380952,4,2,11,5,0,0
177366,-95.2380952380952,4,2,11,70,0,0
189709,-86.9565217391304,4,2,11,5,0,0

[Colours]
Combo1 : 53,154,255
Combo2 : 207,134,251
Combo3 : 125,255,125
Combo4 : 149,74,74

[HitObjects]
14,25,1823,6,0,P|47:18|81:17,1,68.2499979171754,10|0,3:2|3:2,0:0:0:0:
178,91,2166,2,0,P|144:97|110:98,1,68.2499979171754,0|0,3:2|3:2,0:0:0:0:
58,174,2509,1,2,3:2:0:0:
58,174,2680,1,2,3:2:0:0:
58,174,2852,2,0,P|94:179|129:189,1,73.1250027894974,14|0,0:2|0:0,0:0:0:0:
128,189,3194,6,0,P|162:184|195:175,1,68.2499979171753,6|2,3:2|0:2,0:0:0:0:
280,135,3537,1,8,2:2:0:0:
343,203,3709,2,0,P|375:259|346:317,1,136.499995834351,2|0,3:2|3:2,0:0:0:0:
269,384,4223,2,0,P|267:333|251:284,1,102.374996875763,10|0,2:2|0:0,0:0:0:0:
251,284,4566,1,2,3:2:0:0:
176,227,4737,1,2,3:2:0:0:
108,295,4909,2,0,P|106:329|114:362,1,68.2499979171753,8|2,2:2|3:2,0:0:0:0:
176,227,5252,2,0,P|177:192|169:159,1,68.2499979171753,2|0,0:2|3:2,0:0:0:0:
180,49,5594,2,0,P|207:90|256:92,1,102.374996875763,10|0,2:2|0:0,0:0:0:0:
256,92,5937,6,0,B|322:103|311:45|381:51,1,136.499995834351,2|8,3:2|2:2,0:0:0:0:
447,121,6452,2,0,L|413:253,1,136.499995834351,2|0,3:2|3:2,0:0:0:0:
485,316,6966,2,0,P|452:353|403:348,1,102.374996875763,10|0,2:2|0:0,0:0:0:0:
403,348,7309,1,2,3:2:0:0:
340,276,7481,1,2,3:2:0:0:
259,326,7652,2,0,L|192:343,1,68.2499979171753,8|2,2:2|3:2,0:0:0:0:
165,251,7994,2,0,L|231:233,1,68.2499979171753,2|0,0:2|3:2,0:0:0:0:
297,157,8337,2,0,P|327:118|311:72,1,102.374996875763,10|0,2:2|0:0,0:0:0:0:
311,72,8680,6,0,L|179:107,1,136.499995834351,6|8,3:2|2:2,0:0:0:0:
258,224,9194,2,0,L|390:190,1,136.499995834351,2|0,3:2|3:2,0:0:0:0:
430,111,9709,2,0,P|474:129|479:178,1,102.374996875763,10|0,2:2|0:0,0:0:0:0:
478,178,10052,1,2,3:2:0:0:
439,269,10223,1,2,3:2:0:0:
512,339,10394,2,0,L|446:357,1,68.2499979171753,8|2,2:2|3:2,0:0:0:0:
359,286,10737,2,0,L|293:304,1,68.2499979171753,2|0,0:2|3:2,0:0:0:0:
176,334,11080,2,0,P|211:301|197:254,1,102.374996875763,10|0,2:2|0:0,0:0:0:0:
197,254,11423,6,0,L|174:189,1,68.2499979171753,2|2,3:2|0:2,0:0:0:0:
155,63,11766,1,8,2:2:0:0:
226,95,11937,2,0,L|291:73,1,68.2499979171753,2|0,3:2|0:2,0:0:0:0:
395,50,12280,1,0,3:2:0:0:
395,50,12452,2,0,P|339:84|344:148,1,136.499995834351,10|2,2:2|3:2,0:0:0:0:
422,204,12966,2,0,P|455:197|489:191,1,68.2499979171754,2|8,3:2|2:2,0:0:0:0:
362,278,13309,1,2,3:2:0:0:
362,278,13480,1,2,3:2:0:0:
425,350,13652,2,0,P|458:343|492:337,1,68.2499979171754,10|10,2:2|2:2,0:0:0:0:
362,278,13994,5,10,2:2:0:0:
362,278,14080,1,10,2:2:0:0:
362,278,14166,2,0,P|331:328|272:325,1,123.499996702194,6|10,3:2|2:2,0:0:0:0:
204,263,14680,2,0,P|220:203|228:142,1,123.499996702194,2|2,3:2|3:2,0:0:0:0:
120,119,15194,5,10,2:2:0:0:
120,119,15366,2,0,P|103:178|95:239,1,123.499996702194,2|2,0:2|3:2,0:0:0:0:
45,346,15880,2,0,L|104:328,1,61.7499983510972,8|0,2:2|3:2,0:0:0:0:
95,239,16223,2,0,L|35:256,1,61.7499983510972,2|2,0:2|3:2,0:0:0:0:
120,337,16566,2,0,L|210:315,1,92.6249975266457,10|0,2:2|0:0,0:0:0:0:
210,315,16909,6,0,P|259:360|324:342,1,123.499996702194,2|10,3:2|2:2,0:0:0:0:
406,378,17423,2,0,P|411:318|368:276,1,123.499996702194,2|2,3:2|3:2,0:0:0:0:
298,213,17937,1,10,2:2:0:0:
298,213,18109,2,0,L|310:152,1,61.7499983510972,2|0,0:2|3:2,0:0:0:0:
388,90,18452,1,2,3:2:0:0:
388,90,18624,2,0,L|448:102,1,61.7499983510972,10|2,2:2|3:2,0:0:0:0:
317,0,18966,2,0,P|287:50|228:47,1,123.499996702194,2|10,0:2|2:2,0:0:0:0:
57,127,19652,6,0,P|77:168|82:213,1,92.6249975266457,2|0,3:2|0:0,0:0:0:0:
82,213,19994,1,10,2:2:0:0:
81,341,20166,2,0,P|116:293|175:301,1,123.499996702194,2|2,3:2|3:2,0:0:0:0:
246,353,20680,1,10,2:2:0:0:
246,353,20852,2,0,L|305:336,1,61.7499983510972,2|0,0:2|3:2,0:0:0:0:
358,266,21194,5,2,3:2:0:0:
358,266,21366,2,0,P|382:211|355:158,1,123.499996702194,10|2,2:2|0:2,0:0:0:0:
282,102,21880,1,2,3:2:0:0:
282,102,22052,2,0,L|267:162,1,61.7499983510972,10|0,2:2|0:2,0:0:0:0:
207,225,22394,6,0,P|173:196|180:153,1,92.6249975266457,2|0,3:2|0:0,0:0:0:0:
180,153,22737,2,0,L|192:99,1,55.2500010538101,10|2,2:2|3:2,0:0:0:0:
72,144,23080,1,2,0:2:0:0:
72,144,23252,2,0,L|83:198,1,55.2500010538101,2|8,3:2|2:2,0:0:0:0:
107,294,23594,2,0,L|215:271,1,110.50000210762,2|2,0:2|3:2,0:0:0:0:
276,346,24109,1,10,2:2:0:0:
361,315,24280,1,2,3:2:0:0:
305,243,24452,1,2,0:2:0:0:
422,65,24794,2,0,P|426:92|431:119,1,55.2500010538101,10|10,2:2|2:2,0:0:0:0:
431,119,25052,5,10,2:2:0:0:
431,119,25137,2,0,L|299:154,1,136.499995834351,6|8,3:2|2:2,0:0:0:0:
229,229,25652,2,0,L|162:212,1,68.2499979171754,2|0,3:2|0:2,0:0:0:0:
289,321,25994,1,0,3:2:0:0:
289,321,26166,2,0,L|387:293,1,102.374996875763,10|0,2:2|0:0,0:0:0:0:
387,292,26509,6,0,P|438:251|426:188,1,136.499995834351,2|8,3:2|2:2,0:0:0:0:
331,210,27023,1,2,3:2:0:0:
331,210,27194,2,0,L|314:143,1,68.2499979171754,2|0,0:2|3:2,0:0:0:0:
452,14,27537,2,0,L|429:113,1,102.374996875763,10|0,2:2|0:0,0:0:0:0:
429,113,27880,6,0,B|360:121|381:60|306:69,1,136.499995834351,2|8,3:2|2:2,0:0:0:0:
245,169,28394,2,0,L|312:153,1,68.2499979171754,2|0,3:2|0:2,0:0:0:0:
261,256,28737,1,0,3:2:0:0:
261,256,28909,2,0,L|161:281,1,102.374996875763,10|0,2:2|0:0,0:0:0:0:
161,281,29252,5,2,3:2:0:0:
82,241,29423,1,2,3:2:0:0:
82,241,29594,2,0,L|64:174,1,68.2499979171754,8|2,2:2|3:2,0:0:0:0:
198,19,30109,5,10,2:2:0:0:
135,98,30280,1,10,2:2:0:0:
203,172,30452,1,10,0:2:0:0:
203,172,30623,2,0,P|262:155|323:144,1,123.499996702194,6|10,3:2|2:2,0:0:0:0:
459,169,31137,2,0,P|406:196|404:255,1,123.499996702194,2|2,3:2|3:2,0:0:0:0:
475,320,31652,1,10,2:2:0:0:
475,320,31823,2,0,L|493:261,1,61.7499983510972,2|0,0:2|3:2,0:0:0:0:
415,383,32166,1,2,3:2:0:0:
415,383,32337,2,0,L|356:364,1,61.7499983510972,10|2,2:2|3:2,0:3:0:0:
327,266,32680,2,0,P|269:280|253:336,1,123.499996702194,2|10,0:2|2:2,0:0:0:0:
130,215,33366,6,0,L|116:154,1,61.7499983510972,2|2,3:2|0:2,0:0:0:0:
41,101,33709,1,10,2:2:0:0:
41,101,33880,2,0,P|80:56|140:63,1,123.499996702194,2|2,3:2|3:2,0:0:0:0:
222,111,34394,1,10,2:2:0:0:
222,111,34566,2,0,P|261:155|320:148,1,123.499996702194,2|2,0:2|3:2,0:0:0:0:
393,86,35080,2,0,L|382:25,1,61.7499983510972,10|2,2:2|3:2,0:0:0:0:
321,148,35423,2,0,L|331:208,1,61.7499983510972,2|2,0:2|3:2,0:0:0:0:
404,268,35766,1,10,2:2:0:0:
257,362,36109,6,0,P|226:329|183:337,1,92.6249975266457,2|0,3:2|0:0,0:0:0:0:
183,337,36452,1,10,2:2:0:0:
111,290,36623,2,0,L|123:229,1,61.7499983510972,2|0,3:2|0:2,0:0:0:0:
44,128,36966,1,2,3:2:0:0:
44,128,37137,1,10,2:2:0:0:
118,145,37309,2,0,L|238:118,1,123.499996702194,2|2,0:2|3:2,0:0:0:0:
320,72,37823,1,10,2:2:0:0:
266,0,37994,1,2,3:2:0:0:
437,60,38337,5,2,3:2:0:0:
436,60,38509,2,0,P|419:102|408:147,1,92.6249975266457,10|0,2:2|0:0,0:0:0:0:
408,147,38852,2,0,P|425:189|436:234,1,92.6249975266457,2|0,3:2|0:0,0:0:0:0:
436,234,39194,1,10,2:2:0:0:
321,356,39537,1,2,0:2:0:0:
281,288,39709,2,0,L|140:253,1,123.499996702194,2|2,3:2|0:2,0:0:0:0:
78,300,40223,5,0,3:2:0:0:
8,238,40394,1,2,3:2:0:0:
71,168,40566,2,0,L|55:108,1,61.7499983510972,10|2,2:2|3:2,0:0:0:0:
126,32,40909,1,2,0:2:0:0:
126,32,41080,2,0,L|155:39,5,30.8749991755486,8|8|8|8|8|8,0:2|0:2|2:2|0:2|0:2|0:2,0:0:0:0:
179,76,41594,6,0,L|298:107,1,123.499996702194,6|8,3:2|2:2,0:0:0:0:
264,4,42109,1,0,3:2:0:0:
264,4,42280,2,0,L|384:36,1,123.499996702194,2|8,0:2|2:2,0:0:0:0:
398,133,42794,2,0,L|366:252,1,123.499996702194,2|0,0:2|3:2,0:0:0:0:
411,331,43309,1,8,2:2:0:0:
327,366,43480,1,2,3:2:0:0:
327,366,43652,2,0,L|267:347,1,61.7499983510972,2|2,0:2|3:2,0:0:0:0:
211,279,43994,2,0,L|151:297,1,61.7499983510972,10|2,2:2|0:2,0:0:0:0:
68,260,44337,6,0,P|26:217|38:159,1,123.499996702194,2|10,3:2|2:2,0:0:0:0:
127,66,44852,2,0,P|168:108|156:166,2,123.499996702194,2|2|2,3:2|3:2|0:2,0:0:0:0:
59,16,45709,2,0,L|-1:33,1,61.7499983510972,2|0,0:2|3:2,0:0:0:0:
127,66,46052,1,8,2:2:0:0:
127,66,46223,1,0,3:2:0:0:
155,166,46394,2,0,L|214:148,1,61.7499983510972,2|0,0:2|3:2,0:0:0:0:
245,239,46737,1,8,2:2:0:0:
245,239,46909,1,2,0:2:0:0:
336,264,47080,6,0,P|377:221|362:164,1,123.499996702194,6|8,3:2|2:2,0:0:0:0:
248,78,47594,1,0,3:2:0:0:
248,78,47766,2,0,P|266:136|280:197,1,123.499996702194,2|8,0:2|2:2,0:0:0:0:
263,320,48280,2,0,P|233:329|203:337,1,61.7499983510972,2|0,0:2|0:2,0:0:0:0:
129,296,48623,1,0,3:2:0:0:
165,129,48966,5,2,3:2:0:0:
165,129,49137,2,0,L|181:189,1,61.7499983510972,2|2,0:2|3:2,0:0:0:0:
272,157,49480,2,0,L|256:97,1,61.7499983510972,10|2,2:2|0:2,0:0:0:0:
155,46,49823,2,0,P|96:53|79:109,1,123.499996702194,2|10,3:2|2:2,0:0:0:0:
37,212,50337,2,0,B|96:223|86:172|150:178,2,123.499996702194,2|2|2,3:2|3:2|0:2,0:0:0:0:
37,212,51366,6,0,L|53:271,1,61.7499983510972,2|8,3:2|2:2,0:0:0:0:
159,325,51709,2,0,L|142:384,1,61.7499983510972,2|0,3:2|0:2,0:0:0:0:
492,225,52566,6,0,P|457:286|387:276,1,149.500002851486,6|10,3:2|2:2,0:0:0:0:
317,157,53080,2,0,P|352:95|421:106,1,149.500002851486,2|2,3:2|3:2,0:0:0:0:
290,260,53766,1,2,0:2:0:0:
290,260,53937,1,2,3:2:0:0:
211,190,54109,1,2,3:2:0:0:
143,269,54280,1,10,2:2:0:0:
55,210,54452,2,0,P|81:140|98:67,1,149.500002851486,2|0,3:2|3:2,0:0:0:0:
185,8,54966,2,0,P|238:24|293:32,1,112.125002138615,8|0,2:2|0:0,0:0:0:0:
293,32,55309,6,0,P|309:65|292:97,1,74.7500014257431,2|2,3:2|0:2,0:0:0:0:
200,147,55652,1,10,2:2:0:0:
200,147,55823,1,2,3:2:0:0:
262,230,55994,2,0,L|336:219,1,74.7500014257431,2|2,0:2|3:2,0:0:0:0:
371,318,56337,2,0,L|296:328,1,74.7500014257431,10|2,2:2|0:2,0:0:0:0:
175,277,56680,5,2,3:2:0:0:
86,334,56851,1,2,3:2:0:0:
29,245,57022,1,10,2:2:0:0:
118,188,57194,1,2,3:2:0:0:
243,38,57537,1,2,3:2:0:0:
243,38,57709,2,0,L|170:57,1,74.7500014257431,8|2,2:2|0:2,0:0:0:0:
294,146,58052,6,0,P|317:97|371:92,1,112.125002138615,6|0,3:2|0:0,0:0:0:0:
371,92,58394,1,10,2:2:0:0:
427,168,58566,2,0,P|409:221|400:276,1,112.125002138615,2|0,3:2|0:0,0:0:0:0:
400,276,58909,2,0,L|254:308,1,149.500002851486,2|2,3:2|0:2,0:0:0:0:
200,238,59423,5,2,3:2:0:0:
119,270,59594,1,2,3:2:0:0:
88,363,59766,1,10,2:2:0:0:
7,331,59937,2,0,P|27:259|45:186,1,149.500002851486,2|0,3:2|3:2,0:0:0:0:
31,103,60452,2,0,P|83:93|112:137,1,112.125002138615,8|0,2:2|0:0,0:0:0:0:
112,137,60794,2,0,P|148:146|184:153,1,74.7500014257431,2|2,3:2|0:2,0:0:0:0:
140,251,61137,1,10,2:2:0:0:
140,251,61309,2,0,P|213:264|286:281,1,149.500002851486,2|0,3:2|3:2,0:0:0:0:
366,245,61823,2,0,P|375:209|387:174,1,74.7500014257431,10|2,2:2|0:2,0:0:0:0:
338,81,62166,5,2,3:2:0:0:
260,144,62337,1,2,3:2:0:0:
197,66,62509,1,10,2:2:0:0:
275,2,62680,1,2,3:2:0:0:
129,142,63023,1,2,3:2:0:0:
129,142,63194,2,0,P|93:129|57:120,1,74.7500014257431,10|8,2:2|0:2,0:0:0:0:
162,228,63537,6,0,P|197:240|233:249,1,74.7500014257431,14|2,3:2|0:2,0:0:0:0:
371,250,63880,1,10,2:2:0:0:
371,250,64052,2,0,P|308:284|307:356,1,149.500002851486,2|2,3:2|3:2,0:0:0:0:
441,198,64737,5,2,0:2:0:0:
441,198,64909,1,10,3:2:0:0:
367,134,65080,1,2,3:2:0:0:
425,51,65252,1,10,2:2:0:0:
306,18,65423,2,0,L|210:35,1,74.7500014257431,2|8,3:2|2:2,0:0:0:0:
149,90,65766,1,0,3:2:0:0:
215,160,65937,1,8,2:2:0:0:
77,297,66280,6,0,L|3:310,1,74.7500014257431,14|2,3:2|0:2,0:0:0:0:
140,214,66623,2,0,L|126:140,1,74.7500014257431,10|2,2:2|3:2,0:0:0:0:
223,277,66966,2,0,L|296:263,1,74.7500014257431,10|0,2:2|3:2,0:0:0:0:
426,163,67309,2,0,L|352:176,1,74.7500014257431,10|2,2:2|0:2,0:3:0:0:
248,140,67652,1,10,3:2:0:0:
322,76,67823,1,2,3:2:0:0:
254,3,67994,1,10,2:2:0:0:
254,3,68166,1,2,3:2:0:0:
148,137,68509,5,2,3:2:0:0:
148,137,68680,2,0,P|160:172|168:208,1,74.7500014257431,8|2,2:2|0:2,0:0:0:0:
167,340,69023,2,0,P|203:279|273:287,1,149.500002851486,14|10,3:2|2:2,0:0:0:0:
357,228,69537,2,0,P|344:192|336:156,1,74.7500014257431,2|8,3:2|2:2,0:0:0:0:
357,63,69880,2,0,P|427:39|501:26,1,149.500002851486,2|2,3:2|0:2,0:0:0:0:
445,131,70394,5,10,3:2:0:0:
382,208,70566,1,2,3:2:0:0:
436,294,70737,1,10,2:2:0:0:
435,294,70909,2,0,P|399:303|364:316,1,74.7500014257431,2|8,3:2|2:2,0:0:0:0:
294,246,71252,1,0,3:2:0:0:
294,246,71424,2,0,P|257:236|222:223,1,74.7500014257431,8|0,2:2|0:2,0:0:0:0:
118,183,71766,5,14,3:2:0:0:
118,183,71937,2,0,P|175:224|162:294,1,149.500002851486,2|2,0:2|3:2,0:0:0:0:
105,358,72452,2,0,P|68:367|33:380,1,74.7500014257431,10|2,2:2|3:2,0:0:0:0:
20,280,72794,2,0,P|56:270|91:257,1,74.7500014257431,10|2,2:2|0:2,0:0:0:0:
119,131,73137,5,10,3:2:0:0:
119,131,73309,2,0,P|154:144|190:153,1,74.7500014257431,2|10,3:2|2:2,0:0:0:0:
286,121,73652,2,0,P|299:85|308:49,1,74.7500014257431,2|8,3:2|2:2,0:0:0:0:
308,49,73909,1,8,0:2:0:0:
308,49,73994,1,10,3:3:0:0:
420,80,74166,2,0,P|406:115|397:148,1,74.7500014257431,10|8,2:2|0:2,0:0:0:0:
397,151,74423,5,8,0:2:0:0:
397,151,74509,2,0,P|383:214|430:260,1,136.499995834351,6|8,3:2|0:2,0:0:0:0:
324,384,75023,2,0,P|338:321|291:275,1,136.499995834351,2|0,3:2|3:2,0:0:0:0:
209,226,75537,2,0,L|143:245,1,68.2499979171754,10|0,0:2|0:2,0:0:0:0:
25,189,75880,5,2,3:2:0:0:
25,189,76052,1,2,3:2:0:0:
79,131,76223,2,0,L|144:150,1,68.2499979171754,8|2,0:2|3:2,0:0:0:0:
194,55,76566,2,0,L|259:74,1,68.2499979171754,2|0,0:2|3:2,0:0:0:0:
342,12,76909,2,0,P|359:40|361:74,1,68.2499979171754,10|0,0:2|0:2,0:0:0:0:
417,149,77252,6,0,P|418:213|362:245,1,136.499995834351,2|8,3:2|0:2,0:0:0:0:
275,172,77766,2,0,L|210:153,1,68.2499979171754,2|0,3:2|0:2,0:0:0:0:
172,252,78109,1,0,3:2:0:0:
172,252,78280,2,0,L|237:271,1,68.2499979171754,10|0,0:2|0:2,0:0:0:0:
87,302,78623,5,2,3:2:0:0:
87,302,78794,1,2,3:2:0:0:
48,214,78966,2,0,L|63:147,1,68.2499979171754,8|2,0:2|3:2,0:0:0:0:
161,118,79309,2,0,L|176:51,1,68.2499979171754,2|0,0:2|3:2,0:0:0:0:
313,0,79652,2,0,L|290:99,1,102.374996875763,10|0,0:2|0:0,0:0:0:0:
290,99,79994,6,0,B|355:103|355:150|415:147,1,136.499995834351,6|8,3:2|0:2,0:0:0:0:
289,193,80509,2,0,L|222:208,1,68.2499979171754,2|0,3:2|0:2,0:0:0:0:
330,276,80852,1,0,3:2:0:0:
330,276,81023,2,0,L|263:291,1,68.2499979171754,10|0,0:2|0:2,0:0:0:0:
145,292,81366,5,2,3:2:0:0:
197,364,81537,1,2,3:2:0:0:
197,364,81709,2,0,L|130:379,1,68.2499979171754,8|2,0:2|3:2,0:0:0:0:
63,328,82052,2,0,L|47:261,1,68.2499979171754,2|0,0:2|3:2,0:0:0:0:
0,189,82394,2,0,P|-2:138|27:98,1,102.374996875763,10|0,0:2|0:0,0:0:0:0:
27,98,82737,6,0,L|159:133,1,136.499995834351,2|8,3:2|0:2,0:0:0:0:
254,98,83252,1,2,3:2:0:0:
254,98,83423,2,0,L|271:32,1,68.2499979171754,0|0,0:2|3:2,0:0:0:0:
159,133,83766,2,0,L|123:264,1,136.499995834351,10|10,0:2|0:2,0:0:0:0:
402,383,85480,6,0,P|429:347|428:302,1,92.6249975266457,6|0,3:2|0:0,0:0:0:0:
427,301,85823,1,10,0:2:0:0:
366,233,85994,2,0,L|244:256,1,123.499996702194,2|2,3:2|3:2,0:0:0:0:
162,211,86509,1,10,0:2:0:0:
162,211,86680,1,2,0:2:0:0:
226,67,87023,1,2,3:2:0:0:
226,67,87194,2,0,P|240:100|239:133,1,61.7499983510972,10|2,0:2|3:2,0:0:0:0:
307,186,87537,2,0,L|367:199,1,61.7499983510972,2|2,0:2|3:2,0:0:0:0:
452,153,87880,1,10,0:2:0:0:
415,296,88223,6,0,L|426:357,1,61.7499983510972,2|2,3:2|0:2,0:0:0:0:
331,334,88566,1,10,0:2:0:0:
331,334,88737,2,0,L|320:273,1,61.7499983510972,2|2,3:2|0:2,0:0:0:0:
248,215,89080,1,2,3:2:0:0:
309,146,89252,1,10,0:2:0:0:
309,146,89423,2,0,L|369:135,1,61.7499983510972,2|0,0:2|3:2,0:0:0:0:
247,14,89937,2,0,L|186:24,1,61.7499983510972,10|2,0:2|3:2,0:0:0:0:
155,110,90280,2,0,L|165:170,1,61.7499983510972,2|2,0:2|3:2,0:0:0:0:
107,239,90623,1,10,0:2:0:0:
247,290,90966,6,0,P|281:337|339:329,1,123.499996702194,2|10,3:2|0:2,0:0:0:0:
419,280,91480,2,0,P|428:234|434:188,1,92.6249975266457,2|0,3:2|0:0,0:0:0:0:
434,188,91823,1,2,3:2:0:0:
405,103,91994,1,10,0:2:0:0:
405,103,92166,1,2,0:2:0:0:
271,60,92509,1,2,3:2:0:0:
271,60,92681,2,0,L|261:-2,1,61.7499983510972,10|2,0:2|3:2,0:0:0:0:
222,152,93023,2,0,L|160:161,1,61.7499983510972,2|2,0:2|3:2,0:0:0:0:
314,201,93366,1,10,0:2:0:0:
366,341,93709,6,0,B|308:328|312:379|249:367,2,123.499996702194,2|10|2,3:2|0:2|0:2,0:0:0:0:
395,259,94566,2,0,L|387:194,1,61.7499983510972,2|8,3:2|0:2,0:0:0:0:
324,132,94909,1,2,0:2:0:0:
462,72,95252,1,2,3:2:0:0:
462,72,95423,2,0,L|402:84,1,61.7499983510972,10|2,0:2|3:2,0:0:0:0:
348,37,95766,2,0,L|287:48,1,61.7499983510972,2|8,0:2|0:2,0:0:0:0:
287,48,96023,1,8,0:2:0:0:
287,48,96109,2,0,L|256:53,3,30.8749991755486,8|8|8|8,0:2|0:2|0:2|0:2,0:0:0:0:
224,74,96452,6,0,P|186:113|187:167,1,110.50000210762,6|8,3:2|0:2,0:0:0:0:
246,246,96966,1,0,3:2:0:0:
246,246,97137,2,0,L|355:228,1,110.50000210762,2|8,0:2|0:2,0:0:0:0:
268,328,97652,2,0,P|216:339|179:301,1,110.50000210762,2|0,0:2|3:2,0:0:0:0:
123,245,98166,1,8,0:2:0:0:
54,207,98337,1,2,3:2:0:0:
54,207,98509,2,0,L|0:216,1,55.2500010538101,2|2,0:2|3:2,0:0:0:0:
0,105,98852,2,0,L|54:95,1,55.2500010538101,10|2,0:2|0:2,0:0:0:0:
180,86,99194,6,0,P|134:112|135:165,1,110.50000210762,2|10,3:2|0:2,0:0:0:0:
209,212,99709,2,0,L|264:202,1,55.2500010538101,2|0,3:2|0:2,0:0:0:0:
324,257,100052,2,0,L|379:247,1,55.2500010538101,2|8,3:2|0:2,0:0:0:0:
486,229,100394,2,0,P|464:280|450:333,1,110.50000210762,2|0,0:2|3:2,0:0:0:0:
369,330,100909,1,8,0:2:0:0:
369,330,101080,1,0,3:2:0:0:
356,235,101252,2,0,P|329:243|303:253,1,55.2500010538101,2|0,0:2|3:2,0:0:0:0:
212,229,101594,1,8,0:2:0:0:
212,229,101766,1,2,0:2:0:0:
219,321,101937,6,0,L|112:350,1,110.50000210762,6|8,3:2|0:2,0:0:0:0:
32,320,102452,1,0,3:2:0:0:
32,320,102623,2,0,L|3:213,1,110.50000210762,2|8,0:2|0:2,0:0:0:0:
0,107,103137,2,0,B|50:88|89:118|65:143|99:168|141:160,1,165.75000316143,2|8,0:2|0:2,0:0:0:0:
201,62,103823,1,2,3:2:0:0:
201,62,103994,2,0,L|147:75,1,55.2500010538101,2|2,0:2|3:2,0:0:0:0:
208,212,104337,2,0,L|261:198,1,55.2500010538101,10|2,0:2|0:2,0:0:0:0:
342,241,104680,1,2,3:2:0:0:
332,62,105023,5,10,0:2:0:0:
332,62,105194,2,0,L|317:115,1,55.2500010538101,2|0,3:2|0:2,0:0:0:0:
356,187,105537,2,0,L|341:240,1,55.2500010538101,2|8,3:2|0:2,0:0:0:0:
270,312,105880,2,0,L|189:331,1,82.8750015807152,2|0,0:2|0:0,0:0:0:0:
189,331,106223,6,0,L|135:318,1,55.2500010538101,2|8,3:2|0:2,0:0:0:0:
53,229,106566,2,0,L|0:241,1,55.2500010538101,2|0,3:2|0:2,0:0:0:0:
118,37,107423,6,0,P|146:100|215:93,1,149.500002851486,6|10,3:2|0:2,0:0:0:0:
294,181,107937,2,0,P|328:120|396:134,1,149.500002851486,2|2,3:2|3:2,0:0:0:0:
256,368,108623,1,2,0:2:0:0:
256,368,108794,1,2,3:2:0:0:
165,319,108966,1,2,3:2:0:0:
215,237,109137,1,10,0:2:0:0:
142,138,109309,2,0,B|73:157|73:157|69:162|69:162|-1:181,1,149.500002851486,2|0,3:2|3:2,0:0:0:0:
107,247,109823,2,0,P|125:298|90:339,1,112.125002138615,8|0,0:2|0:0,0:0:0:0:
90,338,110166,6,0,L|18:361,1,74.7500014257431,2|2,3:2|0:2,0:0:0:0:
173,362,110509,1,10,0:2:0:0:
173,362,110680,1,2,3:2:0:0:
229,304,110851,2,0,L|214:230,1,74.7500014257431,2|2,0:2|3:2,0:0:0:0:
283,160,111194,2,0,L|358:170,1,74.7500014257431,10|2,0:2|0:2,0:0:0:0:
252,63,111537,5,2,3:2:0:0:
141,57,111708,1,2,3:2:0:0:
136,167,111879,1,10,0:2:0:0:
136,167,112051,1,2,3:2:0:0:
71,302,112394,1,2,3:2:0:0:
71,302,112566,2,0,P|35:307|0:320,1,74.7500014257431,8|2,0:2|0:2,0:0:0:0:
18,184,112909,6,0,P|70:203|125:211,1,112.125002138615,6|0,3:2|0:0,0:0:0:0:
125,211,113251,1,10,0:2:0:0:
213,155,113423,2,0,P|247:114|234:61,1,112.125002138615,2|0,3:2|0:0,0:0:0:0:
233,60,113766,2,0,P|299:36|348:88,1,149.500002851486,2|2,3:2|0:2,0:0:0:0:
414,182,114280,5,2,3:2:0:0:
343,255,114451,1,2,3:2:0:0:
400,347,114623,1,10,0:2:0:0:
280,377,114794,2,0,P|212:347|138:338,1,149.500002851486,2|0,3:2|3:2,0:0:0:0:
75,263,115309,2,0,P|45:218|67:169,1,112.125002138615,8|0,0:2|0:0,0:0:0:0:
66,168,115651,2,0,P|59:131|50:95,1,74.7500014257431,2|2,3:2|0:2,0:0:0:0:
154,84,115994,1,10,0:2:0:0:
154,84,116166,2,0,P|220:104|215:173,1,149.500002851486,2|2,3:2|3:2,0:0:0:0:
265,304,116680,2,0,P|272:267|281:231,1,74.7500014257431,8|2,0:2|0:2,0:0:0:0:
356,156,117023,6,0,L|509:201,1,149.500002851486,2|10,3:2|0:2,0:0:0:0:
452,90,117537,1,2,3:2:0:0:
268,8,117880,1,2,3:2:0:0:
268,8,118052,2,0,L|286:80,1,74.7500014257431,10|8,0:2|0:2,0:0:0:0:
214,159,118394,6,0,P|177:149|142:137,1,74.7500014257431,14|0,3:2|0:2,0:0:0:0:
79,237,118737,1,10,2:2:0:0:
78,237,118909,2,0,P|150:235|199:289,1,149.500002851486,2|2,3:2|3:2,0:0:0:0:
131,364,119423,2,0,P|96:351|60:342,1,74.7500014257431,10|2,2:2|0:2,0:0:0:0:
74,242,119766,1,10,3:2:0:0:
0,178,119937,1,2,3:2:0:0:
58,95,120109,1,10,2:2:0:0:
58,95,120280,2,0,L|154:112,1,74.7500014257431,2|8,3:2|2:2,0:0:0:0:
232,86,120623,1,0,3:2:0:0:
183,0,120794,1,8,2:2:0:0:
416,100,121137,6,0,L|342:113,1,74.7500014257431,14|0,3:2|0:2,0:0:0:0:
278,195,121480,2,0,L|292:269,1,74.7500014257431,10|2,2:2|3:2,0:3:0:0:
379,333,121823,2,0,L|452:319,1,74.7500014257431,10|2,2:2|3:2,0:0:0:0:
512,234,122166,2,0,L|498:160,1,74.7500014257431,10|2,2:2|0:2,0:3:0:0:
398,217,122509,1,10,3:2:0:0:
398,217,122680,1,2,3:2:0:0:
323,276,122851,1,10,2:2:0:0:
375,359,123023,1,2,3:2:0:0:
221,267,123366,5,2,3:2:0:0:
221,267,123537,2,0,P|205:233|200:196,1,74.7500014257431,10|2,2:2|0:2,0:0:0:0:
203,362,123880,2,0,P|230:299|296:318,1,149.500002851486,14|10,3:2|2:2,0:0:0:0:
339,234,124394,2,0,P|334:197|318:163,1,74.7500014257431,2|8,3:2|2:2,0:0:0:0:
221,92,124737,2,0,B|144:91|154:139|78:125,1,149.500002851486,2|2,3:2|0:2,0:0:0:0:
0,232,125251,5,10,3:2:0:0:
50,317,125423,1,2,3:2:0:0:
150,296,125594,1,10,2:2:0:0:
150,296,125766,2,0,L|172:224,1,74.7500014257431,2|8,3:2|2:2,0:3:0:0:
297,261,126109,1,0,3:2:0:0:
297,261,126280,2,0,L|274:332,1,74.7500014257431,8|0,2:2|0:2,0:3:0:0:
411,270,126623,5,14,3:2:0:0:
411,270,126794,1,2,0:2:0:0:
411,270,126966,2,0,P|418:235|400:203,1,74.7500014257431,10|2,2:2|3:2,0:0:0:0:
407,110,127309,2,0,P|443:99|478:86,1,74.7500014257431,10|2,2:2|3:2,0:0:0:0:
331,44,127652,2,0,P|294:54|259:67,1,74.7500014257431,10|2,2:2|0:2,0:0:0:0:
115,117,127994,6,0,P|181:139|182:209,1,149.500002851486,10|10,3:2|2:2,0:0:0:0:
47,292,128509,2,0,P|50:254|67:222,1,74.7500014257431,2|8,3:2|2:2,0:0:0:0:
66,222,128766,1,8,0:2:0:0:
66,222,128851,1,10,3:3:0:0:
146,303,129023,2,0,P|142:340|125:372,1,74.7500014257431,10|8,2:2|0:2,0:0:0:0:
125,373,129280,5,8,0:2:0:0:
125,373,129366,2,0,P|170:325|234:339,1,136.499995834351,6|8,3:2|0:2,0:0:0:0:
331,290,129880,2,0,P|344:226|297:180,1,136.499995834351,2|0,3:2|3:2,0:0:0:0:
198,130,130394,2,0,P|191:97|205:66,1,68.2499979171754,10|2,0:2|0:2,0:0:0:0:
331,35,130737,5,2,3:2:0:0:
406,91,130909,1,2,3:2:0:0:
350,166,131080,1,8,0:2:0:0:
275,110,131252,1,2,3:2:0:0:
275,110,131423,2,0,L|342:98,1,68.2499979171754,2|0,0:2|3:2,0:0:0:0:
276,249,131766,2,0,L|175:266,1,102.374996875763,8|0,0:2|0:0,0:0:0:0:
175,266,132109,6,0,B|242:267|235:314|298:317,1,136.499995834351,2|8,3:2|0:2,0:0:0:0:
392,263,132623,2,0,B|362:171|362:171|380:190|394:193,1,136.499995834351,2|0,3:2|3:2,0:0:0:0:
460,128,133137,1,10,0:2:0:0:
460,128,133309,1,2,0:2:0:0:
394,44,133480,6,0,L|259:68,1,136.499995834351,2|10,3:2|0:2,0:0:0:0:
212,166,133994,2,0,L|77:190,1,136.499995834351,2|0,3:2|3:2,0:0:0:0:
15,282,134509,1,8,0:2:0:0:
244,376,134852,2,0,P|278:340|265:293,1,102.374996875763,2|0,3:2|0:0,0:0:0:0:
265,293,135194,2,0,L|188:305,1,68.2499979171754,10|0,0:2|3:2,0:0:0:0:
342,227,135537,2,0,L|324:91,1,136.499995834351,2|10,0:2|0:2,0:0:0:0:
386,25,136052,1,2,0:2:0:0:
243,170,136394,5,2,3:2:0:0:
243,170,136566,2,0,L|176:155,1,68.2499979171754,8|2,0:2|3:2,0:0:0:0:
114,87,136909,2,0,L|128:20,1,68.2499979171754,2|0,0:2|3:2,0:0:0:0:
29,129,137252,2,0,L|14:195,1,68.2499979171754,10|2,0:2|0:2,0:0:0:0:
64,274,137594,1,2,3:2:0:0:
231,308,137937,6,0,P|194:361|130:351,2,136.499995834351,10|2|10,0:2|0:2|0:2,0:0:0:0:
387,196,138966,1,2,3:2:0:0:
454,267,139137,1,0,3:2:0:0:
385,330,139309,1,10,0:2:0:0:
385,330,139480,2,0,L|297:309,1,68.2499979171754,2|0,3:2|0:2,0:0:0:0:
251,259,139823,1,8,0:2:0:0:
251,259,139909,1,8,0:2:0:0:
251,259,139994,2,0,L|261:226,3,34.1249989585877,8|8|8|8,0:2|0:2|0:2|0:2,0:0:0:0:
246,190,140337,6,0,L|192:177,1,55.2500010538101,6|0,3:2|0:2,0:0:0:0:
189,77,140680,1,10,0:2:0:0:
189,77,140852,2,0,L|296:101,1,110.50000210762,2|0,3:2|3:2,0:0:0:0:
99,204,141537,5,2,0:2:0:0:
99,204,141709,2,0,L|45:191,1,55.2500010538101,2|2,0:2|3:2,0:0:0:0:
81,289,142052,2,0,L|27:276,1,55.2500010538101,10|2,0:2|3:2,0:0:0:0:
61,374,142394,2,0,L|7:361,2,55.2500010538101,2|2|10,0:2|3:2|0:2,0:0:0:0:
235,222,143080,6,0,P|279:252|271:303,1,110.50000210762,2|10,3:2|0:2,0:0:0:0:
215,361,143594,2,0,L|161:347,1,55.2500010538101,2|0,3:2|0:2,0:0:0:0:
141,249,143937,2,0,L|87:235,1,55.2500010538101,2|8,3:2|0:2,0:0:0:0:
25,140,144280,1,2,0:2:0:0:
25,140,144452,2,0,P|53:95|106:96,2,110.50000210762,2|8|2,0:2|0:2|0:2,0:0:0:0:
87,235,145309,1,0,3:2:0:0:
87,235,145480,2,0,L|141:249,1,55.2500010538101,8|0,0:2|0:2,0:0:0:0:
249,182,145823,6,0,L|274:74,2,110.50000210762,6|10|2,3:2|0:2|0:2,0:0:0:0:
311,286,146680,2,0,B|356:305|392:282|374:251|412:225|456:241,1,165.75000316143,2|2,3:2|0:2,0:0:0:0:
512,102,147537,1,10,0:2:0:0:
512,102,147709,2,0,L|457:91,1,55.2500010538101,2|2,3:2|0:2,0:0:0:0:
353,0,148052,1,0,3:2:0:0:
353,0,148223,2,0,L|366:56,1,55.2500010538101,10|2,0:2|0:3,0:0:0:0:
292,124,148566,6,0,L|313:232,1,110.50000210762,2|10,3:2|0:2,0:0:0:0:
244,302,149080,2,0,L|255:356,1,55.2500010538101,2|0,3:2|0:2,0:0:0:0:
153,271,149423,1,2,3:2:0:0:
153,271,149594,1,10,0:2:0:0:
153,271,149766,2,0,L|138:189,1,82.8750015807152,2|0,0:2|0:0,0:0:0:0:
138,189,150109,6,0,L|153:136,1,55.2500010538101,4|8,3:2|0:2,0:0:0:0:
71,72,150452,2,0,L|85:18,1,55.2500010538101,4|0,3:2|0:2,0:0:0:0:
303,0,151309,6,0,L|268:145,1,149.500002851486,6|10,3:2|0:2,0:0:0:0:
354,234,151823,2,0,L|388:88,1,149.500002851486,2|2,3:2|3:2,0:0:0:0:
171,203,152509,1,2,0:2:0:0:
171,203,152680,1,2,3:2:0:0:
164,303,152852,1,2,3:2:0:0:
267,313,153023,1,10,0:2:0:0:
267,313,153195,2,0,P|195:313|165:378,1,149.500002851486,2|0,3:2|3:2,0:0:0:0:
55,292,153709,2,0,P|95:257|81:205,1,112.125002138615,8|0,0:2|0:0,0:0:0:0:
81,205,154052,6,0,P|57:179|60:142,1,74.7500014257431,2|2,3:2|0:2,0:0:0:0:
81,62,154395,1,10,0:2:0:0:
81,62,154566,1,2,3:2:0:0:
153,104,154737,2,0,P|177:130|174:167,1,74.7500014257431,2|2,0:2|3:2,0:0:0:0:
228,254,155080,2,0,P|264:248|301:245,1,74.7500014257431,10|2,0:2|0:2,0:0:0:0:
387,200,155423,5,2,3:2:0:0:
438,122,155594,1,2,3:2:0:0:
386,48,155765,1,10,0:2:0:0:
386,48,155937,1,2,3:2:0:0:
216,0,156280,1,2,3:2:0:0:
216,0,156452,2,0,P|232:33|242:69,1,74.7500014257431,10|2,0:2|0:2,0:0:0:0:
143,143,156794,6,0,P|119:193|110:248,1,112.125002138615,6|0,3:2|0:0,0:0:0:0:
109,248,157137,1,10,0:2:0:0:
39,334,157309,2,0,L|148:357,1,112.125002138615,2|0,3:2|0:0,0:0:0:0:
148,357,157652,2,0,B|194:341|194:341|209:294|209:294|258:280,1,149.500002851486,2|2,3:2|0:2,0:0:0:0:
393,221,158166,5,2,3:2:0:0:
455,142,158337,1,2,3:2:0:0:
397,63,158509,1,10,0:2:0:0:
397,63,158680,2,0,L|252:101,1,149.500002851486,2|0,3:2|3:2,0:0:0:0:
203,16,159194,2,0,P|154:39|151:93,1,112.125002138615,8|0,0:2|0:0,0:0:0:0:
150,91,159537,2,0,L|165:163,1,74.7500014257431,2|2,3:2|0:2,0:0:0:0:
110,278,159880,1,10,0:2:0:0:
110,278,160052,2,0,L|257:252,1,149.500002851486,2|2,3:2|3:2,0:0:0:0:
215,363,160566,2,0,L|288:348,1,74.7500014257431,10|2,0:2|0:2,0:0:0:0:
386,369,160909,5,6,3:2:0:0:
386,369,161080,1,4,3:2:0:0:
405,9,161937,2,0,P|442:34|439:79,1,92.6249975266457,14|0,0:2|0:0,0:0:0:0:
439,77,162280,6,0,P|429:112|422:149,1,74.7500014257431,14|2,3:2|0:2,0:0:0:0:
358,246,162623,1,10,0:2:0:0:
358,246,162794,2,0,P|340:173|315:103,1,149.500002851486,2|2,3:2|3:2,0:0:0:0:
235,37,163309,2,0,P|224:72|217:109,1,74.7500014257431,10|2,0:2|0:2,0:0:0:0:
122,168,163652,1,10,3:2:0:0:
69,260,163823,1,2,3:2:0:0:
143,337,163995,1,10,0:2:0:0:
143,337,164166,2,0,L|216:323,1,74.7500014257431,2|8,3:2|0:2,0:0:0:0:
308,368,164509,1,0,3:2:0:0:
356,282,164680,1,8,0:2:0:0:
452,66,165023,6,0,L|431:137,1,74.7500014257431,14|2,3:2|0:2,0:0:0:0:
366,15,165366,2,0,L|345:86,1,74.7500014257431,10|2,0:2|3:2,0:0:0:0:
244,115,165709,2,0,L|264:186,1,74.7500014257431,10|2,0:2|3:2,0:0:0:0:
158,166,166052,2,0,L|178:237,1,74.7500014257431,10|2,0:2|0:2,0:0:0:0:
83,353,166395,1,10,3:2:0:0:
83,353,166566,1,2,3:2:0:0:
13,288,166737,1,10,0:2:0:0:
73,218,166909,1,2,3:2:0:0:
186,46,167252,5,2,3:2:0:0:
186,46,167423,2,0,P|149:51|115:67,1,74.7500014257431,10|2,0:2|0:2,0:0:0:0:
199,170,167766,2,0,P|273:163|344:141,1,149.500002851486,14|10,3:2|0:2,0:0:0:0:
420,188,168280,2,0,P|444:216|442:253,1,74.7500014257431,2|8,3:2|0:2,0:0:0:0:
364,357,168623,2,0,P|317:301|328:229,1,149.500002851486,2|2,3:2|0:2,0:0:0:0:
288,120,169137,5,10,3:2:0:0:
217,42,169309,1,2,3:2:0:0:
127,91,169480,1,10,0:2:0:0:
127,91,169652,2,0,L|149:163,1,74.7500014257431,2|8,3:2|0:2,0:0:0:0:
71,226,169995,1,0,3:2:0:0:
71,226,170166,2,0,L|0:203,1,74.7500014257431,8|0,0:2|0:2,0:0:0:0:
122,318,170509,5,14,3:2:0:0:
122,318,170680,1,2,0:2:0:0:
122,318,170852,2,0,L|193:341,1,74.7500014257431,10|2,0:2|3:2,0:0:0:0:
301,298,171195,2,0,P|323:269|325:232,1,74.7500014257431,10|2,0:2|3:2,0:0:0:0:
208,148,171537,2,0,P|185:118|183:81,1,74.7500014257431,10|0,0:2|0:2,0:0:0:0:
271,91,171880,6,0,L|235:236,1,149.500002851486,10|10,3:2|0:2,0:0:0:0:
312,327,172394,2,0,L|384:346,1,74.7500014257431,2|8,3:2|0:2,0:0:0:0:
384,346,172652,1,8,0:2:0:0:
384,346,172737,1,10,3:3:0:0:
485,259,172909,2,0,L|412:239,1,74.7500014257431,10|8,0:2|0:2,0:0:0:0:
412,239,173167,5,8,0:2:0:0:
411,238,173252,2,0,P|379:181|410:123,1,136.499995834351,6|8,3:2|0:2,0:0:0:0:
274,48,173766,2,0,P|288:114|298:182,1,136.499995834351,2|0,3:2|3:2,0:0:0:0:
242,269,174280,2,0,P|208:305|159:300,1,102.374996875763,10|0,0:2|0:0,0:0:0:0:
158,299,174623,5,2,3:2:0:0:
69,272,174794,1,2,3:2:0:0:
99,184,174966,2,0,L|113:117,1,68.2499979171754,8|2,0:2|3:2,0:0:0:0:
232,35,175309,2,0,L|217:101,1,68.2499979171754,2|0,0:2|3:2,0:0:0:0:
285,190,175652,2,0,L|386:176,1,102.374996875763,10|0,0:2|0:0,0:0:0:0:
386,176,175994,5,2,3:2:0:0:
512,189,176166,2,0,P|456:223|460:288,1,136.499995834351,2|2,0:2|3:2,0:0:0:0:
386,363,176680,2,0,P|381:329|372:296,1,68.2499979171754,0|0,0:2|3:2,0:0:0:0:
287,263,177023,2,0,P|282:229|273:196,1,68.2499979171754,10|0,0:2|0:2,0:0:0:0:
205,108,177366,1,2,3:2:0:0:
205,108,177537,2,0,P|150:140|163:203,2,136.499995834351,2|2|2,3:2|3:2|3:2,0:0:0:0:
283,29,178394,5,10,0:2:0:0:
283,29,178566,1,2,0:2:0:0:
283,29,178737,2,0,L|418:48,1,136.499995834351,14|8,3:2|0:2,0:0:0:0:
272,118,179252,1,2,3:2:0:0:
272,118,179423,2,0,L|204:107,1,68.2499979171754,8|0,0:2|3:2,0:0:0:0:
141,181,179766,2,0,L|73:170,1,68.2499979171754,10|0,0:2|0:2,0:0:0:0:
2,232,180109,5,10,3:2:0:0:
2,232,180280,1,2,3:2:0:0:
49,309,180452,2,0,L|116:319,1,68.2499979171754,8|2,0:2|3:2,0:0:0:0:
214,369,180794,2,0,P|255:317|243:252,1,136.499995834351,8|10,0:2|0:2,0:0:0:0:
141,181,181309,5,0,0:2:0:0:
141,181,181480,2,0,P|99:129|111:64,1,136.499995834351,14|8,3:2|0:2,0:0:0:0:
216,38,181994,1,2,3:2:0:0:
215,38,182166,2,0,P|203:70|198:103,1,68.2499979171754,8|0,0:2|3:2,0:0:0:0:
198,103,182423,1,0,3:2:0:0:
198,103,182509,1,10,0:2:0:0:
268,185,182680,1,8,0:2:0:0:
359,143,182852,1,10,3:2:0:0:
359,143,183023,2,0,L|353:109,2,34.1249989585877,10|8|8,0:2|0:2|0:2,0:0:0:0:
445,237,183366,5,10,0:2:0:0:
445,237,183537,2,0,L|512:228,1,68.2499979171754,10|10,3:3|3:3,0:0:0:0:
393,350,183880,2,0,L|325:358,1,68.2499979171754,6|6,3:3|3:3,0:0:0:0:
233,313,184223,1,6,3:2:0:0:
288,230,184394,1,6,3:2:0:0:
256,192,184480,12,0,189709,0:0:0:0:
