osu file format v14

[General]
AudioFilename: audio.mp3
AudioLeadIn: 0
PreviewTime: 150709
Countdown: 0
SampleSet: Soft
StackLeniency: 0.4
Mode: 0
LetterboxInBreaks: 0
WidescreenStoryboard: 0

[Editor]
DistanceSpacing: 0.5
BeatDivisor: 4
GridSize: 32
TimelineZoom: 2.7

[Metadata]
Title:Monochrome Butterfly
TitleUnicode:Monochrome Butterfly
Artist:Aitsuki Nakuru
ArtistUnicode:藍月なくる
Creator:FuJu
Version:Excitement
Source:
Tags:よーすけ@KG Yosuke@KG トコロクラニスト elicz1 gibune deca amateurre mnyui gelidium jpop j-pop japanese pop tokoro cranist mpg fa featured artist mappers' guild
BeatmapID:2997438
BeatmapSetID:1458599

[Difficulty]
HPDrainRate:6
CircleSize:4.5
OverallDifficulty:8.8
ApproachRate:9.3
SliderMultiplier:1.7
SliderTickRate:1

[Events]
//Background and Video events
0,0,"hi airin and akito.jpg",0,0
//Break Periods
//Storyboard Layer 0 (Background)
//Storyboard Layer 1 (Fail)
//Storyboard Layer 2 (Pass)
//Storyboard Layer 3 (Foreground)
//Storyboard Layer 4 (Overlay)
//Storyboard Sound Samples

[TimingPoints]
452,342.857142857143,4,2,11,45,1,0
1823,-100,4,2,11,60,0,0
2852,-222.222222222221,4,2,11,50,0,0
3109,-222.222222222221,4,2,11,5,0,0
3194,-100,4,2,11,60,0,0
5252,-95.2380952380951,4,2,11,70,0,0
5852,-95.2380952380951,4,2,11,5,0,0
5937,-95.2380952380951,4,2,11,70,0,0
8337,-222.222222222221,4,2,11,50,0,0
8594,-222.222222222221,4,2,11,5,0,0
8680,-95.2380952380951,4,2,11,70,0,0
11337,-95.2380952380951,4,2,11,5,0,0
11423,-95.2380952380951,4,2,11,70,0,0
14166,-117.647058823529,4,2,11,55,0,0
16823,-222.222222222221,4,2,11,5,0,0
16909,-117.647058823529,4,2,11,55,0,0
18366,-222.222222222221,4,2,11,5,0,0
18452,-117.647058823529,4,2,11,55,0,0
22652,-222.222222222221,4,2,11,5,0,0
22737,-117.647058823529,4,2,11,55,0,0
25137,-95.2380952380951,4,2,11,70,0,0
27794,-95.2380952380951,4,2,11,5,0,0
27880,-95.2380952380951,4,2,11,70,0,0
30623,-117.647058823529,4,2,11,55,0,0
30880,-222.222222222221,4,2,11,5,0,0
30966,-117.647058823529,4,2,11,55,0,0
39109,-222.222222222221,4,2,11,5,0,0
39194,-117.647058823529,4,2,11,55,0,0
41594,-133.333333333333,4,2,11,50,0,0
52052,-133.333333333333,4,2,11,40,0,0
52566,-86.9565217391303,4,2,11,80,0,0
55223,-86.9565217391303,4,2,11,5,0,0
55309,-86.9565217391303,4,2,11,80,0,0
58309,-86.9565217391303,4,2,11,5,0,0
58395,-86.9565217391303,4,2,11,80,0,0
58823,-86.9565217391303,4,2,11,5,0,0
58909,-86.9565217391303,4,2,11,80,0,0
60194,-86.9565217391303,4,2,11,5,0,0
60280,-86.9565217391303,4,2,11,80,0,0
69280,-86.9565217391303,4,2,11,5,0,0
69366,-86.9565217391303,4,2,11,80,0,0
74852,-95.2380952380952,4,2,11,70,0,0
77166,-95.2380952380952,4,2,11,5,0,0
77252,-95.2380952380952,4,2,11,70,0,0
79909,-95.2380952380952,4,2,11,5,0,0
79995,-95.2380952380952,4,2,11,70,0,0
82652,-95.2380952380952,4,2,11,5,0,0
82738,-95.2380952380952,4,2,11,70,0,0
84109,-222.222222222221,4,2,11,50,0,0
84366,-222.222222222221,4,2,11,5,0,0
84452,-222.222222222221,4,2,11,40,0,0
85480,-105.263157894737,4,2,11,60,0,0
85737,-105.263157894737,4,2,11,5,0,0
85823,-105.263157894737,4,2,11,60,0,0
88137,-105.263157894737,4,2,11,5,0,0
88223,-105.263157894737,4,2,11,60,0,0
90880,-105.263157894737,4,2,11,5,0,0
90966,-105.263157894737,4,2,11,60,0,0
91223,-105.263157894737,4,2,11,5,0,0
91309,-105.263157894737,4,2,11,60,0,0
91737,-105.263157894737,4,2,11,5,0,0
91823,-105.263157894737,4,2,11,60,0,0
93623,-105.263157894737,4,2,11,5,0,0
93709,-105.263157894737,4,2,11,60,0,0
96452,-117.64705882353,4,2,11,55,0,0
99452,-117.64705882353,4,2,11,5,0,0
99537,-117.64705882353,4,2,11,55,0,0
101852,-117.64705882353,4,2,11,5,0,0
101937,-117.64705882353,4,2,11,55,0,0
104937,-117.64705882353,4,2,11,5,0,0
105022,-117.64705882353,4,2,11,55,0,0
106137,-117.64705882353,4,2,11,5,0,0
106222,-117.64705882353,4,2,11,70,0,0
106909,-117.64705882353,4,2,11,40,0,0
107423,-86.9565217391307,4,2,11,80,0,0
110080,-86.9565217391307,4,2,11,5,0,0
110166,-86.9565217391307,4,2,11,80,0,0
113680,-86.9565217391307,4,2,11,5,0,0
113766,-86.9565217391307,4,2,11,80,0,0
115052,-86.9565217391307,4,2,11,5,0,0
115138,-86.9565217391307,4,2,11,80,0,0
117794,-86.9565217391307,4,2,11,5,0,0
117880,-86.9565217391307,4,2,11,80,0,0
121052,-86.9565217391307,4,2,11,5,0,0
121138,-86.9565217391307,4,2,11,80,0,0
124137,-86.9565217391307,4,2,11,5,0,0
124223,-86.9565217391307,4,2,11,80,0,0
126537,-86.9565217391307,4,2,11,5,0,0
126623,-86.9565217391307,4,2,11,80,0,0
129366,-95.2380952380952,4,2,11,70,0,0
135794,-95.2380952380952,4,2,11,5,0,0
135880,-95.2380952380952,4,2,11,70,0,0
136823,-95.2380952380952,4,2,11,5,0,0
136909,-95.2380952380952,4,2,11,70,0,0
137852,-95.2380952380952,4,2,11,5,0,0
137938,-95.2380952380952,4,2,11,70,0,0
140337,-105.263157894737,4,2,11,60,0,0
140594,-105.263157894737,4,2,11,5,0,0
140680,-105.263157894737,4,2,11,60,0,0
142994,-105.263157894737,4,2,11,5,0,0
143080,-105.263157894737,4,2,11,60,0,0
143852,-105.263157894737,4,2,11,5,0,0
143938,-105.263157894737,4,2,11,60,0,0
144194,-105.263157894737,4,2,11,5,0,0
144280,-105.263157894737,4,2,11,60,0,0
145737,-105.263157894737,4,2,11,5,0,0
145823,-105.263157894737,4,2,11,60,0,0
146080,-105.263157894737,4,2,11,5,0,0
146166,-105.263157894737,4,2,11,60,0,0
146423,-105.263157894737,4,2,11,5,0,0
146509,-105.263157894737,4,2,11,60,0,0
150109,-105.263157894737,4,2,11,70,0,0
150794,-105.263157894737,4,2,11,40,0,0
151309,-86.9565217391307,4,2,11,80,0,0
153966,-86.9565217391307,4,2,11,5,0,0
154052,-86.9565217391307,4,2,11,80,0,0
157052,-86.9565217391307,4,2,11,5,0,0
157138,-86.9565217391307,4,2,11,80,0,0
157566,-86.9565217391307,4,2,11,5,0,0
157652,-86.9565217391307,4,2,11,80,0,0
158937,-86.9565217391307,4,2,11,5,0,0
159023,-86.9565217391307,4,2,11,80,0,0
159452,-86.9565217391307,4,2,11,5,0,0
159538,-86.9565217391307,4,2,11,80,0,0
161937,-76.9230769230769,4,2,11,85,0,0
162194,-76.9230769230769,4,2,11,5,0,0
162280,-86.9565217391307,4,2,11,80,0,0
163309,-86.9565217391307,4,2,11,80,0,0
168023,-86.9565217391307,4,2,11,5,0,0
168109,-86.9565217391307,4,2,11,80,0,0
169394,-86.9565217391307,4,2,11,5,0,0
169480,-86.9565217391307,4,2,11,80,0,0
170423,-86.9565217391307,4,2,11,5,0,0
170509,-86.9565217391307,4,2,11,80,0,0
171880,-86.9565217391307,4,2,11,80,0,0
173251,-86.9565217391307,4,2,11,80,0,0
173252,-95.2380952380952,4,2,11,70,0,0
173509,-95.2380952380952,4,2,11,5,0,0
173595,-95.2380952380952,4,2,11,70,0,0
174023,-95.2380952380952,4,2,11,5,0,0
174109,-95.2380952380952,4,2,11,70,0,0
176766,-95.2380952380952,4,2,11,5,0,0
176852,-95.2380952380952,4,2,11,70,0,0
177280,-95.2380952380952,4,2,11,5,0,0
177366,-95.2380952380952,4,2,11,70,0,0
178737,-86.9565217391307,4,2,11,80,0,0
178994,-86.9565217391304,4,2,11,5,0,0
179080,-86.9565217391304,4,2,11,80,0,0
189709,-86.9565217391304,4,2,11,5,0,0

[Colours]
Combo1 : 53,154,255
Combo2 : 207,134,251
Combo3 : 125,255,125
Combo4 : 149,74,74

[HitObjects]
352,18,1823,5,10,3:2:0:0:
352,18,1994,1,0,3:2:0:0:
352,18,2166,1,0,3:2:0:0:
132,223,2337,5,0,3:2:0:0:
182,88,2509,1,2,3:2:0:0:
350,124,2680,1,2,3:2:0:0:
70,176,2852,6,0,L|13:165,1,57.374998249054,14|0,0:2|0:0,0:0:0:0:
14,174,3194,5,6,3:2:0:0:
81,80,3366,1,2,0:2:0:0:
196,214,3537,1,8,2:2:0:0:
95,290,3709,1,2,3:2:0:0:
175,109,3880,1,0,0:2:0:0:
356,190,4052,1,0,3:2:0:0:
275,370,4223,1,10,2:2:0:0:
275,370,4394,1,0,0:2:0:0:
275,370,4566,5,2,3:2:0:0:
500,170,4737,1,2,3:2:0:0:
237,141,4909,1,8,2:2:0:0:
452,374,5080,1,2,3:2:0:0:
422,151,5252,2,0,L|335:170,1,89.2499972763062,2|0,0:2|3:2,0:0:0:0:
148,126,5594,2,0,P|114:69|122:3,1,133.874995914459,10|0,2:2|0:0,0:0:0:0:
237,141,5937,6,0,B|151:118|151:208|71:178,1,178.499994552612,2|8,3:2|2:2,0:0:0:0:
206,347,6452,1,2,3:2:0:0:
284,233,6623,1,0,0:2:0:0:
417,289,6794,1,0,3:2:0:0:
193,248,6966,1,10,2:2:0:0:
193,248,7137,1,0,0:2:0:0:
193,248,7309,5,2,3:2:0:0:
287,165,7480,1,2,3:2:0:0:
169,126,7652,1,8,2:2:0:0:
258,384,7823,5,2,3:2:0:0:
415,245,7994,1,2,0:2:0:0:
217,179,8166,1,0,3:2:0:0:
383,350,8337,6,0,L|440:361,1,57.374998249054,10|0,2:2|0:0,0:0:0:0:
322,263,8680,6,0,P|396:228|374:149,1,178.499994552612,6|8,3:2|2:2,0:0:0:0:
116,37,9194,1,2,3:2:0:0:
149,204,9366,1,0,0:2:0:0:
295,106,9537,1,0,3:2:0:0:
383,350,9709,1,10,2:2:0:0:
383,350,9880,1,0,0:2:0:0:
383,350,10052,5,2,3:2:0:0:
433,262,10223,1,2,3:2:0:0:
245,194,10394,1,8,2:2:0:0:
295,106,10565,1,2,3:2:0:0:
506,121,10737,6,0,P|462:129|418:139,1,89.2499972763062,2|0,0:2|3:2,0:0:0:0:
193,288,11080,2,0,P|258:275|323:260,1,133.874995914459,10|0,2:2|0:0,0:0:0:0:
323,260,11423,6,0,P|314:216|304:172,1,89.2499972763062,2|2,3:2|0:2,0:0:0:0:
339,35,11766,1,8,2:2:0:0:
441,4,11937,1,2,3:2:0:0:
504,89,12109,1,0,0:2:0:0:
401,121,12280,1,0,3:2:0:0:
237,10,12452,1,10,2:2:0:0:
237,10,12623,1,0,0:2:0:0:
237,10,12794,5,2,3:2:0:0:
164,81,12965,1,2,3:2:0:0:
221,149,13136,1,8,2:2:0:0:
405,192,13309,5,2,3:2:0:0:
478,263,13480,1,2,3:2:0:0:
421,331,13652,2,0,L|377:321,1,44.6249986381531,10|0,2:2|0:0,0:0:0:0:
308,123,13823,2,0,L|351:132,1,44.6249986381531,10|0,2:2|0:0,0:0:0:0:
405,192,13994,5,10,2:2:0:0:
411,197,14080,1,10,2:2:0:0:
415,202,14166,2,0,P|426:148|433:95,1,108.375002067089,6|0,3:2|0:0,0:0:0:0:
485,45,14509,1,10,2:2:0:0:
318,201,14680,2,0,L|247:186,1,72.2500013780594,2|0,3:2|0:2,0:0:0:0:
77,152,15023,1,2,3:2:0:0:
14,222,15194,1,10,2:2:0:0:
70,287,15366,2,0,L|140:302,1,72.2500013780594,2|0,0:2|3:2,0:0:0:0:
244,144,15709,5,2,3:2:0:0:
286,37,15880,1,8,2:2:0:0:
138,98,16051,1,0,3:2:0:0:
199,246,16222,1,2,0:2:0:0:
347,185,16394,1,2,3:2:0:0:
427,382,16566,2,0,L|449:275,1,108.375002067089,10|0,2:2|0:0,0:0:0:0:
448,275,16909,6,0,L|462:204,1,72.2500013780594,2|0,3:2|0:2,0:0:0:0:
244,144,17252,1,10,2:2:0:0:
362,27,17423,2,0,L|347:97,1,72.2500013780594,2|0,3:2|0:2,0:0:0:0:
217,325,17766,1,2,3:2:0:0:
128,283,17937,1,10,2:2:0:0:
159,184,18109,2,0,P|191:142|243:143,1,108.375002067089,2|0,0:2|0:0,0:0:0:0:
242,142,18452,1,2,3:2:0:0:
330,221,18623,5,10,2:2:0:0:
243,249,18794,1,2,3:2:0:0:
339,354,18966,1,2,0:2:0:0:
426,326,19137,1,2,3:2:0:0:
243,249,19309,2,0,L|226:319,1,72.2500013780594,10|0,2:2|0:2,0:0:0:0:
413,191,19652,6,0,L|429:120,1,72.2500013780594,2|0,3:2|0:2,0:0:0:0:
336,134,19994,1,10,2:2:0:0:
512,261,20166,2,0,L|441:277,1,72.2500013780594,2|0,3:2|0:2,0:0:0:0:
269,288,20509,1,2,3:2:0:0:
197,223,20680,1,10,2:2:0:0:
266,150,20852,2,0,L|336:133,1,72.2500013780594,2|0,0:2|3:2,0:0:0:0:
128,13,21194,5,2,3:2:0:0:
197,86,21366,1,10,2:2:0:0:
125,151,21537,1,2,3:2:0:0:
269,288,21709,1,2,0:2:0:0:
269,288,21880,1,2,3:2:0:0:
269,288,22052,2,0,L|198:304,1,72.2500013780594,10|0,2:2|0:2,0:0:0:0:
11,202,22394,6,0,P|44:160|96:159,1,108.375002067089,2|0,3:2|0:0,0:0:0:0:
96,159,22737,2,0,L|112:229,1,72.2500013780594,10|2,2:2|3:2,0:0:0:0:
241,150,23080,1,2,0:2:0:0:
218,22,23252,2,0,L|201:92,1,72.2500013780594,2|8,3:2|2:2,0:0:0:0:
294,203,23594,2,0,B|364:218|352:156|429:169,1,144.500002756119,2|2,0:2|3:2,0:0:0:0:
478,337,24109,1,10,2:2:0:0:
400,384,24280,1,2,3:2:0:0:
353,306,24452,1,2,0:2:0:0:
353,306,24623,1,0,3:2:0:0:
428,169,24794,6,0,L|418:203,1,36.1250006890297,10|0,2:2|0:0,0:0:0:0:
253,286,24966,1,10,2:2:0:0:
259,289,25052,1,10,2:2:0:0:
265,292,25137,2,0,L|285:378,1,89.2499972763062,6|2,3:2|0:2,0:0:0:0:
350,175,25480,2,0,L|329:88,1,89.2499972763062,8|2,2:2|3:2,0:0:0:0:
167,33,25823,1,0,0:2:0:0:
113,131,25994,1,0,3:2:0:0:
210,191,26166,1,10,2:2:0:0:
210,191,26337,1,0,0:2:0:0:
210,191,26509,5,2,3:2:0:0:
65,300,26680,1,2,3:2:0:0:
349,225,26852,1,8,2:2:0:0:
204,334,27023,1,2,3:2:0:0:
98,218,27194,2,0,L|112:130,1,89.2499972763062,2|0,0:2|3:2,0:0:0:0:
303,0,27537,2,0,P|350:42|334:104,1,133.874995914459,10|0,2:2|0:0,0:0:0:0:
334,104,27880,6,0,L|246:89,1,89.2499972763062,2|2,3:2|0:2,0:0:0:0:
287,352,28223,1,8,2:2:0:0:
434,252,28394,1,2,3:2:0:0:
334,104,28566,1,0,0:2:0:0:
188,204,28737,1,0,3:2:0:0:
320,229,28909,1,10,2:2:0:0:
320,229,29080,1,0,0:2:0:0:
320,229,29252,5,2,3:2:0:0:
182,320,29423,1,2,3:2:0:0:
434,252,29594,1,8,2:2:0:0:
262,91,29765,1,2,3:2:0:0:
390,366,29937,1,2,0:2:0:0:
415,112,30109,1,10,2:2:0:0:
412,118,30280,1,10,2:2:0:0:
409,124,30452,2,0,L|419:168,1,44.6249986381531,10|0,0:2|0:0,0:0:0:0:
302,302,30623,6,0,L|286:194,1,108.375002067089,6|0,3:2|0:0,0:0:0:0:
327,127,30966,1,10,2:2:0:0:
497,257,31137,2,0,L|485:185,1,72.2500013780594,2|0,3:2|0:2,0:0:0:0:
310,9,31480,1,2,3:2:0:0:
255,80,31652,1,10,2:2:0:0:
327,127,31823,2,0,L|398:115,1,72.2500013780594,2|0,0:2|3:2,0:0:0:0:
319,340,32166,5,2,3:2:0:0:
232,287,32337,1,10,2:2:0:0:
286,194,32509,1,2,3:2:0:0:
286,194,32680,2,0,L|214:205,1,72.2500013780594,2|2,0:2|3:2,0:0:0:0:
140,324,33023,2,0,L|68:335,1,72.2500013780594,10|0,2:2|0:2,0:0:0:0:
33,154,33366,5,2,3:2:0:0:
139,186,33537,1,2,0:2:0:0:
117,76,33709,1,10,2:2:0:0:
229,283,33880,2,0,P|273:230|342:238,1,144.500002756119,2|2,3:2|3:2,0:0:0:0:
468,121,34394,1,10,2:2:0:0:
474,122,34480,1,2,0:2:0:0:
478,125,34566,2,0,P|454:149|418:149,1,72.2500013780594,2|0,0:2|3:2,0:0:0:0:
286,216,34909,5,2,3:2:0:0:
199,139,35080,1,10,2:2:0:0:
276,46,35252,1,2,3:2:0:0:
417,148,35423,2,0,P|405:182|399:217,1,72.2500013780594,2|2,0:2|3:2,0:0:0:0:
213,332,35766,2,0,P|224:297|230:262,1,72.2500013780594,10|0,2:2|0:2,0:0:0:0:
483,285,36109,6,0,P|411:297|342:318,1,144.500002756119,2|10,3:2|2:2,0:0:0:0:
318,148,36623,2,0,P|283:159|248:167,1,72.2500013780594,2|0,3:2|0:2,0:0:0:0:
0,109,36966,1,2,3:2:0:0:
38,29,37137,1,10,2:2:0:0:
133,38,37309,2,0,P|140:73|152:107,1,72.2500013780594,2|0,0:2|3:2,0:0:0:0:
313,258,37652,5,2,3:2:0:0:
248,167,37823,1,10,2:2:0:0:
248,167,37994,2,0,B|316:152|324:210|386:188,1,144.500002756119,2|2,3:2|3:2,0:0:0:0:
244,341,38509,2,0,L|172:331,1,72.2500013780594,10|0,2:2|0:2,0:0:0:0:
74,216,38852,6,0,P|56:166|82:120,1,108.375002067089,2|0,3:2|0:0,0:0:0:0:
82,120,39194,2,0,P|93:86|75:56,1,72.2500013780594,10|0,2:2|3:2,0:0:0:0:
145,248,39537,1,2,0:2:0:0:
199,193,39709,2,0,L|270:202,1,72.2500013780594,2|8,3:2|2:2,0:0:0:0:
348,363,40052,2,0,L|491:381,1,144.500002756119,2|2,0:2|3:2,0:0:0:0:
434,193,40566,1,10,2:2:0:0:
307,288,40737,1,2,3:2:0:0:
307,288,40909,1,2,0:2:0:0:
250,46,41080,5,8,0:2:0:0:
278,52,41165,1,8,0:2:0:0:
303,67,41251,1,8,2:2:0:0:
321,89,41337,1,8,0:2:0:0:
331,117,41422,1,8,0:2:0:0:
330,146,41508,1,8,0:2:0:0:
318,173,41594,6,0,B|258:187|266:132|198:143,1,127.500004863739,6|8,3:2|2:2,0:0:0:0:
56,257,42109,1,0,3:2:0:0:
56,257,42280,2,0,L|118:244,1,63.7500024318696,2|0,0:2|3:2,0:0:0:0:
199,143,42623,1,8,2:2:0:0:
199,143,42794,2,0,L|171:18,1,127.500004863739,2|0,0:2|3:2,0:0:0:0:
362,211,43309,2,0,L|299:223,1,63.7500024318696,8|2,2:2|3:2,0:0:0:0:
150,325,43652,5,2,0:2:0:0:
218,362,43823,1,2,3:2:0:0:
255,294,43994,1,10,2:2:0:0:
187,257,44166,1,2,0:2:0:0:
324,336,44337,6,0,L|386:323,1,63.7500024318696,2|0,3:2|0:2,0:0:0:0:
456,157,44680,1,10,2:2:0:0:
486,232,44852,2,0,P|443:187|382:195,2,127.500004863739,2|2|2,3:2|3:2|0:2,0:0:0:0:
308,149,45709,2,0,L|319:86,1,63.7500024318696,2|0,0:2|3:2,0:0:0:0:
240,183,46052,1,8,2:2:0:0:
240,183,46223,1,0,3:2:0:0:
388,119,46394,2,0,L|399:56,1,63.7500024318696,2|0,0:2|3:2,0:0:0:0:
240,183,46737,1,8,2:2:0:0:
240,183,46908,1,0,0:2:0:0:
185,241,47080,6,0,L|211:366,1,127.500004863739,6|8,3:2|2:2,0:0:0:0:
369,271,47594,1,0,3:2:0:0:
356,200,47766,2,0,P|300:223|298:283,1,127.500004863739,2|8,0:2|2:2,0:0:0:0:
486,174,48280,2,0,P|462:118|402:116,1,127.500004863739,2|0,0:2|3:2,0:0:0:0:
298,283,48794,1,8,2:2:0:0:
351,384,48966,1,2,3:2:0:0:
351,384,49137,2,0,L|362:321,1,63.7500024318696,2|2,0:2|3:2,0:0:0:0:
251,169,49480,2,0,L|239:231,1,63.7500024318696,10|2,2:2|0:2,0:0:0:0:
166,299,49823,6,0,B|107:312|113:258|46:269,1,127.500004863739,2|10,3:2|2:2,0:0:0:0:
203,384,50337,2,0,L|265:372,1,63.7500024318696,2|0,3:2|0:2,0:0:0:0:
239,231,50680,2,0,L|301:219,1,63.7500024318696,2|8,3:2|2:2,0:0:0:0:
380,40,51023,2,0,L|391:102,1,63.7500024318696,2|0,0:2|0:2,0:0:0:0:
289,0,51366,6,0,L|294:31,1,31.8750012159348,6|0,3:2|0:0,0:0:0:0:
228,88,51537,1,10,2:2:0:0:
228,88,51709,2,0,L|233:119,1,31.8750012159348,6|0,3:2|0:0,0:0:0:0:
398,267,52052,5,2,0:2:0:0:
398,267,52223,1,2,0:2:0:0:
398,267,52394,1,2,0:2:0:0:
398,267,52566,6,0,B|349:282|315:241|334:213|298:164|240:190,1,195.500003728867,6|10,3:2|2:2,0:0:0:0:
99,332,53080,2,0,P|147:319|195:311,1,97.7500018644333,2|0,3:2|0:2,0:0:0:0:
382,48,53423,2,0,P|334:60|286:68,1,97.7500018644333,2|8,3:2|2:2,0:0:0:0:
241,190,53766,1,2,0:2:0:0:
410,384,53937,5,2,3:2:0:0:
512,198,54109,1,2,3:2:0:0:
326,96,54280,1,10,2:2:0:0:
224,282,54452,1,2,3:2:0:0:
230,289,54537,1,2,0:2:0:0:
236,296,54623,1,2,0:2:0:0:
375,239,54794,1,0,3:2:0:0:
153,9,54966,2,0,P|171:79|184:152,1,146.62500279665,8|0,2:2|0:0,0:0:0:0:
184,152,55309,5,2,3:2:0:0:
77,301,55480,1,2,0:2:0:0:
71,294,55566,1,2,0:2:0:0:
65,287,55651,1,10,2:2:0:0:
278,172,55823,1,2,3:2:0:0:
67,141,55994,1,2,0:2:0:0:
220,376,56166,1,2,3:2:0:0:
129,74,56337,1,10,2:2:0:0:
4,228,56509,1,2,0:2:0:0:
278,172,56680,5,2,3:2:0:0:
360,103,56852,1,2,3:2:0:0:
297,19,57023,1,10,2:2:0:0:
249,266,57194,2,0,L|344:243,1,97.7500018644333,2|0,3:2|0:2,0:0:0:0:
499,354,57537,2,0,L|403:376,1,97.7500018644333,2|8,3:2|2:2,0:0:0:0:
278,172,57880,1,2,0:2:0:0:
369,8,58052,6,0,P|427:46|417:116,1,146.62500279665,6|0,3:2|0:0,0:0:0:0:
418,115,58394,1,10,2:2:0:0:
278,172,58566,2,0,P|219:133|229:63,1,146.62500279665,2|0,3:2|0:0,0:0:0:0:
227,65,58909,2,0,L|322:87,1,97.7500018644333,2|8,3:2|2:2,0:0:0:0:
152,180,59252,1,2,0:2:0:0:
268,381,59423,5,2,3:2:0:0:
366,327,59594,1,2,3:2:0:0:
339,214,59766,1,10,2:2:0:0:
227,213,59937,2,0,L|82:235,1,146.62500279665,2|0,3:2|0:0,0:0:0:0:
82,234,60280,1,0,3:2:0:0:
324,49,60452,2,0,L|227:63,1,97.7500018644333,8|0,2:2|0:2,0:0:0:0:
378,242,60794,5,2,3:2:0:0:
473,55,60966,1,2,0:2:0:0:
297,131,61137,1,10,2:2:0:0:
427,319,61309,2,0,B|381:264|321:285|321:285|298:329|258:316,1,195.500003728867,2|0,3:2|3:2,0:0:0:0:
199,167,61823,2,0,B|166:204|166:204|187:247,1,97.7500018644333,10|2,2:2|0:2,0:0:0:0:
506,114,62166,5,2,3:2:0:0:
327,46,62337,1,2,3:2:0:0:
259,226,62509,1,10,2:2:0:0:
439,294,62680,2,0,B|490:215|490:215|431:131,1,195.500003728867,2|2,3:2|3:2,0:0:0:0:
259,316,63194,1,10,2:2:0:0:
259,316,63366,1,8,0:2:0:0:
259,316,63537,1,14,3:2:0:0:
259,316,63880,5,10,2:2:0:0:
203,169,64052,1,2,3:2:0:0:
355,45,64223,5,8,2:2:0:0:
411,192,64395,1,2,3:2:0:0:
259,316,64566,5,8,2:2:0:0:
203,169,64738,1,2,0:2:0:0:
480,147,64909,5,10,3:2:0:0:
339,384,65080,1,2,3:2:0:0:
102,243,65252,1,10,2:2:0:0:
243,6,65423,1,2,3:2:0:0:
243,6,65594,1,8,2:2:0:0:
298,60,65766,1,0,3:2:0:0:
303,67,65852,1,0,3:2:0:0:
308,73,65937,2,0,L|283:167,1,97.7500018644333,8|0,2:2|0:2,0:0:0:0:
38,344,66280,6,0,L|132:319,1,97.7500018644333,14|2,3:2|0:2,0:0:0:0:
474,186,66623,2,0,L|379:161,1,97.7500018644333,10|2,2:2|3:2,0:0:0:0:
33,62,66966,2,0,L|127:37,1,97.7500018644333,10|0,2:2|3:2,0:0:0:0:
224,99,67309,1,10,2:2:0:0:
224,99,67480,1,2,0:2:0:0:
307,314,67652,5,10,3:2:0:0:
224,99,67823,1,2,3:2:0:0:
439,16,67994,1,10,2:2:0:0:
307,314,68166,1,2,3:2:0:0:
307,314,68509,5,2,3:2:0:0:
233,254,68680,1,8,2:2:0:0:
138,346,68852,1,2,0:2:0:0:
4,123,69023,6,0,B|79:112|73:167|143:153,1,146.62500279665,14|0,3:2|0:0,0:0:0:0:
143,152,69366,1,10,2:2:0:0:
271,17,69537,2,0,P|291:59|264:97,1,97.7500018644333,2|8,3:2|2:2,0:0:0:0:
69,258,69880,2,0,P|42:219|62:177,1,97.7500018644333,2|8,3:2|2:2,0:0:0:0:
134,61,70223,1,2,0:2:0:0:
202,319,70394,5,10,3:2:0:0:
391,220,70566,1,2,3:2:0:0:
217,157,70737,5,10,2:2:0:0:
406,58,70909,1,2,3:2:0:0:
432,345,71080,2,0,L|336:359,1,97.7500018644333,8|0,2:2|3:2,0:0:0:0:
217,157,71423,2,0,L|313:143,1,97.7500018644333,8|0,2:2|0:2,0:0:0:0:
168,250,71766,5,14,3:2:0:0:
394,21,71937,2,0,P|308:51|313:142,1,195.500003728867,2|2,0:2|3:2,0:0:0:0:
71,258,72452,1,10,2:2:0:0:
112,354,72623,1,2,3:2:0:0:
216,341,72794,1,10,2:2:0:0:
168,250,72966,5,2,0:2:0:0:
168,250,73052,1,2,0:2:0:0:
168,250,73137,1,10,3:2:0:0:
313,142,73309,1,2,3:2:0:0:
117,138,73480,1,10,2:2:0:0:
262,30,73652,1,2,3:2:0:0:
416,222,73823,5,8,2:2:0:0:
416,222,73909,1,8,0:2:0:0:
416,222,73994,2,0,L|368:233,1,48.8750009322167,10|0,3:3|0:0,0:0:0:0:
222,118,74166,1,10,2:2:0:0:
456,291,74337,5,8,0:2:0:0:
456,291,74423,1,8,0:2:0:0:
456,291,74508,2,0,L|360:312,1,97.7500018644333,6|2,3:2|0:2,0:0:0:0:
467,168,74852,1,8,0:2:0:0:
209,384,75023,2,0,P|270:329|229:257,1,178.499994552612,2|0,3:2|3:2,0:0:0:0:
9,173,75537,2,0,L|96:153,1,89.2499972763062,10|0,0:2|0:2,0:0:0:0:
368,232,75880,5,2,3:2:0:0:
273,91,76052,1,2,3:2:0:0:
418,1,76223,1,8,0:2:0:0:
508,146,76394,1,2,3:2:0:0:
229,257,76566,6,0,L|209:169,1,89.2499972763062,2|0,0:2|3:2,0:0:0:0:
476,331,76909,2,0,L|344:356,1,133.874995914459,10|0,0:2|0:0,0:0:0:0:
344,356,77252,1,2,3:2:0:0:
148,236,77423,1,2,0:2:0:0:
333,115,77594,1,8,0:2:0:0:
287,233,77766,5,2,3:2:0:0:
168,65,77937,1,0,0:2:0:0:
358,16,78109,1,0,3:2:0:0:
477,184,78280,1,10,0:2:0:0:
477,184,78452,1,0,0:2:0:0:
477,184,78623,5,2,3:2:0:0:
227,138,78794,1,2,3:2:0:0:
452,321,78966,1,8,0:2:0:0:
284,43,79137,1,2,3:2:0:0:
251,326,79309,1,2,0:2:0:0:
512,265,79480,1,0,3:2:0:0:
373,64,79652,6,0,P|425:100|410:161,1,133.874995914459,10|0,0:2|0:0,0:0:0:0:
410,161,79994,1,6,3:2:0:0:
253,285,80166,2,0,L|165:269,1,89.2499972763062,2|8,0:2|0:2,0:0:0:0:
218,0,80509,1,2,3:2:0:0:
28,80,80680,1,0,0:2:0:0:
220,199,80852,1,0,3:2:0:0:
171,97,81023,1,10,0:2:0:0:
171,97,81194,1,0,0:2:0:0:
171,97,81366,5,2,3:2:0:0:
215,298,81537,1,0,3:2:0:0:
0,223,81709,1,10,0:2:0:0:
171,97,81880,1,2,3:2:0:0:
232,298,82052,2,0,L|208:384,1,89.2499972763062,2|0,0:2|3:2,0:0:0:0:
364,244,82394,2,0,P|314:203|325:140,1,133.874995914459,10|0,0:2|0:0,0:0:0:0:
324,140,82737,5,2,3:2:0:0:
379,43,82909,1,2,0:2:0:0:
484,87,83080,1,8,0:2:0:0:
280,224,83252,5,2,3:2:0:0:
126,176,83423,1,0,0:2:0:0:
324,140,83594,1,0,3:2:0:0:
100,337,83766,1,10,0:2:0:0:
100,337,83937,1,0,0:2:0:0:
222,151,84109,6,0,L|211:94,1,57.374998249054,10|0,0:2|0:0,0:0:0:0:
260,41,84452,2,0,L|297:34,2,38.2499988327027
143,137,84966,1,2,0:2:0:0:
143,137,85137,1,2,0:2:0:0:
143,137,85308,1,2,0:2:0:0:
292,234,85480,6,0,L|408:201,1,121.124996765614,6|0,3:2|0:0,0:0:0:0:
472,238,85823,1,10,0:2:0:0:
265,357,85994,2,0,L|342:378,1,80.7499978437424,2|0,3:2|0:2,0:0:0:0:
90,206,86337,1,2,3:2:0:0:
153,260,86509,1,10,0:2:0:0:
213,197,86680,2,0,L|234:119,1,80.7499978437424,2|0,0:2|3:2,0:0:0:0:
496,132,87023,5,2,3:2:0:0:
332,170,87194,1,10,0:2:0:0:
381,11,87366,1,2,3:2:0:0:
402,102,87537,1,2,0:2:0:0:
402,102,87709,1,2,3:2:0:0:
252,259,87880,2,0,B|196:267|208:211|141:225,1,121.124996765614,10|0,0:2|0:0,0:0:0:0:
141,225,88223,6,0,P|114:252|122:290,1,80.7499978437424,2|2,3:2|0:2,0:0:0:0:
331,376,88566,1,10,0:2:0:0:
451,323,88737,1,2,3:2:0:0:
398,203,88909,1,2,0:2:0:0:
278,256,89080,1,2,3:2:0:0:
366,292,89252,1,10,0:2:0:0:
473,119,89423,6,0,L|394:98,1,80.7499978437424,2|0,0:2|3:2,0:0:0:0:
319,223,89766,1,0,3:2:0:0:
243,48,89937,2,0,L|321:27,1,80.7499978437424,10|2,0:2|3:2,0:0:0:0:
398,203,90280,2,0,L|319:223,1,80.7499978437424,2|2,0:2|3:2,0:0:0:0:
172,351,90623,2,0,P|217:316|206:260,1,121.124996765614,10|0,0:2|0:0,0:0:0:0:
117,248,90966,6,0,P|71:212|82:156,1,121.124996765614,2|0,3:2|0:0,0:0:0:0:
82,156,91309,1,10,0:2:0:0:
236,7,91480,2,0,P|216:64|203:123,1,121.124996765614,2|0,3:2|0:0,0:0:0:0:
203,123,91823,1,2,3:2:0:0:
281,213,91994,1,10,0:2:0:0:
347,181,92166,2,0,P|368:148|359:109,1,80.7499978437424,2|0,0:2|3:2,0:0:0:0:
168,270,92509,5,2,3:2:0:0:
225,318,92680,1,10,0:2:0:0:
298,303,92852,1,2,3:2:0:0:
182,180,93023,2,0,L|104:201,1,80.7499978437424,2|2,0:2|3:2,0:0:0:0:
234,0,93366,2,0,P|269:46|256:103,1,121.124996765614,10|0,0:2|0:0,0:0:0:0:
256,103,93709,6,0,P|231:72|239:33,1,80.7499978437424,2|0,3:2|0:2,0:0:0:0:
438,170,94052,2,0,L|418:248,1,80.7499978437424,10|0,0:2|3:2,0:0:0:0:
509,229,94394,1,2,0:2:0:0:
349,366,94566,2,0,P|324:335|332:296,1,80.7499978437424,2|8,3:2|0:2,0:0:0:0:
238,190,94909,2,0,L|159:209,1,80.7499978437424,2|0,0:2|3:2,0:0:0:0:
22,375,95252,5,2,3:2:0:0:
117,345,95423,1,10,0:2:0:0:
27,185,95594,1,2,3:2:0:0:
23,194,95680,1,2,0:2:0:0:
20,203,95766,1,2,0:2:0:0:
214,53,95937,5,8,0:2:0:0:
240,64,96022,1,8,0:2:0:0:
261,84,96108,1,8,0:2:0:0:
274,109,96194,1,8,0:2:0:0:
278,139,96279,1,8,0:2:0:0:
271,167,96365,1,8,0:2:0:0:
238,190,96452,6,0,L|167:207,1,72.2500013780594,6|0,3:2|0:2,0:0:0:0:
419,256,96794,2,0,P|428:290|435:326,1,72.2500013780594,8|0,0:2|3:2,0:0:0:0:
434,336,97052,1,2,0:2:0:0:
432,343,97137,2,0,P|391:288|415:223,1,144.500002756119,2|8,0:2|0:2,0:0:0:0:
364,63,97652,1,2,0:2:0:0:
364,63,97823,1,2,0:2:0:0:
506,113,97994,2,0,P|471:122|435:130,1,72.2500013780594,0|8,3:2|0:2,0:0:0:0:
239,224,98337,5,2,3:2:0:0:
167,174,98509,1,2,0:2:0:0:
195,91,98680,1,2,3:2:0:0:
303,8,98852,2,0,P|293:42|286:78,1,72.2500013780594,10|2,0:2|0:2,0:0:0:0:
113,245,99194,6,0,P|74:209|22:219,1,108.375002067089,2|0,3:2|0:0,0:0:0:0:
23,220,99537,1,10,0:2:0:0:
156,317,99709,2,0,P|190:306|225:299,1,72.2500013780594,2|0,3:2|0:2,0:0:0:0:
365,216,100052,2,0,P|399:225|435:233,1,72.2500013780594,2|8,3:2|0:2,0:0:0:0:
216,60,100394,5,2,0:2:0:0:
216,60,100566,1,2,0:2:0:0:
260,180,100737,2,0,P|280:152|275:117,1,72.2500013780594,0|8,3:2|0:2,0:0:0:0:
175,225,101080,1,0,3:2:0:0:
175,225,101252,1,2,0:2:0:0:
225,299,101423,1,0,3:2:0:0:
448,224,101594,2,0,B|399:220|396:258|345:249,1,108.375002067089,8|0,0:2|3:3,0:0:0:0:
345,249,101937,6,0,P|363:179|373:108,1,144.500002756119,6|8,3:2|0:2,0:0:0:0:
506,309,102452,1,0,3:2:0:0:
448,224,102623,2,0,P|430:294|420:365,1,144.500002756119,2|8,0:2|0:2,0:0:0:0:
233,325,103137,2,0,P|250:254|261:183,1,144.500002756119,2|0,0:2|3:2,0:0:0:0:
75,213,103652,5,8,0:2:0:0:
112,149,103823,2,0,P|146:139|182:134,1,72.2500013780594,2|2,3:2|0:2,0:0:0:0:
355,253,104166,2,0,P|320:262|284:267,1,72.2500013780594,2|10,3:2|0:2,0:0:0:0:
400,191,104509,1,2,0:2:0:0:
307,356,104680,6,0,P|272:317|284:266,1,108.375002067089,2|0,3:2|0:0,0:0:0:0:
283,266,105023,1,10,0:2:0:0:
419,121,105194,2,0,P|407:155|399:190,1,72.2500013780594,2|0,3:2|0:2,0:0:0:0:
226,24,105537,2,0,P|237:58|245:93,1,72.2500013780594,2|8,3:2|0:2,0:0:0:0:
189,228,105880,2,0,P|150:262|99:250,1,108.375002067089,2|0,0:2|0:0,0:0:0:0:
98,249,106223,6,0,L|132:236,1,36.1250006890297,6|0,3:2|0:0,0:0:0:0:
289,321,106394,1,8,0:2:0:0:
289,321,106566,2,0,L|353:341,1,36.1250006890297,6|0,3:2|0:0,0:0:0:0:
506,317,106909,5,2,0:2:0:0:
506,317,107080,1,2,0:2:0:0:
506,317,107252,1,2,0:2:0:0:
506,317,107423,6,0,P|433:263|463:177,1,195.500003728867,6|10,3:2|0:2,0:0:0:0:
292,5,107937,2,0,P|304:52|311:100,1,97.7500018644333,2|0,3:2|0:2,0:0:0:0:
235,246,108280,2,0,P|187:258|139:265,1,97.7500018644333,2|8,3:2|0:2,0:0:0:0:
311,100,108623,1,2,0:2:0:0:
430,362,108794,5,2,3:2:0:0:
240,278,108966,1,2,3:2:0:0:
463,107,109137,1,10,0:2:0:0:
272,23,109309,2,0,P|176:38|83:67,1,195.500003728867,2|0,3:2|3:2,0:0:0:0:
101,375,109823,2,0,P|155:332|138:264,1,146.62500279665,8|0,0:2|0:0,0:0:0:0:
138,264,110166,5,2,3:2:0:0:
296,340,110337,1,2,0:2:0:0:
287,344,110423,1,2,0:2:0:0:
278,348,110509,1,10,0:2:0:0:
433,148,110680,1,2,3:2:0:0:
262,216,110852,1,2,0:2:0:0:
427,302,111023,1,2,3:2:0:0:
485,31,111194,1,10,0:2:0:0:
222,117,111365,1,2,0:2:0:0:
278,348,111537,5,2,3:2:0:0:
360,291,111709,1,2,3:2:0:0:
289,221,111880,1,10,0:2:0:0:
101,375,112052,2,0,P|147:360|195:353,1,97.7500018644333,2|0,3:2|0:2,0:0:0:0:
240,121,112394,2,0,P|247:169|261:215,1,97.7500018644333,2|8,3:2|0:2,0:0:0:0:
457,107,112738,1,2,0:2:0:0:
438,277,112909,6,0,P|402:360|313:342,1,195.500003728867,6|10,3:2|0:2,0:0:0:0:
457,57,113423,2,0,P|519:82|509:150,1,146.62500279665,2|0,3:2|0:0,0:0:0:0:
509,150,113766,2,0,L|407:123,1,97.7500018644333,2|8,3:2|0:2,0:0:0:0:
261,215,114109,1,2,0:2:0:0:
54,62,114280,5,2,3:2:0:0:
232,114,114452,1,2,3:2:0:0:
180,292,114623,1,10,0:2:0:0:
2,240,114794,2,0,B|74:253|65:191|138:202,1,146.62500279665,2|0,3:2|0:0,0:0:0:0:
137,201,115137,1,0,3:2:0:0:
347,333,115309,2,0,L|251:355,1,97.7500018644333,8|0,0:2|0:2,0:0:0:0:
341,37,115652,5,2,3:2:0:0:
458,100,115823,1,2,0:2:0:0:
392,220,115994,1,10,0:2:0:0:
173,127,116166,2,0,L|268:104,1,97.7500018644333,2|2,3:2|0:2,0:0:0:0:
152,357,116509,2,0,P|119:322|124:275,1,97.7500018644333,2|8,3:2|0:2,0:0:0:0:
316,167,116852,1,2,0:2:0:0:
290,9,117023,6,0,P|275:55|267:103,1,97.7500018644333,2|0,3:2|3:2,0:0:0:0:
368,344,117366,1,10,0:2:0:0:
451,284,117537,2,0,P|415:225|346:236,1,146.62500279665,2|0,3:2|0:0,0:0:0:0:
346,236,117880,1,2,3:2:0:0:
198,147,118052,1,10,0:2:0:0:
267,52,118223,1,8,0:2:0:0:
61,0,118394,6,0,L|105:190,1,195.500003728867,14|10,3:2|2:2,0:0:0:0:
350,21,118909,2,0,L|327:116,1,97.7500018644333,2|8,3:2|2:2,0:0:0:0:
284,384,119252,1,2,3:2:0:0:
203,269,119423,1,10,2:2:0:0:
342,223,119594,1,2,0:2:0:0:
198,72,119766,5,10,3:2:0:0:
286,294,119937,1,2,3:2:0:0:
492,337,120109,5,10,2:2:0:0:
502,185,120280,2,0,P|455:201|407:209,1,97.7500018644333,2|8,3:2|2:2,0:0:0:0:
203,188,120623,1,0,3:2:0:0:
265,36,120794,2,0,P|330:59|329:128,1,146.62500279665,8|0,2:2|0:0,0:0:0:0:
329,127,121137,6,0,P|296:160|302:207,1,97.7500018644333,14|0,3:2|0:2,0:0:0:0:
335,381,121480,1,10,2:2:0:0:
397,229,121652,1,2,3:2:0:0:
265,36,121823,5,10,2:2:0:0:
203,188,121995,1,2,3:2:0:0:
450,300,122166,5,10,2:2:0:0:
512,148,122338,1,2,0:2:0:0:
180,274,122509,5,10,3:2:0:0:
412,182,122680,1,2,3:2:0:0:
172,285,122852,1,10,2:2:0:0:
228,93,123023,2,0,P|213:139|203:187,1,97.7500018644333,2|8,3:2|2:2,0:0:0:0:
412,182,123366,1,2,3:2:0:0:
473,115,123537,1,10,2:2:0:0:
430,26,123709,1,2,0:2:0:0:
265,265,123880,6,0,B|297:217|355:233|355:233|368:255|401:258,1,146.62500279665,14|0,3:2|0:0,0:0:0:0:
389,256,124223,1,10,2:2:0:0:
296,369,124394,2,0,L|199:351,1,97.7500018644333,2|8,3:2|2:2,0:0:0:0:
248,164,124737,2,0,L|151:146,1,97.7500018644333,2|8,3:2|2:2,0:0:0:0:
104,267,125080,1,2,0:2:0:0:
337,186,125252,5,10,3:2:0:0:
434,114,125423,1,2,3:2:0:0:
359,20,125594,1,10,2:2:0:0:
248,164,125766,2,0,P|260:211|266:259,1,97.7500018644333,2|8,3:2|2:2,0:3:0:0:
434,114,126109,1,0,3:2:0:0:
376,383,126280,2,0,P|331:329|359:266,1,146.62500279665,8|0,2:2|0:3,0:3:0:0:
359,265,126623,6,0,L|454:289,1,97.7500018644333,14|2,3:2|0:2,0:0:0:0:
234,94,126966,2,0,L|258:0,1,97.7500018644333,10|2,2:2|3:2,0:0:0:0:
50,218,127309,1,10,2:2:0:0:
151,274,127480,1,2,3:2:0:0:
207,173,127652,1,10,2:2:0:0:
106,117,127823,1,2,0:2:0:0:
230,357,127994,6,0,B|278:373|315:332|288:305|330:254|386:278,1,195.500003728867,10|10,3:2|2:2,0:0:0:0:
485,140,128509,1,2,3:2:0:0:
245,244,128680,1,8,2:2:0:0:
245,244,128766,1,8,0:2:0:0:
245,244,128852,2,0,L|197:255,1,48.8750009322167,10|0,3:3|0:0,0:0:0:0:
300,152,129023,2,0,L|288:104,1,48.8750009322167,10|0,2:2|0:0,0:0:0:0:
392,207,129194,2,0,L|439:195,1,48.8750009322167,8|8,0:2|0:2,0:3:0:0:
478,133,129366,5,6,3:2:0:0:
478,133,129537,1,2,0:2:0:0:
242,19,129709,1,8,0:2:0:0:
314,43,129880,2,0,L|357:216,1,178.499994552612,2|0,3:2|3:2,0:0:0:0:
290,333,130394,5,10,0:2:0:0:
98,245,130566,1,2,0:2:0:0:
153,332,130737,1,2,3:2:0:0:
300,154,130909,1,2,3:2:0:0:
126,49,131080,1,8,0:2:0:0:
99,131,131252,2,0,L|185:110,1,89.2499972763062,2|2,3:2|0:2,0:0:0:0:
392,189,131594,1,0,3:2:0:0:
389,181,131680,1,0,3:2:0:0:
386,174,131766,2,0,L|299:153,1,89.2499972763062,8|0,0:2|0:2,0:0:0:0:
47,254,132109,6,0,L|220:296,1,178.499994552612,2|8,3:2|0:2,0:0:0:0:
419,62,132623,2,0,L|245:19,1,178.499994552612,2|0,3:2|3:2,0:0:0:0:
408,309,133137,1,10,0:2:0:0:
472,231,133309,1,2,0:2:0:0:
371,140,133480,2,0,L|392:226,1,89.2499972763062,2|2,3:2|3:2,0:0:0:0:
485,378,133823,1,10,0:2:0:0:
307,209,133994,2,0,P|225:222|222:304,1,178.499994552612,2|0,3:2|3:2,0:0:0:0:
419,62,134509,1,8,0:2:0:0:
419,62,134852,6,0,L|245:19,1,178.499994552612,2|10,3:2|0:2,0:0:0:0:
70,131,135366,1,0,3:2:0:0:
159,247,135537,2,0,P|204:202|186:141,1,133.874995914459,2|0,0:2|0:0,0:0:0:0:
186,141,135880,2,0,L|143:154,1,44.6249986381531,10|0,0:2|0:0,0:0:0:0:
300,248,136052,2,0,L|257:260,1,44.6249986381531,2|0,0:2|0:0,0:0:0:0:
214,325,136223,5,0,3:2:0:0:
214,325,136394,2,0,L|226:367,1,44.6249986381531,2|0,3:2|0:0,0:0:0:0:
391,258,136566,2,0,P|421:199|411:134,1,133.874995914459,8|0,0:2|0:0,0:0:0:0:
411,134,136909,2,0,L|324:154,1,89.2499972763062,2|0,0:2|3:2,0:0:0:0:
146,83,137252,1,10,0:2:0:0:
146,83,137337,1,2,0:2:0:0:
146,83,137423,1,2,0:2:0:0:
214,105,137594,6,0,L|246:234,1,133.874995914459,2|0,3:2|0:0,0:0:0:0:
246,234,137937,2,0,B|205:243|205:243|203:246|203:246|159:255,1,89.2499972763062,10|0,0:2|3:2,0:0:0:0:
360,299,138280,2,0,B|369:340|369:340|372:342|372:342|381:385,1,89.2499972763062,2|0,0:2|3:2,0:0:0:0:
425,186,138623,2,0,B|466:177|466:177|468:174|468:174|511:164,1,89.2499972763062,10|0,0:2|0:2,0:0:0:0:
309,3,138966,1,2,3:2:0:0:
253,68,139137,1,0,3:2:0:0:
319,126,139309,2,0,L|362:116,1,44.6249986381531,10|0,0:2|0:0,0:0:0:0:
246,234,139480,2,0,L|158:253,1,89.2499972763062,2|0,3:2|0:2,0:0:0:0:
125,19,139823,5,8,0:2:0:0:
90,26,139908,1,8,0:2:0:0:
61,44,139994,1,8,0:2:0:0:
39,71,140080,1,8,0:2:0:0:
29,105,140165,1,8,0:2:0:0:
30,139,140251,1,8,0:2:0:0:
43,172,140337,6,0,B|104:178|93:136|157:141,1,121.124996765614,6|0,3:2|0:0,0:0:0:0:
156,141,140680,1,10,0:2:0:0:
265,236,140852,2,0,L|108:274,1,161.499995687485,2|0,3:2|3:2,0:0:0:0:
47,339,141366,1,8,0:2:0:0:
47,339,141537,1,2,0:2:0:0:
156,140,141709,5,2,0:2:0:0:
156,140,141880,1,2,3:2:0:0:
87,93,142052,1,10,0:2:0:0:
87,93,142223,1,2,3:2:0:0:
34,154,142394,1,2,0:2:0:0:
202,80,142566,1,2,3:2:0:0:
316,193,142737,6,0,L|282:309,1,121.124996765614,10|0,0:2|0:0,0:0:0:0:
282,309,143080,2,0,P|251:285|252:246,1,80.7499978437424,2|0,3:2|0:2,0:0:0:0:
397,151,143423,2,0,L|435:161,1,40.3749989218712,10|0,0:2|0:0,0:0:0:0:
395,0,143594,2,0,L|512:28,1,121.124996765614,2|0,3:2|0:0,0:0:0:0:
493,99,143937,2,0,L|375:70,1,121.124996765614,2|0,3:2|0:0,0:0:0:0:
375,70,144280,1,2,0:2:0:0:
239,145,144452,5,2,0:2:0:0:
239,145,144623,1,0,3:2:0:0:
276,25,144794,2,0,P|302:54|296:92,1,80.7499978437424,8|0,0:2|3:2,0:0:0:0:
239,145,145137,1,2,0:2:0:0:
239,145,145309,1,0,3:2:0:0:
377,178,145480,2,0,P|333:217|275:211,1,121.124996765614,8|0,0:2|0:0,0:0:0:0:
275,211,145823,6,0,B|297:269|297:269|257:313,1,121.124996765614,6|0,3:2|0:0,0:0:0:0:
199,200,146166,2,0,B|159:244|159:244|181:302,1,121.124996765614,10|0,0:2|0:0,0:0:0:0:
181,302,146509,1,2,0:2:0:0:
335,367,146680,1,2,3:2:0:0:
382,313,146852,2,0,L|459:334,1,80.7499978437424,8|0,0:2|0:2,0:0:0:0:
411,150,147194,6,0,P|439:176|438:215,1,80.7499978437424,2|0,0:2|3:2,0:0:0:0:
231,201,147537,1,10,0:2:0:0:
289,158,147709,2,0,L|321:-4,1,161.499995687485,2|0,3:2|3:2,0:0:0:0:
175,257,148223,2,0,L|156:178,1,80.7499978437424,10|2,0:2|0:3,0:0:0:0:
78,192,148480,5,2,0:3:0:0:
86,194,148566,2,0,L|104:272,1,80.7499978437424,2|0,3:2|0:2,0:0:0:0:
296,292,148909,1,10,0:2:0:0:
248,237,149080,2,0,L|229:158,1,80.7499978437424,2|0,3:2|0:2,0:0:0:0:
448,3,149423,1,2,3:2:0:0:
445,162,149594,1,10,0:2:0:0:
308,79,149766,1,2,0:2:0:0:
403,81,149937,5,0,0:2:0:0:
403,81,150109,2,0,L|391:120,1,40.3749989218712,4|0,3:2|0:0,0:0:0:0:
316,215,150280,1,8,0:2:0:0:
316,215,150452,2,0,L|328:254,1,40.3749989218712,4|0,3:2|0:0,0:0:0:0:
410,384,150794,5,2,0:2:0:0:
410,384,150966,1,2,0:2:0:0:
410,384,151137,1,2,0:2:0:0:
410,383,151309,6,0,P|362:304|273:327,1,195.500003728867,6|10,3:2|0:2,0:0:0:0:
36,340,151823,2,0,P|84:329|131:315,1,97.7500018644333,2|0,3:2|0:2,0:0:0:0:
308,79,152166,2,0,P|260:89|213:103,1,97.7500018644333,2|8,3:2|0:2,0:0:0:0:
381,37,152509,1,2,0:2:0:0:
135,13,152680,5,2,3:2:0:0:
213,102,152852,1,2,3:2:0:0:
138,210,153023,1,10,0:2:0:0:
239,3,153194,1,2,3:2:0:0:
244,11,153280,1,2,0:2:0:0:
248,19,153366,1,2,0:2:0:0:
72,173,153537,1,0,3:2:0:0:
244,312,153709,2,0,P|298:269|283:201,1,146.62500279665,8|0,0:2|0:0,0:0:0:0:
282,200,154052,5,2,3:2:0:0:
145,309,154223,1,2,0:2:0:0:
310,67,154394,5,10,0:2:0:0:
171,174,154565,1,2,3:2:0:0:
419,265,154737,5,2,0:2:0:0:
499,211,154909,1,2,3:2:0:0:
442,127,155080,1,10,0:2:0:0:
359,182,155252,1,2,0:2:0:0:
170,384,155423,5,2,3:2:0:0:
340,262,155594,1,2,3:2:0:0:
150,176,155766,1,10,0:2:0:0:
225,274,155937,2,0,L|247:178,1,97.7500018644333,2|0,3:2|0:2,0:0:0:0:
41,62,156280,1,2,3:2:0:0:
60,147,156452,1,10,0:2:0:0:
79,232,156623,1,2,0:2:0:0:
327,159,156794,6,0,P|305:93|237:94,1,146.62500279665,6|0,3:2|0:0,0:0:0:0:
237,93,157137,1,10,0:2:0:0:
355,346,157309,2,0,P|420:324|419:256,1,146.62500279665,2|0,3:2|0:0,0:0:0:0:
418,255,157652,2,0,P|383:224|400:181,1,97.7500018644333,2|8,3:2|0:2,0:0:0:0:
475,199,157994,1,2,0:2:0:0:
220,362,158166,5,2,3:2:0:0:
66,250,158337,1,2,3:2:0:0:
178,96,158509,1,10,0:2:0:0:
332,208,158680,2,0,B|256:203|260:249|191:235,1,146.62500279665,2|0,3:2|0:0,0:0:0:0:
191,235,159023,1,0,3:2:0:0:
282,21,159194,2,0,P|353:15|415:53,1,146.62500279665,8|0,0:2|0:0,0:0:0:0:
415,53,159537,5,2,3:2:0:0:
255,187,159709,1,2,0:2:0:0:
189,77,159880,1,10,0:2:0:0:
449,140,160052,2,0,L|425:234,1,97.7500018644333,2|0,3:2|0:2,0:0:0:0:
174,305,160394,5,2,3:2:0:0:
223,378,160566,1,10,0:2:0:0:
309,350,160737,1,2,0:2:0:0:
88,333,160909,5,6,3:2:0:0:
258,278,161080,1,4,3:2:0:0:
100,325,161937,6,0,B|139:343|179:320|157:286|199:259|243:280,1,165.749992412568,14|0,0:0|0:0,0:0:0:0:
243,280,162280,5,14,3:2:0:0:
137,153,162452,1,2,0:2:0:0:
266,45,162623,1,10,0:2:0:0:
374,174,162794,1,2,3:2:0:0:
243,280,162966,1,8,0:2:0:0:
46,123,163137,1,2,3:2:0:0:
67,34,163309,2,0,L|162:54,1,97.7500018644333,10|2,0:2|0:2,0:0:0:0:
447,294,163652,6,0,L|351:273,1,97.7500018644333,10|2,3:2|3:2,0:0:0:0:
209,373,163994,1,10,0:2:0:0:
299,353,164166,1,2,3:2:0:0:
322,95,164337,1,8,0:2:0:0:
341,185,164509,1,0,3:2:0:0:
341,185,164594,1,0,3:2:0:0:
341,185,164680,1,8,0:2:0:0:
322,95,164852,1,0,0:2:0:0:
395,10,165023,5,14,3:2:0:0:
288,282,165195,1,2,0:2:0:0:
495,87,165366,5,10,0:2:0:0:
405,106,165538,1,2,3:2:0:0:
361,341,165709,5,10,0:2:0:0:
451,322,165881,1,2,3:2:0:0:
251,166,166052,5,10,0:2:0:0:
341,185,166224,1,2,0:2:0:0:
141,367,166394,5,10,3:2:0:0:
19,306,166566,1,2,3:2:0:0:
51,166,166737,1,10,0:2:0:0:
171,222,166909,2,0,L|75:243,1,97.7500018644333,2|8,3:2|0:2,0:0:0:0:
206,310,167252,1,2,3:2:0:0:
319,73,167423,1,10,0:2:0:0:
411,266,167594,1,2,0:2:0:0:
233,148,167766,6,0,L|376:177,1,146.62500279665,14|0,3:2|0:0,0:0:0:0:
376,177,168109,1,10,0:2:0:0:
136,0,168280,2,0,L|157:96,1,97.7500018644333,2|8,3:2|0:2,0:0:0:0:
315,332,168623,2,0,L|294:236,1,97.7500018644333,2|8,3:2|0:2,0:0:0:0:
204,233,168966,1,2,0:2:0:0:
426,30,169137,6,0,P|358:15|318:72,1,146.62500279665,10|0,3:2|0:0,0:0:0:0:
318,71,169480,1,10,0:2:0:0:
472,175,169652,1,2,3:2:0:0:
370,329,169823,1,8,0:2:0:0:
216,227,169994,1,0,3:2:0:0:
390,97,170166,2,0,P|363:165|354:237,1,146.62500279665,8|0,0:2|0:0,0:0:0:0:
353,237,170509,5,14,3:2:0:0:
231,64,170680,1,2,0:2:0:0:
137,259,170852,5,10,0:2:0:0:
324,17,171023,1,2,3:2:0:0:
45,199,171194,5,10,0:2:0:0:
123,379,171366,1,2,3:2:0:0:
240,222,171537,1,10,0:2:0:0:
137,259,171709,1,0,0:2:0:0:
345,381,171880,5,10,3:2:0:0:
506,328,172052,1,0,3:2:0:0:
349,251,172223,5,10,0:2:0:0:
510,198,172395,1,2,3:2:0:0:
295,31,172566,1,8,0:2:0:0:
302,36,172652,1,8,0:2:0:0:
307,41,172737,2,0,L|292:87,1,48.8750009322167,10|0,3:3|0:0,0:0:0:0:
349,251,172909,1,10,0:2:0:0:
173,269,173080,5,8,0:2:0:0:
165,262,173166,1,8,0:2:0:0:
158,255,173252,2,0,P|192:200|257:198,1,133.874995914459,6|0,3:2|0:0,0:0:0:0:
255,197,173594,1,8,0:2:0:0:
113,358,173766,2,0,P|58:324|56:259,1,133.874995914459,2|0,3:2|0:0,0:0:0:0:
55,260,174108,1,0,3:2:0:0:
324,262,174280,2,0,L|237:284,1,89.2499972763062,10|0,0:2|0:2,0:0:0:0:
336,0,174623,5,2,3:2:0:0:
394,197,174794,1,2,3:2:0:0:
194,148,174966,1,8,0:2:0:0:
312,107,175137,1,2,3:2:0:0:
173,317,175309,1,2,0:2:0:0:
364,384,175480,1,0,3:2:0:0:
173,317,175652,1,10,0:2:0:0:
324,262,175823,1,0,0:2:0:0:
91,127,175994,5,2,3:2:0:0:
174,60,176166,2,0,L|193:147,1,89.2499972763062,2|8,0:2|0:2,0:0:0:0:
120,382,176509,2,0,P|95:347|98:303,1,89.2499972763062,2|0,3:2|0:2,0:0:0:0:
326,294,176852,1,0,3:2:0:0:
265,78,177023,2,0,P|295:136|285:201,1,133.874995914459,10|0,0:2|0:0,0:0:0:0:
284,201,177366,5,2,3:2:0:0:
435,301,177537,1,2,3:2:0:0:
269,374,177709,1,8,0:2:0:0:
512,187,177880,5,2,3:2:0:0:
0,187,178223,5,2,3:2:0:0:
101,113,178394,1,10,0:2:0:0:
11,43,178566,1,2,0:2:0:0:
120,227,178737,6,0,P|59:260|62:330,1,146.62500279665,14|0,3:2|0:0,0:0:0:0:
61,329,179080,1,8,0:2:0:0:
290,182,179252,1,2,3:2:0:0:
101,113,179423,1,8,0:2:0:0:
346,260,179595,1,0,3:2:0:0:
159,341,179766,1,10,0:2:0:0:
182,138,179937,1,0,0:2:0:0:
235,244,180109,5,10,3:2:0:0:
235,244,180280,1,2,3:2:0:0:
356,17,180452,5,8,0:2:0:0:
104,132,180623,1,2,3:2:0:0:
219,384,180794,1,8,0:2:0:0:
471,269,180966,1,0,3:2:0:0:
290,182,181137,1,10,0:2:0:0:
290,182,181309,1,0,0:2:0:0:
411,68,181480,5,14,3:2:0:0:
308,289,181652,1,2,0:2:0:0:
177,384,181823,5,8,0:2:0:0:
74,163,181995,1,2,3:2:0:0:
316,184,182166,1,8,0:2:0:0:
48,330,182337,1,0,3:2:0:0:
39,325,182423,1,0,3:2:0:0:
30,319,182509,2,0,L|74:298,1,48.8750009322167,10|0,0:2|0:0,0:0:0:0:
250,215,182680,2,0,L|205:235,1,48.8750009322167,8|0,0:2|0:0,0:0:0:0:
140,267,182852,1,10,3:2:0:0:
177,69,183023,5,10,0:2:0:0:
168,74,183109,1,8,0:2:0:0:
159,80,183195,2,0,L|203:100,1,48.8750009322167,8|0,0:2|0:0,0:0:0:0:
379,184,183366,2,0,L|334:163,1,48.8750009322167,10|0,0:2|0:0,0:0:0:0:
140,267,183537,5,10,3:3:0:0:
75,162,183709,1,10,3:3:0:0:
205,21,183880,5,6,3:3:0:0:
270,126,184052,1,6,3:3:0:0:
39,258,184223,5,6,3:2:0:0:
295,35,184394,1,6,3:2:0:0:
256,192,184480,12,0,189709,0:0:0:0:
