osu file format v14

[General]
AudioFilename: audio.mp3
AudioLeadIn: 0
PreviewTime: -1
Countdown: 1
SampleSet: Soft
StackLeniency: 0.7
Mode: 0
LetterboxInBreaks: 0
WidescreenStoryboard: 0

[Editor]
DistanceSpacing: 0.8
BeatDivisor: 4
GridSize: 16
TimelineZoom: 1

[Metadata]
Title:Monochrome Butterfly
TitleUnicode:Monochrome Butterfly
Artist:Aitsuki Nakuru
ArtistUnicode:Aitsuki Nakuru
Creator:Bloo-Sun
Version:Fly
Source:
Tags:
BeatmapID:1293934
BeatmapSetID:613251

[Difficulty]
HPDrainRate:8
CircleSize:4
OverallDifficulty:8
ApproachRate:10
SliderMultiplier:1.4
SliderTickRate:1

[Events]
//Background and Video events
//Break Periods
//Storyboard Layer 0 (Background)
//Storyboard Layer 1 (Fail)
//Storyboard Layer 2 (Pass)
//Storyboard Layer 3 (Foreground)
//Storyboard Sound Samples

[TimingPoints]
1830,342.857142857143,4,2,1,70,1,0
2041,-100,4,2,1,20,0,0
2212,-100,4,2,1,30,0,0
2384,-100,4,2,1,40,0,0
2555,-100,4,2,1,50,0,0
2727,-100,4,2,1,60,0,0
52612,-100,4,2,1,70,0,1
63241,-100,4,2,1,70,0,0
63584,-100,4,2,1,70,0,1
74555,-100,4,2,1,70,0,0
107469,-100,4,2,1,70,0,0
107470,-100,4,2,1,70,0,1
118098,-100,4,2,1,70,0,0
118441,-100,4,2,1,70,0,1
123927,-100,4,2,1,70,0,1
129412,-100,4,2,1,70,0,0
151355,-100,4,2,1,70,0,1
161984,-71.4285714285714,4,2,1,70,0,0
162327,-100,4,2,1,70,0,1
173298,-100,4,2,1,70,0,0
178784,-100,4,2,1,70,0,1
184441,-100,4,2,1,70,0,0

[HitObjects]
32,192,41772,5,0,0:0:0:0:
128,64,42458,1,0,0:0:0:0:
128,64,42630,1,0,0:0:0:0:
128,64,42716,1,0,0:0:0:0:
128,64,42801,5,0,0:0:0:0:
256,192,42972,2,0,P|277:227|437:229,1,210
480,192,43658,5,0,0:0:0:0:
480,192,43743,1,0,0:0:0:0:
480,192,43829,1,0,0:0:0:0:
384,64,44001,1,0,0:0:0:0:
256,192,44172,5,0,0:0:0:0:
128,64,44343,1,0,0:0:0:0:
32,192,44515,5,0,0:0:0:0:
128,320,44858,1,0,0:0:0:0:
256,192,45029,5,0,0:0:0:0:
416,320,45372,1,0,0:0:0:0:
480,192,45715,1,0,0:0:0:0:
32,192,46058,1,0,0:0:0:0:
480,192,46230,1,0,0:0:0:0:
256,192,46402,5,0,0:0:0:0:
256,192,46487,1,0,0:0:0:0:
256,192,46573,1,0,0:0:0:0:
480,192,46744,5,0,0:0:0:0:
32,192,46915,1,0,0:0:0:0:
256,64,47258,5,0,0:0:0:0:
128,320,47943,1,0,0:0:0:0:
256,64,48116,1,0,0:0:0:0:
256,64,48202,1,0,0:0:0:0:
256,64,48287,1,0,0:0:0:0:
384,320,48458,1,0,0:0:0:0:
256,64,49143,5,0,0:0:0:0:
128,320,49315,1,0,0:0:0:0:
384,320,49486,1,0,0:0:0:0:
32,192,49657,5,0,0:0:0:0:
128,320,49829,1,0,0:0:0:0:
256,192,50000,5,0,0:0:0:0:
256,192,50087,1,0,0:0:0:0:
256,192,50172,1,0,0:0:0:0:
416,320,50344,1,0,0:0:0:0:
480,192,50515,1,0,0:0:0:0:
32,192,50858,1,0,0:0:0:0:
256,32,51201,5,0,0:0:0:0:
64,352,51543,1,0,0:0:0:0:
448,352,51887,1,0,0:0:0:0:
256,288,52230,2,0,B|256:240|256:240|256:256,2,35
128,96,52573,1,0,0:0:0:0:
384,96,52744,1,0,0:0:0:0:
256,192,52915,1,0,0:0:0:0:
256,96,53087,5,0,0:0:0:0:
128,288,53259,1,0,0:0:0:0:
384,288,53601,2,0,L|256:192,1,140
64,64,54115,5,0,0:0:0:0:
128,320,54287,1,0,0:0:0:0:
448,64,54458,1,0,0:0:0:0:
384,320,54630,1,0,0:0:0:0:
256,96,54972,1,0,0:0:0:0:
256,96,55058,1,0,0:0:0:0:
256,96,55143,1,0,0:0:0:0:
128,64,55486,5,0,0:0:0:0:
128,320,55658,1,0,0:0:0:0:
384,320,55829,1,0,0:0:0:0:
384,64,56001,1,0,0:0:0:0:
448,192,56172,5,0,0:0:0:0:
256,32,56343,1,0,0:0:0:0:
448,192,56515,1,0,0:0:0:0:
128,80,56686,1,0,0:0:0:0:
448,192,56858,1,0,0:0:0:0:
64,192,57029,1,0,0:0:0:0:
64,192,57115,1,0,0:0:0:0:
64,192,57201,1,0,0:0:0:0:
448,192,57372,1,0,0:0:0:0:
128,304,57544,1,0,0:0:0:0:
448,192,57715,1,0,0:0:0:0:
352,272,57887,1,0,0:0:0:0:
256,352,58058,1,0,0:0:0:0:
256,64,58229,5,0,0:0:0:0:
128,192,58401,1,0,0:0:0:0:
384,192,58572,1,0,0:0:0:0:
256,320,58743,1,0,0:0:0:0:
96,32,59086,5,0,0:0:0:0:
416,112,59429,1,0,0:0:0:0:
416,272,59600,1,0,0:0:0:0:
96,192,59772,1,0,0:0:0:0:
96,352,59943,1,0,0:0:0:0:
416,352,60115,1,0,0:0:0:0:
96,32,60458,1,0,0:0:0:0:
96,64,60543,1,0,0:0:0:0:
96,96,60629,1,0,0:0:0:0:
96,320,60972,5,0,0:0:0:0:
416,64,61143,1,0,0:0:0:0:
416,64,61230,1,0,0:0:0:0:
416,64,61315,1,0,0:0:0:0:
416,320,61487,1,0,0:0:0:0:
96,64,61658,1,0,0:0:0:0:
160,96,61829,5,0,0:0:0:0:
256,192,62001,1,0,0:0:0:0:
352,288,62172,1,0,0:0:0:0:
160,96,62343,1,0,0:0:0:0:
352,288,62516,5,0,0:0:0:0:
256,192,62687,1,0,0:0:0:0:
160,96,62858,1,0,0:0:0:0:
352,192,63201,1,0,0:0:0:0:
256,192,63287,1,0,0:0:0:0:
160,192,63372,1,0,0:0:0:0:
416,96,63715,5,0,0:0:0:0:
96,192,63887,1,0,0:0:0:0:
416,288,64058,1,0,0:0:0:0:
96,96,64230,1,0,0:0:0:0:
416,192,64401,1,0,0:0:0:0:
96,288,64573,1,0,0:0:0:0:
352,96,64743,5,0,0:0:0:0:
256,320,64915,1,0,0:0:0:0:
160,96,65086,1,0,0:0:0:0:
352,320,65258,1,0,0:0:0:0:
256,96,65429,1,0,0:0:0:0:
160,320,65601,1,0,0:0:0:0:
448,96,65771,5,0,0:0:0:0:
64,192,65943,1,0,0:0:0:0:
64,192,66029,1,0,0:0:0:0:
64,192,66115,1,0,0:0:0:0:
448,288,66286,1,0,0:0:0:0:
64,96,66458,1,0,0:0:0:0:
448,192,66629,1,0,0:0:0:0:
64,288,66801,1,0,0:0:0:0:
352,64,66972,5,0,0:0:0:0:
256,352,67144,1,0,0:0:0:0:
160,64,67315,1,0,0:0:0:0:
352,352,67487,1,0,0:0:0:0:
256,64,67658,1,0,0:0:0:0:
160,352,67830,1,0,0:0:0:0:
384,64,68001,5,0,0:0:0:0:
384,64,68087,1,0,0:0:0:0:
384,64,68172,1,0,0:0:0:0:
128,64,68344,1,0,0:0:0:0:
128,320,68516,1,0,0:0:0:0:
384,320,68687,1,0,0:0:0:0:
384,64,68858,5,0,0:0:0:0:
256,192,69030,1,0,0:0:0:0:
96,320,69201,1,0,0:0:0:0:
256,48,69372,5,0,0:0:0:0:
256,48,69458,1,0,0:0:0:0:
256,48,69544,1,0,0:0:0:0:
144,320,69715,1,0,0:0:0:0:
256,48,69887,1,0,0:0:0:0:
368,320,70058,1,0,0:0:0:0:
256,48,70229,1,0,0:0:0:0:
144,320,70400,1,0,0:0:0:0:
368,320,70572,1,0,0:0:0:0:
256,48,70744,5,0,0:0:0:0:
144,336,70916,1,0,0:0:0:0:
432,160,71087,1,0,0:0:0:0:
80,160,71258,1,0,0:0:0:0:
368,336,71430,1,0,0:0:0:0:
362,79,71601,5,0,0:0:0:0:
89,254,71773,1,0,0:0:0:0:
420,255,71944,1,0,0:0:0:0:
152,78,72115,1,0,0:0:0:0:
255,341,72287,1,0,0:0:0:0:
256,48,72458,5,0,0:0:0:0:
80,352,72630,1,0,0:0:0:0:
256,48,72801,1,0,0:0:0:0:
416,352,72973,1,0,0:0:0:0:
416,352,73058,1,0,0:0:0:0:
416,352,73144,1,0,0:0:0:0:
448,48,73316,5,0,0:0:0:0:
256,352,73487,1,0,0:0:0:0:
64,48,73659,1,0,0:0:0:0:
448,192,73830,5,0,0:0:0:0:
448,192,73916,1,0,0:0:0:0:
448,192,74002,1,0,0:0:0:0:
64,352,74173,1,0,0:0:0:0:
448,192,74345,5,0,0:0:0:0:
448,192,74430,1,0,0:0:0:0:
448,192,74516,1,0,0:0:0:0:
64,48,74687,1,0,0:0:0:0:
256,192,74772,12,0,76572,0:0:0:0:
