osu file format v14

[General]
AudioFilename: audio.mp3
AudioLeadIn: 0
PreviewTime: 68881
Countdown: 0
SampleSet: Soft
StackLeniency: 0.2
Mode: 0
LetterboxInBreaks: 0
WidescreenStoryboard: 0

[Editor]
Bookmarks: 7919,8691,20100,31782,55055,69009,92099,103736,127008,140963,164236,187418,210781,233872,260008,273190,273918,303280,308917,320644
DistanceSpacing: 1
BeatDivisor: 8
GridSize: 4
TimelineZoom: 2.14

[Metadata]
Title:Meltdown
TitleUnicode:炉心融解
Artist:Aitsuki Nakuru
ArtistUnicode:藍月なくる
Creator:Calvaria
Version:Asphyxia
Source:
Tags:[Hatsune Miku] _lai Remapper Surou Irin cover kuma(alfred) iroha(sasaki) 胃痛P Itsuu-P ボカロ ボーカロイド vocaloid Into The Reactor Roshin Yuukai video game EXIT TUNES PRESENTS Kagaminext Project DIVA electronic pop japanese j-pop jpop jp 鏡音リン kagamine rin
BeatmapID:3808879
BeatmapSetID:1853618

[Difficulty]
HPDrainRate:5
CircleSize:5
OverallDifficulty:8
ApproachRate:9
SliderMultiplier:1.9
SliderTickRate:0.5

[Events]
//Background and Video events
0,0,"1.jpeg",0,0
//Break Periods
2,66018,67581
2,92380,101580
2,138017,139580
2,164380,186126
2,236908,258853
2,271107,272671
//Storyboard Layer 0 (Background)
//Storyboard Layer 1 (Fail)
//Storyboard Layer 2 (Pass)
//Storyboard Layer 3 (Foreground)
//Storyboard Layer 4 (Overlay)
//Storyboard Sound Samples

[TimingPoints]
-3091,363.636363636364,4,2,1,50,1,0
7090,-100,4,2,1,55,0,0
8545,-83.3333333333333,4,2,4,50,0,0
9090,-133.333333333333,4,2,1,50,0,0
14181,-83.3333333333333,4,2,1,50,0,0
14363,-100,4,2,1,50,0,0
14909,-133.333333333333,4,2,1,50,0,0
19090,-100,4,2,1,50,0,0
20181,-83.3333333333333,4,2,1,55,0,0
20727,-83.3333333333333,4,2,2,55,0,0
20909,-83.3333333333333,4,2,1,55,0,0
21272,-83.3333333333333,4,2,2,55,0,0
21454,-83.3333333333333,4,2,1,55,0,0
21635,-83.3333333333333,4,2,2,55,0,0
21818,-83.3333333333333,4,2,1,55,0,0
21999,-83.3333333333333,4,2,2,55,0,0
22181,-83.3333333333333,4,2,1,55,0,0
22545,-83.3333333333333,4,2,2,55,0,0
22727,-83.3333333333333,4,2,4,55,0,0
23090,-83.3333333333333,4,2,1,55,0,0
23636,-83.3333333333333,4,2,2,55,0,0
23818,-83.3333333333333,4,2,1,55,0,0
24181,-83.3333333333333,4,2,2,55,0,0
24363,-83.3333333333333,4,2,1,55,0,0
24908,-83.3333333333333,4,2,2,55,0,0
25090,-83.3333333333333,4,2,1,55,0,0
25454,-83.3333333333333,4,2,2,55,0,0
25636,-83.3333333333333,4,2,4,55,0,0
25999,-83.3333333333333,4,2,1,55,0,0
26545,-83.3333333333333,4,2,2,55,0,0
26727,-83.3333333333333,4,2,1,55,0,0
27090,-83.3333333333333,4,2,2,55,0,0
27272,-83.3333333333333,4,2,1,55,0,0
27453,-83.3333333333333,4,2,2,55,0,0
27636,-83.3333333333333,4,2,1,55,0,0
27817,-83.3333333333333,4,2,2,55,0,0
27999,-83.3333333333333,4,2,1,55,0,0
28363,-83.3333333333333,4,2,2,55,0,0
28545,-83.3333333333333,4,2,4,55,0,0
28909,-83.3333333333333,4,2,1,55,0,0
29454,-83.3333333333333,4,2,2,55,0,0
29636,-83.3333333333333,4,2,1,55,0,0
29999,-83.3333333333333,4,2,2,55,0,0
30181,-83.3333333333333,4,2,1,55,0,0
30363,-83.3333333333333,4,2,2,55,0,0
30544,-83.3333333333333,4,2,1,55,0,0
30727,-66.6666666666667,4,2,2,55,0,0
30909,-55.5555555555556,4,2,1,55,0,0
31090,-55.5555555555556,4,2,3,55,0,0
31454,-55.5555555555556,4,2,1,55,0,0
31818,-100,4,2,4,60,0,0
32545,-100,4,2,1,60,0,0
32908,-100,4,2,2,60,0,0
33090,-100,4,2,1,60,0,0
33272,-100,4,2,4,60,0,0
33454,-100,4,2,1,60,0,0
33636,-100,4,2,3,60,0,0
33999,-100,4,2,1,60,0,0
34180,-100,4,2,4,60,0,0
34544,-100,4,2,1,60,0,0
34727,-100,4,2,4,60,0,0
35454,-100,4,2,1,60,0,0
35635,-100,4,2,2,60,0,0
35818,-100,4,2,3,60,0,0
35999,-100,4,2,1,60,0,0
36545,-100,4,2,4,60,0,0
37090,-100,4,2,2,60,0,0
37454,-100,4,2,1,60,0,0
37636,-100,4,2,4,60,0,0
38363,-100,4,2,1,60,0,0
38726,-100,4,2,2,60,0,0
38909,-100,4,2,1,60,0,0
39090,-100,4,2,4,60,0,0
39271,-100,4,2,1,60,0,0
39454,-100,4,2,3,60,0,0
39818,-100,4,2,1,60,0,0
39999,-100,4,2,4,60,0,0
40362,-100,4,2,1,60,0,0
40545,-100,4,2,4,60,0,0
41272,-100,4,2,1,60,0,0
41453,-100,4,2,2,60,0,0
41635,-100,4,2,3,60,0,0
41818,-100,4,2,1,60,0,0
42363,-100,4,2,3,60,0,0
42544,-100,4,2,2,60,0,0
42909,-100,4,2,4,60,0,0
43272,-100,4,2,1,60,0,0
43454,-100,4,2,4,60,0,0
43635,-100,4,2,2,60,0,0
43818,-100,4,2,1,60,0,0
43999,-100,4,2,3,60,0,0
44181,-100,4,2,1,60,0,0
44363,-100,4,2,4,60,0,0
44727,-100,4,2,1,60,0,0
45272,-100,4,2,2,60,0,0
45817,-100,4,2,4,60,0,0
46181,-100,4,2,1,60,0,0
46363,-100,4,2,4,60,0,0
46544,-100,4,2,2,60,0,0
46727,-100,4,2,1,60,0,0
46908,-100,4,2,2,60,0,0
47090,-100,4,2,1,60,0,0
47272,-100,4,2,4,60,0,0
47454,-100,4,2,2,60,0,0
47636,-100,4,2,1,60,0,0
48181,-100,4,2,4,60,0,0
49090,-100,4,2,1,60,0,0
49272,-100,4,2,4,60,0,0
49453,-100,4,2,2,60,0,0
49636,-100,4,2,1,60,0,0
49817,-100,4,2,3,60,0,0
49999,-100,4,2,1,60,0,0
50181,-100,4,2,4,60,0,0
50545,-100,4,2,1,60,0,0
51090,-100,4,2,2,60,0,0
51635,-100,4,2,4,60,0,0
51999,-100,4,2,1,60,0,0
52181,-100,4,2,4,60,0,0
52362,-100,4,2,2,60,0,0
52545,-100,4,2,1,60,0,0
52726,-100,4,2,2,60,0,0
52909,-100,4,2,1,60,0,0
53090,-100,4,2,4,60,0,0
53454,-100,4,2,1,60,0,0
53635,-100,4,2,2,60,0,0
53818,-100,4,2,1,60,0,0
53999,-100,4,2,2,60,0,0
54181,-100,4,2,3,60,0,0
54363,-100,4,2,1,60,0,0
54544,-100,4,2,5,60,0,0
54727,-100,4,2,32,60,0,0
55090,-133.333333333333,4,2,7,65,0,0
56181,-133.333333333333,4,2,8,65,0,0
56545,-133.333333333333,4,2,7,65,0,0
57271,-133.333333333333,4,2,2,65,0,0
57454,-133.333333333333,4,2,7,65,0,0
57636,-133.333333333333,4,2,9,65,0,0
57817,-133.333333333333,4,2,7,65,0,0
58180,-133.333333333333,4,2,2,65,0,0
58363,-133.333333333333,4,2,7,65,0,0
59090,-133.333333333333,4,2,8,65,0,0
59818,-133.333333333333,4,2,7,65,0,0
60362,-133.333333333333,4,2,9,65,0,0
60454,-133.333333333333,4,2,1,65,0,0
60545,-133.333333333333,4,2,10,65,0,0
60726,-133.333333333333,4,2,11,65,0,0
60909,-133.333333333333,4,2,7,65,0,0
61999,-133.333333333333,4,2,8,65,0,0
62363,-133.333333333333,4,2,7,65,0,0
63090,-133.333333333333,4,2,2,65,0,0
63272,-133.333333333333,4,2,7,65,0,0
63454,-133.333333333333,4,2,9,65,0,0
63635,-133.333333333333,4,2,7,65,0,0
63999,-133.333333333333,4,2,2,65,0,0
64181,-133.333333333333,4,2,7,65,0,0
64726,-133.333333333333,4,2,11,65,0,0
64909,-133.333333333333,4,2,8,65,0,0
65090,-133.333333333333,4,2,12,65,0,0
65818,-133.333333333333,4,2,1,65,0,0
68181,-133.333333333333,4,2,1,70,0,0
68363,-83.3333333333333,4,2,2,70,0,0
68636,-83.3333333333333,4,2,4,70,0,0
68727,-83.3333333333333,4,2,5,70,0,0
68908,363.636363636364,4,2,13,80,1,0
68908,-66.6666666666667,4,2,13,80,0,0
69271,-66.6666666666667,4,2,14,80,0,0
69453,-66.6666666666667,4,2,2,80,0,0
69635,-83.3333333333333,4,2,14,80,0,0
69816,-83.3333333333333,4,2,2,80,0,0
69998,-83.3333333333333,4,2,3,80,0,0
70179,-83.3333333333333,4,2,6,80,0,0
70362,-83.3333333333333,4,2,4,80,0,0
70543,-83.3333333333333,4,2,1,80,0,0
70726,-83.3333333333333,4,2,4,80,0,0
71089,-83.3333333333333,4,2,1,80,0,0
71271,-83.3333333333333,4,2,4,80,0,0
71453,-83.3333333333333,4,2,2,80,0,0
71635,-83.3333333333333,4,2,14,80,0,0
71817,-83.3333333333333,4,2,15,80,0,0
72180,-83.3333333333333,4,2,3,80,0,0
72544,-83.3333333333333,4,2,1,80,0,0
72726,-83.3333333333333,4,2,4,80,0,0
73089,-83.3333333333333,4,2,16,80,0,0
73271,-83.3333333333333,4,2,17,80,0,0
73452,-83.3333333333333,4,2,3,80,0,0
73817,-83.3333333333333,4,2,18,80,0,0
73998,-83.3333333333333,4,2,1,80,0,0
74180,-83.3333333333333,4,2,4,80,0,0
74544,-83.3333333333333,4,2,19,80,0,0
74634,-83.3333333333333,4,2,1,80,0,0
74726,-83.3333333333333,4,2,20,80,0,0
75089,-83.3333333333333,4,2,3,80,0,0
75271,-83.3333333333333,4,2,2,80,0,0
75452,-83.3333333333333,4,2,1,80,0,0
75635,-83.3333333333333,4,2,4,80,0,0
75817,-66.6666666666667,4,2,4,80,0,0
75998,-66.6666666666667,4,2,16,80,0,0
76180,-66.6666666666667,4,2,4,80,0,0
76907,-66.6666666666667,4,2,1,80,0,0
77089,-66.6666666666667,4,2,4,80,0,0
77271,-66.6666666666667,4,2,2,80,0,0
77453,-66.6666666666667,4,2,14,80,0,0
77635,-66.6666666666667,4,2,21,80,0,0
77998,-66.6666666666667,4,2,14,80,0,0
78180,-66.6666666666667,4,2,3,80,0,0
78362,-66.6666666666667,4,2,14,80,0,0
78544,-66.6666666666667,4,2,4,80,0,0
78725,-66.6666666666667,4,2,2,80,0,0
78908,-66.6666666666667,4,2,16,80,0,0
79089,-66.6666666666667,4,2,22,80,0,0
79271,-66.6666666666667,4,2,14,80,0,0
79453,-66.6666666666667,4,2,3,80,0,0
79817,-66.6666666666667,4,2,14,80,0,0
79998,-66.6666666666667,4,2,4,80,0,0
80180,-66.6666666666667,4,2,23,80,0,0
80361,-66.6666666666667,4,2,3,80,0,0
80544,-66.6666666666667,4,2,13,80,0,0
80907,-66.6666666666667,4,2,14,80,0,0
81089,-66.6666666666667,4,2,2,80,0,0
81271,-83.3333333333333,4,2,14,80,0,0
81452,-83.3333333333333,4,2,2,80,0,0
81635,-83.3333333333333,4,2,3,80,0,0
81816,-83.3333333333333,4,2,6,80,0,0
81998,-83.3333333333333,4,2,4,80,0,0
82179,-83.3333333333333,4,2,1,80,0,0
82362,-83.3333333333333,4,2,4,80,0,0
82725,-83.3333333333333,4,2,1,80,0,0
82908,-83.3333333333333,4,2,4,80,0,0
83089,-83.3333333333333,4,2,2,80,0,0
83271,-83.3333333333333,4,2,14,80,0,0
83453,-83.3333333333333,4,2,15,80,0,0
83816,-83.3333333333333,4,2,3,80,0,0
84180,-83.3333333333333,4,2,1,80,0,0
84362,-83.3333333333333,4,2,4,80,0,0
84726,-83.3333333333333,4,2,16,80,0,0
84908,-83.3333333333333,4,2,17,80,0,0
85089,-83.3333333333333,4,2,3,80,0,0
85453,-83.3333333333333,4,2,18,80,0,0
85634,-83.3333333333333,4,2,1,80,0,0
85817,-83.3333333333333,4,2,4,80,0,0
85998,-83.3333333333333,4,2,2,80,0,0
86180,-83.3333333333333,4,2,19,80,0,0
86270,-83.3333333333333,4,2,1,80,0,0
86362,-83.3333333333333,4,2,20,80,0,0
86725,-83.3333333333333,4,2,3,80,0,0
86908,-83.3333333333333,4,2,2,80,0,0
87089,-83.3333333333333,4,2,1,80,0,0
87271,-83.3333333333333,4,2,4,80,0,0
87453,-66.6666666666667,4,2,4,80,0,0
87635,-66.6666666666667,4,2,16,80,0,0
87817,-66.6666666666667,4,2,4,80,0,0
88543,-66.6666666666667,4,2,1,80,0,0
88726,-66.6666666666667,4,2,4,80,0,0
88908,-66.6666666666667,4,2,2,80,0,0
89089,-66.6666666666667,4,2,14,80,0,0
89271,-66.6666666666667,4,2,21,80,0,0
89634,-66.6666666666667,4,2,14,80,0,0
89817,-66.6666666666667,4,2,3,80,0,0
89998,-66.6666666666667,4,2,14,80,0,0
90180,-66.6666666666667,4,2,4,80,0,0
90544,-66.6666666666667,4,2,16,80,0,0
90726,-66.6666666666667,4,2,22,80,0,0
90817,-66.6666666666667,4,2,1,80,0,0
91089,-66.6666666666667,4,2,4,80,0,0
91453,-66.6666666666667,4,2,24,80,0,0
91635,-66.6666666666667,4,2,5,80,0,0
91817,-133.333333333333,4,2,32,80,0,0
92180,-133.333333333333,4,2,14,40,0,0
102180,-133.333333333333,4,2,2,40,0,0
102362,-133.333333333333,4,2,1,40,0,0
103271,-133.333333333333,4,2,1,55,0,0
103362,-133.333333333333,4,2,2,55,0,0
103453,-100,4,2,2,55,0,0
103634,-100,4,2,25,55,0,0
103817,-100,4,2,4,60,0,0
104544,-100,4,2,1,60,0,0
104907,-100,4,2,2,60,0,0
105089,-100,4,2,1,60,0,0
105271,-100,4,2,4,60,0,0
105452,-100,4,2,1,60,0,0
105635,-100,4,2,3,60,0,0
105998,-100,4,2,1,60,0,0
106180,-100,4,2,4,60,0,0
106543,-100,4,2,1,60,0,0
106726,-100,4,2,4,60,0,0
107453,-100,4,2,1,60,0,0
107634,-100,4,2,2,60,0,0
107817,-100,4,2,3,60,0,0
107998,-100,4,2,1,60,0,0
108544,-100,4,2,4,60,0,0
109089,-100,4,2,2,60,0,0
109453,-100,4,2,1,60,0,0
109635,-100,4,2,4,60,0,0
110362,-100,4,2,1,60,0,0
110725,-100,4,2,2,60,0,0
110908,-100,4,2,1,60,0,0
111089,-100,4,2,4,60,0,0
111271,-100,4,2,1,60,0,0
111453,-100,4,2,3,60,0,0
111817,-100,4,2,1,60,0,0
111998,-100,4,2,4,60,0,0
112361,-100,4,2,1,60,0,0
112544,-100,4,2,4,60,0,0
113271,-100,4,2,1,60,0,0
113452,-100,4,2,2,60,0,0
113634,-100,4,2,3,60,0,0
113817,-100,4,2,1,60,0,0
114362,-100,4,2,3,60,0,0
114543,-100,4,2,2,60,0,0
114908,-100,4,2,4,60,0,0
115271,-100,4,2,1,60,0,0
115453,-100,4,2,4,60,0,0
115634,-100,4,2,2,60,0,0
115817,-100,4,2,1,60,0,0
115998,-100,4,2,3,60,0,0
116180,-100,4,2,1,60,0,0
116362,-100,4,2,4,60,0,0
116726,-100,4,2,1,60,0,0
117271,-100,4,2,2,60,0,0
117816,-100,4,2,4,60,0,0
118180,-100,4,2,1,60,0,0
118362,-100,4,2,4,60,0,0
118543,-100,4,2,2,60,0,0
118726,-100,4,2,1,60,0,0
118907,-100,4,2,2,60,0,0
119089,-100,4,2,1,60,0,0
119271,-100,4,2,4,60,0,0
119635,-100,4,2,1,60,0,0
120180,-100,4,2,4,60,0,0
121089,-100,4,2,1,60,0,0
121271,-100,4,2,4,60,0,0
121452,-100,4,2,2,60,0,0
121635,-100,4,2,1,60,0,0
121816,-100,4,2,3,60,0,0
121998,-100,4,2,1,60,0,0
122180,-100,4,2,4,60,0,0
122544,-100,4,2,1,60,0,0
123089,-100,4,2,2,60,0,0
123634,-100,4,2,4,60,0,0
123998,-100,4,2,1,60,0,0
124180,-100,4,2,4,60,0,0
124361,-100,4,2,2,60,0,0
124544,-100,4,2,1,60,0,0
124725,-100,4,2,2,60,0,0
124908,-100,4,2,1,60,0,0
125089,-100,4,2,4,60,0,0
125453,-100,4,2,1,60,0,0
125635,-100,4,2,4,60,0,0
125817,-100,4,2,1,60,0,0
125998,-100,4,2,4,60,0,0
126362,-100,4,2,1,60,0,0
126543,-100,4,2,5,60,0,0
126726,-100,4,2,32,60,0,0
127089,-133.333333333333,4,2,7,65,0,0
128180,-133.333333333333,4,2,8,65,0,0
128544,-133.333333333333,4,2,7,65,0,0
129270,-133.333333333333,4,2,2,65,0,0
129453,-133.333333333333,4,2,7,65,0,0
129635,-133.333333333333,4,2,9,65,0,0
129816,-133.333333333333,4,2,7,65,0,0
130179,-133.333333333333,4,2,2,65,0,0
130362,-133.333333333333,4,2,7,65,0,0
131089,-133.333333333333,4,2,8,65,0,0
131817,-133.333333333333,4,2,7,65,0,0
132361,-133.333333333333,4,2,9,65,0,0
132453,-133.333333333333,4,2,1,65,0,0
132544,-133.333333333333,4,2,10,65,0,0
132725,-133.333333333333,4,2,11,65,0,0
132908,-133.333333333333,4,2,7,65,0,0
133998,-133.333333333333,4,2,8,65,0,0
134726,-133.333333333333,4,2,7,65,0,0
135089,-133.333333333333,4,2,2,65,0,0
135270,-133.333333333333,4,2,7,65,0,0
135453,-133.333333333333,4,2,9,65,0,0
135635,-133.333333333333,4,2,7,65,0,0
136362,-133.333333333333,4,2,4,65,0,0
136544,-133.333333333333,4,2,7,65,0,0
136725,-133.333333333333,4,2,11,65,0,0
136908,-133.333333333333,4,2,8,65,0,0
137089,-133.333333333333,4,2,12,65,0,0
137817,-133.333333333333,4,2,1,65,0,0
140362,-83.3333333333333,4,2,2,65,0,0
140635,-83.3333333333333,4,2,4,65,0,0
140726,-83.3333333333333,4,2,5,65,0,0
140908,363.636363636364,4,2,13,80,1,0
140908,-66.6666666666667,4,2,13,80,0,0
141271,-66.6666666666667,4,2,14,80,0,0
141453,-66.6666666666667,4,2,2,80,0,0
141635,-83.3333333333333,4,2,14,80,0,0
141816,-83.3333333333333,4,2,2,80,0,0
141998,-83.3333333333333,4,2,3,80,0,0
142179,-83.3333333333333,4,2,6,80,0,0
142362,-83.3333333333333,4,2,4,80,0,0
142543,-83.3333333333333,4,2,1,80,0,0
142726,-83.3333333333333,4,2,4,80,0,0
143089,-83.3333333333333,4,2,1,80,0,0
143271,-83.3333333333333,4,2,4,80,0,0
143453,-83.3333333333333,4,2,2,80,0,0
143635,-83.3333333333333,4,2,14,80,0,0
143817,-83.3333333333333,4,2,15,80,0,0
144180,-83.3333333333333,4,2,3,80,0,0
144544,-83.3333333333333,4,2,1,80,0,0
144726,-83.3333333333333,4,2,4,80,0,0
145089,-83.3333333333333,4,2,16,80,0,0
145271,-83.3333333333333,4,2,17,80,0,0
145452,-83.3333333333333,4,2,3,80,0,0
145817,-83.3333333333333,4,2,18,80,0,0
145998,-83.3333333333333,4,2,1,80,0,0
146180,-83.3333333333333,4,2,4,80,0,0
146544,-83.3333333333333,4,2,19,80,0,0
146634,-83.3333333333333,4,2,1,80,0,0
146726,-83.3333333333333,4,2,20,80,0,0
147089,-83.3333333333333,4,2,3,80,0,0
147271,-83.3333333333333,4,2,2,80,0,0
147452,-83.3333333333333,4,2,1,80,0,0
147635,-83.3333333333333,4,2,4,80,0,0
147817,-66.6666666666667,4,2,4,80,0,0
147998,-66.6666666666667,4,2,16,80,0,0
148180,-66.6666666666667,4,2,4,80,0,0
148907,-66.6666666666667,4,2,1,80,0,0
149089,-66.6666666666667,4,2,4,80,0,0
149271,-66.6666666666667,4,2,2,80,0,0
149453,-66.6666666666667,4,2,14,80,0,0
149635,-66.6666666666667,4,2,21,80,0,0
149998,-66.6666666666667,4,2,14,80,0,0
150180,-66.6666666666667,4,2,3,80,0,0
150362,-66.6666666666667,4,2,14,80,0,0
150544,-66.6666666666667,4,2,4,80,0,0
150725,-66.6666666666667,4,2,2,80,0,0
150908,-66.6666666666667,4,2,16,80,0,0
151089,-66.6666666666667,4,2,22,80,0,0
151271,-66.6666666666667,4,2,14,80,0,0
151453,-66.6666666666667,4,2,3,80,0,0
151817,-66.6666666666667,4,2,14,80,0,0
151998,-66.6666666666667,4,2,4,80,0,0
152180,-66.6666666666667,4,2,23,80,0,0
152361,-66.6666666666667,4,2,3,80,0,0
152544,-66.6666666666667,4,2,13,80,0,0
152907,-66.6666666666667,4,2,14,80,0,0
153089,-66.6666666666667,4,2,2,80,0,0
153271,-83.3333333333333,4,2,14,80,0,0
153452,-83.3333333333333,4,2,2,80,0,0
153635,-83.3333333333333,4,2,3,80,0,0
153816,-83.3333333333333,4,2,6,80,0,0
153998,-83.3333333333333,4,2,4,80,0,0
154179,-83.3333333333333,4,2,1,80,0,0
154362,-83.3333333333333,4,2,4,80,0,0
154725,-83.3333333333333,4,2,1,80,0,0
154908,-83.3333333333333,4,2,4,80,0,0
155089,-83.3333333333333,4,2,2,80,0,0
155271,-83.3333333333333,4,2,14,80,0,0
155453,-83.3333333333333,4,2,15,80,0,0
155816,-83.3333333333333,4,2,3,80,0,0
156180,-83.3333333333333,4,2,1,80,0,0
156362,-83.3333333333333,4,2,4,80,0,0
156726,-83.3333333333333,4,2,16,80,0,0
156908,-83.3333333333333,4,2,17,80,0,0
157089,-83.3333333333333,4,2,3,80,0,0
157453,-83.3333333333333,4,2,18,80,0,0
157634,-83.3333333333333,4,2,1,80,0,0
157817,-83.3333333333333,4,2,4,80,0,0
157998,-83.3333333333333,4,2,2,80,0,0
158180,-83.3333333333333,4,2,19,80,0,0
158270,-83.3333333333333,4,2,1,80,0,0
158362,-83.3333333333333,4,2,20,80,0,0
158725,-83.3333333333333,4,2,3,80,0,0
158908,-83.3333333333333,4,2,2,80,0,0
159089,-83.3333333333333,4,2,1,80,0,0
159271,-83.3333333333333,4,2,4,80,0,0
159453,-66.6666666666667,4,2,4,80,0,0
159635,-66.6666666666667,4,2,16,80,0,0
159817,-66.6666666666667,4,2,4,80,0,0
159998,-66.6666666666667,4,2,1,80,0,0
160180,-66.6666666666667,4,2,4,80,0,0
160543,-66.6666666666667,4,2,1,80,0,0
160726,-66.6666666666667,4,2,4,80,0,0
161089,-66.6666666666667,4,2,14,80,0,0
161271,-66.6666666666667,4,2,21,80,0,0
161634,-66.6666666666667,4,2,14,80,0,0
161817,-66.6666666666667,4,2,3,80,0,0
161998,-66.6666666666667,4,2,14,80,0,0
162180,-66.6666666666667,4,2,4,80,0,0
162361,-66.6666666666667,4,2,2,80,0,0
162544,-66.6666666666667,4,2,16,80,0,0
162726,-66.6666666666667,4,2,22,80,0,0
162817,-66.6666666666667,4,2,1,80,0,0
163089,-66.6666666666667,4,2,4,80,0,0
163453,-66.6666666666667,4,2,24,80,0,0
163635,-66.6666666666667,4,2,5,80,0,0
163817,-133.333333333333,4,2,32,80,0,0
164180,-133.333333333333,4,2,14,40,0,0
186726,-200,4,2,14,40,0,0
187453,-200,4,2,16,45,0,0
188180,-200,4,2,3,45,0,0
188544,-200,4,2,14,45,0,0
188726,-200,4,2,1,45,0,0
189634,-200,4,2,3,45,0,0
190362,-200,4,2,1,45,0,0
191089,-200,4,2,3,45,0,0
191453,-200,4,2,14,45,0,0
191635,-200,4,2,1,45,0,0
191816,-200,4,2,14,45,0,0
192907,-200,4,2,3,45,0,0
193271,-200,4,2,14,45,0,0
193998,-200,4,2,3,45,0,0
194362,-200,4,2,14,45,0,0
194544,-200,4,2,1,45,0,0
195452,-200,4,2,3,45,0,0
196180,-200,4,2,1,45,0,0
196907,-200,4,2,3,45,0,0
197271,-200,4,2,14,45,0,0
197453,-200,4,2,1,45,0,0
197635,-200,4,2,14,45,0,0
197817,-200,4,2,1,45,0,0
197998,-200,4,2,14,45,0,0
198362,-200,4,2,3,45,0,0
199089,-200,4,2,16,45,0,0
199634,-200,4,2,1,45,0,0
199817,-200,4,2,14,45,0,0
199998,-200,4,2,1,45,0,0
200180,-200,4,2,14,45,0,0
200362,-200,4,2,1,45,0,0
201271,-200,4,2,3,45,0,0
201998,-200,4,2,1,45,0,0
202725,-200,4,2,3,45,0,0
203089,-200,4,2,14,45,0,0
204543,-200,4,2,3,45,0,0
204908,-200,4,2,14,45,0,0
205634,-200,4,2,3,45,0,0
205998,-200,4,2,14,45,0,0
206180,-200,4,2,1,45,0,0
207089,-200,4,2,3,45,0,0
207271,-200,4,2,1,45,0,0
207452,-200,4,2,14,45,0,0
207634,-200,4,2,1,45,0,0
207817,-200,4,2,14,45,0,0
207998,-200,4,2,1,45,0,0
208543,-200,4,2,3,45,0,0
208908,-200,4,2,14,45,0,0
209089,-200,4,2,1,45,0,0
209271,-200,4,2,14,45,0,0
210362,-200,4,2,2,45,0,0
210726,-200,4,2,16,45,0,0
211453,-200,4,2,14,45,0,0
213635,-200,4,2,1,45,0,0
214362,-200,4,2,3,45,0,0
214908,-200,4,2,1,45,0,0
216180,-200,4,2,3,45,0,0
216362,-200,4,2,1,45,0,0
216544,-200,4,2,14,45,0,0
217998,-200,4,2,1,45,0,0
218362,-200,4,2,14,45,0,0
219452,-200,4,2,1,45,0,0
220180,-200,4,2,3,45,0,0
220726,-200,4,2,1,45,0,0
221634,-200,4,2,3,45,0,0
221998,-200,4,2,2,45,0,0
222362,-200,4,2,16,45,0,0
223089,-200,4,2,14,45,0,0
225271,-200,4,2,1,45,0,0
225998,-200,4,2,3,45,0,0
226362,-200,4,2,14,45,0,0
226544,-200,4,2,1,45,0,0
227817,-200,4,2,3,45,0,0
227998,-200,4,2,1,45,0,0
228180,-200,4,2,14,45,0,0
231089,-200,4,2,1,45,0,0
231816,-200,4,2,3,45,0,0
232362,-200,4,2,1,45,0,0
233271,-200,4,2,3,45,0,0
233635,-200,4,2,2,45,0,0
233998,-200,4,2,2,40,0,0
259453,-100,4,2,25,55,0,0
259543,-100,4,2,1,55,0,0
259634,-100,4,2,7,55,0,0
259817,-100,4,2,1,55,0,0
260180,-133.333333333333,4,2,7,65,0,0
261271,-133.333333333333,4,2,8,65,0,0
261635,-133.333333333333,4,2,7,65,0,0
262361,-133.333333333333,4,2,2,65,0,0
262544,-133.333333333333,4,2,7,65,0,0
262726,-133.333333333333,4,2,9,65,0,0
262907,-133.333333333333,4,2,7,65,0,0
263270,-133.333333333333,4,2,2,65,0,0
263453,-133.333333333333,4,2,7,65,0,0
264180,-133.333333333333,4,2,8,65,0,0
264908,-133.333333333333,4,2,7,65,0,0
265452,-133.333333333333,4,2,9,65,0,0
265544,-133.333333333333,4,2,1,65,0,0
265635,-133.333333333333,4,2,10,65,0,0
265816,-133.333333333333,4,2,11,65,0,0
265998,-133.333333333333,4,2,7,65,0,0
266544,-133.333333333333,4,2,2,65,0,0
266726,-133.333333333333,4,2,7,65,0,0
267089,-133.333333333333,4,2,8,65,0,0
267817,-133.333333333333,4,2,7,65,0,0
268179,-133.333333333333,4,2,2,65,0,0
268362,-133.333333333333,4,2,7,65,0,0
268544,-133.333333333333,4,2,9,65,0,0
268725,-133.333333333333,4,2,7,65,0,0
269089,-133.333333333333,4,2,2,65,0,0
269271,-133.333333333333,4,2,7,65,0,0
269816,-133.333333333333,4,2,11,65,0,0
269998,-133.333333333333,4,2,8,65,0,0
270180,-133.333333333333,4,2,12,65,0,0
270362,-200,4,2,12,65,0,0
270907,-200,4,2,1,65,0,0
273271,-83.3333333333333,4,2,1,75,0,0
273453,-83.3333333333333,4,2,2,75,0,0
273726,-83.3333333333333,4,2,4,75,0,0
273817,-83.3333333333333,4,2,5,75,0,0
273998,363.636363636364,4,2,13,85,1,0
273998,-66.6666666666667,4,2,13,85,0,0
274361,-66.6666666666667,4,2,14,85,0,0
274543,-66.6666666666667,4,2,2,85,0,0
274725,-83.3333333333333,4,2,14,85,0,0
274906,-83.3333333333333,4,2,2,85,0,0
275088,-83.3333333333333,4,2,3,85,0,0
275269,-83.3333333333333,4,2,6,85,0,0
275452,-83.3333333333333,4,2,4,85,0,0
275633,-83.3333333333333,4,2,1,85,0,0
275816,-83.3333333333333,4,2,4,85,0,0
276179,-83.3333333333333,4,2,1,85,0,0
276361,-83.3333333333333,4,2,4,85,0,0
276543,-83.3333333333333,4,2,2,85,0,0
276725,-83.3333333333333,4,2,14,85,0,0
276907,-83.3333333333333,4,2,15,85,0,0
277270,-83.3333333333333,4,2,3,85,0,0
277634,-83.3333333333333,4,2,1,85,0,0
277816,-83.3333333333333,4,2,4,85,0,0
278179,-83.3333333333333,4,2,16,85,0,0
278361,-83.3333333333333,4,2,17,85,0,0
278542,-83.3333333333333,4,2,3,85,0,0
278907,-83.3333333333333,4,2,18,85,0,0
279088,-83.3333333333333,4,2,1,85,0,0
279270,-83.3333333333333,4,2,4,85,0,0
279634,-83.3333333333333,4,2,19,85,0,0
279724,-83.3333333333333,4,2,1,85,0,0
279816,-83.3333333333333,4,2,20,85,0,0
280179,-83.3333333333333,4,2,3,85,0,0
280361,-83.3333333333333,4,2,2,85,0,0
280542,-83.3333333333333,4,2,1,85,0,0
280725,-83.3333333333333,4,2,4,85,0,0
280907,-66.6666666666667,4,2,4,85,0,0
281088,-66.6666666666667,4,2,16,85,0,0
281270,-66.6666666666667,4,2,4,85,0,0
281997,-66.6666666666667,4,2,1,85,0,0
282179,-66.6666666666667,4,2,4,85,0,0
282361,-66.6666666666667,4,2,2,85,0,0
282543,-66.6666666666667,4,2,14,85,0,0
282725,-66.6666666666667,4,2,21,85,0,0
283088,-66.6666666666667,4,2,14,85,0,0
283270,-66.6666666666667,4,2,3,85,0,0
283452,-66.6666666666667,4,2,14,85,0,0
283633,-66.6666666666667,4,2,2,85,0,0
283816,-66.6666666666667,4,2,3,85,0,0
283998,-66.6666666666667,4,2,16,85,0,0
284179,-66.6666666666667,4,2,22,85,0,0
284361,-66.6666666666667,4,2,14,85,0,0
284543,-66.6666666666667,4,2,3,85,0,0
284907,-100,4,2,14,85,0,0
285088,-100,4,2,4,85,0,0
285270,-66.6666666666667,4,2,23,85,0,0
285451,-66.6666666666667,4,2,3,85,0,0
285634,-66.6666666666667,4,2,13,85,0,0
285997,-66.6666666666667,4,2,14,85,0,0
286179,-66.6666666666667,4,2,2,85,0,0
286361,-83.3333333333333,4,2,14,85,0,0
286542,-83.3333333333333,4,2,2,85,0,0
286725,-83.3333333333333,4,2,3,85,0,0
286906,-83.3333333333333,4,2,6,85,0,0
287088,-83.3333333333333,4,2,4,85,0,0
287269,-83.3333333333333,4,2,1,85,0,0
287452,-83.3333333333333,4,2,4,85,0,0
287815,-83.3333333333333,4,2,1,85,0,0
287998,-83.3333333333333,4,2,4,85,0,0
288179,-83.3333333333333,4,2,2,85,0,0
288361,-83.3333333333333,4,2,14,85,0,0
288543,-83.3333333333333,4,2,15,85,0,0
288906,-83.3333333333333,4,2,3,85,0,0
289270,-83.3333333333333,4,2,1,85,0,0
289452,-83.3333333333333,4,2,4,85,0,0
289816,-83.3333333333333,4,2,16,85,0,0
289998,-83.3333333333333,4,2,17,85,0,0
290179,-83.3333333333333,4,2,3,85,0,0
290543,-83.3333333333333,4,2,18,85,0,0
290724,-83.3333333333333,4,2,1,85,0,0
290907,-83.3333333333333,4,2,4,85,0,0
291088,-83.3333333333333,4,2,2,85,0,0
291270,-83.3333333333333,4,2,19,85,0,0
291360,-83.3333333333333,4,2,1,85,0,0
291452,-83.3333333333333,4,2,13,85,0,0
291815,-83.3333333333333,4,2,3,85,0,0
291998,-83.3333333333333,4,2,2,85,0,0
292179,-83.3333333333333,4,2,14,85,0,0
292360,-83.3333333333333,4,2,4,85,0,0
292543,-66.6666666666667,4,2,4,85,0,0
292724,-66.6666666666667,4,2,16,85,0,0
292907,-66.6666666666667,4,2,4,85,0,0
293633,-66.6666666666667,4,2,1,85,0,0
293816,-66.6666666666667,4,2,4,85,0,0
294179,-66.6666666666667,4,2,14,85,0,0
294361,-66.6666666666667,4,2,21,85,0,0
294724,-66.6666666666667,4,2,14,85,0,0
294907,-66.6666666666667,4,2,3,85,0,0
295088,-66.6666666666667,4,2,14,85,0,0
295269,-66.6666666666667,4,2,4,85,0,0
295452,-66.6666666666667,4,2,2,85,0,0
295634,-66.6666666666667,4,2,16,85,0,0
295816,-66.6666666666667,4,2,22,85,0,0
295907,-66.6666666666667,4,2,1,85,0,0
296179,-66.6666666666667,4,2,4,85,0,0
296543,-66.6666666666667,4,2,24,85,0,0
296907,-66.6666666666667,4,2,32,85,0,0
297270,-83.3333333333333,4,2,13,85,0,0
297633,-83.3333333333333,4,2,3,85,0,0
297816,-83.3333333333333,4,2,2,85,0,0
297997,-83.3333333333333,4,2,1,85,0,0
298179,-83.3333333333333,4,2,4,85,0,0
298543,-83.3333333333333,4,2,16,85,0,0
298725,-83.3333333333333,4,2,4,85,0,0
299088,-83.3333333333333,4,2,2,85,0,0
299452,-83.3333333333333,4,2,1,85,0,0
299634,-83.3333333333333,4,2,2,85,0,0
299998,-83.3333333333333,4,2,3,85,0,0
300179,-83.3333333333333,4,2,15,85,0,0
300542,-83.3333333333333,4,2,3,85,0,0
300725,-83.3333333333333,4,2,2,85,0,0
300907,-83.3333333333333,4,2,1,85,0,0
301088,-83.3333333333333,4,2,2,85,0,0
301452,-83.3333333333333,4,2,6,85,0,0
301543,-83.3333333333333,4,2,1,85,0,0
301634,-83.3333333333333,4,2,26,85,0,0
301997,-83.3333333333333,4,2,3,85,0,0
302179,-83.3333333333333,4,2,9,85,0,0
302361,-83.3333333333333,4,2,14,85,0,0
302542,-83.3333333333333,4,2,2,85,0,0
302725,-83.3333333333333,4,2,4,85,0,0
302907,-83.3333333333333,4,2,7,85,0,0
303088,-83.3333333333333,4,2,13,85,0,0
303451,-83.3333333333333,4,2,3,85,0,0
303634,-83.3333333333333,4,2,2,85,0,0
303815,-83.3333333333333,4,2,1,85,0,0
303998,-83.3333333333333,4,2,2,85,0,0
304361,-83.3333333333333,4,2,6,85,0,0
304724,-83.3333333333333,4,2,1,85,0,0
304907,-83.3333333333333,4,2,2,85,0,0
305270,-83.3333333333333,4,2,1,85,0,0
305452,-83.3333333333333,4,2,4,85,0,0
305816,-83.3333333333333,4,2,14,85,0,0
305998,-83.3333333333333,4,2,27,85,0,0
306361,-83.3333333333333,4,2,3,85,0,0
306543,-83.3333333333333,4,2,2,85,0,0
306724,-83.3333333333333,4,2,1,85,0,0
306907,-83.3333333333333,4,2,2,85,0,0
307270,-83.3333333333333,4,2,6,85,0,0
307452,-83.3333333333333,4,2,28,85,0,0
307815,-83.3333333333333,4,2,2,85,0,0
308179,-83.3333333333333,4,2,3,85,0,0
308361,-83.3333333333333,4,2,2,85,0,0
308543,-83.3333333333333,4,2,10,85,0,0
308725,-83.3333333333333,4,2,3,85,0,0
308907,-83.3333333333333,4,2,20,80,0,0
309270,-83.3333333333333,4,2,3,80,0,0
309452,-83.3333333333333,4,2,2,80,0,0
309634,-83.3333333333333,4,2,1,80,0,0
309816,-83.3333333333333,4,2,2,80,0,0
310179,-83.3333333333333,4,2,6,80,0,0
310360,-83.3333333333333,4,2,2,80,0,0
310543,-83.3333333333333,4,2,1,80,0,0
310724,-83.3333333333333,4,2,2,80,0,0
311088,-83.3333333333333,4,2,1,80,0,0
311269,-83.3333333333333,4,2,2,80,0,0
311633,-83.3333333333333,4,2,3,80,0,0
311816,-83.3333333333333,4,2,15,80,0,0
312179,-83.3333333333333,4,2,3,80,0,0
312361,-83.3333333333333,4,2,2,80,0,0
312543,-83.3333333333333,4,2,1,80,0,0
312725,-83.3333333333333,4,2,2,80,0,0
313088,-83.3333333333333,4,2,6,80,0,0
313270,-83.3333333333333,4,2,26,80,0,0
313633,-83.3333333333333,4,2,2,80,0,0
313725,-83.3333333333333,4,2,1,80,0,0
313816,-83.3333333333333,4,2,9,80,0,0
313998,-83.3333333333333,4,2,1,80,0,0
314179,-83.3333333333333,4,2,2,80,0,0
314543,-83.3333333333333,4,2,7,80,0,0
314725,-83.3333333333333,4,2,13,80,0,0
315088,-83.3333333333333,4,2,3,80,0,0
315270,-83.3333333333333,4,2,2,80,0,0
315452,-83.3333333333333,4,2,14,80,0,0
315634,-83.3333333333333,4,2,2,80,0,0
315997,-83.3333333333333,4,2,6,80,0,0
316179,-83.3333333333333,4,2,4,80,0,0
316360,-83.3333333333333,4,2,1,80,0,0
316542,-83.3333333333333,4,2,2,80,0,0
316907,-83.3333333333333,4,2,14,80,0,0
317088,-83.3333333333333,4,2,2,80,0,0
317451,-83.3333333333333,4,2,3,80,0,0
317634,-83.3333333333333,4,2,21,80,0,0
317815,-83.3333333333333,4,2,2,80,0,0
317998,-83.3333333333333,4,2,3,80,0,0
318179,-83.3333333333333,4,2,2,80,0,0
318361,-83.3333333333333,4,2,1,80,0,0
318543,-83.3333333333333,4,2,2,80,0,0
318907,-83.3333333333333,4,2,6,80,0,0
319088,-83.3333333333333,4,2,22,80,0,0
319179,-83.3333333333333,4,2,1,80,0,0
319452,-83.3333333333333,4,2,2,80,0,0
319816,-166.666666666667,4,2,1,80,0,0
320179,-166.666666666667,4,2,29,80,0,0
320543,-166.666666666667,4,2,30,80,0,0

[Colours]
Combo1 : 132,225,87
Combo2 : 247,159,134
Combo3 : 237,171,237
Combo4 : 130,200,244

[HitObjects]
228,167,7090,5,0,3:0:0:0:
100,358,7272,2,0,B|97:325|97:325|82:300|82:300|79:267,1,95,8|0,2:0|3:0,2:0:0:0:
50,263,7545,1,0,3:0:0:0:
78,244,7636,1,8,2:0:0:0:
111,238,7727,1,8,2:0:0:0:
143,248,7818,1,0,3:0:0:0:
384,228,7999,5,8,2:0:0:0:
340,236,8090,1,0,3:0:0:0:
296,228,8181,1,8,2:0:0:0:
256,204,8272,1,0,3:0:0:0:
228,167,8363,2,0,P|231:137|242:105,1,47.5,8|8,2:0|2:0,2:0:0:0:
306,0,8545,6,0,B|351:8|356:68|356:68|308:122|308:122|308:150|289:203,1,228,6|8,3:2|2:0,2:0:0:0:
392,276,9090,2,0,P|364:232|360:200,1,71.2500000000002,2|0,2:0|3:0,2:0:0:0:
288,64,9454,2,0,P|316:108|320:140,1,71.2500000000002,2|8,3:2|2:0,2:0:0:0:
347,350,9818,1,2,3:2:0:0:
347,350,9999,2,0,P|337:282|367:202,1,142.5,2|8,3:2|2:0,2:0:0:0:
252,132,10545,5,2,2:0:0:0:
295,195,10727,1,0,3:0:0:0:
303,199,10818,1,8,2:0:0:0:
311,203,10909,1,0,3:0:0:0:
176,120,11090,1,10,2:0:0:0:
311,283,11272,1,2,2:0:0:0:
328,128,11454,6,0,P|392:100|468:100,1,142.5,2|8,3:2|2:0,2:0:0:0:
240,248,11999,2,0,L|164:232,1,71.2500000000002,2|0,2:0|3:0,2:0:0:0:
16,248,12363,1,2,3:2:0:0:
148,320,12545,1,8,2:0:0:0:
16,272,12727,1,2,3:2:0:0:
128,188,12909,2,0,B|119:244|119:244|124:260|124:260|112:336,1,142.5,2|8,3:2|2:0,2:0:0:0:
72,124,13454,6,0,L|-4:136,1,71.2500000000002,2|0,2:0|3:0,2:0:0:0:
12,144,13727,1,8,2:0:0:0:
20,152,13818,1,0,3:0:0:0:
200,196,13999,1,10,2:0:0:0:
147,25,14181,2,0,P|169:33|190:60,1,57,2|0,2:0|2:0,2:0:0:0:
173,128,14363,6,0,P|160:41|243:12,1,190,2|8,3:2|2:0,2:0:0:0:
372,104,14909,2,0,B|400:108|400:108|437:88|437:88|513:97,1,142.5,2|2,2:0|3:2,2:0:0:0:
304,204,15454,1,8,2:0:0:0:
428,192,15636,1,2,3:2:0:0:
512,304,15818,2,0,P|460:308|432:292,1,71.2500000000002,2|0,3:2|2:0,2:0:0:0:
388,208,16181,5,8,2:0:0:0:
384,200,16272,1,8,2:0:0:0:
380,192,16363,1,2,2:0:0:0:
253,258,16545,2,0,L|257:302,1,35.6250000000001,0|0,3:0|2:0,2:0:0:0:
288,356,16727,6,0,P|244:372|208:368,1,71.2500000000002,0|10,3:0|2:0,2:0:0:0:
104,312,17090,1,2,2:0:0:0:
72,184,17272,2,0,P|96:124|164:68,1,142.5,2|8,3:2|2:0,2:0:0:0:
248,116,17818,2,0,P|256:180|256:196,1,71.2500000000002,2|0,2:0|3:0,2:0:0:0:
72,112,18181,2,0,P|36:106|1:107,1,71.2500000000002,2|8,3:2|2:0,2:0:0:0:
76,228,18545,1,2,3:2:0:0:
44,360,18727,6,0,L|32:284,1,71.2500000000002,2|0,3:2|2:0,2:0:0:0:
76,228,19090,2,0,L|61:128,1,95,8|2,2:0|2:0,2:0:0:0:
155,301,19454,2,0,L|143:360,2,47.5,2|8|0,3:2|2:0|3:0,2:0:0:0:
336,240,19818,1,14,2:0:0:0:
488,352,19999,5,8,2:0:0:0:
480,356,20090,1,8,2:0:0:0:
472,360,20181,2,0,P|440:356|416:340,1,57,6|0,3:1|2:0,2:0:0:0:
440,276,20363,2,0,P|448:221|493:189,1,114,2|8,2:1|2:0,2:0:0:0:
493,189,20727,1,2,2:1:0:0:
348,348,20909,5,2,3:2:0:0:
280,192,21090,1,2,3:1:0:0:
328,332,21272,1,10,2:0:0:0:
184,304,21454,6,0,P|144:280|136:208,1,114,2|2,3:2|3:1,2:0:0:0:
252,264,21818,2,0,B|296:268|296:268|316:256|316:256|396:264,1,114,2|10,2:0|2:0,2:0:0:0:
372,268,22090,1,2,2:0:0:0:
380,276,22181,1,2,2:1:0:0:
224,188,22363,1,2,3:2:0:0:
192,116,22545,1,2,3:1:0:0:
328,56,22727,2,0,L|335:0,2,57,10|2|0,2:0|2:0|3:0,2:0:0:0:
488,180,23090,6,0,L|408:196,1,57,2|0,3:1|2:0,2:0:0:0:
374,144,23272,2,0,B|332:139|332:139|316:142|316:142|301:134|301:134|244:128,1,114,2|8,2:1|2:0,2:0:0:0:
374,144,23636,1,2,2:1:0:0:
148,179,23818,5,2,3:2:0:0:
314,176,23999,1,2,3:1:0:0:
132,200,24181,1,10,2:0:0:0:
262,129,24363,2,0,P|286:204|252:302,1,171,2|0,3:2|2:0,2:0:0:0:
254,365,24727,2,0,P|202:353|190:301,1,114,2|10,2:0|2:0,2:0:0:0:
348,260,25090,1,2,2:1:0:0:
496,368,25272,5,2,3:2:0:0:
492,376,25363,1,8,2:0:0:0:
488,384,25454,1,10,2:0:0:0:
328,384,25636,1,10,2:0:0:0:
189,300,25818,2,0,P|166:283|139:274,1,57,8|8,2:0|2:0,2:0:0:0:
72,300,25999,5,2,3:1:0:0:
189,300,26181,2,0,P|222:253|243:200,1,114,2|8,2:1|2:0,2:0:0:0:
243,201,26545,1,2,2:1:0:0:
72,72,26727,5,2,3:2:0:0:
248,80,26909,1,2,3:1:0:0:
92,144,27090,1,10,2:0:0:0:
240,56,27272,6,0,L|372:100,1,114,2|2,3:2|3:1,2:0:0:0:
491,239,27636,2,0,P|450:203|452:148,1,114,2|10,2:0|2:0,2:0:0:0:
444,140,27909,1,2,2:0:0:0:
436,132,27999,1,2,2:1:0:0:
488,40,28181,1,2,3:2:0:0:
368,168,28363,1,2,3:1:0:0:
416,60,28545,1,10,2:0:0:0:
491,239,28727,2,0,L|472:308,1,57,0|8,3:0|2:0,2:0:0:0:
456,360,28909,5,2,3:1:0:0:
386,196,29090,2,0,B|426:208|426:208|447:225|447:225|499:241,1,114,2|8,2:1|2:0,2:0:0:0:
386,196,29454,1,2,2:1:0:0:
256,288,29636,5,2,3:2:0:0:
96,296,29818,1,2,3:1:0:0:
236,360,29999,1,10,2:0:0:0:
244,184,30181,2,0,P|196:188|172:208,1,57,2|0,3:2|2:0,2:0:0:0:
132,140,30363,6,0,P|124:104|136:68,2,57,2|8|2,3:1|2:0|3:2,2:0:0:0:
124,148,30636,1,0,2:0:0:0:
116,156,30727,2,0,L|220:164,1,71.25,10|0,2:0|2:0,2:0:0:0:
252,216,30909,6,0,P|296:200|320:152,1,85.4999999999999,2|8,3:1|2:0,2:0:0:0:
284,0,31090,1,10,3:1:0:0:
244,56,31363,1,8,2:0:0:0:
248,64,31454,1,8,2:1:0:0:
356,108,31636,1,2,2:0:0:0:
420,288,31818,6,0,B|376:304|324:280|324:280|284:300|284:300|224:304,1,190,6|8,3:2|2:0,2:0:0:0:
184,348,32363,1,2,2:0:0:0:
88,236,32545,2,0,B|132:220|184:244|184:244|224:224|224:224|284:220,1,190,2|10,3:2|2:0,2:0:0:0:
308,160,33090,1,2,3:2:0:0:
160,40,33272,5,2,3:2:0:0:
232,44,33454,1,2,2:0:0:0:
288,88,33636,1,10,2:0:0:0:
428,136,33818,1,2,2:0:0:0:
308,160,33999,2,0,P|272:144|248:88,1,95,2|2,3:2|3:2,2:0:0:0:
100,0,34363,2,0,P|136:16|160:72,1,95,10|2,2:0|3:2,2:0:0:0:
56,160,34727,6,0,B|60:216|60:216|92:248|92:248|92:300|56:336,1,190,2|8,3:2|2:0,2:0:0:0:
0,364,35272,1,2,2:0:0:0:
32,224,35454,2,0,B|32:176|32:176|-4:136,1,95,2|2,3:2|3:1,2:0:0:0:
0,288,35818,1,10,2:0:0:0:
136,344,35999,6,0,B|192:340|192:340|224:308|224:308|276:308|312:344,1,190,2|2,3:2|2:0,2:0:0:0:
364,372,36545,1,10,2:0:0:0:
296,352,36727,1,2,2:0:0:0:
240,208,36909,6,0,P|244:176|260:148,2,47.5,0|8|10,3:0|2:0|2:0,2:0:0:0:
296,100,37272,1,10,2:0:0:0:
279,276,37454,2,0,P|293:256|312:242,1,47.5,10|8,2:0|2:0,2:0:0:0:
324,168,37636,6,0,B|392:172|392:172|420:156|420:156|444:180|444:180|504:184,1,190,2|8,3:2|2:0,2:0:0:0:
476,112,38181,1,2,2:0:0:0:
296,100,38363,6,0,B|228:96|228:96|200:112|200:112|176:88|176:88|116:84,1,190,2|10,3:2|2:0,2:0:0:0:
144,156,38909,1,2,3:2:0:0:
8,216,39090,2,0,P|24:180|72:144,1,95,2|2,3:2|2:0,2:0:0:0:
192,236,39454,1,10,2:0:0:0:
264,220,39636,1,2,2:0:0:0:
192,100,39818,5,2,3:2:0:0:
120,84,39999,1,2,3:2:0:0:
120,252,40181,2,0,L|104:316,2,47.5,10|0|2,2:0|2:0|3:2,2:0:0:0:
220,168,40545,6,0,B|239:109|239:109|215:57|227:9|227:9|256:0,1,190,2|8,3:2|2:0,2:0:0:0:
312,48,41090,1,2,2:0:0:0:
192,100,41272,2,0,P|143:81|120:40,2,95,2|2|10,3:2|3:1|2:0,2:0:0:0:
308,176,41818,6,0,B|366:156|366:156|418:180|466:168|466:168|476:140,1,190,2|2,3:2|2:0,2:0:0:0:
416,84,42363,2,0,P|400:112|396:176,1,95,10|2,2:0|3:1,2:0:0:0:
480,304,42727,1,0,3:0:0:0:
476,296,42818,1,8,2:0:0:0:
472,288,42909,1,2,3:2:0:0:
356,232,43090,1,10,2:0:0:0:
248,360,43272,5,10,2:0:0:0:
252,368,43363,1,8,2:0:0:0:
256,376,43454,2,0,P|276:344|268:284,1,95,6|2,3:2|2:1,2:0:0:0:
136,164,43818,2,0,P|128:117|150:76,1,95,10|2,2:0|2:0,2:0:0:0:
128,320,44181,5,2,3:2:0:0:
224,236,44363,1,2,3:2:0:0:
112,296,44545,1,10,2:0:0:0:
32,200,44727,2,0,P|76:180|184:264,1,190,2|0,3:2|2:0,2:0:0:0:
212,132,45272,2,0,P|254:112|282:74,1,95,10|2,2:0|2:1,2:0:0:0:
182,251,45636,6,0,P|160:252|122:243,2,47.5,0|8|2,3:0|2:0|3:2,2:0:0:0:
282,74,45999,1,10,2:0:0:0:
272,208,46181,1,2,3:2:0:0:
200,140,46363,6,0,L|88:116,1,95,2|2,3:2|2:1,2:0:0:0:
304,100,46727,2,0,L|416:124,1,95,10|2,2:0|2:1,2:0:0:0:
472,232,47090,1,2,3:2:0:0:
464,104,47272,1,2,3:2:0:0:
364,184,47454,1,10,2:0:0:0:
508,168,47636,6,0,B|524:132|488:88|488:88|500:16|500:16|508:44,1,190,2|2,3:2|2:0,2:0:0:0:
364,184,48181,2,0,L|264:232,1,95,10|2,2:0|2:0,2:0:0:0:
440,240,48545,1,0,3:0:0:0:
448,244,48636,1,8,2:0:0:0:
456,248,48727,1,10,2:0:0:0:
288,136,48909,1,10,2:0:0:0:
360,300,49090,2,0,L|366:252,1,47.5,10|8,2:0|2:0,2:0:0:0:
278,225,49272,6,0,P|244:192|199:176,1,95,2|2,3:2|2:1,2:0:0:0:
92,304,49636,2,0,P|52:330|28:370,1,95,10|2,2:0|2:0,2:0:0:0:
116,232,49999,5,2,3:2:0:0:
180,348,50181,1,2,3:2:0:0:
136,224,50363,1,10,2:0:0:0:
84,104,50545,2,0,P|104:132|208:260,1,190,2|0,3:2|2:0,2:0:0:0:
24,156,51090,2,0,P|19:203|13:250,1,95,10|2,2:0|2:1,2:0:0:0:
235,151,51454,6,0,P|243:173|252:196,2,47.5,0|8|2,3:0|2:0|3:2,2:0:0:0:
84,104,51818,1,10,2:0:0:0:
13,250,51999,1,2,3:2:0:0:
201,252,52181,6,0,L|213:136,1,95,2|2,3:2|2:1,2:0:0:0:
172,0,52545,2,0,L|160:116,1,95,10|2,2:0|2:1,2:0:0:0:
0,168,52909,1,2,3:2:0:0:
140,208,53090,1,10,2:0:0:0:
12,144,53272,1,10,2:0:0:0:
64,304,53454,6,0,P|73:263|72:208,1,95,2|2,3:2|3:1,2:0:0:0:
108,180,53727,1,8,2:0:0:0:
84,144,53818,1,10,2:0:0:0:
72,104,53909,1,8,2:0:0:0:
76,60,53999,1,10,2:0:0:0:
244,144,54181,5,10,2:0:0:0:
208,172,54272,1,2,2:0:0:0:
204,124,54363,2,0,B|244:96|244:96|252:120|240:156,1,95,10|10,3:0|2:0,2:0:0:0:
80,244,54727,1,14,1:2:0:0:
80,244,55090,6,0,P|136:240|228:240,1,142.5,6|10,3:2|2:0,2:0:0:0:
296,252,55636,1,2,2:0:0:0:
512,228,55818,2,0,P|472:228|432:232,1,71.2500000000002,2|10,3:2|2:0,2:0:0:0:
272,348,56181,1,10,3:2:0:0:
320,232,56363,5,2,2:0:0:0:
240,128,56545,2,0,P|240:84|256:48,1,71.2500000000002,10|2,3:2|2:0,2:0:0:0:
184,168,56909,1,2,3:2:0:0:
308,104,57090,2,0,P|344:78|382:71,1,71.2500000000002,10|2,2:0|3:0,2:0:0:0:
304,16,57454,1,10,2:0:0:0:
432,120,57636,2,0,L|444:164,2,35.6250000000001,10|0|10,2:0|2:0|1:2,2:0:0:0:
300,176,57999,6,0,P|244:172|216:172,1,71.2500000000002,2|2,3:2|2:3,2:0:0:0:
96,104,58363,2,0,P|36:141|26:176,1,106.875,10|0,2:0|2:0,2:0:0:0:
36,180,58727,2,0,L|48:260,1,71.2500000000002,2|10,3:2|2:0,2:0:0:0:
144,340,59090,1,10,3:2:0:0:
160,216,59272,2,0,L|180:72,1,142.5,2|2,2:0|1:2,2:0:0:0:
120,276,59818,6,0,P|132:328|144:340,1,71.2500000000002,10|2,2:0|1:2,2:0:0:0:
208,164,60181,2,0,L|256:148,2,35.6250000000001,10|0|2,2:0|2:0|3:2,2:0:0:0:
248,224,60454,1,8,2:0:0:0:
244,236,60545,2,0,P|279:250|320:248,1,71.2500000000002,10|10,3:2|1:2,2:0:0:0:
252,108,60909,6,0,P|300:56|272:-8,1,142.5,2|10,3:2|2:0,2:0:0:0:
208,16,61454,1,2,2:0:0:0:
56,116,61636,2,0,P|88:132|108:172,1,71.2500000000002,2|10,3:2|2:0,2:0:0:0:
68,320,61999,1,10,3:2:0:0:
32,220,62181,5,2,2:0:0:0:
104,320,62363,2,0,P|140:324|180:332,1,71.2500000000002,10|2,3:2|2:0,2:0:0:0:
320,364,62727,1,2,3:2:0:0:
272,256,62909,2,0,P|236:260|196:268,1,71.2500000000002,10|2,2:0|3:0,2:0:0:0:
256,384,63272,1,10,2:0:0:0:
228,188,63454,2,0,L|224:144,2,35.6250000000001,10|0|10,2:0|2:0|1:2,2:0:0:0:
240,296,63818,6,0,P|244:352|244:380,1,71.2500000000002,2|2,3:2|2:3,2:0:0:0:
160,240,64181,2,0,P|139:287|92:309,1,106.875,10|0,2:0|2:0,2:0:0:0:
84,300,64545,6,0,L|155:310,1,71.2500000000002,2|10,3:2|2:0,2:0:0:0:
256,229,64909,1,10,1:2:0:0:
384,268,65090,6,0,B|382:294|382:294|352:216|302:154|302:154|307:186,1,213.750000000001,14|2,3:2|2:0,2:0:0:0:
256,229,65818,5,2,1:2:0:0:
256,228,68181,5,0,3:0:0:0:
296,16,68363,2,0,B|304:61|304:61|320:76|320:76|332:136,1,114,8|0,2:1|3:0,2:0:0:0:
312,164,68636,1,8,3:1:0:0:
360,156,68727,1,8,2:1:0:0:
236,312,68908,6,0,B|88:288|88:288|40:300|40:300|4:252|16:208,1,285,6|10,3:2|2:0,2:0:0:0:
56,368,69453,1,2,2:1:0:0:
164,280,69635,2,0,P|200:336|196:388,1,114,2|10,3:2|3:2,2:0:0:0:
92,248,69998,2,0,L|104:132,1,114,10|10,2:0|2:1,2:0:0:0:
100,0,70362,2,0,L|88:128,1,114,10|2,3:2|2:3,2:0:0:0:
204,220,70726,5,2,3:2:0:0:
204,220,70908,2,0,L|190:165,2,57,10|0|2,2:0|2:0|3:0,2:0:0:0:
140,56,71271,2,0,L|208:92,1,57,2|0,3:2|2:0,2:0:0:0:
260,120,71453,1,10,2:0:0:0:
324,288,71635,5,10,2:0:0:0:
444,160,71817,2,0,B|420:132|420:132|360:192|288:208|288:208|256:184,2,228,2|10|2,3:2|2:3|3:0,2:0:0:0:
496,256,72726,1,10,3:2:0:0:
496,116,72908,1,10,2:0:0:0:
428,228,73089,1,10,2:0:0:0:
364,280,73271,2,0,P|284:296|228:312,1,114,2|10,3:2|2:3,2:0:0:0:
512,336,73635,5,10,2:0:0:0:
444,160,73817,2,0,P|460:80|476:24,1,114,10|2,3:2|3:0,2:0:0:0:
476,44,74089,1,8,2:0:0:0:
484,40,74180,1,10,3:2:0:0:
292,192,74362,1,10,2:0:0:0:
292,192,74544,2,0,L|356:200,1,57,10|8,2:0|2:0,2:0:0:0:
420,232,74726,6,0,B|360:144|280:240|184:208,1,228,2|10,3:2|2:3,2:0:0:0:
207,213,75271,2,0,B|116:208|100:152,1,114,2|2,2:1|3:0,2:0:0:0:
73,106,75635,5,10,3:2:0:0:
73,106,75817,2,0,P|101:146|109:198,1,71.25,10|0,2:0|2:0,2:0:0:0:
168,224,75998,2,0,P|156:264|120:300,1,71.25,10|0,2:0|2:0,2:0:0:0:
112,356,76180,2,0,B|31:408|-60:320|0:188|96:240,1,285,10|2,3:2|3:2,2:0:0:0:
240,336,76726,2,0,P|296:360|400:340,1,142.5,10|2,2:0|3:0,2:0:0:0:
384,344,76998,1,8,2:0:0:0:
388,336,77089,1,2,3:2:0:0:
392,184,77271,5,10,2:0:0:0:
508,288,77453,1,10,2:0:0:0:
464,360,77635,2,0,L|488:72,1,285,2|10,3:2|2:0,2:0:0:0:
487,75,78180,1,2,2:0:0:0:
312,324,78362,1,2,3:2:0:0:
312,324,78544,2,0,L|296:160,1,142.5,10|10,3:2|2:0,2:0:0:0:
298,182,78908,5,10,2:0:0:0:
284,24,79089,1,10,3:2:0:0:
400,172,79271,1,2,1:2:0:0:
392,204,79362,1,0,3:0:0:0:
384,236,79453,1,10,2:0:0:0:
164,116,79635,1,2,1:2:0:0:
340,88,79817,1,10,2:0:0:0:
298,182,79998,5,2,3:2:0:0:
200,36,80180,2,0,B|124:16|56:52|56:52,1,142.5,10|10,3:2|1:3,2:0:0:0:
36,116,80453,1,8,3:2:0:0:
104,136,80544,6,0,B|176:102|200:36|200:36|264:0|264:0|304:24|344:24,1,285,6|10,3:2|2:0,2:0:0:0:
480,92,81089,1,2,2:1:0:0:
392,0,81271,2,0,P|404:44|412:116,1,114,2|10,3:2|3:2,2:0:0:0:
428,248,81635,2,0,P|377:228|366:171,1,114,10|10,2:0|2:1,2:0:0:0:
373,352,81998,2,0,P|415:317|409:262,1,114,10|2,3:2|2:3,2:0:0:0:
241,130,82362,5,2,3:2:0:0:
241,130,82544,2,0,P|268:136|290:154,2,57,10|0|2,2:0|2:0|3:0,2:0:0:0:
168,288,82908,2,0,P|186:267|195:240,1,57,2|0,3:2|2:0,2:0:0:0:
168,168,83089,1,10,2:0:0:0:
52,40,83271,5,10,2:0:0:0:
8,200,83453,2,0,B|53:206|82:193|82:193|102:154|96:130|96:130|125:99|171:91,2,228,2|10|2,3:2|2:3|3:0,2:0:0:0:
0,88,84362,1,10,3:2:0:0:
128,28,84544,1,10,2:0:0:0:
56,144,84726,1,10,2:0:0:0:
128,180,84908,2,0,P|156:240|176:288,1,114,2|10,3:2|2:3,2:0:0:0:
52,288,85271,5,10,2:0:0:0:
252,376,85453,2,0,P|288:336|332:268,1,114,10|2,3:2|3:0,2:0:0:0:
316,276,85726,1,8,2:0:0:0:
312,268,85817,1,10,3:2:0:0:
124,384,85998,1,10,2:0:0:0:
124,384,86180,2,0,P|164:364|184:340,1,57,10|8,2:0|2:0,2:0:0:0:
174,284,86362,6,0,B|144:160|220:88|280:128,1,228,2|10,3:2|2:3,2:0:0:0:
266,120,86908,2,0,B|304:176|245:220,1,114,2|2,2:1|3:0,2:0:0:0:
185,186,87271,5,10,3:2:0:0:
185,186,87453,2,0,P|213:209|266:217,1,71.25,10|0,2:0|2:0,2:0:0:0:
336,172,87635,2,0,P|342:135|322:85,1,71.25,10|0,2:0|2:0,2:0:0:0:
256,40,87817,2,0,B|176:48|184:92|184:144|36:128|80:36|108:16|168:80,1,285,10|2,3:2|3:2,2:0:0:0:
412,60,88362,2,0,P|452:105|465:210,1,142.5,10|2,2:0|3:0,2:0:0:0:
463,193,88635,1,8,2:0:0:0:
457,200,88726,1,2,3:2:0:0:
496,100,88908,5,10,2:0:0:0:
456,284,89089,1,10,2:0:0:0:
384,240,89271,2,0,L|84:256,1,285,2|10,3:2|2:0,2:0:0:0:
99,255,89817,1,2,2:0:0:0:
328,72,89998,1,2,3:2:0:0:
328,72,90180,2,0,L|178:64,1,142.5,10|10,3:2|2:0,2:0:0:0:
32,56,90544,1,10,2:0:0:0:
188,64,90726,5,10,3:2:0:0:
196,84,90817,1,8,2:1:0:0:
56,192,90998,5,8,2:0:0:0:
80,120,91089,1,10,2:0:0:0:
172,328,91271,1,10,2:0:0:0:
112,48,91453,5,10,3:2:0:0:
142,188,91635,1,10,2:0:0:0:
172,328,91817,6,0,L|140:176,1,142.5,14|6,1:2|3:2,2:0:0:0:
332,16,102180,6,0,L|316:64,1,35.6250000000001,2|0,3:1|2:0,2:0:0:0:
260,88,102362,5,2,3:0:0:0:
260,88,102544,1,2,2:0:0:0:
260,88,102726,1,2,2:0:0:0:
288,236,102908,1,2,2:0:0:0:
264,236,103271,5,0,3:0:0:0:
300,208,103362,1,8,1:0:0:0:
304,256,103453,2,0,B|321:288|268:300|282:357,1,95,10|10,2:0|3:2,2:0:0:0:
496,320,103817,6,0,B|500:348|500:348|476:367|476:367|392:368|340:328,1,190,6|8,3:2|2:0,2:0:0:0:
279,343,104362,1,2,2:0:0:0:
142,251,104544,2,0,B|138:223|138:223|162:204|162:204|246:203|298:243,1,190,2|10,3:2|2:0,2:0:0:0:
359,228,105089,1,2,3:2:0:0:
460,132,105271,6,0,P|412:135|371:157,1,95,2|2,3:2|2:0,2:0:0:0:
452,296,105635,1,10,2:0:0:0:
476,232,105817,1,2,2:0:0:0:
263,167,105998,1,2,3:2:0:0:
287,235,106180,1,2,3:2:0:0:
371,156,106362,2,0,P|327:137|280:134,1,95,10|2,2:0|3:2,2:0:0:0:
188,224,106726,6,0,B|136:196|128:152|128:152|148:136|148:136|168:52,1,190,2|8,3:2|2:0,2:0:0:0:
180,0,107271,1,2,2:0:0:0:
84,56,107453,2,0,P|132:88|156:128,1,95,2|2,3:2|3:1,2:0:0:0:
12,160,107817,1,10,2:0:0:0:
228,156,107998,6,0,B|200:208|156:216|156:216|140:196|140:196|56:176,1,190,2|2,3:2|2:0,2:0:0:0:
140,284,108544,2,0,L|240:308,1,95,10|2,2:0|2:0,2:0:0:0:
296,228,108908,1,0,3:0:0:0:
292,220,108998,1,8,2:0:0:0:
288,212,109089,1,10,2:0:0:0:
380,348,109271,1,10,2:0:0:0:
380,160,109453,2,0,L|368:208,1,47.5,10|8,2:0|2:0,2:0:0:0:
392,276,109635,6,0,B|408:256|408:256|388:120|388:120|407:100,1,190,2|8,3:2|2:0,2:0:0:0:
480,120,110180,1,2,2:0:0:0:
303,36,110362,2,0,B|287:56|287:56|307:192|307:192|287:211,1,190,2|10,3:2|2:0,2:0:0:0:
215,192,110908,1,2,3:2:0:0:
4,160,111089,5,2,3:2:0:0:
68,128,111271,1,2,2:0:0:0:
96,60,111453,1,10,2:0:0:0:
204,80,111635,1,2,2:0:0:0:
215,192,111817,2,0,P|191:160|187:96,1,95,2|2,3:2|3:2,2:0:0:0:
64,0,112180,2,0,P|40:32|36:96,1,95,10|2,2:0|3:2,2:0:0:0:
0,260,112544,6,0,B|9:311|92:285|92:285|122:255|122:255|177:248,1,190,2|8,3:2|2:0,2:0:0:0:
224,280,113089,1,2,2:0:0:0:
360,316,113271,2,0,B|336:352|336:352|276:360,2,95,2|2|10,3:2|3:1|2:0,2:0:0:0:
324,100,113817,6,0,B|375:109|349:192|349:192|319:222|319:222|312:277,1,190,2|2,3:2|2:0,2:0:0:0:
412,376,114362,2,0,B|439:371|439:371|466:341|464:290,1,95,10|2,2:0|3:1,2:0:0:0:
416,224,114726,5,0,3:0:0:0:
412,216,114817,1,8,2:0:0:0:
408,208,114908,1,2,3:2:0:0:
314,258,115089,1,10,2:0:0:0:
240,52,115271,5,10,2:0:0:0:
232,48,115362,1,8,2:0:0:0:
224,44,115453,2,0,L|208:156,1,95,6|2,3:2|2:1,2:0:0:0:
124,280,115817,2,0,L|140:392,1,95,10|2,2:0|2:0,2:0:0:0:
136,188,116180,5,2,3:2:0:0:
224,284,116362,1,2,3:2:0:0:
320,220,116544,1,10,2:0:0:0:
208,252,116726,2,0,P|120:232|16:240,1,190,2|0,3:2|2:0,2:0:0:0:
136,188,117271,2,0,P|172:160|200:116,1,95,10|2,2:0|2:1,2:0:0:0:
156,308,117635,6,0,P|168:340|196:360,2,47.5,0|8|2,3:0|2:0|3:2,2:0:0:0:
198,118,117998,1,10,2:0:0:0:
208,252,118180,1,2,3:2:0:0:
92,192,118362,6,0,P|48:172|-20:176,1,95,2|2,3:2|2:1,2:0:0:0:
240,188,118726,2,0,P|284:208|352:204,1,95,10|2,2:0|2:1,2:0:0:0:
464,96,119089,1,2,3:2:0:0:
316,140,119271,1,2,3:2:0:0:
448,164,119453,1,10,2:0:0:0:
383,67,119635,6,0,B|400:62|400:62|407:103|379:163|379:163|343:180|327:215,1,190,2|2,3:2|2:0,2:0:0:0:
256,360,120180,2,0,P|221:328|212:282,1,95,10|2,2:0|2:0,2:0:0:0:
412,260,120544,1,0,3:0:0:0:
408,268,120635,1,8,2:0:0:0:
404,276,120726,1,10,2:0:0:0:
236,192,120908,1,10,2:0:0:0:
328,340,121089,2,0,L|334:292,1,47.5,10|8,2:0|2:0,2:0:0:0:
352,212,121271,6,0,L|240:228,1,95,2|2,3:2|2:1,2:0:0:0:
72,96,121635,2,0,L|166:109,1,95,10|2,2:0|2:0,2:0:0:0:
312,80,121998,5,2,3:2:0:0:
220,156,122180,1,2,3:2:0:0:
256,300,122362,1,10,2:0:0:0:
208,176,122544,2,0,P|116:208|64:300,1,190,2|0,3:2|2:0,2:0:0:0:
256,300,123089,2,0,P|284:324|304:388,1,95,10|2,2:0|2:1,2:0:0:0:
67,282,123453,6,0,P|66:258|70:234,2,47.5,0|8|2,3:0|2:0|3:2,2:0:0:0:
212,356,123817,1,10,2:0:0:0:
208,176,123998,1,2,3:2:0:0:
160,264,124180,6,0,P|136:224|136:160,1,95,2|2,3:2|2:1,2:0:0:0:
252,64,124544,2,0,L|238:158,1,95,10|2,2:0|2:1,2:0:0:0:
4,108,124908,2,0,P|44:83|91:80,1,95,2|10,3:2|2:0,2:0:0:0:
132,176,125271,1,10,2:0:0:0:
252,64,125453,1,2,3:2:0:0:
352,192,125635,5,2,3:2:0:0:
391,185,125726,1,8,2:0:0:0:
431,179,125817,1,10,2:0:0:0:
471,173,125908,1,8,2:0:0:0:
511,166,125998,1,10,2:0:0:0:
332,108,126180,1,10,2:0:0:0:
416,8,126362,6,0,B|448:32|448:68|448:68|438:92,1,95,10|10,3:0|2:0,2:0:0:0:
376,288,126726,1,14,1:2:0:0:
376,288,127089,6,0,P|304:304|236:312,1,142.5,6|10,3:2|2:0,2:0:0:0:
160,276,127635,1,2,2:0:0:0:
300,232,127817,2,0,P|260:228|216:228,1,71.2500000000002,2|10,3:2|2:0,2:0:0:0:
48,352,128180,1,10,3:2:0:0:
132,168,128362,5,2,2:0:0:0:
140,304,128544,2,0,P|100:276|84:232,1,71.2500000000002,10|2,3:2|2:0,2:0:0:0:
228,312,128908,1,2,3:2:0:0:
176,168,129089,2,0,P|155:212|163:258,1,71.2500000000002,10|2,2:0|3:0,2:0:0:0:
256,128,129453,1,10,2:0:0:0:
84,188,129635,2,0,L|28:164,2,35.6250000000001,10|0|10,2:0|2:0|1:2,2:0:0:0:
188,0,129998,6,0,L|200:100,1,71.2500000000002,2|2,3:2|2:3,2:0:0:0:
328,144,130362,2,0,P|348:180|424:204,1,106.875,10|0,2:0|2:0,2:0:0:0:
412,196,130726,2,0,P|428:156|420:112,1,71.2500000000002,2|10,3:2|2:0,2:0:0:0:
356,40,131089,1,10,3:2:0:0:
328,144,131271,2,0,P|268:172|232:252,1,142.5,2|2,2:0|1:2,2:0:0:0:
404,380,131817,6,0,L|388:284,1,71.2500000000002,10|2,2:0|1:2,2:0:0:0:
233,237,132180,2,0,L|241:181,2,35.6250000000001,10|0|2,2:0|2:0|3:2,2:0:0:0:
296,276,132453,1,8,2:0:0:0:
304,272,132544,2,0,L|255:219,1,71.2500000000002,10|10,3:2|1:2,2:0:0:0:
140,304,132908,6,0,L|0:277,1,142.5,2|10,3:2|2:0,2:0:0:0:
32,212,133453,1,2,2:0:0:0:
128,380,133635,2,0,L|212:360,1,71.2500000000002,2|10,3:2|2:0,2:0:0:0:
352,320,133998,1,10,3:2:0:0:
176,292,134180,6,0,P|127:264|104:176,1,142.5,2|2,2:0|2:0,2:0:0:0:
228,92,134726,1,2,3:2:0:0:
240,244,134908,1,10,2:0:0:0:
144,104,135089,2,0,L|136:56,2,35.6250000000001,2|0|10,3:0|3:0|2:0,2:0:0:0:
236,112,135453,5,10,2:0:0:0:
52,92,135635,1,10,1:2:0:0:
180,168,135817,6,0,B|239:154|239:154|248:148|248:148|260:152|260:152|320:140,1,142.5,2|10,3:2|2:0,2:0:0:0:
128,248,136362,1,10,2:3:0:0:
128,248,136544,2,0,L|204:256,1,71.2500000000002,2|10,3:2|2:0,2:0:0:0:
208,248,136817,1,0,2:0:0:0:
216,240,136908,1,10,1:2:0:0:
236,384,137089,5,14,3:2:0:0:
288,336,137271,2,0,P|289:304|276:260,2,71.2500000000002,2|2|2,2:0|2:0|2:0,2:0:0:0:
288,336,137817,1,2,1:2:0:0:
292,332,140180,5,0,3:0:0:0:
248,168,140362,2,0,B|248:124|264:88|264:88|300:72,1,114,8|0,2:1|3:0,2:0:0:0:
332,96,140635,1,8,3:1:0:0:
332,52,140726,1,8,2:1:0:0:
460,208,140908,6,0,B|452:232|420:240|420:240|344:232|344:232|324:204|324:204|268:172|208:196,1,285,6|10,3:2|2:0,2:0:0:0:
320,260,141453,1,2,2:1:0:0:
408,152,141635,2,0,B|472:136|472:136|504:144|512:164,1,114,2|10,3:2|3:2,2:0:0:0:
320,260,141998,2,0,P|289:212|280:156,1,114,10|10,2:0|2:1,2:0:0:0:
336,52,142362,2,0,P|327:107|296:155,1,114,10|2,3:2|2:3,2:0:0:0:
156,132,142726,5,2,3:2:0:0:
156,132,142908,2,0,P|131:117|113:95,2,57,10|0|2,2:0|2:0|3:0,2:0:0:0:
196,244,143271,2,0,L|216:168,1,57,2|0,3:2|2:0,2:0:0:0:
228,120,143453,1,10,2:0:0:0:
32,108,143635,5,10,2:0:0:0:
116,284,143817,2,0,B|140:312|140:312|190:289|204:244|204:244|260:220|294:246,2,228,2|10|2,3:2|2:3|3:0,2:0:0:0:
28,288,144726,1,10,3:2:0:0:
128,188,144908,1,10,2:0:0:0:
168,332,145089,1,10,2:0:0:0:
96,256,145271,2,0,P|104:200|116:144,1,114,2|10,3:2|2:3,2:0:0:0:
0,364,145635,5,10,2:0:0:0:
184,332,145817,2,0,P|264:316|320:300,1,114,10|2,3:2|3:0,2:0:0:0:
304,312,146089,1,8,2:0:0:0:
312,316,146180,1,10,3:2:0:0:
456,156,146362,1,10,2:0:0:0:
456,156,146544,2,0,L|448:220,1,57,10|8,2:0|2:0,2:0:0:0:
476,280,146726,6,0,B|487:198|388:137|426:78|484:79,1,228,2|10,3:2|2:3,2:0:0:0:
469,80,147271,2,0,B|456:148|352:100,1,114,2|2,2:1|3:0,2:0:0:0:
320,69,147635,5,10,3:2:0:0:
320,70,147817,2,0,P|352:85|377:111,1,71.25,10|0,2:0|2:0,2:0:0:0:
484,11,147998,2,0,P|480:46|468:79,1,71.25,10|0,2:0|2:0,2:0:0:0:
440,140,148180,2,0,B|416:224|281:238|380:112|268:136|268:136|245:179|260:208,1,285,10|2,3:2|3:2,2:0:0:0:
148,336,148726,2,0,B|136:271|136:271|116:253|116:253|103:186,1,142.500005435944,10|2,2:0|3:0,2:0:0:0:
111,195,148998,1,8,2:0:0:0:
115,185,149089,1,2,3:2:0:0:
72,308,149271,5,10,2:0:0:0:
180,140,149453,1,10,2:0:0:0:
183,224,149635,2,0,P|57:186|77:57,1,285,2|10,3:2|2:0,2:0:0:0:
77,57,150180,1,2,2:0:0:0:
256,184,150362,1,2,3:2:0:0:
256,184,150544,2,0,P|321:124|305:80,1,142.5,10|10,3:2|2:0,2:0:0:0:
307,82,150908,5,10,2:0:0:0:
156,32,151089,1,10,3:2:0:0:
52,140,151271,1,2,1:2:0:0:
24,128,151362,1,0,3:0:0:0:
4,100,151453,1,10,2:0:0:0:
168,120,151635,1,2,1:2:0:0:
72,256,151817,1,10,2:0:0:0:
120,64,151998,5,2,3:2:0:0:
192,240,152180,2,0,B|128:248|144:156|44:176,1,142.5,10|10,3:2|1:3,2:0:0:0:
8,212,152453,1,8,3:2:0:0:
72,256,152544,6,0,B|156:256|146:188|218:184|218:184|250:232|250:232|318:240,1,285,6|10,3:2|2:0,2:0:0:0:
384,112,153089,1,2,2:1:0:0:
452,240,153271,2,0,B|419:287|419:287|363:295,1,114,2|10,3:2|3:2,2:0:0:0:
300,112,153635,2,0,L|316:-20,1,114,10|10,2:0|2:1,2:0:0:0:
316,232,153998,2,0,L|300:364,1,114,10|2,3:2|2:3,2:0:0:0:
408,160,154362,5,2,3:2:0:0:
408,160,154544,2,0,L|461:141,2,57,10|0|2,2:0|2:0|3:0,2:0:0:0:
300,112,154908,2,0,P|280:144|276:163,1,57,2|0,3:2|2:0,2:0:0:0:
316,232,155089,1,10,2:0:0:0:
412,88,155271,5,10,2:0:0:0:
240,80,155453,2,0,B|186:68|128:112|128:112|122:131|122:131|72:144|28:104,2,228,2|10|2,3:2|2:3|3:0,2:0:0:0:
96,56,156362,1,10,3:2:0:0:
204,160,156544,1,10,2:0:0:0:
64,208,156726,1,10,2:0:0:0:
128,112,156908,2,0,P|140:168|148:224,1,114,2|10,3:2|2:3,2:0:0:0:
80,340,157271,5,10,2:0:0:0:
344,208,157453,2,0,P|264:192|208:176,1,114,10|2,3:2|3:0,2:0:0:0:
224,188,157726,1,8,2:0:0:0:
216,192,157817,1,10,3:2:0:0:
28,76,157998,1,10,2:0:0:0:
28,76,158180,2,0,P|31:106|60:144,1,57,10|8,2:0|2:0,2:0:0:0:
120,104,158362,6,0,B|245:112|172:31|235:-18|277:-2|312:35,1,228,2|10,3:2|2:3,2:0:0:0:
297,21,158908,2,0,B|351:70|412:48|412:48,1,114,2|2,2:1|3:0,2:0:0:0:
458,8,159271,1,10,3:2:0:0:
458,8,159453,6,0,P|430:37|390:53,1,71.25,10|0,2:0|2:0,2:0:0:0:
368,128,159635,2,0,P|328:122|291:99,1,71.25,10|0,2:0|2:0,2:0:0:0:
224,136,159817,2,0,P|180:88|160:8,1,142.5,10|2,3:2|2:3,2:0:0:0:
332,32,160180,5,2,3:2:0:0:
301,107,160362,2,0,P|288:188|297:263,1,142.5,10|2,2:0|3:0,2:0:0:0:
304,252,160635,1,8,2:0:0:0:
312,256,160726,1,2,3:2:0:0:
368,148,160908,5,10,2:0:0:0:
224,232,161089,1,10,2:0:0:0:
134,213,161271,6,0,P|172:87|301:107,1,285,2|10,3:2|2:0,2:0:0:0:
300,107,161817,1,2,2:0:0:0:
80,72,161998,1,2,3:2:0:0:
80,72,162180,2,0,P|140:137|184:121,1,142.5,10|10,3:2|2:0,2:0:0:0:
296,28,162544,1,10,2:0:0:0:
256,180,162726,5,10,3:2:0:0:
264,200,162817,1,8,2:1:0:0:
181,123,162998,5,8,2:0:0:0:
205,51,163089,1,10,2:0:0:0:
240,280,163271,1,10,2:0:0:0:
336,140,163453,5,10,3:2:0:0:
116,180,163635,1,10,2:0:0:0:
240,280,163817,6,0,P|272:216|244:148,1,142.5,14|6,1:2|3:2,2:0:0:0:
264,344,186726,6,0,B|256:372|224:364|216:308|288:312|252:244,1,142.5,10|0,2:0|2:0,2:0:0:0:
180,280,187453,1,6,3:2:0:0:
192,204,187635,2,0,P|256:224|320:172,1,142.5,0|10,3:0|2:3,2:0:0:0:
296,64,188544,1,2,2:0:0:0:
296,64,188726,2,0,L|304:120,1,47.5,2|2,3:2|2:3,2:0:0:0:
372,140,189089,5,0,3:0:0:0:
444,144,189271,2,0,P|464:192|464:244,1,95,2|10,3:0|2:3,2:0:0:0:
465,234,189998,1,2,2:3:0:0:
372,140,190362,5,2,3:0:0:0:
312,184,190544,2,0,P|244:180|184:136,1,142.5,0|10,3:0|2:3,2:0:0:0:
32,216,191453,5,2,2:0:0:0:
32,216,191635,2,0,L|88:220,1,47.5,2|2,3:2|2:0,2:0:0:0:
120,160,191998,1,0,3:0:0:0:
152,228,192180,1,2,3:2:0:0:
56,348,192544,2,0,P|108:320|148:320,1,95,10|2,2:0|2:0,2:0:0:0:
304,372,193271,5,2,3:2:0:0:
376,384,193453,2,0,P|392:332|320:292,1,142.5,0|10,3:0|2:3,2:0:0:0:
250,174,194362,1,2,2:0:0:0:
250,174,194544,2,0,L|258:118,1,47.5,2|2,3:2|2:3,2:0:0:0:
322,84,194908,5,0,3:0:0:0:
326,156,195089,2,0,P|374:176|426:176,1,95,2|10,3:0|2:3,2:0:0:0:
416,177,195817,1,2,2:3:0:0:
212,186,196180,5,2,3:0:0:0:
256,126,196362,2,0,P|252:58|208:-2,1,142.5,0|10,3:0|2:3,2:0:0:0:
152,88,197271,5,2,2:0:0:0:
233,67,197453,1,2,3:2:0:0:
179,119,197635,1,2,2:0:0:0:
160,48,197817,1,2,3:2:0:0:
233,67,197998,2,0,L|170:85,1,47.5,2|0,3:2|2:0,2:0:0:0:
148,144,198362,2,0,P|96:116|56:116,1,95,10|2,2:3|2:0,2:0:0:0:
44,184,198908,1,0,2:0:0:0:
88,236,199089,5,6,3:2:0:0:
68,304,199271,2,0,P|96:276|152:280,1,95,0|2,3:0|2:0,2:0:0:0:
300,320,199817,2,0,L|352:312,2,47.5,10|2|2,2:0|2:0|2:0,2:0:0:0:
236,352,200362,1,2,3:2:0:0:
224,212,200726,1,0,3:0:0:0:
288,240,200908,1,2,3:0:0:0:
416,332,201271,2,0,P|476:320|504:292,1,95,10|2,2:3|2:3,2:0:0:0:
424,188,201998,5,2,3:0:0:0:
380,128,202180,2,0,P|384:60|428:0,1,142.5,0|10,3:0|2:3,2:0:0:0:
304,72,203089,5,2,2:0:0:0:
304,72,203271,2,0,L|248:76,1,47.5,0|2,3:0|2:0,2:0:0:0:
192,48,203635,1,0,3:0:0:0:
160,116,203817,1,2,3:2:0:0:
32,216,204180,2,0,P|68:193|128:188,1,95,10|2,2:0|2:0,2:0:0:0:
116,320,204908,5,2,3:2:0:0:
185,334,205089,2,0,B|224:344|256:328|256:328|292:340|325:330,1,142.5,0|10,3:0|2:3,2:0:0:0:
496,364,205998,1,2,2:0:0:0:
496,364,206180,2,0,L|488:308,1,47.5,2|2,3:2|2:3,2:0:0:0:
484,244,206544,5,0,3:0:0:0:
428,284,206726,2,0,P|400:328|388:380,1,95,2|10,3:0|2:3,2:0:0:0:
352,264,207271,2,0,P|333:238|317:221,2,47.5,2|2|2,2:0|2:0|2:0,2:0:0:0:
318,328,207817,5,2,3:2:0:0:
308,264,207998,1,2,3:2:0:0:
399,148,208362,2,0,L|396:196,1,47.5,2|10,2:0|2:3,2:0:0:0:
464,216,208726,1,2,2:0:0:0:
512,168,208908,1,2,2:0:0:0:
480,224,209089,1,2,3:2:0:0:
488,296,209271,6,0,L|442:283,1,47.5,2|0,2:0|3:0,2:0:0:0:
384,324,209635,2,0,L|280:336,1,95,2|10,3:2|2:0,2:0:0:0:
200,216,210362,1,10,2:1:0:0:
264,176,210544,1,8,2:0:0:0:
196,144,210726,5,6,3:2:0:0:
196,144,210908,2,0,P|200:192|184:288,1,142.5,0|10,3:0|2:0,2:0:0:0:
48,148,211817,1,2,2:0:0:0:
48,148,211998,2,0,P|32:208|32:256,1,95,0|0,3:0|3:0,2:0:0:0:
100,280,212544,2,0,P|124:256|136:240,1,47.5,2|0,3:2|2:0,2:0:0:0:
128,132,212908,2,0,P|144:160|152:184,1,47.5,10|0,2:0|2:0,2:0:0:0:
208,224,213271,6,0,L|256:236,1,47.5,2|0,2:0|2:0,2:0:0:0:
264,244,213544,1,2,2:0:0:0:
272,252,213635,1,2,3:2:0:0:
336,299,213817,2,0,B|388:251|388:251|393:161,1,142.5,0|10,3:0|2:3,2:0:0:0:
320,164,214726,5,2,2:3:0:0:
392,180,214908,2,0,L|440:188,1,47.5,0|2,3:0|2:3,2:0:0:0:
496,244,215271,5,0,3:0:0:0:
428,332,215453,1,2,3:0:0:0:
420,260,215635,2,0,L|412:164,1,95,2|2,2:0|2:0,2:0:0:0:
428,76,216180,1,2,2:0:0:0:
428,76,216362,1,2,2:0:0:0:
360,103,216544,5,2,3:2:0:0:
360,103,216726,2,0,P|340:86|324:62,1,47.5,0|2,3:0|2:0,2:0:0:0:
216,72,217271,1,10,2:0:0:0:
216,176,217635,1,2,2:0:0:0:
216,176,217817,2,0,P|244:152|248:136,1,47.5,0|2,3:0|2:3,2:0:0:0:
246,142,218180,5,0,3:0:0:0:
188,96,218362,1,2,3:2:0:0:
152,228,218726,1,10,2:0:0:0:
0,264,219089,6,0,L|96:272,1,95,2|2,2:0|3:0,2:0:0:0:
160,308,219635,2,0,P|223:287|228:219,1,142.5,0|10,3:0|2:3,2:0:0:0:
140,376,220726,5,0,3:0:0:0:
288,312,221089,1,0,3:0:0:0:
348,352,221271,2,0,P|372:364|440:384,1,95,2|10,3:0|2:3,2:0:0:0:
453,375,221817,1,0,3:2:0:0:
424,300,221998,5,2,3:1:0:0:
424,300,222180,1,8,2:0:0:0:
472,184,222362,5,6,3:2:0:0:
472,184,222544,2,0,L|456:40,1,142.5,0|10,3:0|2:0,2:0:0:0:
296,116,223453,1,2,2:0:0:0:
296,116,223635,2,0,P|224:136|212:152,1,95,0|0,3:0|3:0,2:0:0:0:
212,224,224180,2,0,P|232:232|280:236,1,47.5,2|0,3:2|2:0,2:0:0:0:
213,149,224544,2,0,P|212:127|196:81,1,47.5,10|0,2:0|2:0,2:0:0:0:
152,184,224908,6,0,L|96:186,1,47.5,2|0,2:0|2:0,2:0:0:0:
100,196,225180,1,2,2:0:0:0:
96,204,225271,1,2,3:2:0:0:
15,168,225453,2,0,P|55:104|117:108,1,142.5,0|10,3:0|2:3,2:0:0:0:
172,160,226362,5,2,2:0:0:0:
116,108,226544,2,0,L|124:60,1,47.5,2|2,3:2|2:3,2:0:0:0:
184,20,226908,5,0,3:0:0:0:
123,61,227089,1,2,3:0:0:0:
232,80,227271,2,0,L|137:87,1,95,2|2,2:0|2:0,2:0:0:0:
112,156,227817,1,2,2:0:0:0:
112,156,227998,1,2,2:0:0:0:
176,200,228180,5,2,3:2:0:0:
176,200,228362,2,0,P|208:204|224:208,1,47.5,0|2,3:0|2:0,2:0:0:0:
336,140,228908,1,10,2:0:0:0:
324,252,229271,1,2,2:0:0:0:
324,252,229453,2,0,L|312:200,1,47.5,0|2,3:0|2:0,2:0:0:0:
313,205,229817,5,0,3:0:0:0:
368,264,229998,1,2,3:2:0:0:
236,224,230362,1,10,2:0:0:0:
368,204,230726,6,0,B|393:202|393:202|416:216|416:216|464:212,1,95,2|2,2:0|3:0,2:0:0:0:
460,128,231271,2,0,P|480:80|416:20,1,142.5,0|10,3:0|2:3,2:0:0:0:
300,124,232362,6,0,L|296:192,1,47.5,0|2,3:0|2:3,2:0:0:0:
228,144,232726,1,0,3:0:0:0:
188,204,232908,2,0,P|141:205|92:176,1,95,2|10,3:0|2:3,2:0:0:0:
252,228,233635,6,0,L|264:292,1,47.5,10|8,3:2|3:2,2:0:0:0:
248,364,233998,5,4,2:1:0:0:
288,160,259453,6,0,P|304:132|308:104,2,47.5,10|8|10,3:2|2:0|2:1,2:0:0:0:
196,116,259817,6,0,B|228:108|228:108|288:168|280:236,1,142.5,6|0,3:2|2:0,2:0:0:0:
240,264,260180,6,0,P|176:256|88:240,1,142.5,6|10,3:2|2:0,2:0:0:0:
28,220,260726,1,2,2:0:0:0:
200,352,260908,2,0,P|185:317|168:268,1,71.2500000000002,2|10,3:2|2:0,2:0:0:0:
152,64,261271,1,10,3:2:0:0:
208,176,261453,5,2,2:0:0:0:
100,240,261635,2,0,P|108:208|104:168,1,71.2500000000002,10|2,3:2|2:0,2:0:0:0:
43,134,261998,1,2,3:2:0:0:
173,285,262180,2,0,P|202:270|229:240,1,71.2500000000002,10|2,2:0|3:0,2:0:0:0:
101,270,262544,1,10,2:0:0:0:
208,176,262726,2,0,L|201:131,2,35.6250000000001,10|0|10,2:0|2:0|1:2,2:0:0:0:
308,260,263089,6,0,P|364:256|392:256,1,71.2500000000002,2|2,3:2|2:3,2:0:0:0:
312,96,263453,2,0,P|349:36|384:26,1,106.875,10|0,2:0|2:0,2:0:0:0:
396,32,263817,2,0,L|384:112,1,71.2500000000002,2|10,3:2|2:0,2:0:0:0:
392,236,264180,1,10,3:2:0:0:
284,164,264362,2,0,L|264:20,1,142.5,2|2,2:0|1:2,2:0:0:0:
464,108,264908,6,0,P|452:160|440:172,1,71.2500000000002,10|2,2:0|1:2,2:0:0:0:
248,104,265271,2,0,L|200:120,2,35.6250000000001,10|0|2,2:0|2:0|3:2,2:0:0:0:
320,104,265544,1,8,2:0:0:0:
327,94,265635,2,0,P|356:117|375:153,1,71.2500000000002,10|10,3:2|1:2,2:0:0:0:
192,196,265998,6,0,P|240:148|304:170,1,142.5,2|10,3:2|2:0,2:0:0:0:
320,240,266544,1,2,2:3:0:0:
152,336,266726,2,0,P|120:320|100:280,1,71.2500000000002,2|10,3:2|2:0,2:0:0:0:
80,160,267089,1,10,3:2:0:0:
168,328,267271,6,0,P|238:342|308:360,1,142.5,2|2,2:0|2:0,2:0:0:0:
388,384,267817,1,2,3:2:0:0:
480,272,267998,2,0,P|444:276|404:284,1,71.2500000000002,10|2,2:0|3:0,2:0:0:0:
306,359,268362,1,10,2:0:0:0:
368,180,268544,2,0,P|392:188|412:204,2,35.6250000000001,10|0|10,2:0|2:0|1:2,2:0:0:0:
276,192,268908,6,0,P|272:248|272:276,1,71.2500000000002,2|2,3:2|2:3,2:0:0:0:
152,368,269271,2,0,P|131:321|84:299,1,106.875,10|0,2:0|2:0,2:0:0:0:
72,312,269635,6,0,L|1:322,1,71.2500000000002,2|10,3:2|2:0,2:0:0:0:
216,324,269998,1,10,1:2:0:0:
216,324,270180,5,14,3:2:0:0:
272,376,270362,2,0,P|324:376|416:388,1,142.5,2|2,2:0|1:2,2:0:0:0:
413,384,273271,6,0,P|388:352|388:320,1,56.9999982604981,2|0,3:2|2:0,2:0:0:0:
244,264,273453,2,0,P|260:232|298:207,1,56.9999982604981,8|0,2:1|2:0,2:0:0:0:
201,35,273635,2,0,L|211:121,1,56.9999982604981,0|8,3:0|3:1,3:0:0:0:
260,144,273817,1,8,2:1:0:0:
260,144,273998,6,0,B|137:117|137:117|106:128|79:140|79:140|56:179|67:217|67:217|94:205,1,285,6|10,3:2|2:0,2:0:0:0:
208,92,274543,1,2,2:1:0:0:
232,232,274725,2,0,P|180:200|156:152,1,114,2|10,3:2|3:2,2:0:0:0:
324,216,275088,2,0,L|306:328,1,114,10|10,2:0|2:1,2:0:0:0:
216,112,275452,2,0,L|233:0,1,114,10|2,3:2|2:3,2:0:0:0:
356,68,275816,5,2,3:2:0:0:
356,68,275998,2,0,P|348:40|327:22,2,57,10|0|2,2:0|2:0|3:0,2:0:0:0:
324,216,276361,2,0,P|291:205|273:169,1,57,2|0,3:2|2:0,2:0:0:0:
296,112,276543,1,10,2:0:0:0:
488,44,276725,5,10,2:0:0:0:
452,244,276907,2,0,B|432:272|432:272|388:280|348:244|348:244|320:260|320:260|304:252|304:252|252:256,2,228,2|10|2,3:2|2:3|3:0,2:0:0:0:
392,176,277816,1,10,3:2:0:0:
348,324,277998,1,10,2:0:0:0:
296,184,278179,1,10,2:0:0:0:
252,256,278361,2,0,P|196:276|128:260,1,114,2|10,3:2|2:3,2:0:0:0:
364,296,278725,5,10,2:0:0:0:
248,116,278907,2,0,P|246:55|288:-4,1,114,10|2,3:2|3:0,2:0:0:0:
280,12,279179,1,8,2:0:0:0:
288,16,279270,1,10,3:2:0:0:
215,181,279452,1,10,2:0:0:0:
215,181,279634,2,0,P|173:175|150:158,1,57,10|8,2:0|2:0,2:0:0:0:
95,125,279816,6,0,B|186:69|235:236|301:179,1,228,2|10,3:2|2:3,2:0:0:0:
295,183,280361,2,0,B|298:113|350:90,1,114,2|2,2:1|3:0,2:0:0:0:
418,85,280725,5,10,3:2:0:0:
418,85,280907,2,0,P|375:81|341:95,1,71.25,10|0,2:0|2:0,2:0:0:0:
300,160,281088,2,0,P|300:192|320:232,1,71.25,10|0,2:0|2:0,2:0:0:0:
388,272,281270,2,0,B|484:296|552:184|424:104|365:177,1,285,10|2,3:2|3:2,2:0:0:0:
276,328,281816,2,0,P|206:345|136:338,1,142.5,10|2,2:0|3:0,2:0:0:0:
132,329,282088,1,8,2:0:0:0:
128,321,282179,1,2,3:2:0:0:
224,208,282361,5,10,2:0:0:0:
400,296,282543,1,10,2:0:0:0:
356,360,282725,2,0,L|380:72,1,285,2|10,3:2|2:0,2:0:0:0:
512,236,283270,1,2,2:0:0:0:
512,236,283452,2,0,P|432:216|412:144,1,142.5,2|10,3:2|3:2,2:0:0:0:
410,166,283816,1,10,2:0:0:0:
396,20,283998,1,10,2:0:0:0:
488,172,284179,5,10,3:2:0:0:
268,72,284361,1,2,1:2:0:0:
300,64,284452,1,0,3:0:0:0:
332,56,284543,1,10,2:0:0:0:
392,188,284725,1,2,1:2:0:0:
200,84,284907,6,0,P|212:32|256:8,1,95,10|2,2:0|3:2,2:0:0:0:
204,200,285270,2,0,P|148:172|136:84,1,142.5,10|10,3:2|1:3,2:0:0:0:
200,84,285543,1,8,3:2:0:0:
236,140,285634,6,0,B|164:116|126:193|126:193|69:144|69:144|20:127|20:127|-11:152,1,285,6|10,3:2|2:0,2:0:0:0:
76,64,286179,1,2,2:1:0:0:
0,216,286361,2,0,B|10:228|10:228|56:224|56:224|96:192,1,114,2|10,3:2|3:2,2:0:0:0:
296,260,286725,2,0,L|428:280,1,114,10|10,2:0|2:1,2:0:0:0:
160,256,287088,2,0,L|272:273,1,114,10|2,3:2|2:3,2:0:0:0:
396,200,287452,5,2,3:2:0:0:
396,200,287634,2,0,L|348:148,2,57,10|0|2,2:0|2:0|3:0,2:0:0:0:
496,352,287998,2,0,L|484:292,1,57,2|0,3:2|2:0,2:0:0:0:
468,228,288179,1,10,2:0:0:0:
380,36,288361,5,10,2:0:0:0:
244,192,288543,2,0,B|264:208|264:208|319:204|367:154|367:154|432:149|432:149|452:160,2,228,2|10|2,3:2|2:3|3:0,2:0:0:0:
288,112,289452,1,10,3:2:0:0:
416,64,289634,1,10,2:0:0:0:
344,196,289816,1,10,2:0:0:0:
244,192,289998,2,0,P|200:160|124:136,1,114,2|10,3:2|2:3,2:0:0:0:
0,212,290361,5,10,2:0:0:0:
216,4,290543,2,0,P|204:59|206:116,1,114,10|2,3:2|3:0,2:0:0:0:
216,120,290816,1,8,2:0:0:0:
224,124,290907,1,10,3:2:0:0:
324,272,291088,1,10,2:0:0:0:
324,272,291270,2,0,P|325:245|311:213,1,57,10|8,2:0|2:0,2:0:0:0:
240,192,291452,6,0,B|240:76|332:144|352:24|296:-16|284:52,1,228,2|10,3:2|2:3,2:0:0:0:
286,41,291998,1,2,2:1:0:0:
314,217,292179,5,2,3:2:0:0:
360,156,292361,1,10,3:2:0:0:
388,332,292543,1,10,2:0:0:0:
225,262,292725,1,10,2:0:0:0:
45,255,292907,2,0,B|-3:219|53:139|105:147|81:295|245:259,1,285.000010871888,10|2,3:2|3:2,2:0:0:0:
225,262,293452,2,0,B|287:251|275:167|207:183,1,142.500005435944,10|2,2:0|3:0,2:0:0:0:
204,192,293725,1,8,2:0:0:0:
202,200,293816,1,2,3:2:0:0:
236,336,293998,5,10,2:0:0:0:
136,160,294179,1,10,2:0:0:0:
184,96,294361,2,0,L|160:384,1,285,2|10,3:2|2:0,2:0:0:0:
332,240,294907,1,2,2:0:0:0:
332,240,295088,2,0,P|312:160|240:140,1,142.5,2|10,3:2|3:2,2:0:0:0:
262,138,295452,1,10,2:0:0:0:
136,256,295634,1,10,2:0:0:0:
256,228,295816,5,10,3:2:0:0:
248,208,295907,1,8,2:1:0:0:
80,204,296088,5,8,2:0:0:0:
56,276,296179,1,10,2:0:0:0:
184,96,296361,1,10,2:0:0:0:
280,300,296543,5,10,3:2:0:0:
36,49,296907,5,14,1:2:0:0:
176,220,297270,6,0,P|192:132|144:-16,1,228,6|10,3:2|2:3,2:0:0:0:
260,187,297816,2,0,L|284:323,1,114,2|2,2:1|3:0,2:0:0:0:
324,124,298179,1,10,3:2:0:0:
208,288,298361,1,10,2:0:0:0:
232,112,298543,1,10,2:0:0:0:
376,212,298725,6,0,P|287:166|324:48,1,228,10|2,3:2|3:1,2:0:0:0:
320,60,299179,1,8,2:0:0:0:
328,64,299270,1,10,2:0:0:0:
460,184,299452,5,2,3:0:0:0:
460,184,299634,2,0,L|452:240,1,57,2|0,3:1|2:0,2:0:0:0:
392,348,299816,5,10,2:0:0:0:
392,348,299998,2,0,L|384:292,1,57,10|8,2:3|2:0,2:0:0:0:
255,244,300179,6,0,P|164:176|63:123,1,228,2|10,3:2|2:3,2:0:0:0:
63,123,300725,1,2,2:1:0:0:
176,88,300907,1,2,3:0:0:0:
304,188,301088,1,10,3:2:0:0:
380,212,301270,1,10,2:0:0:0:
484,312,301452,5,10,2:1:0:0:
488,320,301543,1,2,2:3:0:0:
492,328,301634,2,0,P|476:215|465:101,1,228,2|10,3:2|2:0,2:0:0:0:
465,101,302179,1,10,3:1:0:0:
288,228,302361,2,0,P|256:216|228:180,2,57,2|8|10,3:2|2:0|3:2,2:0:0:0:
384,108,302725,5,10,2:0:0:0:
384,108,302907,2,0,P|396:136|392:176,1,57,10|8,2:1|2:0,2:0:0:0:
364,236,303088,2,0,P|300:292|148:320,1,228,2|10,3:2|2:3,2:0:0:0:
396,320,303634,2,0,L|520:336,1,114,2|2,2:1|3:0,2:0:0:0:
509,334,303998,1,10,3:2:0:0:
264,292,304179,5,10,2:0:0:0:
264,292,304361,2,0,P|152:296|32:336,1,228,10|2,2:1|2:3,2:0:0:0:
184,208,304907,2,0,P|204:176|200:144,2,57,2|8|10,3:1|2:0|2:0,2:0:0:0:
0,132,305270,5,2,3:0:0:0:
111,99,305452,2,0,P|125:124|133:152,1,57,2|0,3:2|2:0,2:0:0:0:
108,228,305634,1,10,2:0:0:0:
0,132,305816,2,0,L|68:148,1,57,10|8,2:0|2:0,2:0:0:0:
132,151,305998,6,0,P|140:87|292:59,1,228,2|10,3:2|2:3,2:0:0:0:
464,88,306543,2,0,P|414:111|354:103,1,114,2|2,2:1|3:0,2:0:0:0:
182,2,306907,2,0,P|243:13|283:57,1,114,10|10,3:2|2:0,2:0:0:0:
324,190,307270,1,10,2:1:0:0:
216,156,307452,6,0,B|208:137|208:137|264:69|333:104|339:172|339:172|322:192,1,228,10|10,3:2|2:0,2:0:0:0:
260,220,307998,5,2,1:0:0:0:
176,276,308179,1,10,2:3:0:0:
268,236,308361,5,2,3:1:0:0:
284,128,308543,1,14,3:1:0:0:
259,251,308725,6,0,P|284:266|312:272,1,57,10|8,1:3|3:2,2:0:0:0:
348,332,308907,6,0,P|444:308|508:200,1,228,6|10,3:2|2:3,2:0:0:0:
507,202,309452,1,2,2:1:0:0:
392,136,309634,5,2,3:0:0:0:
328,8,309816,1,10,3:2:0:0:
372,152,309998,1,10,2:0:0:0:
472,40,310179,6,0,L|344:24,1,114,10|10,2:1|3:2,2:0:0:0:
240,108,310543,2,0,L|112:92,1,114,2|2,2:3|3:1,2:0:0:0:
124,84,310816,1,8,2:0:0:0:
120,76,310907,1,10,2:0:0:0:
352,104,311088,6,0,L|224:88,1,114,2|2,3:0|3:1,2:0:0:0:
124,176,311452,2,0,L|-4:160,1,114,10|10,2:0|2:3,2:0:0:0:
24,0,311816,6,0,B|27:41|27:41|90:86|110:169|110:169|98:225,1,228,2|10,3:2|2:3,2:0:0:0:
104,199,312361,1,2,2:1:0:0:
56,380,312543,5,2,3:0:0:0:
160,276,312725,2,0,L|272:244,1,114,10|10,3:2|2:0,2:0:0:0:
12,240,313088,2,0,P|38:257|64:288,1,57,10|0,2:1|2:0,2:0:0:0:
72,360,313270,6,0,P|128:328|300:364,1,228,2|10,3:2|2:0,2:0:0:0:
288,360,313725,1,2,2:3:0:0:
292,368,313816,1,10,3:1:0:0:
403,250,313998,2,0,P|396:223|380:200,2,57,2|8|10,3:0|2:0|3:2,2:0:0:0:
252,244,314361,1,10,2:0:0:0:
328,372,314543,2,0,P|346:343|350:301,1,57,10|8,2:1|2:0,2:0:0:0:
324,252,314725,6,0,P|356:140|448:68,1,228,2|10,3:2|2:3,2:0:0:0:
439,71,315270,1,2,2:1:0:0:
296,184,315452,1,2,3:2:0:0:
348,48,315634,2,0,L|368:172,2,114,10|10|10,3:2|2:0|2:1,2:0:0:0:
145,160,316179,6,0,L|164:48,2,114,10|2|2,3:2|2:3|3:1,2:0:0:0:
216,184,316725,1,10,2:0:0:0:
72,71,316907,1,2,3:2:0:0:
72,71,317088,2,0,P|158:143|188:252,1,228,2|10,3:1|2:3,2:0:0:0:
108,355,317634,6,0,P|53:358|22:313,1,114,2|2,3:2|2:1,2:0:0:0:
88,228,317998,1,10,2:3:0:0:
124,324,318179,1,2,2:1:0:0:
312,372,318361,1,2,3:0:0:0:
312,372,318543,6,0,L|176:364,1,114,10|10,3:2|2:0,2:0:0:0:
188,251,318907,1,10,2:1:0:0:
348,144,319088,5,10,3:2:0:0:
332,216,319179,1,8,2:1:0:0:
416,72,319361,5,8,2:0:0:0:
424,100,319452,1,10,2:0:0:0:
448,0,319634,5,10,2:0:0:0:
248,152,319816,6,0,P|240:108|248:36,1,114,10|14,3:0|1:2,2:0:0:0:
264,256,320543,5,14,2:0:0:0:
