osu file format v14

[General]
AudioFilename: audio.mp3
AudioLeadIn: 0
PreviewTime: 232211
Countdown: 0
SampleSet: Soft
StackLeniency: 0.5
Mode: 0
LetterboxInBreaks: 0
WidescreenStoryboard: 0

[Editor]
DistanceSpacing: 0.8
BeatDivisor: 4
GridSize: 8
TimelineZoom: 2.4

[Metadata]
Title:Melt 10th ANNIVERSARY MIX
TitleUnicode:メルト 10th ANNIVERSARY MIX
Artist:Aitsuki Nakuru
ArtistUnicode:藍月なくる
Creator:Setu
Version:I won't fall for love, not me
Source:
Tags:pop japanese ryo (supercell) × やなぎなぎ, yanaginagi hatsune miku 初音 ミク
BeatmapID:2545340
BeatmapSetID:1223737

[Difficulty]
HPDrainRate:6
CircleSize:4
OverallDifficulty:8.5
ApproachRate:9.2
SliderMultiplier:2.2
SliderTickRate:1

[Events]
//Background and Video events
0,0,"BG.jpg",0,0
//Break Periods
//Storyboard Layer 0 (Background)
//Storyboard Layer 1 (Fail)
//Storyboard Layer 2 (Pass)
//Storyboard Layer 3 (Foreground)
//Storyboard Layer 4 (Overlay)
//Storyboard Sound Samples

[TimingPoints]
3083,952.380952380952,4,2,1,30,1,0
3083,-100,4,2,1,30,0,0
3797,1008.40336134454,4,2,1,30,1,0
4049,1132.07547169811,4,2,1,30,1,0
4049,-100,4,2,1,30,0,0
4615,1111.11111111111,4,2,1,30,1,0
5170,-100,4,2,1,30,0,0
5726,1165.04854368932,4,2,1,30,1,0
6308,1188.11881188119,4,2,1,30,1,0
6308,-100,4,2,1,30,0,0
6902,1148.32535885167,4,2,1,30,1,0
7476,1132.07547169811,4,2,1,30,1,0
7476,-100,4,2,1,30,0,0
8042,1243.52331606218,4,2,1,30,1,0
8352,1403.50877192982,4,2,1,30,1,0
8352,-200,4,2,1,30,0,0
10457,594.059405940594,4,2,1,30,1,0
10605,512.820512820513,4,2,1,30,1,0
10733,413.793103448276,4,2,1,30,1,0
10733,-200,4,2,1,30,0,0
10939,458.015267175573,4,2,1,30,1,0
11168,-200,4,2,1,30,0,0
11397,449.438202247191,4,2,1,30,1,0
11621,-200,4,2,1,30,0,0
11846,480,4,2,1,30,1,0
12086,487.80487804878,4,2,1,30,1,0
12086,-200,4,2,1,30,0,0
12329,530.973451327434,4,2,1,30,1,0
12594,512.820512820513,4,2,1,30,1,0
12594,-200,4,2,1,30,0,0
12850,652.173913043478,4,2,1,30,1,0
13176,705.882352941176,4,2,1,30,1,0
13176,-200,4,2,1,30,0,0
13528,750,4,2,1,30,1,0
13903,789.473684210526,4,2,1,30,1,0
13903,-200,4,2,1,30,0,0
14297,895.522388059701,4,2,1,30,1,0
14744,1132.07547169811,4,2,1,30,1,0
14744,-200,4,2,1,30,0,0
15310,1363.63636363636,4,2,1,30,1,0
17355,1176.47058823529,4,2,1,30,1,0
17355,-100,4,2,1,30,0,0
18237,1500,4,2,1,30,1,0
18237,-100,4,2,1,30,0,0
18612,1153.84615384615,4,2,1,30,1,0
19188,1224.48979591837,4,2,1,30,1,0
19188,-100,4,2,1,30,0,0
19494,1132.07547169811,4,2,1,30,1,0
19777,1250,4,2,1,30,1,0
20402,1333.33333333333,4,2,1,30,1,0
20735,1578.94736842105,4,2,1,30,1,0
21129,1518.98734177215,4,2,1,30,1,0
21888,1538.46153846154,4,2,1,30,1,0
22657,1297.2972972973,4,2,1,30,1,0
23954,1348.31460674157,4,2,1,30,1,0
23954,-133.333333333333,4,2,1,30,0,0
25302,1318.68131868132,4,2,1,30,1,0
25302,-200,4,2,1,30,0,0
26620,1556.42023346304,4,2,1,30,1,0
29732,689.655172413793,4,2,1,30,1,0
29732,-200,4,2,1,30,0,0
30421,434.782608695652,4,2,1,30,1,0
30421,-333.333333333333,4,2,1,30,0,0
30855,582.52427184466,4,2,1,30,1,0
31146,670.391061452514,4,2,1,30,1,0
31146,-200,4,2,1,30,0,0
31481,731.707317073171,4,2,1,30,1,0
32212,625,4,2,1,30,1,0
32524,606.060606060606,4,2,1,30,1,0
32524,-200,4,2,1,30,0,0
32827,652.173913043478,4,2,1,30,1,0
33153,681.818181818182,4,2,1,30,1,0
33153,-200,4,2,1,30,0,0
33493,576.923076923077,4,2,1,30,1,0
33781,681.818181818182,4,2,1,30,1,0
33781,-200,4,2,1,30,0,0
34121,659.340659340659,4,2,1,30,1,0
34450,714.285714285714,4,2,1,30,1,0
35164,705.882352941176,4,2,1,30,1,0
35164,-133.333333333333,4,2,1,30,0,0
35869,740.740740740741,4,2,1,30,1,0
35869,-200,4,2,1,30,0,0
36239,600,4,2,1,30,1,0
36539,750,4,2,1,30,1,0
36539,-200,4,2,1,30,0,0
36914,681.818181818182,4,2,1,30,1,0
37595,789.473684210526,4,2,1,40,1,0
37595,-200,4,2,1,40,0,0
37989,869.565217391304,4,2,1,30,1,0
38423,1132.07547169811,4,2,1,30,1,0
38423,-200,4,2,1,30,0,0
38989,911.854103343465,4,2,1,30,1,0
40812,1090.90909090909,4,2,1,30,1,0
40948,1963.99345335516,4,2,1,30,1,0
43893,368.098159509202,4,2,1,30,1,0
43985,508.474576271186,4,2,1,30,1,0
44112,392.156862745098,4,2,1,30,1,0
44504,425.531914893617,4,2,1,30,1,0
45355,312.5,4,2,1,30,1,0
45511,331.491712707182,4,2,1,30,1,0
45842,357.142857142857,4,2,1,70,1,0
45842,-100,4,2,1,70,0,0
47270,352.941176470588,4,2,1,30,1,0
47270,-133.333333333333,4,2,1,70,0,0
47975,-153.846153846153,4,2,1,70,0,0
48681,-100,4,2,1,70,0,0
51505,357.142857142857,4,2,1,30,1,0
51505,-200,4,2,1,70,0,0
52933,350.877192982456,4,2,1,30,1,0
52933,-133.333333333333,4,2,1,70,0,0
53985,340.909090909091,4,2,1,70,1,0
54325,353.982300884956,4,2,1,30,1,0
54325,-133.333333333333,4,2,1,70,0,0
55740,352.941176470588,4,2,1,70,1,0
56975,329.67032967033,4,2,1,30,1,0
57139,348.837209302326,4,2,1,30,1,0
57139,-181.818181818181,4,2,1,70,0,0
57487,-181.818181818181,4,2,1,50,0,0
57836,342.857142857143,4,2,1,30,1,0
57836,-181.818181818182,4,2,1,50,0,0
58864,387.096774193548,4,2,1,50,1,0
58864,-181.818181818182,4,2,1,50,0,0
59251,352.941176470588,4,2,1,50,1,0
59603,-181.818181818182,4,2,1,50,0,0
59956,352.941176470588,4,2,1,50,1,0
59956,-181.818181818182,4,2,1,50,0,0
60661,372.670807453416,4,2,1,50,1,0
60661,-181.818181818182,4,2,1,50,0,0
61033,352.941176470588,4,2,1,50,1,0
61385,-181.818181818182,4,2,1,50,0,0
62427,350.877192982456,4,2,1,50,1,0
62777,368.098159509202,4,2,1,50,1,0
62777,-181.818181818182,4,2,1,50,0,0
63513,356.083086053412,4,2,1,50,1,0
63513,-181.818181818182,4,2,1,50,0,0
64225,348.837209302326,4,2,1,50,1,0
64225,-181.818181818182,4,2,1,50,0,0
64945,337.078651685393,4,2,1,50,1,0
64945,-181.818181818182,4,2,1,50,0,0
65619,355.029585798817,4,2,1,50,1,0
65619,-181.818181818182,4,2,1,50,0,0
67914,365.853658536585,4,2,1,50,1,0
68097,341.880341880342,4,2,1,50,1,0
68097,-181.818181818182,4,2,1,50,0,0
68436,-133.333333333333,4,2,1,70,0,0
68438,352.941176470588,4,2,1,50,1,0
68790,-133.333333333333,4,2,1,50,0,0
79732,-133.333333333333,4,2,1,60,0,0
93143,-133.333333333333,4,2,1,70,0,0
93849,-100,4,2,1,90,0,1
99496,-133.333333333333,4,2,1,90,0,1
101967,-100,4,2,1,90,0,1
105143,-133.333333333333,4,2,1,90,0,1
116437,-133.333333333333,4,2,1,80,0,0
121379,-133.333333333333,4,2,1,60,0,0
122085,-117.647058823529,4,2,1,70,0,0
122790,-133.333333333333,4,2,1,70,0,0
127732,-181.818181818181,4,2,1,70,0,0
133732,-181.818181818181,4,2,1,50,0,0
139026,363.636363636364,4,2,1,50,1,0
139026,-181.818181818182,4,2,1,50,0,0
139753,352.941176470588,4,2,1,50,1,0
139753,-181.818181818182,4,2,1,50,0,0
141870,346.820809248555,4,2,1,50,1,0
142563,355.029585798817,4,2,1,50,1,0
143273,348.837209302326,4,2,1,50,1,0
143621,365.853658536585,4,2,1,50,1,0
143986,372.670807453416,4,2,1,50,1,0
143986,-133.333333333333,4,2,1,50,0,0
144358,318.302387267905,4,2,1,50,1,0
144676,352.941176470588,4,2,1,70,1,0
144676,-133.333333333333,4,2,1,70,0,0
155440,-222.222222222221,4,2,1,70,0,0
155970,-133.333333333333,4,2,1,70,0,0
168676,-100,4,2,1,70,0,0
169381,-200,4,2,1,70,0,0
169646,-200,4,2,1,5,0,0
169734,-200,4,2,1,70,0,0
170087,-100,4,2,1,90,0,1
175734,-133.333333333333,4,2,1,90,0,1
178558,-133.333333333333,4,2,1,90,0,1
192675,-133.333333333333,4,2,1,80,0,0
197617,-133.333333333333,4,2,1,60,0,0
198323,-200,4,2,2,30,0,0
202734,-100,4,2,1,15,0,0
202823,-100,4,2,1,19,0,0
202839,-100,4,2,1,29,0,0
202911,-100,4,2,1,35,0,0
202999,-100,4,2,1,42,0,0
203016,-100,4,2,1,49,0,0
203087,-100,4,2,1,55,0,0
203175,-100,4,2,1,60,0,0
203192,-100,4,2,1,70,0,0
203264,-100,4,2,1,60,0,0
203352,-100,4,2,1,55,0,0
203369,-100,4,2,1,49,0,0
203440,-100,4,2,1,36,0,0
203528,-100,4,2,1,32,0,0
203545,-100,4,2,1,26,0,0
203617,-100,4,2,1,5,0,0
203793,-100,4,2,1,30,0,0
203970,363.636363636364,4,2,1,50,1,0
203970,-133.333333333333,4,2,1,50,0,0
204697,352.941176470588,4,2,1,50,1,0
204697,-133.333333333333,4,2,1,50,0,0
205402,333.333333333333,4,2,1,50,1,0
205402,-133.333333333333,4,2,1,50,0,0
205735,352.941176470588,4,2,1,50,1,0
205735,-133.333333333333,4,2,1,50,0,0
206440,365.853658536585,4,2,1,30,1,0
206805,352.941176470588,4,2,1,60,1,0
208216,-133.333333333333,4,2,1,70,0,0
209275,348.837209302326,4,2,1,30,1,0
209275,-100,4,2,1,30,0,0
209623,352.941176470588,4,2,1,70,1,0
209623,-133.333333333333,4,2,1,30,0,0
229387,-133.333333333333,4,2,1,70,0,0
232211,-333.333333333333,4,2,1,40,0,0
232299,-333.333333333333,4,2,1,40,0,0
243505,-285.714285714284,4,2,1,40,0,0
249152,-250,4,2,1,60,0,0
250740,-133.333333333333,4,2,1,60,0,0
251975,-285.714285714286,4,2,1,60,0,0
253387,-333.333333333333,4,2,1,70,0,0
254452,-333.333333333333,4,2,1,5,0,0
254799,-100,4,2,1,90,0,1
266093,-133.333333333333,4,2,1,90,0,1
277387,-133.333333333333,4,2,1,80,0,0
282335,-133.333333333333,4,2,1,50,0,0
283034,-133.333333333333,4,2,1,70,0,0
290093,363.636363636364,4,2,1,70,1,0
290093,-133.333333333333,4,2,1,70,0,0
290820,342.857142857143,4,2,1,70,1,0
290820,-133.333333333333,4,2,1,70,0,0
291162,352.941176470588,4,2,1,30,1,0
291514,408.163265306122,4,2,1,60,1,0
291514,-153.846153846153,4,2,1,60,0,0
291922,434.782608695652,4,2,1,60,1,0
291922,-153.846153846153,4,2,1,60,0,0
292356,447.761194029851,4,2,1,50,1,0
292356,-153.846153846153,4,2,1,50,0,0
292803,422.535211267606,4,2,1,50,1,0
292803,-153.846153846153,4,2,1,50,0,0
293225,454.545454545455,4,2,1,70,1,0
293225,-153.846153846153,4,2,1,70,0,0
293679,491.803278688525,4,2,1,30,1,0
293679,-153.846153846154,4,2,1,30,0,0
294170,504.201680672269,4,2,1,70,1,0
294170,-153.846153846153,4,2,1,70,0,0
294674,555.555555555556,4,2,1,30,1,0
294674,-153.846153846154,4,2,1,30,0,0
295229,542.986425339367,4,2,1,30,1,0
296043,437.956204379562,4,2,1,70,1,0
296043,-370.37037037037,4,2,1,70,0,0
302612,517.241379310345,4,2,1,30,1,0

[Colours]
Combo1 : 180,220,200
Combo2 : 220,160,200
Combo3 : 255,230,140
Combo4 : 130,200,244

[HitObjects]
165,143,3083,6,0,P|205:137|270:174,1,110
196,222,3797,1,0,0:0:0:0:
104,197,4049,2,0,B|82:159|82:159|94:85,1,110
290,58,5170,6,0,L|215:53,1,55
312,144,5726,2,0,L|367:141,1,55
452,36,6308,2,0,B|437:97|437:97|457:126|443:175,1,110
362,215,7476,6,0,P|336:158|401:159,1,110
448,141,8352,1,0,0:0:0:0:
256,192,8527,12,0,10457,0:0:0:0:
194,96,10733,6,0,L|117:81,1,55,2|0,0:0|0:0,0:0:0:0:
61,185,11168,2,0,L|138:170,1,55,2|0,0:0|0:0,0:0:0:0:
193,248,11621,6,0,P|199:280|188:318,1,55,2|0,0:0|0:0,0:0:0:0:
316,301,12086,2,0,P|313:274|319:248,1,55,2|0,0:0|0:0,0:0:0:0:
451,186,12594,2,0,L|382:174,1,55,2|0,0:0|0:0,0:0:0:0:
316,96,13176,6,0,L|372:86,1,55,2|0,0:0|0:0,0:0:0:0:
481,28,13903,2,0,L|474:103,1,55,2|0,0:0|0:0,0:0:0:0:
502,182,14744,2,0,P|469:173|434:179,1,55,2|0,0:0|0:0,0:0:0:0:
283,336,17355,6,0,P|297:293|281:230,1,110,2|0,0:0|0:0,0:0:0:0:
140,292,18237,2,0,L|194:285,1,55
159,145,19188,6,0,L|165:223,1,55
276,62,19777,2,0,L|156:55,1,110,2|0,0:0|0:0,0:0:0:0:
322,178,20735,2,0,L|328:100,1,55,0|2,0:0|0:0,0:0:0:0:
237,281,21888,6,0,P|281:268|324:275,1,82.5,2|0,0:0|0:0,0:0:0:0:
416,330,22657,2,0,B|394:282|394:282|416:166,1,165.000006294251
450,57,23954,2,0,P|399:92|338:84,1,123.750004720688,2|0,0:0|0:0,0:0:0:0:
222,28,25302,2,0,L|232:142,1,110,2|2,0:0|0:0,0:0:0:0:
135,233,29732,6,0,L|56:224,1,55,2|0,0:0|0:0,0:0:0:0:
126,322,30421,2,0,L|203:313,1,65.9999979858399
254,251,31146,2,0,L|338:260,1,55,0|2,0:0|0:0,0:0:0:0:
444,354,32212,1,0,0:0:0:0:
444,354,32524,6,0,P|450:314|469:288,1,55,2|0,0:0|0:0,0:0:0:0:
505,215,33153,2,0,L|439:208,1,55,2|0,0:0|0:0,0:0:0:0:
378,277,33781,2,0,L|312:284,1,55
254,251,34450,1,2,0:0:0:0:
187,294,35164,6,0,P|174:259|184:212,1,82.5000031471254,2|0,0:0|0:0,0:0:0:0:
259,143,35869,2,0,L|185:134,1,55
156,67,36539,2,0,L|82:76,1,55
6,143,37595,6,0,L|-2:209,1,55,2|0,0:0|0:0,0:0:0:0:
88,229,38423,2,0,L|96:295,1,55
14,352,40812,6,0,L|48:348,1,27.5,2|0,0:0|0:0,0:0:0:0:
280,154,43893,6,0,L|274:225,1,55
90,289,45355,5,2,2:2:0:0:
90,289,45433,1,2,2:2:0:0:
90,289,45511,1,8,2:2:0:0:
90,289,45842,6,0,P|175:271|226:376,1,220,6|0,2:2|0:0,0:0:0:0:
149,348,46377,1,0,2:0:0:0:
253,208,46556,2,0,L|370:186,1,110,6|0,2:2|0:0,0:0:0:0:
435,302,46913,2,0,L|324:285,1,110,0|0,0:0|2:0,0:0:0:0:
434,28,47270,6,0,P|407:88|302:84,1,165.000006294251,6|0,2:2|0:0,0:0:0:0:
353,27,47799,1,0,2:0:0:0:
442,158,47975,2,0,L|433:304,1,142.99999345398,6|2,2:2|2:2,0:0:0:0:
280,372,48681,6,0,P|308:298|436:303,1,220,6|2,2:2|2:2,0:0:0:0:
373,371,49211,1,0,2:0:0:0:
253,208,49387,2,0,L|241:91,1,110,2|8,2:2|2:2,0:0:0:0:
454,48,49740,2,0,L|441:164,1,110,8|8,2:2|2:2,0:0:0:0:
363,232,50093,5,8,2:2:0:0:
325,161,50269,1,8,2:2:0:0:
448,240,50446,1,8,2:2:0:0:
319,306,50622,1,2,2:2:0:0:
319,306,50710,1,2,2:2:0:0:
319,306,50798,1,8,2:2:0:0:
442,158,50975,1,8,2:2:0:0:
483,335,51152,1,2,2:2:0:0:
262,213,51328,1,8,2:2:0:0:
415,77,51505,6,0,P|455:72|513:115,1,110,6|0,2:2|2:0,0:0:0:0:
371,228,52040,1,2,2:2:0:0:
376,232,52219,2,0,L|367:169,1,55,12|0,2:2|2:0,0:0:0:0:
496,207,52576,2,0,L|488:281,1,55,4|8,2:2|2:2,0:0:0:0:
405,374,52933,6,0,L|497:361,1,82.5000031471254,4|8,2:2|2:2,0:0:0:0:
293,223,53283,2,0,L|397:234,1,82.5000031471254,4|2,2:2|2:2,0:0:0:0:
235,343,53634,2,0,L|327:330,1,82.5000031471254,12|0,2:2|2:0,0:0:0:0:
85,239,53985,5,6,2:2:0:0:
148,298,54155,1,0,2:0:0:0:
167,213,54325,2,0,B|145:174|145:174|156:86,1,123.750004720688,6|0,2:2|0:0,0:0:0:0:
225,31,54678,2,0,B|245:71|245:71|231:187,1,123.750004720688,6|0,2:2|0:0,0:0:0:0:
337,216,55032,2,0,B|315:180|315:180|329:82,1,123.750004720688,6|0,2:2|0:0,0:0:0:0:
401,39,55386,2,0,B|416:77|416:77|403:190,1,123.750004720688,6|0,2:2|0:0,0:0:0:0:
422,276,55740,5,6,2:2:0:0:
476,188,55916,1,8,2:2:0:0:
337,216,56093,1,2,2:2:0:0:
326,244,56181,1,0,0:0:0:0:
322,275,56269,1,8,2:2:0:0:
326,306,56357,1,0,0:0:0:0:
337,334,56445,1,2,2:2:0:0:
406,159,56623,5,2,2:2:0:0:
379,143,56711,1,0,0:0:0:0:
349,137,56799,1,2,2:2:0:0:
318,140,56887,1,0,0:0:0:0:
290,152,56975,1,2,2:2:0:0:
450,383,57139,6,0,B|476:349|476:349|464:282,1,90.7500027694703,6|0,2:2|0:0,0:0:0:0:
482,271,57487,2,0,L|407:277,1,60.5000018463135,2|0,2:0|0:0,0:0:0:0:
337,334,57836,2,0,B|289:361|289:361|200:343,1,121.000003692627,0|0,2:0|2:0,0:0:0:0:
135,248,58350,1,0,2:0:0:0:
257,196,58521,2,0,L|252:282,1,60.5000018463135,2|0,2:0|2:0,0:0:0:0:
207,134,58864,2,0,P|253:116|328:160,1,121.000003692627,0|0,2:0|2:0,0:0:0:0:
65,202,59603,6,0,P|60:162|75:124,1,60.5000018463135,0|0,2:0|0:0,0:0:0:0:
135,248,59956,2,0,P|145:290|123:358,1,90.7500027694703,2|0,2:0|0:0,0:0:0:0:
112,349,60308,2,0,P|151:340|187:348,1,60.5000018463135,0|0,2:0|2:0,0:0:0:0:
287,350,60661,2,0,L|277:210,1,121.000003692627,0|0,2:0|2:0,0:0:0:0:
271,90,61385,6,0,B|325:86|325:86|364:104|364:104|412:98,2,121.000003692627,2|0|0,2:0|2:0|2:0,0:0:0:0:
184,124,62427,1,0,2:0:0:0:
46,52,62777,6,0,P|153:66|184:135,1,181.500005538941,2|0,2:0|0:0,0:0:0:0:
261,251,63513,2,0,P|172:241|105:327,1,181.500005538941,0|0,2:0|0:0,0:0:0:0:
327,369,64225,2,0,B|320:310|320:310|339:268|339:268|330:192,1,181.500005538941,2|0,2:0|0:0,0:0:0:0:
236,87,64945,2,0,B|210:124|210:124|223:206,1,121.000003692627,0|0,2:0|2:0,0:0:0:0:
321,26,65450,5,0,2:0:0:0:
321,26,65619,2,0,B|234:7|234:7|179:24,1,121.000003692627,2|0,2:0|2:0,0:0:0:0:
104,189,66151,1,0,2:0:0:0:
104,189,66329,2,0,B|191:208|191:208|246:191,1,121.000003692627,0|0,2:0|2:0,0:0:0:0:
328,155,66861,1,0,2:0:0:0:
328,155,67039,2,0,L|334:276,2,121.000003692627,2|0|0,2:0|0:0|2:0,0:0:0:0:
249,279,67914,5,2,2:1:0:0:
249,279,68005,1,2,2:1:0:0:
249,279,68097,2,0,B|281:263|281:263|352:281,1,90.7500027694703,2|2,2:1|2:3,0:0:0:0:
418,335,68438,1,12,2:2:0:0:
286,365,68614,1,8,2:2:0:0:
410,255,68790,6,0,P|467:270|490:371,1,165,2|8,2:2|2:2,0:0:0:0:
286,365,69320,1,0,0:0:0:0:
286,365,69496,2,0,L|296:280,1,82.5000031471254,2|8,2:2|2:2,0:0:0:0:
143,211,69849,2,0,L|153:307,1,82.5000031471254,2|8,2:2|2:2,0:0:0:0:
191,146,70202,2,0,P|146:129|61:211,1,165.000006294251,2|8,2:2|2:2,0:0:0:0:
248,213,70732,1,0,0:0:0:0:
252,217,70908,2,0,L|271:127,1,82.5000031471254,2|8,2:2|2:2,0:0:0:0:
290,21,71261,6,0,P|317:68|422:55,1,165.000006294251,2|2,2:2|2:2,0:0:0:0:
474,129,71791,1,8,2:2:0:0:
478,133,71967,2,0,P|434:158|416:201,1,82.5000031471254,8|0,2:2|2:0,0:0:0:0:
412,268,72320,2,0,L|310:264,1,82.5000031471254,2|8,2:2|2:2,0:0:0:0:
248,283,72673,6,0,P|267:324|308:341,1,82.5000031471254,8|0,2:2|2:0,0:0:0:0:
236,203,73026,2,0,P|188:229|167:278,1,82.5000031471254,0|0,2:0|2:0,0:0:0:0:
180,331,73379,1,8,2:2:0:0:
329,264,73555,1,0,2:0:0:0:
167,169,73732,2,0,L|175:271,1,82.5000031471254,8|8,2:2|2:2,0:0:0:0:
225,64,74085,6,0,B|185:92|185:92|61:74,1,165.000006294251,6|2,2:2|2:2,0:0:0:0:
16,146,74614,1,0,2:0:0:0:
16,146,74791,2,0,B|46:193|46:193|16:311,1,165.000006294251,2|8,2:2|2:2,0:0:0:0:
107,364,75320,1,0,2:0:0:0:
107,364,75497,6,0,P|136:308|246:308,1,165.000006294251,2|8,2:2|2:2,0:0:0:0:
191,368,76026,1,0,2:0:0:0:
140,211,76202,2,0,L|149:120,1,82.5000031471254,2|0,2:2|2:0,0:0:0:0:
236,83,76555,2,0,L|242:182,1,82.5000031471254,8|0,2:2|2:0,0:0:0:0:
314,218,76908,6,0,B|365:195|365:195|415:269|484:222,1,165.000006294251,2|2,2:2|2:2,0:0:0:0:
504,119,77438,1,0,2:0:0:0:
504,119,77614,2,0,P|461:131|435:175,1,82.5000031471254,8|0,2:2|2:0,0:0:0:0:
295,54,77967,2,0,P|338:66|364:110,1,82.5000031471254,2|0,2:2|2:0,0:0:0:0:
232,99,78320,6,0,P|215:45|238:6,1,82.5000031471254,2|8,2:2|2:2,0:0:0:0:
160,167,78673,2,0,L|60:151,1,82.5000031471254,2|0,2:2|2:0,0:0:0:0:
24,223,79026,1,2,2:2:0:0:
130,317,79202,1,0,2:0:0:0:
130,317,79291,1,0,2:0:0:0:
130,317,79379,2,0,P|186:292|250:305,1,123.750004720688,2|0,2:1|0:0,0:0:0:0:
320,356,79732,6,0,P|322:303|351:265,1,82.5000031471254,12|0,2:2|2:0,0:0:0:0:
469,298,80085,2,0,P|438:324|398:331,1,82.5000031471254,2|8,2:2|2:2,0:0:0:0:
368,180,80438,2,0,P|395:210|406:250,1,82.5000031471254,2|0,2:2|2:0,0:0:0:0:
290,164,80791,2,0,P|319:116|362:100,1,82.5000031471254,2|8,2:2|2:2,0:0:0:0:
419,118,81144,5,2,2:2:0:0:
368,180,81320,1,8,2:2:0:0:
388,37,81497,1,2,2:2:0:0:
471,56,81673,1,2,2:2:0:0:
501,141,81849,2,0,B|471:191|471:191|440:192,1,82.5000031471254,8|0,2:2|0:0,0:0:0:0:
341,104,82202,5,2,2:2:0:0:
456,201,82379,1,2,2:1:0:0:
456,201,82467,1,2,2:1:0:0:
456,201,82555,2,0,L|451:286,1,82.5000031471254,2|0,2:2|2:0,0:0:0:0:
370,353,82908,2,0,L|356:261,1,82.5000031471254,2|2,2:2|2:2,0:0:0:0:
206,213,83261,2,0,L|297:226,1,82.5000031471254,8|0,2:2|2:0,0:0:0:0:
190,327,83614,2,0,L|100:335,1,82.5000031471254,2|8,2:2|2:2,0:0:0:0:
97,131,83967,6,0,P|150:127|205:213,1,165.000006294251,2|2,2:2|2:2,0:0:0:0:
127,205,84497,1,2,2:1:0:0:
127,205,84585,1,8,2:2:0:0:
127,205,84673,1,8,2:2:0:0:
268,114,84849,1,2,2:1:0:0:
268,114,84938,1,8,2:2:0:0:
268,114,85026,2,0,L|359:127,1,82.5000031471254,8|0,2:2|2:0,0:0:0:0:
453,213,85379,6,0,P|384:206|353:113,1,165.000006294251,6|2,2:2|2:2,0:0:0:0:
428,137,85908,1,0,2:0:0:0:
483,286,86085,2,0,L|479:370,1,82.5000031471254,8|0,2:2|2:0,0:0:0:0:
292,292,86438,2,0,L|295:192,1,82.5000031471254,2|8,2:2|2:2,0:0:0:0:
367,316,86791,6,0,P|331:360|226:337,1,165.000006294251,2|2,2:2|2:2,0:0:0:0:
213,223,87320,1,2,2:2:0:0:
213,223,87497,2,0,L|297:209,1,82.5000031471254,8|0,2:2|2:0,0:0:0:0:
96,111,87849,6,0,L|188:120,1,82.5000031471254,2|0,2:2|2:0,0:0:0:0:
30,155,88202,2,0,P|17:94|101:32,1,165.000006294251,6|2,2:2|2:2,0:0:0:0:
83,214,88732,1,0,2:0:0:0:
83,214,88908,2,0,P|23:235|-16:215,1,82.5000031471254,8|0,2:2|2:0,0:0:0:0:
96,306,89261,2,0,P|139:287|189:302,1,82.5000031471254,2|8,2:2|2:2,0:0:0:0:
270,334,89614,6,0,L|261:245,1,82.5000031471254,2|8,2:2|2:2,0:0:0:0:
352,297,89967,2,0,L|361:200,1,82.5000031471254,2|0,2:2|2:0,0:0:0:0:
333,127,90320,6,0,P|385:120|420:81,1,82.5000031471254,2|0,2:2|2:0,0:0:0:0:
241,47,90673,2,0,L|249:137,1,82.5000031471254,2|8,2:2|2:2,0:0:0:0:
262,252,91026,1,2,2:2:0:0:
343,52,91202,1,8,2:2:0:0:
158,18,91378,5,8,2:2:0:0:
118,27,91466,1,8,2:2:0:0:
86,53,91554,1,8,2:2:0:0:
68,90,91642,1,8,2:2:0:0:
69,130,91732,1,8,2:2:0:0:
87,167,91821,1,8,2:2:0:0:
119,192,91909,1,8,2:2:0:0:
159,201,91997,1,8,2:2:0:0:
199,191,92085,1,8,2:2:0:0:
231,165,92174,1,8,2:2:0:0:
248,128,92262,1,8,2:2:0:0:
343,52,92437,5,10,2:2:0:0:
378,32,92525,1,8,2:2:0:0:
419,27,92613,1,8,2:2:0:0:
459,37,92701,1,8,2:2:0:0:
491,62,92790,1,8,2:2:0:0:
474,99,92878,1,8,2:2:0:0:
467,140,92966,1,8,2:2:0:0:
471,181,93054,1,8,2:2:0:0:
484,220,93143,6,0,L|436:212,1,41.2500015735627,8|8,2:2|2:2,0:0:0:0:
305,157,93320,2,0,L|353:148,1,41.2500015735627,8|8,2:2|2:2,0:0:0:0:
262,281,93496,1,2,2:1:0:0:
262,281,93849,6,0,B|224:299|189:275|189:275|150:305|150:305|97:260|36:295,1,220,6|8,2:2|2:2,0:0:0:0:
86,362,94379,1,0,2:0:0:0:
239,207,94555,2,0,B|261:168|261:168|241:44,1,165,2|0,2:2|2:0,0:0:0:0:
241,49,94908,1,8,2:2:0:0:
165,146,95085,1,0,2:0:0:0:
351,229,95261,6,0,P|412:248|467:221,1,110,2|2,2:2|2:2,0:0:0:0:
387,56,95614,1,8,2:2:0:0:
371,146,95791,1,8,2:2:0:0:
464,123,95967,1,8,2:2:0:0:
464,123,96055,1,8,2:2:0:0:
464,123,96144,1,8,2:2:0:0:
306,85,96320,2,0,L|196:77,1,110,8|0,2:2|2:0,0:0:0:0:
132,134,96673,5,2,2:2:0:0:
90,227,96849,1,2,2:2:0:0:
269,310,97026,1,8,2:2:0:0:
192,213,97202,1,0,2:0:0:0:
192,213,97291,1,8,2:2:0:0:
192,213,97379,6,0,L|183:331,1,110,2|2,2:2|2:2,0:0:0:0:
375,232,97732,2,0,L|359:107,1,110,8|0,2:2|2:0,0:0:0:0:
145,24,98085,2,0,L|130:146,1,110,2|2,2:2|2:2,0:0:0:0:
268,165,98438,5,8,2:2:0:0:
295,167,98526,1,0,0:0:0:0:
321,159,98614,1,2,2:2:0:0:
344,144,98702,1,8,2:2:0:0:
361,122,98791,2,0,L|470:132,1,110,8|2,2:2|2:2,0:0:0:0:
375,232,99144,2,0,L|266:242,1,110,0|8,2:0|2:2,0:0:0:0:
106,274,99497,6,0,P|161:272|208:364,1,165.000006294251,6|8,2:2|2:2,0:0:0:0:
39,316,100026,1,8,2:2:0:0:
39,316,100202,2,0,P|25:271|52:217,1,82.5000031471254,2|0,2:2|0:0,0:0:0:0:
190,157,100555,6,0,P|129:173|99:159,1,82.5000031471254,8|0,2:2|2:0,0:0:0:0:
237,89,100908,2,0,P|271:148|212:239,1,165.000006294251,2|8,2:2|2:2,0:0:0:0:
150,251,101438,2,0,P|206:248|260:342,1,165.000006294251,8|2,2:2|2:2,0:0:0:0:
181,325,101967,1,8,2:2:0:0:
361,186,102144,1,0,0:0:0:0:
369,351,102320,6,0,L|252:329,1,110,2|2,2:2|2:2,0:0:0:0:
349,72,102673,2,0,B|437:57|437:57|467:65,1,110,8|0,2:2|2:0,0:0:0:0:
232,229,103026,2,0,L|222:168,1,55,2|8,2:2|2:2,0:0:0:0:
197,52,103202,5,8,2:2:0:0:
170,47,103291,1,8,2:2:0:0:
143,41,103379,1,8,2:2:0:0:
30,152,103555,1,8,2:2:0:0:
180,241,103732,5,8,2:2:0:0:
206,234,103820,1,8,2:2:0:0:
232,229,103908,1,8,2:2:0:0:
93,311,104084,5,10,2:2:0:0:
67,304,104173,1,8,2:2:0:0:
41,299,104261,1,8,2:2:0:0:
225,384,104437,5,8,2:2:0:0:
218,358,104526,1,8,2:0:0:0:
213,332,104614,1,10,2:2:0:0:
189,133,104791,5,10,2:2:0:0:
186,160,104879,1,8,2:2:0:0:
184,187,104967,1,8,2:2:0:0:
182,214,105055,1,0,0:0:0:0:
180,241,105144,6,0,P|263:245|310:330,1,165.000006294251,6|0,2:2|2:0,0:0:0:0:
213,332,105673,1,0,2:0:0:0:
325,192,105849,2,0,L|409:178,1,82.5000031471254,2|0,2:2|0:0,0:0:0:0:
480,257,106202,1,2,2:2:0:0:
396,298,106379,1,0,2:0:0:0:
379,37,106555,6,0,L|479:23,1,82.5000031471254,2|0,2:2|2:0,0:0:0:0:
276,115,106908,2,0,L|381:125,1,82.5000031471254,2|0,2:2|2:0,0:0:0:0:
184,37,107261,2,0,L|285:21,1,82.5000031471254,2|0,2:2|2:0,0:0:0:0:
125,123,107614,2,0,L|33:110,1,82.5000031471254,2|0,2:2|2:0,0:0:0:0:
132,268,107967,6,0,L|230:252,1,82.5000031471254,6|0,2:2|2:0,0:0:0:0:
291,257,108320,1,2,2:2:0:0:
323,330,108497,2,0,P|276:338|214:247,1,165.000006294251,0|0,2:0|2:0,0:0:0:0:
387,284,109026,2,0,P|403:344|381:380,1,82.5000031471254,2|0,2:2|2:0,0:0:0:0:
291,257,109379,6,0,L|277:160,1,82.5000031471254,2|0,2:2|2:0,0:0:0:0:
254,74,109732,1,2,2:2:0:0:
363,170,109908,1,0,2:0:0:0:
194,157,110085,1,2,2:2:0:0:
350,75,110261,1,0,2:0:0:0:
291,257,110438,1,2,2:2:0:0:
281,151,110614,1,0,2:0:0:0:
468,274,110791,6,0,L|374:285,1,82.5000031471254,6|0,2:2|0:0,0:0:0:0:
291,257,111144,1,2,2:2:0:0:
481,109,111320,2,0,L|467:275,1,165.000006294251,0|2,2:0|2:1,0:0:0:0:
361,125,111849,6,0,L|346:26,1,82.5000031471254,2|2,2:2|2:1,0:0:0:0:
291,257,112202,2,0,P|330:213|371:207,1,82.5000031471254,2|0,2:2|0:0,0:0:0:0:
368,293,112555,1,2,2:2:0:0:
190,337,112732,2,0,L|201:163,1,165.000006294251,0|2,2:0|2:1,0:0:0:0:
361,125,113261,2,0,L|372:213,1,82.5000031471254,2|2,2:2|2:1,0:0:0:0:
200,172,113614,6,0,L|186:77,1,82.5000031471254,6|2,2:2|2:1,0:0:0:0:
187,90,113879,1,2,2:1:0:0:
187,90,113967,1,2,2:2:0:0:
371,206,114144,1,0,2:0:0:0:
190,337,114320,1,2,2:2:0:0:
367,356,114497,5,2,2:1:0:0:
386,362,114585,1,2,2:1:0:0:
405,368,114673,1,2,2:2:0:0:
371,206,114849,5,2,2:1:0:0:
388,194,114938,1,2,2:1:0:0:
405,183,115026,1,2,2:2:0:0:
466,289,115202,5,2,2:1:0:0:
445,283,115291,1,2,2:1:0:0:
425,277,115379,1,2,2:2:0:0:
293,135,115555,5,2,2:1:0:0:
282,154,115644,1,2,2:1:0:0:
272,172,115732,1,2,2:2:0:0:
184,308,115908,5,2,2:1:0:0:
204,306,115997,1,2,2:1:0:0:
224,304,116085,1,2,2:2:0:0:
137,194,116261,5,2,2:1:0:0:
116,189,116349,1,2,2:1:0:0:
96,184,116438,1,12,2:2:0:0:
41,352,116614,5,0,2:0:0:0:
111,274,116791,1,0,2:0:0:0:
15,262,116967,1,2,2:2:0:0:
163,379,117144,2,0,L|255:372,1,82.5000031471254,8|0,2:2|2:0,0:0:0:0:
333,254,117497,2,0,L|235:236,1,82.5000031471254,2|8,2:2|2:2,0:0:0:0:
345,336,117849,5,2,2:2:0:0:
424,237,118026,1,8,2:2:0:0:
237,122,118202,5,0,2:0:0:0:
237,122,118291,1,8,2:2:0:0:
237,122,118379,2,0,L|242:177,1,41.2500015735627,2|0,2:2|0:0,0:0:0:0:
262,320,118555,2,0,L|251:234,1,82.5000031471254,8|0,2:2|0:0,0:0:0:0:
121,192,118908,2,0,L|109:285,1,82.5000031471254,2|8,2:2|2:2,0:0:0:0:
99,352,119261,5,6,2:2:0:0:
180,305,119438,1,0,0:0:0:0:
35,221,119614,1,2,2:2:0:0:
34,302,119791,1,0,0:0:0:0:
240,163,119967,5,2,2:2:0:0:
110,273,120144,1,0,0:0:0:0:
262,320,120320,1,2,2:2:0:0:
121,192,120497,1,0,0:0:0:0:
194,384,120673,5,8,2:2:0:0:
208,226,120849,1,8,2:2:0:0:
336,362,121026,5,8,2:2:0:0:
296,107,121202,1,8,2:2:0:0:
194,384,121379,5,0,2:0:0:0:
334,200,121555,1,0,2:0:0:0:
208,226,121732,2,0,L|201:331,1,82.5000031471254,0|0,2:0|0:0,0:0:0:0:
421,333,122085,6,0,P|461:296|333:202,1,280.500005350113,6|0,2:2|2:0,0:0:0:0:
168,261,122791,6,0,B|206:243|233:271|233:271|271:247|271:247|330:309|400:250,1,247.500009441376,6|0,2:2|2:0,0:0:0:0:
321,118,123497,6,0,L|336:209,1,82.5000031471254,6|0,2:2|0:0,0:0:0:0:
224,352,123849,2,0,L|236:259,1,82.5000031471254,2|0,0:0|2:0,0:0:0:0:
257,38,124202,2,0,P|219:131|82:109,1,247.500009441376,6|0,2:2|0:0,0:0:0:0:
161,53,124908,5,6,2:2:0:0:
320,118,125085,1,0,2:0:0:0:
177,238,125261,1,2,2:2:0:0:
210,137,125438,1,0,2:0:0:0:
273,311,125614,5,8,2:2:0:0:
63,252,125791,1,8,2:2:0:0:
320,118,125967,5,8,2:2:0:0:
349,383,126144,1,8,2:2:0:0:
70,335,126320,6,0,L|61:229,1,82.5000031471254,8|8,2:2|2:2,0:0:0:0:
210,137,126673,2,0,L|196:233,1,82.5000031471254,8|2,2:2|2:2,0:0:0:0:
198,218,126938,1,2,2:2:0:0:
198,218,127026,5,8,2:2:0:0:
131,49,127202,1,8,2:2:0:0:
340,146,127379,1,2,2:2:0:0:
187,309,127555,1,8,2:2:0:0:
119,194,127732,6,0,P|147:148|220:140,1,121.000003692627,2|8,2:2|2:2,0:0:0:0:
318,232,128261,1,2,2:2:0:0:
322,237,128438,2,0,L|309:314,1,60.5000018463135,12|0,2:2|2:0,0:0:0:0:
198,368,128791,2,0,L|184:294,1,60.5000018463135,4|8,2:2|2:2,0:0:0:0:
336,369,129144,6,0,P|290:374|266:358,1,60.5000018463135,4|8,2:2|2:2,0:0:0:0:
397,285,129497,2,0,P|443:280|467:296,1,60.5000018463135,4|2,2:2|2:2,0:0:0:0:
424,357,129849,1,6,2:2:0:0:
424,357,130202,5,6,2:2:0:0:
397,285,130379,1,8,2:2:0:0:
472,197,130555,6,0,L|378:177,1,90.7500027694703,6|0,2:2|0:0,0:0:0:0:
328,113,130908,2,0,L|431:91,1,90.7500027694703,6|0,2:2|0:0,0:0:0:0:
260,23,131261,2,0,L|241:131,1,90.7500027694703,6|0,2:2|0:0,0:0:0:0:
164,72,131614,2,0,L|154:-9,1,60.5000018463135,6|0,2:2|0:0,0:0:0:0:
25,131,131967,5,6,2:2:0:0:
219,218,132144,1,8,2:2:0:0:
78,252,132320,1,8,2:2:0:0:
96,241,132408,1,0,2:0:0:0:
117,238,132497,1,8,2:2:0:0:
137,242,132585,1,8,2:2:0:0:
154,273,132673,1,2,2:2:0:0:
181,296,132761,1,8,2:2:0:0:
216,302,132849,1,8,2:2:0:0:
453,325,133025,5,10,2:2:0:0:
414,348,133113,1,8,2:2:0:0:
369,348,133202,2,0,P|338:343|328:336,1,30.2500009231568,8|0,2:2|2:0,0:0:0:0:
402,206,133379,6,0,L|395:266,1,60.5000018463135,2|0,2:2|0:0,0:0:0:0:
308,198,133732,2,0,L|296:66,1,121.000003692627,2|0,2:0|2:0,0:0:0:0:
377,125,134261,1,0,0:0:0:0:
227,154,134438,2,0,L|159:141,1,60.5000018463135,0|0,2:0|2:0,0:0:0:0:
85,46,134791,2,0,L|93:119,1,60.5000018463135,2|0,2:0|2:0,0:0:0:0:
26,255,135144,2,0,P|46:204|105:180,1,121.000003692627,0|0,2:0|2:0,0:0:0:0:
111,320,135849,6,0,L|105:260,1,60.5000018463135,0|0,2:0|2:0,0:0:0:0:
190,285,136202,2,0,P|233:315|278:309,1,90.7500027694703,2|0,2:0|0:0,0:0:0:0:
269,312,136555,2,0,L|257:372,1,60.5000018463135,0|0,2:0|2:0,0:0:0:0:
369,340,136908,2,0,L|342:214,1,121.000003692627,0|0,2:0|2:0,0:0:0:0:
294,158,137614,6,0,P|329:141|370:150,1,60.5000018463135,2|0,2:0|0:0,0:0:0:0:
230,205,137967,2,0,P|213:162|224:124,1,60.5000018463135,0|0,2:0|0:0,0:0:0:0:
248,69,138320,2,0,L|179:59,1,60.5000018463135,2|0,2:0|0:0,0:0:0:0:
75,144,138673,2,0,L|142:138,1,60.5000018463135,0|0,2:0|0:0,0:0:0:0:
77,255,139026,6,0,B|52:200|52:200|81:127,1,121.000003692627,2|0,2:0|0:0,0:0:0:0:
165,339,139753,2,0,B|131:315|131:315|88:352|35:324,1,121.000003692627,0|0,2:0|0:0,0:0:0:0:
298,143,140458,2,0,L|441:162,1,121.000003692627,2|0,2:0|2:0,0:0:0:0:
248,202,141164,2,0,P|219:153|241:88,1,121.000003692627,0|0,2:0|2:0,0:0:0:0:
417,158,141870,1,2,2:0:0:0:
256,192,141956,12,0,143273,0:0:0:0:
168,148,143621,5,0,0:0:0:0:
168,148,143986,6,0,L|113:137,2,55.0000020980836,10|2|2,2:3|2:2|2:2,0:0:0:0:
221,212,144358,1,2,2:2:0:0:
314,82,144464,5,2,2:3:0:0:
314,82,144570,1,2,2:3:0:0:
314,82,144676,2,0,L|308:169,1,82.5000031471254,8|0,2:2|2:0,0:0:0:0:
300,249,145028,6,0,B|352:234|382:264|382:264|417:294|472:261,2,165.000006294251,2|8|2,2:2|2:2|2:2,0:0:0:0:
332,330,145911,1,8,2:2:0:0:
332,330,146087,2,0,P|286:337|244:321,1,82.5000031471254,2|8,2:2|2:2,0:0:0:0:
177,269,146440,2,0,B|129:248|55:261|55:261|84:247|91:223,1,165.000006294251,2|8,2:2|2:2,0:0:0:0:
74,55,147146,6,0,L|81:158,1,82.5000031471254,2|0,2:2|2:0,0:0:0:0:
239,88,147499,1,2,2:2:0:0:
159,73,147676,1,0,2:0:0:0:
182,154,147852,1,2,2:2:0:0:
320,112,148028,1,0,2:0:0:0:
214,15,148205,1,8,2:2:0:0:
214,15,148558,5,2,2:2:0:0:
269,200,148734,1,8,2:2:0:0:
181,305,148911,2,0,P|227:282|281:291,1,82.5000031471254,2|8,2:2|2:2,0:0:0:0:
349,339,149264,2,0,L|356:249,1,82.5000031471254,2|0,2:2|2:0,0:0:0:0:
240,365,149617,5,8,2:2:0:0:
427,297,149793,1,0,2:0:0:0:
265,198,149970,1,2,2:2:0:0:
269,167,150058,1,8,2:2:0:0:
274,134,150146,1,8,2:2:0:0:
279,101,150234,1,8,2:2:0:0:
286,68,150323,6,0,B|219:83|219:83|185:59|185:59|126:65,1,165.000006294251,2|8,2:2|2:2,0:0:0:0:
40,213,150852,5,0,2:0:0:0:
44,217,151028,2,0,L|129:211,1,82.5000031471254,2|0,2:2|2:0,0:0:0:0:
167,135,151293,1,2,2:2:0:0:
167,135,151381,2,0,L|77:142,1,82.5000031471254,8|0,2:2|2:0,0:0:0:0:
137,325,151734,5,2,2:2:0:0:
245,241,151911,1,0,2:0:0:0:
126,211,152087,1,8,2:2:0:0:
211,331,152264,2,0,L|264:322,1,41.2500015735627,0|8,2:0|2:2,0:0:0:0:
335,244,152440,5,2,2:2:0:0:
364,365,152617,1,0,2:0:0:0:
364,365,152705,1,0,2:2:0:0:
364,365,152793,1,8,2:2:0:0:
251,324,152970,1,0,2:0:0:0:
251,324,153058,1,2,2:2:0:0:
251,324,153146,6,0,L|245:236,1,82.5000031471254,6|0,2:2|2:0,0:0:0:0:
342,161,153499,2,0,L|334:251,1,82.5000031471254,2|0,2:2|2:0,0:0:0:0:
167,135,153852,6,0,L|228:124,1,41.2500015735627,2|0,2:2|2:0,0:0:0:0:
278,120,154028,1,0,2:0:0:0:
364,365,154205,2,0,L|273:354,1,82.5000031471254,2|0,2:2|2:0,0:0:0:0:
282,355,154470,1,0,2:2:0:0:
282,355,154558,5,2,2:2:0:0:
164,255,154734,2,0,L|254:240,1,82.5000031471254,0|2,2:0|2:2,0:0:0:0:
444,251,155087,5,0,2:0:0:0:
422,276,155176,1,8,2:2:0:0:
389,280,155264,1,8,2:2:0:0:
358,266,155352,1,0,2:0:0:0:
334,243,155440,2,0,L|340:179,2,49.4999984893799,2|0|0,2:0|0:0|0:0,0:0:0:0:
119,22,155970,6,0,P|117:71|149:107,1,82.5000031471254,2|0,2:2|2:0,0:0:0:0:
271,62,156323,2,0,P|224:42|180:51,1,82.5000031471254,2|8,2:2|2:2,0:0:0:0:
154,171,156676,2,0,P|204:142|224:108,1,82.5000031471254,2|0,2:2|2:0,0:0:0:0:
77,161,157028,2,0,P|89:220|136:243,1,82.5000031471254,2|8,2:2|2:2,0:0:0:0:
226,280,157381,6,0,B|163:284|163:284|125:309|125:309|41:308,2,165.000006294251,2|2|8,2:2|2:2|2:2,0:0:0:0:
310,299,158264,1,0,2:0:0:0:
314,303,158440,2,0,L|307:389,1,82.5000031471254,2|0,2:2|2:0,0:0:0:0:
424,326,158793,6,0,L|409:232,1,82.5000031471254,2|0,2:2|0:0,0:0:0:0:
387,120,159146,2,0,P|368:168|326:192,1,82.5000031471254,2|0,2:2|2:0,0:0:0:0:
227,122,159499,2,0,P|268:108|320:123,1,82.5000031471254,2|0,2:2|2:0,0:0:0:0:
177,215,159852,2,0,P|133:230|83:206,1,82.5000031471254,2|8,2:2|2:2,0:0:0:0:
115,0,160205,6,0,B|150:32|150:32|135:159,1,165.000006294251,2|2,2:2|2:2,0:0:0:0:
30,74,160734,1,0,2:0:0:0:
50,72,160823,1,8,2:2:0:0:
70,70,160911,1,8,2:2:0:0:
219,220,161087,1,0,2:0:0:0:
198,217,161176,1,8,2:2:0:0:
177,215,161264,1,2,2:2:0:0:
5,332,161440,6,0,L|12:275,1,41.2500015735627,0|8,2:0|2:2,0:0:0:0:
21,206,161617,2,0,B|80:207|80:207|106:224,1,82.5000031471254,2|0,2:2|2:0,0:0:0:0:
112,373,161970,2,0,B|99:313|99:313|108:287,1,82.5000031471254,2|0,2:2|2:0,0:0:0:0:
262,320,162323,2,0,L|171:306,1,82.5000031471254,2|0,2:2|2:0,0:0:0:0:
295,199,162676,2,0,L|384:183,1,82.5000031471254,2|8,2:2|2:2,0:0:0:0:
313,123,163028,6,0,P|264:125|218:219,1,165.000006294251,2|2,2:2|2:2,0:0:0:0:
372,266,163558,1,0,2:0:0:0:
372,266,163734,2,0,L|376:174,1,82.5000031471254,2|0,2:2|2:0,0:0:0:0:
214,136,164087,2,0,L|218:228,1,82.5000031471254,2|0,2:2|2:0,0:0:0:0:
253,67,164440,6,0,P|204:56|160:75,1,82.5000031471254,10|0,2:2|2:0,0:0:0:0:
103,122,164793,2,0,P|54:133|10:114,1,82.5000031471254,2|0,2:2|2:0,0:0:0:0:
0,210,165146,2,0,L|5:294,1,82.5000031471254,2|0,2:2|2:0,0:0:0:0:
98,204,165499,2,0,L|103:120,1,82.5000031471254,2|8,2:2|2:2,0:0:0:0:
147,290,165852,6,0,B|196:276|196:276|241:329|311:293,1,165.000006294251,2|2,2:2|2:2,0:0:0:0:
335,190,166381,1,0,2:0:0:0:
331,194,166558,2,0,P|280:206|252:261,1,82.5000031471254,8|0,2:2|2:0,0:0:0:0:
234,56,166911,2,0,L|248:143,1,82.5000031471254,2|8,2:2|2:2,0:0:0:0:
261,227,167264,1,6,2:2:0:0:
376,115,167440,1,8,2:2:0:0:
117,58,167617,5,8,2:2:0:0:
75,56,167705,1,8,2:2:0:0:
38,74,167793,1,8,2:2:0:0:
21,111,167881,1,8,2:2:0:0:
20,152,167970,2,0,L|26:206,1,41.2500015735627,2|8,2:2|2:2,0:0:0:0:
61,266,168146,5,8,2:2:0:0:
100,253,168234,1,8,2:2:0:0:
141,258,168323,1,8,2:2:0:0:
173,283,168411,1,8,2:2:0:0:
213,290,168499,1,8,2:2:0:0:
321,265,168676,5,14,2:2:0:0:
350,218,168764,1,2,2:2:0:0:
400,195,168852,1,8,2:2:0:0:
452,209,168940,1,0,2:0:0:0:
491,247,169028,1,2,2:2:0:0:
501,301,169117,1,0,2:0:0:0:
475,349,169205,1,8,2:2:0:0:
423,366,169293,1,0,2:0:0:0:
373,356,169381,6,0,P|390:306|416:287,1,82.5,10|0,2:2|0:0,0:0:0:0:
412,288,169734,1,0,2:0:0:0:
412,288,170087,6,0,B|374:306|339:282|339:282|300:312|300:312|247:267|186:302,1,220,6|8,2:2|2:2,0:0:0:0:
237,363,170617,1,0,2:0:0:0:
386,213,170793,2,0,B|399:100|399:100|371:125|326:113,1,165,2|0,2:2|2:0,0:0:0:0:
351,116,171146,1,8,2:2:0:0:
470,170,171323,1,0,2:0:0:0:
353,43,171499,6,0,B|273:29|273:29|238:41,1,110,2|2,2:2|2:2,0:0:0:0:
173,191,171852,1,8,2:2:0:0:
271,111,172028,1,8,2:2:0:0:
145,84,172205,1,8,2:2:0:0:
145,84,172293,1,8,2:2:0:0:
145,84,172381,1,2,2:2:0:0:
277,232,172558,2,0,L|391:211,1,110,8|0,2:2|2:0,0:0:0:0:
470,170,172911,5,6,2:2:0:0:
353,43,173087,1,2,2:2:0:0:
277,232,173264,1,8,2:2:0:0:
396,321,173440,1,0,2:0:0:0:
396,321,173528,1,8,2:2:0:0:
396,321,173617,6,0,L|384:200,1,110,2|2,2:2|2:2,0:0:0:0:
188,82,173970,2,0,L|171:205,1,110,8|0,2:2|2:0,0:0:0:0:
435,146,174323,2,0,P|367:132|321:160,1,110,2|0,2:2|2:0,0:0:0:0:
215,257,174675,5,8,2:2:0:0:
189,268,174764,1,0,0:0:0:0:
161,268,174852,1,2,2:2:0:0:
135,259,174940,1,8,2:2:0:0:
112,243,175028,2,0,P|80:210|6:213,1,110,8|2,2:2|2:2,0:0:0:0:
42,283,175381,1,0,2:0:0:0:
130,142,175558,1,8,2:2:0:0:
45,33,175734,6,0,B|100:32|100:32|137:54|137:54|215:52,1,165.000006294251,6|8,2:2|2:2,0:0:0:0:
324,114,176264,2,0,P|244:118|210:18,1,165.000006294251,0|0,2:0|0:0,0:0:0:0:
406,81,176793,2,0,L|400:168,1,82.5000031471254,8|0,2:2|2:0,0:0:0:0:
342,298,177146,6,0,P|368:253|419:242,1,82.5000031471254,2|2,2:2|2:2,0:0:0:0:
417,317,177499,1,8,2:2:0:0:
288,359,177675,2,0,B|226:352|226:352|191:369|191:369|117:357,1,165.000006294251,8|2,2:2|2:2,0:0:0:0:
70,241,178205,1,8,2:2:0:0:
304,184,178381,1,0,0:0:0:0:
181,289,178558,6,0,L|181:194,1,82.5000031471254,6|2,2:2|2:2,0:0:0:0:
353,241,178911,2,0,P|302:265|261:247,1,82.5000031471254,8|0,2:2|2:0,0:0:0:0:
338,11,179264,6,0,L|337:63,1,41.2500015735627,2|8,2:2|2:2,0:0:0:0:
354,149,179440,1,2,2:2:0:0:
374,146,179528,1,8,2:2:0:0:
394,149,179617,1,8,2:2:0:0:
469,268,179793,1,2,2:2:0:0:
242,356,179970,1,2,2:2:0:0:
239,335,180058,1,8,2:2:0:0:
244,315,180146,1,0,2:2:0:0:
354,149,180323,5,8,2:0:0:0:
362,168,180411,1,0,2:0:0:0:
362,188,180499,1,2,2:2:0:0:
172,55,180675,1,8,2:2:0:0:
192,50,180764,1,0,2:0:0:0:
212,52,180852,1,0,2:0:0:0:
279,215,181028,1,8,2:2:0:0:
245,218,181117,1,8,2:2:0:0:
212,214,181205,1,8,2:2:0:0:
184,196,181293,1,0,0:0:0:0:
162,170,181381,6,0,P|119:181|71:161,1,82.5000031471254,6|0,2:2|2:0,0:0:0:0:
30,63,181734,1,2,2:2:0:0:
115,101,181911,1,0,2:0:0:0:
27,265,182087,6,0,P|73:249|123:263,1,82.5000031471254,2|0,2:2|0:0,0:0:0:0:
161,363,182440,1,2,2:2:0:0:
76,330,182617,1,0,2:0:0:0:
210,212,182793,6,0,L|201:299,1,82.5000031471254,2|0,2:2|2:0,0:0:0:0:
27,265,183146,2,0,L|13:174,1,82.5000031471254,2|0,2:2|2:0,0:0:0:0:
237,356,183499,2,0,P|193:372|146:350,1,82.5000031471254,2|0,2:2|2:0,0:0:0:0:
162,148,183852,2,0,P|212:128|257:144,1,82.5000031471254,2|0,2:2|2:0,0:0:0:0:
120,219,184205,2,0,P|85:168|130:72,1,165.000006294251,6|2,2:2|2:2,0:0:0:0:
248,295,184734,6,0,B|192:289|192:289|152:307|152:307|73:292,1,165.000006294251,0|0,2:0|2:0,0:0:0:0:
298,211,185264,2,0,L|387:194,1,82.5000031471254,2|0,2:2|2:0,0:0:0:0:
460,301,185617,2,0,L|369:288,1,82.5000031471254,2|0,2:2|2:0,0:0:0:0:
375,85,185970,6,0,L|461:100,1,82.5000031471254,2|0,2:2|2:0,0:0:0:0:
298,211,186323,2,0,L|306:121,1,82.5000031471254,2|0,2:2|2:0,0:0:0:0:
150,226,186675,2,0,L|158:316,1,82.5000031471254,2|0,2:2|2:0,0:0:0:0:
152,143,187028,6,0,P|160:82|264:72,1,165.000006294251,6|2,2:2|2:2,0:0:0:0:
221,189,187558,2,0,P|157:225|72:164,1,165.000006294251,0|2,2:0|2:1,0:0:0:0:
0,134,188087,2,0,L|8:226,1,82.5000031471254,2|2,2:2|2:1,0:0:0:0:
125,319,188440,6,0,B|191:315|191:315|227:333|227:333|306:325,1,165.000006294251,2|2,2:2|2:2,0:0:0:0:
403,262,188970,2,0,P|335:254|288:346,1,165.000006294251,0|2,2:0|2:1,0:0:0:0:
364,329,189499,5,2,2:2:0:0:
217,122,189675,1,2,2:1:0:0:
146,222,189852,6,0,L|241:213,1,82.5000031471254,6|2,2:2|2:1,0:0:0:0:
228,214,190117,1,2,2:1:0:0:
228,214,190205,1,2,2:2:0:0:
365,114,190381,1,0,2:0:0:0:
206,45,190558,1,2,2:2:0:0:
346,224,190734,5,2,2:1:0:0:
366,229,190823,1,2,2:1:0:0:
386,227,190911,1,2,2:2:0:0:
465,336,191087,5,2,2:1:0:0:
445,330,191175,1,2,2:1:0:0:
424,333,191264,1,2,2:2:0:0:
296,354,191440,5,2,2:1:0:0:
303,334,191528,1,2,2:1:0:0:
300,313,191617,1,2,2:2:0:0:
92,328,191793,5,2,2:1:0:0:
111,334,191881,1,2,2:1:0:0:
131,332,191970,1,2,2:2:0:0:
191,142,192146,5,2,2:1:0:0:
170,140,192234,1,2,2:1:0:0:
150,146,192323,1,2,2:2:0:0:
111,234,192499,5,2,2:1:0:0:
111,234,192587,1,2,2:1:0:0:
111,234,192675,1,6,2:2:0:0:
223,239,192852,1,0,2:0:0:0:
173,65,193028,1,0,2:0:0:0:
80,127,193205,1,2,2:2:0:0:
260,134,193381,2,0,B|303:125|303:125|349:138,1,82.5000031471254,8|0,2:2|2:0,0:0:0:0:
309,283,193734,2,0,B|295:236|295:236|310:182,1,82.5000031471254,2|8,2:2|2:2,0:0:0:0:
369,332,194087,6,0,P|322:363|231:301,1,165.000006294251,0|0,2:0|2:0,0:0:0:0:
471,278,194617,1,2,2:2:0:0:
471,278,194793,2,0,L|465:361,1,82.5000031471254,8|0,2:2|0:0,0:0:0:0:
316,207,195146,5,2,2:2:0:0:
392,242,195323,1,8,2:2:0:0:
322,287,195499,1,6,2:2:0:0:
384,155,195675,1,0,0:0:0:0:
471,278,195852,1,2,2:2:0:0:
248,176,196028,1,0,0:0:0:0:
432,42,196205,5,2,2:2:0:0:
396,330,196381,1,0,0:0:0:0:
156,101,196558,2,0,L|246:90,1,82.5000031471254,2|0,2:2|0:0,0:0:0:0:
371,190,196911,5,8,2:2:0:0:
89,321,197087,1,8,2:2:0:0:
256,19,197264,5,8,2:2:0:0:
220,360,197440,1,8,2:2:0:0:
32,199,197617,1,0,2:0:0:0:
32,199,198323,6,0,P|65:187|95:188,3,55,0|0|2|0,2:0|2:0|2:2|2:0,0:0:0:0:
143,262,199028,2,0,P|176:271|208:263,3,55,0|2|0|0,2:0|2:2|2:0|2:0,0:0:0:0:
303,197,199734,6,0,L|292:121,3,55,0|0|0|0,2:0|2:0|2:0|2:0,0:0:0:0:
196,267,200440,2,0,L|189:322,3,55,0|0|0|0,2:0|2:0|2:0|2:0,0:0:0:0:
301,328,201146,6,0,L|355:333,3,55,0|0|2|0,2:0|2:0|2:2|2:0,0:0:0:0:
455,252,201852,2,0,L|386:261,3,55,0|2|0|0,2:0|2:2|2:0|2:0,0:0:0:0:
303,197,202558,5,0,2:0:0:0:
390,115,202734,2,0,L|421:120,20,27.5,0|0|0|0|0|0|0|0|0|0|0|0|0|0|0|0|0|0|0|0|0,2:0|0:0|0:0|0:0|2:0|0:0|0:0|0:0|2:0|0:0|0:0|0:0|2:0|0:0|0:0|0:0|2:0|0:0|0:0|0:0|2:0,0:0:0:0:
303,197,203793,5,0,2:0:0:0:
171,295,203970,2,0,B|145:213|145:213|166:127,1,165.000006294251,6|0,2:2|2:0,0:0:0:0:
235,35,204515,1,2,2:2:0:0:
235,35,204697,2,0,B|182:57|182:57|66:31,1,165.000006294251,8|0,2:2|2:0,0:0:0:0:
31,126,205226,5,8,2:2:0:0:
31,126,205402,2,0,L|17:211,1,82.5000031471254,0|2,2:0|2:2,0:0:0:0:
188,308,205735,2,0,L|178:212,1,82.5000031471254,2|0,2:2|2:0,0:0:0:0:
86,264,206087,6,0,L|68:356,1,82.5000031471254,8|0,2:2|0:0,0:0:0:0:
282,249,206440,1,0,2:0:0:0:
282,249,206805,5,12,2:2:0:0:
309,169,206981,1,0,2:0:0:0:
229,186,207157,1,2,2:2:0:0:
361,235,207334,1,0,2:0:0:0:
252,108,207510,1,10,2:2:0:0:
209,263,207687,1,8,2:2:0:0:
335,95,207863,5,8,2:2:0:0:
156,212,208040,1,10,2:2:0:0:
341,315,208217,2,0,P|345:272|368:227,1,82.5000031471254,12|0,2:0|0:0,0:0:0:0:
361,236,208481,1,0,0:0:0:0:
361,236,208569,1,8,2:2:0:0:
165,133,208746,2,0,P|170:179|149:219,1,82.5000031471254,12|8,2:0|0:0,0:0:0:0:
155,211,209011,1,8,2:2:0:0:
155,211,209099,1,8,2:2:0:0:
384,147,209275,6,0,L|329:136,1,55,8|8,2:2|2:2,0:0:0:0:
365,242,209449,2,0,L|426:232,1,55,8|8,2:2|2:2,0:0:0:0:
420,369,209623,6,0,B|377:331|377:331|343:390|263:365,1,165.000006294251,6|8,2:2|2:2,0:0:0:0:
234,266,210152,5,0,2:0:0:0:
234,266,210240,1,8,2:2:0:0:
234,266,210328,2,0,P|279:267|311:304,1,82.5000031471254,2|2,2:2|2:2,0:0:0:0:
176,360,210681,2,0,L|93:359,1,82.5000031471254,8|0,2:2|2:0,0:0:0:0:
93,359,210946,1,8,2:2:0:0:
93,359,211034,5,2,2:2:0:0:
11,281,211211,1,2,2:2:0:0:
111,180,211387,2,0,L|102:277,1,82.5000031471254,8|0,2:2|2:0,0:0:0:0:
22,172,211652,1,8,2:2:0:0:
22,172,211740,2,0,L|15:119,1,41.2500015735627,2|8,2:2|2:2,0:0:0:0:
105,52,211917,2,0,L|97:105,1,41.2500015735627,2|0,2:2|2:0,0:0:0:0:
206,182,212093,2,0,L|191:78,1,82.5000031471254,8|0,2:2|0:0,0:0:0:0:
290,56,212446,5,2,2:2:0:0:
426,113,212623,1,2,2:2:0:0:
310,207,212799,1,8,2:2:0:0:
388,41,212975,1,0,2:0:0:0:
388,41,213064,1,8,2:2:0:0:
388,41,213152,2,0,P|439:33|481:56,1,82.5000031471254,2|2,2:2|2:2,0:0:0:0:
315,289,213505,2,0,L|308:189,1,82.5000031471254,8|0,2:2|2:0,0:0:0:0:
309,206,213770,1,8,2:2:0:0:
309,206,213858,5,2,2:2:0:0:
454,308,214034,1,2,2:2:0:0:
259,362,214211,2,0,L|166:348,1,82.5000031471254,8|0,2:2|2:0,0:0:0:0:
83,273,214475,1,8,2:2:0:0:
83,273,214564,2,0,L|143:254,1,41.2500015735627,2|8,2:2|2:2,0:0:0:0:
206,182,214740,2,0,L|155:163,1,41.2500015735627,2|0,2:2|2:0,0:0:0:0:
36,142,214917,1,8,2:2:0:0:
222,277,215093,1,0,2:0:0:0:
264,32,215270,5,2,2:2:0:0:
235,106,215446,1,2,2:2:0:0:
182,41,215623,1,8,2:2:0:0:
328,100,215799,1,0,2:0:0:0:
328,100,215887,1,8,2:2:0:0:
328,100,215975,1,2,2:2:0:0:
206,182,216152,1,2,2:2:0:0:
393,54,216328,6,0,P|408:112|395:143,1,82.5000031471254,8|0,2:2|2:0,0:0:0:0:
401,131,216593,1,8,2:2:0:0:
401,131,216681,1,2,2:2:0:0:
471,208,216858,1,2,2:2:0:0:
350,277,217034,2,0,L|300:267,1,41.2500015735627,8|0,2:2|2:0,0:0:0:0:
206,182,217211,5,0,2:0:0:0:
208,214,217299,1,8,2:2:0:0:
209,246,217387,1,2,2:2:0:0:
211,278,217475,1,8,2:2:0:0:
211,311,217564,1,2,2:2:0:0:
318,181,217740,2,0,L|330:76,1,82.5000031471254,8|0,2:2|2:0,0:0:0:0:
206,182,218093,5,2,2:2:0:0:
211,311,218270,1,2,2:2:0:0:
407,245,218446,2,0,L|394:149,1,82.5000031471254,8|0,2:2|2:0,0:0:0:0:
309,268,218799,2,0,L|296:359,1,82.5000031471254,2|0,2:2|2:0,0:0:0:0:
297,349,219064,1,2,2:2:0:0:
297,349,219152,1,8,2:2:0:0:
467,304,219328,1,2,2:2:0:0:
318,181,219505,5,0,2:0:0:0:
318,181,219593,1,2,2:2:0:0:
318,181,219681,1,8,2:2:0:0:
309,268,219858,6,0,B|367:278|367:278|405:262,1,82.5000031471254,2|0,2:2|2:0,0:0:0:0:
318,181,220123,1,2,2:2:0:0:
318,181,220211,2,0,L|263:170,1,41.2500015735627,8|0,2:2|2:0,0:0:0:0:
160,226,220387,2,0,L|171:320,1,82.5000031471254,2|0,2:2|2:0,0:0:0:0:
309,268,220740,1,8,2:2:0:0:
238,202,220917,5,2,2:2:0:0:
355,367,221093,1,2,2:2:0:0:
401,190,221270,1,8,2:2:0:0:
170,308,221446,5,0,2:0:0:0:
170,308,221534,1,0,0:0:0:0:
170,308,221623,1,2,2:2:0:0:
355,367,221799,1,2,2:2:0:0:
283,105,221975,1,8,2:2:0:0:
252,365,222152,1,0,2:0:0:0:
252,365,222240,1,0,0:0:0:0:
252,365,222328,5,2,2:2:0:0:
499,272,222505,1,2,2:2:0:0:
210,208,222681,1,8,2:2:0:0:
355,367,222858,1,0,2:0:0:0:
341,53,223034,1,2,2:2:0:0:
341,53,223123,1,0,0:0:0:0:
341,53,223211,1,2,2:2:0:0:
57,176,223387,5,8,2:2:0:0:
264,316,223564,1,0,2:0:0:0:
57,176,223740,6,0,B|100:164|100:164|155:179,1,82.5000031471254,2|2,2:2|2:2,0:0:0:0:
264,316,224093,2,0,B|223:326|223:326|180:310,1,82.5000031471254,8|0,2:2|2:0,0:0:0:0:
347,270,224358,1,8,2:2:0:0:
347,270,224446,2,0,L|336:365,1,82.5000031471254,2|2,2:2|2:2,0:0:0:0:
263,236,224799,1,8,2:2:0:0:
357,155,224975,5,0,2:0:0:0:
357,155,225064,1,8,2:2:0:0:
357,155,225152,1,2,2:2:0:0:
425,309,225328,1,2,2:2:0:0:
263,236,225505,2,0,L|261:127,1,82.5000031471254,8|0,2:2|2:0,0:0:0:0:
179,63,225770,5,8,2:2:0:0:
179,63,225858,2,0,L|124:53,1,41.2500015735627,2|8,2:2|2:2,0:0:0:0:
32,134,226034,2,0,L|94:124,1,41.2500015735627,2|0,2:2|2:0,0:0:0:0:
180,237,226211,1,8,2:2:0:0:
180,237,226564,5,2,2:2:0:0:
174,329,226740,1,2,2:2:0:0:
99,282,226917,1,8,2:2:0:0:
253,287,227093,5,0,2:0:0:0:
93,367,227270,1,2,2:2:0:0:
104,195,227446,1,2,2:2:0:0:
288,384,227623,5,8,2:2:0:0:
151,282,227799,1,0,2:0:0:0:
306,202,227975,1,2,2:2:0:0:
200,375,228152,5,2,2:2:0:0:
221,154,228328,1,8,2:2:0:0:
399,298,228505,1,0,2:0:0:0:
399,298,228593,1,8,2:2:0:0:
399,298,228681,5,2,2:2:0:0:
263,277,228858,1,2,2:2:0:0:
477,145,229034,5,8,2:2:0:0:
461,368,229211,1,0,0:0:0:0:
221,154,229387,5,6,2:2:0:0:
471,257,229564,1,0,2:0:0:0:
471,257,229652,1,8,2:2:0:0:
471,257,229740,1,8,2:2:0:0:
270,368,229917,5,6,2:2:0:0:
376,45,230093,1,0,2:0:0:0:
376,45,230181,1,8,2:2:0:0:
376,45,230270,1,8,2:2:0:0:
58,102,230446,5,6,2:2:0:0:
270,368,230623,1,0,2:0:0:0:
270,368,230711,1,8,2:2:0:0:
270,368,230799,1,8,2:2:0:0:
313,100,230975,5,6,2:2:0:0:
55,220,231152,1,0,2:0:0:0:
55,220,231240,1,8,2:2:0:0:
55,220,231328,1,8,2:2:0:0:
270,368,231505,1,6,2:2:0:0:
270,368,232211,6,0,B|248:342|255:283|255:283|223:332|135:397|0:282|24:179|123:77|219:123|257:185|257:185|276:168|318:163|318:163|314:234|359:264|359:264|375:189|428:173|428:173|447:234|497:233,1,989.999969787599,2|0,2:2|0:0,0:0:0:0:
174,232,237858,6,0,P|138:225|111:197,1,65.9999979858399,2|0,2:2|0:0,0:0:0:0:
278,94,238564,2,0,P|314:87|341:59,1,65.9999979858399,0|0,2:0|2:0,0:0:0:0:
171,20,239270,6,0,L|98:10,2,65.9999979858399,2|0|0,2:2|2:0|2:0,0:0:0:0:
42,283,240681,6,0,L|48:353,1,65.9999979858399,2|0,2:2|0:0,0:0:0:0:
164,297,241387,2,0,L|174:225,1,65.9999979858399,0|0,2:0|2:0,0:0:0:0:
177,135,242093,6,0,P|145:152|110:149,2,65.9999979858399,2|0|0,2:2|2:0|2:0,0:0:0:0:
245,73,242975,5,2,2:2:0:0:
245,73,243152,1,2,2:2:0:0:
245,73,243505,6,0,L|331:76,1,76.9999976501466,6|0,2:2|0:0,0:0:0:0:
461,82,244034,1,0,2:0:0:0:
461,82,244211,2,0,P|417:94|391:131,1,76.9999976501466,0|0,2:0|2:0,0:0:0:0:
284,177,244917,2,0,P|327:187|355:224,1,76.9999976501466,2|0,2:2|2:0,0:0:0:0:
382,306,245622,5,0,2:0:0:0:
268,342,245975,2,0,L|281:250,1,76.9999976501466,0|2,2:0|2:2,0:0:0:0:
116,273,246681,6,0,L|111:219,1,38.4999988250733,0|0,2:0|2:0,0:0:0:0:
256,192,247034,12,0,248799,2:0:0:0:
159,67,249152,5,6,2:2:0:0:
159,67,249681,5,2,2:2:0:0:
135,237,249858,1,12,2:2:0:0:
135,237,250210,5,2,2:2:0:0:
222,206,250387,1,8,2:2:0:0:
151,149,250563,1,4,2:2:0:0:
200,293,250740,2,0,P|247:280|294:294,1,82.5000031471254,8|0,2:2|2:0,0:0:0:0:
356,353,251093,1,2,2:2:0:0:
395,270,251269,6,0,L|388:204,2,55.0000020980836,8|8|2,2:3|2:2|2:2,0:0:0:0:
279,286,251622,2,0,L|266:353,2,55.0000020980836,2|2|2,2:3|2:2|2:2,0:0:0:0:
313,135,251975,6,0,B|272:142|240:116|240:116|204:140|204:140|155:107|98:131,1,230.99999295044,0|0,2:0|0:0,0:0:0:0:
148,294,253387,6,0,P|116:206|176:216,1,197.99999395752,2|0,2:0|0:0,0:0:0:0:
396,346,254799,6,0,B|410:305|391:276|391:276|412:232|412:232|370:182|421:113,1,220,6|8,2:2|2:2,0:0:0:0:
474,182,255328,1,0,2:0:0:0:
324,240,255505,2,0,B|250:279|210:208|210:208|164:250,1,165,2|0,2:2|2:0,0:0:0:0:
187,228,255858,1,8,2:2:0:0:
284,175,256034,1,0,2:0:0:0:
231,355,256210,5,2,2:2:0:0:
31,294,256386,1,2,2:2:0:0:
252,55,256563,5,8,2:2:0:0:
332,351,256740,1,8,2:2:0:0:
174,137,256916,5,2,2:2:0:0:
326,91,257093,1,2,2:2:0:0:
371,243,257269,1,8,2:2:0:0:
219,289,257446,1,0,2:0:0:0:
252,55,257622,5,2,2:2:0:0:
404,142,257799,1,2,2:2:0:0:
283,181,257975,1,8,2:2:0:0:
380,30,258152,1,0,2:0:0:0:
380,30,258240,1,8,2:2:0:0:
380,30,258328,1,2,2:2:0:0:
428,259,258505,1,2,2:2:0:0:
283,181,258681,5,8,2:2:0:0:
261,175,258769,1,0,0:0:0:0:
238,175,258858,1,0,2:0:0:0:
174,327,259034,6,0,P|214:306|244:240,1,110,2|0,2:2|2:0,0:0:0:0:
243,250,259299,1,8,2:2:0:0:
243,250,259387,1,8,2:2:0:0:
341,367,259563,1,2,2:2:0:0:
373,345,259652,1,8,2:2:0:0:
410,338,259740,1,8,2:2:0:0:
490,259,259916,1,2,2:2:0:0:
381,132,260093,2,0,L|378:260,1,110,0|8,0:0|2:2,0:0:0:0:
168,225,260446,6,0,P|234:168|294:188,1,110,6|2,2:2|2:2,0:0:0:0:
378,241,260799,1,8,2:2:0:0:
71,326,260975,2,0,L|74:271,1,55,0|8,2:0|2:2,0:0:0:0:
62,75,261152,2,0,P|124:131|155:125,1,110,2|0,2:2|0:0,0:0:0:0:
214,5,261505,1,8,2:2:0:0:
137,53,261681,1,0,2:0:0:0:
251,168,261858,6,0,L|365:182,1,110,2|2,2:2|2:2,0:0:0:0:
475,154,262210,2,0,L|419:128,1,55,8|0,2:2|0:0,0:0:0:0:
341,92,262387,1,8,2:2:0:0:
398,330,262563,1,2,2:2:0:0:
436,335,262652,1,8,2:2:0:0:
472,324,262740,1,2,2:2:0:0:
251,168,262916,6,0,B|238:234|238:234|252:272|252:272|240:342,1,165,8|0,2:2|0:0,0:0:0:0:
242,328,263269,5,2,2:2:0:0:
392,182,263446,1,2,2:2:0:0:
154,182,263622,5,8,2:2:0:0:
344,254,263799,1,0,2:0:0:0:
184,366,263975,1,2,2:2:0:0:
317,177,264152,5,0,2:0:0:0:
355,173,264240,1,2,2:2:0:0:
392,182,264328,1,8,2:2:0:0:
396,36,264505,1,2,2:2:0:0:
253,76,264681,1,2,2:2:0:0:
215,83,264769,1,8,2:2:0:0:
177,74,264857,1,8,2:2:0:0:
66,28,265034,6,0,L|73:97,1,55,2|8,2:2|2:2,0:0:0:0:
193,227,265210,2,0,L|185:151,1,55,2|8,2:2|2:2,0:0:0:0:
125,288,265387,5,8,2:2:0:0:
157,310,265475,1,0,0:0:0:0:
194,320,265563,1,2,2:2:0:0:
232,313,265652,1,8,2:2:0:0:
264,294,265740,1,2,2:2:0:0:
286,264,265828,1,8,2:2:0:0:
308,234,265916,1,8,2:2:0:0:
344,221,266005,1,0,0:0:0:0:
372,220,266093,6,0,L|458:237,1,82.5000031471254,6|0,2:2|2:0,0:0:0:0:
494,322,266446,1,2,2:2:0:0:
382,360,266622,1,0,2:0:0:0:
450,156,266799,6,0,B|462:189|462:189|446:264,1,82.5000031471254,2|0,2:2|0:0,0:0:0:0:
312,106,267152,1,2,2:2:0:0:
405,52,267328,1,0,2:0:0:0:
268,187,267505,6,0,L|185:173,1,82.5000031471254,2|0,2:2|2:0,0:0:0:0:
48,125,267858,2,0,L|131:111,1,82.5000031471254,2|0,2:2|2:0,0:0:0:0:
216,7,268210,2,0,L|203:100,1,82.5000031471254,2|0,2:2|2:0,0:0:0:0:
124,274,268563,2,0,L|111:181,1,82.5000031471254,2|0,2:2|2:0,0:0:0:0:
198,339,268917,6,0,P|219:283|319:267,1,165.000006294251,2|2,2:2|2:2,0:0:0:0:
358,335,269446,1,0,2:0:0:0:
358,335,269622,2,0,P|312:346|267:330,1,82.5000031471254,2|0,2:2|2:0,0:0:0:0:
389,166,269975,2,0,P|435:155|480:171,1,82.5000031471254,2|0,2:2|2:0,0:0:0:0:
439,318,270328,2,0,L|429:225,1,82.5000031471254,2|0,2:2|2:0,0:0:0:0:
416,79,270681,5,2,2:2:0:0:
295,190,270858,1,0,2:0:0:0:
266,193,270946,1,0,2:0:0:0:
237,187,271034,1,2,2:2:0:0:
131,38,271210,1,0,2:0:0:0:
159,30,271299,1,0,2:0:0:0:
187,32,271387,1,2,2:2:0:0:
116,119,271563,1,0,2:0:0:0:
116,119,271652,1,0,2:0:0:0:
116,119,271740,6,0,L|135:9,1,82.5000031471254,6|0,2:2|0:0,0:0:0:0:
237,187,272093,2,0,L|255:317,1,123.750004720688,2|0,2:2|0:0,0:0:0:0:
253,309,272446,1,2,2:2:0:0:
50,205,272622,5,2,2:1:0:0:
50,205,272710,1,2,2:1:0:0:
50,205,272799,2,0,P|100:202|133:224,1,82.5000031471254,2|2,2:2|2:1,0:0:0:0:
69,362,273152,2,0,L|77:267,1,82.5000031471254,2|0,2:2|0:0,0:0:0:0:
95,42,273505,1,2,2:2:0:0:
95,42,273681,2,0,P|130:111|219:112,1,165.000006294251,0|2,2:0|2:1,0:0:0:0:
176,44,274210,1,2,2:2:0:0:
25,82,274387,1,0,2:0:0:0:
214,199,274563,6,0,L|209:97,1,82.5000031471254,2|2,2:2|2:1,0:0:0:0:
209,116,274828,1,2,2:1:0:0:
209,116,274916,1,2,2:2:0:0:
294,253,275093,1,0,2:0:0:0:
136,239,275269,1,2,2:2:0:0:
308,167,275446,1,2,2:1:0:0:
207,308,275622,1,2,2:2:0:0:
143,154,275799,1,2,2:1:0:0:
352,302,275975,5,2,2:2:0:0:
90,360,276152,1,2,2:1:0:0:
366,223,276328,5,2,2:2:0:0:
63,208,276505,1,2,2:1:0:0:
440,184,276681,5,2,2:2:0:0:
116,59,276858,1,2,2:1:0:0:
352,302,277034,1,2,2:2:0:0:
316,22,277210,1,2,2:1:0:0:
90,360,277387,6,0,B|155:355|155:355|185:370|185:370|259:361,1,165.000006294251,6|0,2:2|2:0,0:0:0:0:
440,184,277916,1,2,2:2:0:0:
445,189,278093,2,0,L|435:279,1,82.5000031471254,8|0,2:2|2:0,0:0:0:0:
367,384,278446,2,0,L|351:295,1,82.5000031471254,2|8,2:2|2:2,0:0:0:0:
263,192,278799,6,0,B|198:187|198:187|168:202|168:202|94:193,1,165.000006294251,2|0,2:2|2:0,0:0:0:0:
27,328,279328,1,2,2:2:0:0:
32,333,279505,2,0,L|115:324,1,82.5000031471254,8|0,2:2|0:0,0:0:0:0:
19,132,279858,2,0,L|25:226,1,82.5000031471254,2|8,2:2|2:2,0:0:0:0:
223,109,280210,6,0,P|185:73|139:70,1,82.5000031471254,2|0,2:2|2:0,0:0:0:0:
263,192,280563,2,0,P|301:156|347:153,1,82.5000031471254,2|0,2:2|2:0,0:0:0:0:
205,262,280916,2,0,P|167:226|121:223,1,82.5000031471254,2|0,2:2|2:0,0:0:0:0:
245,345,281269,2,0,P|283:309|329:306,1,82.5000031471254,2|0,2:2|2:0,0:0:0:0:
419,351,281622,5,8,2:2:0:0:
332,231,281799,1,8,2:2:0:0:
474,214,281975,1,8,2:2:0:0:
312,384,282152,1,8,2:2:0:0:
152,147,282328,1,0,2:0:0:0:
152,147,283034,6,0,P|120:220|36:223,1,165.000006294251,6|0,2:2|0:0,0:0:0:0:
74,152,283563,1,0,0:0:0:0:
218,269,283740,2,0,L|207:363,1,82.5000031471254,6|0,2:2|0:0,0:0:0:0:
50,308,284093,2,0,L|41:215,1,82.5000031471254
128,69,284446,2,0,B|188:68|188:68|225:90|225:90|294:87,2,165.000006294251,6|0|6,2:2|0:0|2:2,0:0:0:0:
364,58,285858,6,0,P|314:58|259:153,1,165.000006294251,6|2,2:2|2:2,0:0:0:0:
338,135,286387,1,0,2:0:0:0:
155,53,286563,2,0,L|65:43,1,82.5000031471254,8|8,2:2|2:2,0:0:0:0:
317,261,286916,2,0,L|418:245,1,82.5000031471254,8|8,2:2|2:2,0:0:0:0:
467,203,287269,5,8,2:2:0:0:
338,135,287446,1,8,2:2:0:0:
174,228,287622,1,8,2:2:0:0:
155,53,287799,1,2,2:2:0:0:
155,53,287887,1,2,2:2:0:0:
155,53,287975,1,8,2:2:0:0:
174,228,288152,5,8,2:2:0:0:
338,135,288328,1,2,2:2:0:0:
155,53,288505,1,8,2:2:0:0:
75,307,288681,6,0,B|132:294|132:294|169:311|169:311|246:293,1,165.000006294251,6|0,2:2|2:0,0:0:0:0:
111,133,289210,1,2,2:2:0:0:
111,133,289387,2,0,L|29:117,1,82.5000031471254,12|0,2:2|2:0,0:0:0:0:
174,228,289740,2,0,L|256:212,1,82.5000031471254,6|8,2:2|2:2,0:0:0:0:
393,124,290093,6,0,P|344:132|319:167,1,82.5000031471254,4|8,2:2|2:2,0:0:0:0:
385,280,290456,2,0,P|395:228|381:189,1,82.5000031471254,4|2,2:2|2:2,0:0:0:0:
164,257,290820,6,0,B|218:215|218:215|332:239,1,165.000006294251,12|6,2:2|2:2,0:0:0:0:
220,347,291338,1,8,2:2:0:0:
228,131,291514,6,0,L|231:15,1,107.249995090485,6|0,2:2|0:0,0:0:0:0:
140,75,291922,2,0,L|134:186,1,107.249995090485,6|0,2:2|0:0,0:0:0:0:
58,278,292356,2,0,L|168:256,1,107.249995090485,6|0,2:2|0:0,0:0:0:0:
272,360,292803,2,0,L|162:338,1,107.249995090485,6|0,2:2|0:0,0:0:0:0:
290,226,293225,6,0,L|363:218,1,71.4999967269899,6|0,2:2|2:0,0:0:0:0:
435,317,293679,2,0,L|362:309,1,71.4999967269899,8|0,2:2|0:0,0:0:0:0:
406,133,294170,6,0,L|456:143,2,47.6666644846599,8|2|2,2:2|2:2|2:2,0:0:0:0:
318,61,294674,2,0,L|265:73,2,47.6666644846599,2|2|2,2:2|2:2|2:2,0:0:0:0:
318,61,296043,6,0,B|271:62|245:97|245:97|210:64|153:74|153:74|132:120|165:166|165:166|125:188|117:245|117:245|157:285|204:269|204:269|224:320|262:333|262:333|310:300|313:261|313:261|365:258|399:225|399:225|381:179|335:177|335:177|331:157|321:148,1,861.300021027833,6|0,2:1|0:0,0:0:0:0:
255,192,302612,1,6,2:2:0:0:
256,192,302741,12,0,303775,0:0:0:0:
