osu file format v14

[General]
AudioFilename: audio.mp3
AudioLeadIn: 0
PreviewTime: 78757
Countdown: 1
SampleSet: Normal
StackLeniency: 0.7
Mode: 0
LetterboxInBreaks: 0
WidescreenStoryboard: 1

[Editor]
Bookmarks: 40820
DistanceSpacing: 1.1
BeatDivisor: 4
GridSize: 4
TimelineZoom: 2.1

[Metadata]
Title:Last words
TitleUnicode:Last words
Artist:Aitsuki Nakuru
ArtistUnicode:Aitsuki Nakuru
Creator:Pawlyk here
Version:Farewell
Source:
Tags:Imy 藍月なくる m3-39
BeatmapID:1533631
BeatmapSetID:726405

[Difficulty]
HPDrainRate:5
CircleSize:4.5
OverallDifficulty:8.5
ApproachRate:9.2
SliderMultiplier:1.6
SliderTickRate:1

[Events]
//Background and Video events
0,0,"bg.jpg",0,0
//Break Periods
2,59549,70073
2,195078,205603
//Storyboard Layer 0 (Background)
//Storyboard Layer 1 (Fail)
//Storyboard Layer 2 (Pass)
//Storyboard Layer 3 (Foreground)
//Storyboard Sound Samples

[TimingPoints]
2879,352.941176470588,4,1,1,30,1,0
2879,-133.333333333333,4,1,2,30,0,0
25467,-117.647058823529,4,1,1,60,0,0
30408,-100,4,1,1,50,0,0
31114,-117.647058823529,4,1,1,50,0,0
50878,-133.333333333333,4,1,1,50,0,0
53702,-117.647058823529,4,1,1,50,0,0
70643,-111.111111111111,4,1,1,50,0,0
78937,-111.111111111111,4,1,1,5,0,0
79114,-111.111111111111,4,1,1,55,0,1
90408,-111.111111111111,4,1,1,55,0,0
101702,-100,4,1,1,55,0,1
109820,-111.111111111111,4,1,1,55,0,1
113349,-100,4,1,1,55,0,1
113702,-111.111111111111,4,1,1,55,0,1
114408,-100,4,1,1,55,0,1
118643,-111.111111111111,4,1,1,55,0,0
121114,-100,4,1,1,55,0,0
121378,-111.111111111111,4,1,1,55,0,0
127114,-90.9090909090909,4,1,1,55,0,0
127820,-111.111111111111,4,1,1,55,0,0
128349,-100,4,1,1,55,0,0
129937,-90.9090909090909,4,1,1,55,0,0
135584,-111.111111111111,4,1,1,55,0,0
140790,-100,4,1,1,55,0,0
141055,-111.111111111111,4,1,1,55,0,0
149702,-90.9090909090908,4,1,1,55,0,0
150055,-100,4,1,1,55,0,0
155349,-105.263157894737,4,1,1,55,0,1
166643,-105.263157894737,4,1,1,55,0,0
168937,-100,4,1,1,55,0,1
169202,-111.111111111111,4,1,1,55,0,0
177937,-95.2380952380952,4,1,1,55,0,1
178643,-100,4,1,1,55,0,1
189584,-90.9090909090909,4,1,1,55,0,1
189761,-100,4,1,1,55,0,1
194878,-100,4,1,1,55,0,0
206173,-111.111111111111,4,1,1,55,0,0
208996,-100,4,1,1,55,0,0
211820,-90.9090909090909,4,1,1,55,0,0
214643,-133.333333333333,4,1,1,55,0,0
220996,-200,4,1,1,55,0,0
221702,-166.666666666667,4,1,1,65,0,0
225937,-133.333333333333,4,1,1,65,0,0
226290,-166.666666666667,4,1,1,65,0,0
228761,-100,4,1,1,55,0,0
229996,-83.3333333333333,4,1,1,55,0,0
230084,-100,4,1,1,55,0,0
231584,-111.111111111111,4,1,1,55,0,1
245173,-100,4,1,1,55,0,1
245437,-111.111111111111,4,1,1,55,0,1
254173,-90.9090909090909,4,1,1,55,0,1
271114,-111.111111111111,4,1,1,55,0,0
284878,-90.9090909090909,4,1,1,55,0,0
285408,-111.111111111111,4,1,1,55,0,0
288055,-90.9090909090909,4,1,1,55,0,0
289290,-111.111111111111,4,1,1,55,0,0
292290,-111.111111111111,4,1,2,55,0,0
293790,-111.111111111111,4,1,1,55,0,0
295114,-111.111111111111,4,1,1,45,0,0
296526,-111.111111111111,4,1,1,35,0,0
297937,-111.111111111111,4,1,1,25,0,0
300673,-111.111111111111,4,1,1,5,0,0

[Colours]
Combo1 : 255,255,255
Combo2 : 0,113,225
Combo3 : 37,185,239

[HitObjects]
256,192,55,12,0,2879,0:0:0:0:
232,256,3584,6,0,P|292:244|364:260,1,120.000004577637
412,312,4114,1,0,0:0:0:0:
436,232,4290,2,0,B|428:200|408:188|408:188|412:156|408:108,1,120.000004577637
316,44,4820,2,0,P|336:96|312:168,1,120.000004577637
244,104,5349,1,0,0:0:0:0:
172,164,5526,1,0,0:0:0:0:
172,164,5614,1,0,0:0:0:0:
172,164,5702,2,0,P|152:112|176:40,1,120.000004577637
300,264,6408,2,0,B|320:213|320:213|280:216|252:188,1,120.000004577637
156,172,6937,2,0,L|156:224,1,30.0000011444092
190,269,7114,2,0,P|246:245|310:273,1,120.000004577637,2|0,0:0|0:0,0:0:0:0:
360,332,7643,2,0,P|416:309|442:244,1,120.000004577637,2|0,0:0|0:0,0:0:0:0:
376,216,8173,2,0,P|342:229|326:268,1,60.0000022888184,2|0,0:0|0:0,0:0:0:0:
260,264,8437,1,0,0:0:0:0:
260,264,8526,6,0,B|240:220|260:188|260:188|260:160|236:136,1,120.000004577637,6|0,0:0|0:0,0:0:0:0:
76,120,9231,2,0,P|124:148|188:128,1,120.000004577637
256,84,9761,1,0,0:0:0:0:
344,132,9937,2,0,P|356:72|316:8,1,120.000004577637
280,148,10467,2,0,B|288:184|320:196|320:196|340:220|320:272,1,120.000004577637
420,244,10996,1,0,0:0:0:0:
344,328,11173,1,0,0:0:0:0:
344,328,11261,1,0,0:0:0:0:
344,328,11349,6,0,P|288:320|248:256,1,120.000004577637,2|0,0:0|0:0,0:0:0:0:
116,248,12055,2,0,P|128:188|128:128,1,120.000004577637
0,92,12584,2,0,P|24:104|76:96,1,60.0000022888184
202,52,12937,2,0,P|147:75|130:144,1,120.000004577637
240,236,13467,1,2,0:0:0:0:
284,156,13643,1,2,0:0:0:0:
364,196,13820,1,2,0:0:0:0:
444,236,13996,2,0,L|484:228,1,30.0000011444092,2|0,0:0|0:0,0:0:0:0:
448,160,14173,6,0,P|412:116|332:116,1,120.000004577637,6|0,0:0|0:0,0:0:0:0:
304,276,14878,2,0,L|440:308,1,120.000004577637
360,372,15408,1,0,0:0:0:0:
276,344,15584,2,0,P|220:332|160:368,1,120.000004577637
76,368,16114,2,0,B|52:316|108:288|76:236,1,120.000004577637
108,112,16820,2,0,L|64:116,1,30.0000011444092
64,88,16996,6,0,P|128:72|192:100,1,120.000004577637,2|0,0:0|0:0,0:0:0:0:
244,136,17702,2,0,P|260:78|232:26,1,120.000004577637
238,207,18231,2,0,B|193:215|173:163|173:163|111:151|95:211,1,180.000006866455
238,207,19114,1,0,0:0:0:0:
152,344,19467,2,0,P|192:348|228:336,1,60.0000022888184
236,272,19731,1,0,0:0:0:0:
236,272,19820,6,0,B|224:236|240:208|240:208|256:180|232:144,1,120.000004577637,2|0,0:0|0:0,0:0:0:0:
360,120,20526,2,0,B|400:112|436:128|436:128|488:104,1,120.000004577637
354,227,21055,2,0,P|334:171|366:114,1,120.000004577637
432,184,21584,1,2,0:0:0:0:
428,276,21761,1,2,0:0:0:0:
348,232,21937,1,2,0:0:0:0:
272,280,22114,1,0,0:0:0:0:
304,364,22290,2,0,L|396:360,1,90.0000034332277,2|0,0:0|0:0,0:0:0:0:
304,364,22643,6,0,B|280:300|340:260|340:260|360:284|404:288,1,180.000006866455,14|0,0:0|0:0,0:0:0:0:
396,208,23349,1,0,0:0:0:0:
288,216,23526,2,0,P|264:236|244:264,2,60.0000022888184,0|0|8,0:0|0:0|0:0,0:0:0:0:
208,156,24055,1,0,0:0:0:0:
88,128,25467,6,0,P|136:172|208:160,1,136.000002593994,6|2,0:0|0:0,0:0:0:0:
276,104,25996,1,2,0:0:0:0:
360,148,26173,2,0,B|404:172|404:172|440:132|496:144,1,136.000002593994,10|2,0:0|0:0,0:0:0:0:
360,148,26702,2,0,P|346:108|344:64,2,68.0000012969971,0|0|2,0:0|0:0|0:0,0:0:0:0:
464,220,27231,1,2,0:0:0:0:
300,256,27584,1,10,0:0:0:0:
220,188,27761,1,0,0:0:0:0:
180,300,27937,6,0,B|148:284|112:292|112:292|136:244|72:168,1,204.000003890991,6|2,0:0|0:0,0:0:0:0:
64,344,28643,2,0,B|92:380|144:360|144:360|176:380|204:376,1,136.000002593994,2|8,0:0|0:0,0:0:0:0:
392,276,29349,1,2,0:0:0:0:
320,336,29526,1,0,0:0:0:0:
320,336,29702,1,0,0:0:0:0:
260,256,29878,2,0,P|220:240|136:252,1,102.000001945496,2|0,0:0|0:0,0:0:0:0:
64,284,30231,1,2,0:0:0:0:
100,176,30408,2,0,L|92:120,1,40,10|0,0:0|0:0,0:0:0:0:
128,324,30584,2,0,P|52:360|-4:320,1,160,6|8,0:0|0:0,0:0:0:0:
128,324,31114,6,0,P|148:244|120:176,1,136.000002593994,14|2,0:0|0:0,0:0:0:0:
192,112,31643,1,2,0:0:0:0:
276,184,31820,2,0,L|376:176,1,68.0000012969971,8|0,0:0|0:0,0:0:0:0:
424,108,32173,2,0,L|324:100,1,68.0000012969971,2|0,0:0|0:0,0:0:0:0:
260,20,32526,1,0,0:0:0:0:
184,76,32702,1,2,0:0:0:0:
96,20,32878,2,0,B|60:32|48:52|48:52|28:44|-4:48,1,102.000001945496,2|0,0:0|0:0,0:0:0:0:
0,116,33231,2,0,P|52:172|120:152,1,136.000002593994,8|0,0:0|0:0,0:0:0:0:
184,76,33761,1,2,0:0:0:0:
280,124,33937,6,0,P|320:88|276:104,1,136.000002593994,6|2,0:0|0:0,0:0:0:0:
220,164,34467,1,2,0:0:0:0:
320,200,34643,2,0,P|356:188|388:148,1,68.0000012969971,8|0,0:0|0:0,0:0:0:0:
468,72,34996,2,0,L|464:168,1,68.0000012969971,2|10,0:0|0:0,0:0:0:0:
464,284,35349,1,2,0:0:0:0:
396,220,35526,1,2,0:0:0:0:
348,308,35702,1,8,0:0:0:0:
304,204,35878,1,2,0:0:0:0:
304,204,35967,1,0,0:0:0:0:
304,204,36055,5,8,0:0:0:0:
252,332,36231,1,2,0:0:0:0:
196,228,36408,1,10,0:0:0:0:
119,282,36584,1,0,0:0:0:0:
202,355,36761,6,0,P|262:349|342:354,1,136.000002593994,6|2,0:0|0:0,0:0:0:0:
202,355,37290,1,2,0:0:0:0:
202,355,37467,2,0,P|179:294|229:242,1,136.000002593994,8|0,0:0|0:0,0:0:0:0:
244,304,37996,2,0,B|186:315|186:315|157:286|102:303,1,136.000002593994,2|0,0:0|0:0,0:0:0:0:
38,329,38526,5,2,0:0:0:0:
108,200,38878,2,0,P|146:183|163:154,1,68.0000012969971,8|0,0:0|0:0,0:0:0:0:
39,94,39231,2,0,P|59:120|91:131,1,68.0000012969971
160,84,39496,1,0,0:0:0:0:
160,84,39584,6,0,B|211:70|211:70|254:94|316:70,1,136.000002593994,6|2,0:0|0:0,0:0:0:0:
400,52,40114,1,2,0:0:0:0:
416,116,40290,2,0,P|460:82|432:-4,1,136.000002593994,8|0,0:0|0:0,0:0:0:0:
360,120,40820,2,0,B|416:116|416:116|508:168,1,136.000002593994,2|0,0:0|0:0,0:0:0:0:
449,9,41349,5,2,0:0:0:0:
492,156,41702,1,12,0:0:0:0:
248,124,42055,1,0,0:0:0:0:
344,112,42231,1,0,0:0:0:0:
288,36,42408,6,0,B|244:20|216:36|216:36|176:48|128:28,1,136.000002593994,2|2,0:0|0:0,0:0:0:0:
108,120,42937,1,2,0:0:0:0:
52,40,43114,1,8,0:0:0:0:
198,132,43467,5,0,0:0:0:0:
137,205,43643,1,2,0:0:0:0:
42,194,43820,1,0,0:0:0:0:
10,104,43996,1,0,0:0:0:0:
100,124,44173,6,0,P|142:140|201:128,1,102.000001945496,2|0,0:0|0:0,0:0:0:0:
248,72,44526,2,0,P|275:129|232:200,1,136.000002593994,10|0,0:0|0:0,0:0:0:0:
208,284,45055,1,2,0:0:0:0:
316,260,45231,6,0,B|360:256|360:256|380:288|436:296|468:264,1,136.000002593994,4|2,0:0|0:0,0:0:0:0:
416,212,45761,1,2,0:0:0:0:
316,260,45937,2,0,P|304:192|336:132,1,136.000002593994,8|0,0:0|0:0,0:0:0:0:
396,64,46467,1,2,0:0:0:0:
460,144,46643,6,0,P|420:152|372:136,1,68.0000012969971
316,80,46996,1,2,0:0:0:0:
260,216,47173,2,0,P|248:184|250:150,1,68.0000012969971,0|8,0:0|0:0,0:0:0:0:
248,24,47526,1,8,0:0:0:0:
249,150,47702,1,8,0:0:0:0:
152,240,47878,1,0,0:0:0:0:
60,152,48055,6,0,L|36:8,1,136.000002593994,14|2,0:0|0:0,0:0:0:0:
60,152,48584,1,2,0:0:0:0:
60,152,48761,2,0,B|112:152|112:152|124:200|180:208,1,136.000002593994,8|0,0:0|0:0,0:0:0:0:
12,216,49290,2,0,P|-20:168|8:92,1,136.000002593994,2|0,0:0|0:0,0:0:0:0:
96,84,49820,5,2,0:0:0:0:
180,216,50173,1,8,0:0:0:0:
311,66,50526,1,0,0:0:0:0:
400,104,50702,1,0,0:0:0:0:
333,176,50878,6,0,P|304:128|320:52,1,120.000004577637,14|0,0:0|0:0,0:0:0:0:
248,172,51408,1,2,0:0:0:0:
304,240,51584,2,0,P|336:248|380:232,1,60.0000022888184,10|0,0:0|0:0,0:0:0:0:
256,288,51937,2,0,L|168:288,1,60.0000022888184,0|2,0:0|0:0,0:0:0:0:
112,320,52290,5,4,0:0:0:0:
112,320,52467,2,0,B|112:296|112:296|92:264|112:232|112:232|108:184,1,120.000004577637,8|0,0:0|0:0,0:0:0:0:
168,96,52996,1,8,0:0:0:0:
168,96,53173,1,0,0:0:0:0:
248,156,53349,1,10,0:0:0:0:
148,192,53526,1,10,0:0:0:0:
256,80,53702,6,0,P|312:64|384:96,1,136.000002593994,14|2,0:0|0:0,0:0:0:0:
428,180,54231,1,2,0:0:0:0:
500,112,54408,2,0,P|508:72|496:20,2,68.0000012969971,8|0|0,0:0|0:0|0:0,0:0:0:0:
468,236,54937,2,0,P|400:244|360:188,1,136.000002593994,2|0,0:0|0:0,0:0:0:0:
381,93,55467,5,2,0:0:0:0:
252,192,55820,1,10,0:0:0:0:
468,236,56173,1,0,0:0:0:0:
432,332,56349,1,0,0:0:0:0:
352,276,56526,6,0,B|304:260|304:260|264:288|196:264,1,136.000002593994,6|2,0:0|0:0,0:0:0:0:
252,192,57055,1,0,0:0:0:0:
376,216,57231,2,0,P|416:260|392:324,1,102.000001945496,8|0,0:0|0:0,0:0:0:0:
352,276,57584,2,0,L|348:192,1,68.0000012969971,8|2,0:0|0:0,0:0:0:0:
348,132,57849,1,0,0:0:0:0:
348,132,57937,1,0,0:0:0:0:
252,192,58114,1,2,0:0:0:0:
164,120,58290,1,10,0:0:0:0:
248,32,58467,6,0,L|284:28,2,34.0000006484985,2|0|0,0:0|0:0|0:0,0:0:0:0:
124,56,58820,1,10,0:0:0:0:
276,108,58996,1,2,0:0:0:0:
128,184,59173,1,0,0:0:0:0:
284,256,59349,5,14,0:0:0:0:
247,299,70643,6,0,P|291:302|327:291,1,71.9999978027344,6|0,0:0|0:0,0:0:0:0:
364,252,70996,2,0,P|315:248|280:260,1,71.9999978027344,10|0,0:0|0:0,0:0:0:0:
212,362,71349,2,0,L|260:278,1,71.9999978027344,2|0,0:0|0:0,0:0:0:0:
348,164,71702,1,10,0:0:0:0:
293,253,71878,1,0,0:0:0:0:
196,200,72055,6,0,P|183:166|181:130,1,71.9999978027344,14|0,0:0|0:0,0:0:0:0:
212,44,72408,2,0,P|220:80|212:124,1,71.9999978027344,2|0,0:0|0:0,0:0:0:0:
136,240,72761,2,0,L|195:199,1,71.9999978027344,10|0,0:0|0:0,0:0:0:0:
284,136,73114,1,10,0:0:0:0:
344,264,73290,1,0,0:0:0:0:
344,264,73378,1,0,0:0:0:0:
344,264,73467,6,0,B|384:272|384:272|424:224|492:268,1,143.999995605469,14|10,0:0|0:0,0:0:0:0:
436,312,73996,1,8,0:0:0:0:
360,204,74173,5,8,0:0:0:0:
288,328,74349,1,0,0:0:0:0:
432,312,74526,5,10,0:0:0:0:
276,224,74702,1,0,0:0:0:0:
416,136,74878,5,10,0:0:0:0:
360,304,75055,1,0,0:0:0:0:
228,168,75231,1,10,0:0:0:0:
392,228,75408,1,0,0:0:0:0:
208,248,75584,5,10,0:0:0:0:
316,100,75761,1,0,0:0:0:0:
268,276,75937,1,10,0:0:0:0:
152,124,76114,1,0,0:0:0:0:
92,308,76290,1,14,0:0:0:0:
256,192,76378,12,0,77526,0:0:0:0:
328,272,77702,5,10,0:0:0:0:
160,160,77878,1,14,0:0:0:0:
416,232,79114,6,0,B|416:200|400:168|400:168|432:120|384:68,1,143.999995605469,6|2,0:0|0:0,0:0:0:0:
340,192,79643,1,2,0:0:0:0:
248,120,79820,2,0,P|172:120|100:156,1,143.999995605469,8|2,0:0|0:0,0:0:0:0:
236,204,80349,2,0,P|268:204|316:168,2,71.9999978027344,2|0|2,0:0|0:0|0:0,0:0:0:0:
196,312,80878,1,2,0:0:0:0:
376,192,81231,1,10,0:0:0:0:
304,104,81408,1,0,0:0:0:0:
420,12,81584,6,0,P|432:72|352:112,1,143.999995605469,12|0,0:0|0:0,0:0:0:0:
288,48,82114,1,2,0:0:0:0:
220,132,82290,2,0,L|56:112,2,143.999995605469,2|8|2,0:0|0:0|0:0,0:0:0:0:
336,248,83173,1,0,0:0:0:0:
428,192,83349,2,0,P|435:147|424:100,1,71.9999978027344,2|2,0:0|0:0,0:0:0:0:
260,224,83702,5,2,0:0:0:0:
300,316,83878,1,0,0:0:0:0:
400,308,84055,1,8,0:0:0:0:
480,216,84231,1,2,0:0:0:0:
348,172,84408,1,0,0:0:0:0:
456,280,84584,1,8,0:0:0:0:
512,120,84761,6,0,B|468:100|424:128|424:128|375:132|352:96,1,143.999995605469,6|2,0:0|0:0,0:0:0:0:
374,117,85290,1,2,0:0:0:0:
304,277,85467,2,0,P|345:238|320:153,1,143.999995605469,8|0,0:0|0:0,0:0:0:0:
208,96,85996,1,8,0:0:0:0:
124,184,86173,2,0,L|40:180,1,71.9999978027344
216,36,86526,5,2,0:0:0:0:
284,156,86702,1,0,0:0:0:0:
140,108,86878,1,8,0:0:0:0:
280,80,87055,1,2,0:0:0:0:
224,212,87231,1,0,0:0:0:0:
196,72,87408,1,2,0:0:0:0:
300,172,87584,6,0,P|372:184|428:140,1,143.999995605469,6|2,0:0|0:0,0:0:0:0:
500,72,88114,1,2,0:0:0:0:
481,215,88290,2,0,B|482:247|449:271|449:271|423:251|412:224,1,107.999996704102,8|0,0:0|0:0,0:0:0:0:
424,212,88643,2,0,P|432:172|416:132,1,71.9999978027344,2|8,0:0|0:0,0:0:0:0:
268,172,88996,2,0,P|320:184|360:172,1,71.9999978027344,0|2,0:0|0:0,0:0:0:0:
384,312,89349,5,8,0:0:0:0:
236,256,89526,1,2,0:0:0:0:
236,256,89614,1,0,0:0:0:0:
236,256,89702,1,8,0:0:0:0:
328,216,89878,1,8,0:0:0:0:
288,316,90055,1,0,0:0:0:0:
204,188,90231,1,8,0:0:0:0:
344,280,90408,5,6,0:0:0:0:
344,280,90584,1,2,0:0:0:0:
184,328,90761,1,6,0:0:0:0:
340,276,90937,1,2,0:0:0:0:
184,328,91114,1,12,0:0:0:0:
252,160,91467,5,6,0:0:0:0:
252,160,91643,1,2,0:0:0:0:
88,220,91820,1,6,0:0:0:0:
252,160,91996,1,2,0:0:0:0:
252,160,92349,5,2,0:0:0:0:
88,104,92526,1,10,0:0:0:0:
168,256,92702,2,0,P|160:192|172:132,1,107.999996704102,6|0,0:0|0:0,0:0:0:0:
224,84,93055,1,2,0:0:0:0:
308,240,93231,5,14,0:0:0:0:
308,240,93408,1,2,0:0:0:0:
166,149,93584,1,6,0:0:0:0:
340,172,93761,1,2,0:0:0:0:
166,149,93937,1,12,0:0:0:0:
336,64,94290,5,12,0:0:0:0:
336,64,94467,1,2,0:0:0:0:
184,56,94643,1,10,0:0:0:0:
292,156,94820,2,0,P|352:168|416:140,1,107.999996704102,14|0,0:0|0:0,0:0:0:0:
460,112,95173,1,2,0:0:0:0:
336,64,95349,5,14,0:0:0:0:
296,196,95526,1,2,0:0:0:0:
296,196,95702,1,0,0:0:0:0:
440,204,95878,1,8,0:0:0:0:
352,232,96055,6,0,B|344:276|368:300|368:300|384:273|384:260,1,107.999996704102,6|0,0:0|0:0,0:0:0:0:
376,232,96408,2,0,P|368:180|380:144,1,71.9999978027344,2|2,0:0|0:0,0:0:0:0:
432,352,96761,2,2,P|376:384|300:328,1,143.999995605469,8|0,0:0|0:0,0:0:0:0:
260,152,97290,1,10,0:0:0:0:
224,320,97643,5,2,0:0:0:0:
328,192,97820,1,2,0:0:0:0:
152,264,98173,5,8,0:0:0:0:
260,152,98349,1,2,0:0:0:0:
108,128,98526,1,0,0:0:0:0:
204,52,98702,1,2,0:0:0:0:
220,212,98878,6,0,P|296:212|332:148,1,143.999995605469,14|10,0:0|0:0,0:0:0:0:
400,80,99408,1,8,0:0:0:0:
288,100,99584,1,10,0:0:0:0:
404,192,99761,1,2,0:0:0:0:
328,36,99937,1,10,0:0:0:0:
236,204,100114,1,2,0:0:0:0:
160,76,100290,6,0,L|156:-20,1,71.9999978027344,14|0,0:0|0:0,0:0:0:0:
88,88,100555,1,0,0:0:0:0:
104,120,100643,1,10,0:0:0:0:
132,144,100731,1,0,0:0:0:0:
168,148,100820,1,2,0:0:0:0:
200,136,100908,1,0,0:0:0:0:
244,116,100996,5,6,0:0:0:0:
300,120,101084,1,0,0:0:0:0:
332,168,101173,1,0,0:0:0:0:
320,224,101261,1,0,0:0:0:0:
268,252,101349,5,10,0:0:0:0:
200,236,101437,1,8,0:0:0:0:
140,268,101526,1,10,0:0:0:0:
128,336,101614,1,8,0:0:0:0:
180,380,101702,6,0,L|272:380,1,80,14|2,0:0|0:0,0:0:0:0:
420,288,102055,1,8,0:0:0:0:
420,288,102231,1,0,0:0:0:0:
292,320,102408,2,0,P|284:280|296:240,1,80,0|2,0:0|0:0,0:0:0:0:
444,184,102761,2,0,P|408:204|360:200,1,80,8|2,0:0|0:0,0:0:0:0:
240,108,103114,2,0,P|276:124|332:116,1,80,0|2,0:0|0:0,0:0:0:0:
160,16,103467,6,0,L|160:96,1,80,8|0,0:0|0:0,0:0:0:0:
176,240,103820,1,2,0:0:0:0:
240,108,103996,1,2,0:0:0:0:
84,128,104173,2,0,P|44:112|0:64,2,80,12|0|2,0:0|0:0|0:0,0:0:0:0:
116,272,104702,1,2,0:0:0:0:
236,184,104878,2,0,P|245:134|232:92,1,80,8|0,0:0|0:0,0:0:0:0:
96,24,105231,5,2,0:0:0:0:
108,192,105408,1,2,0:0:0:0:
192,40,105584,2,0,P|236:28|300:52,1,80,0|2,0:0|0:0,0:0:0:0:
344,232,105937,1,0,0:0:0:0:
244,112,106114,1,2,0:0:0:0:
144,232,106290,1,8,0:0:0:0:
244,112,106467,1,0,0:0:0:0:
252,292,106643,5,2,0:0:0:0:
148,160,106820,1,2,0:0:0:0:
336,160,106996,1,8,0:0:0:0:
192,40,107173,1,0,0:0:0:0:
144,232,107349,6,0,P|110:243|68:232,1,80,14|0,0:0|0:0,0:0:0:0:
232,280,107702,2,0,P|245:313|236:364,1,80,2|0,0:0|0:0,0:0:0:0:
8,364,108055,2,0,P|-5:331|0:288,1,80,2|0,0:0|0:0,0:0:0:0:
108,172,108408,2,0,L|108:88,1,80,10|0,0:0|0:0,0:0:0:0:
212,224,108673,1,0,0:0:0:0:
212,224,108761,6,0,P|252:235|316:199,1,120,6|0,0:0|0:0,0:0:0:0:
264,84,109114,2,0,P|248:124|252:164,1,80,8|0,0:0|0:0,0:0:0:0:
352,264,109467,1,2,0:0:0:0:
208,224,109643,1,0,0:0:0:0:
332,128,109820,2,0,B|372:120|392:132|392:132|416:124|464:128,1,107.999996704102,8|0,0:0|0:0,0:0:0:0:
476,152,110173,5,6,0:0:0:0:
388,236,110349,1,0,0:0:0:0:
268,216,110526,1,8,0:0:0:0:
236,96,110702,1,0,0:0:0:0:
320,276,110878,2,0,P|260:296|200:268,1,107.999996704102,2|0,0:0|0:0,0:0:0:0:
160,148,111231,5,0,0:0:0:0:
160,148,111408,1,8,0:0:0:0:
300,160,111584,1,0,0:0:0:0:
124,252,111761,1,2,0:0:0:0:
124,252,111937,1,8,0:0:0:0:
320,276,112114,1,2,0:0:0:0:
144,328,112290,5,8,0:0:0:0:
248,160,112467,1,10,0:0:0:0:
296,154,112555,1,0,0:0:0:0:
340,182,112643,1,0,0:0:0:0:
353,234,112731,1,0,0:0:0:0:
328,277,112820,1,0,0:0:0:0:
296,309,112908,1,0,0:0:0:0:
300,357,112996,6,0,L|392:377,1,71.9999978027344,6|0,0:0|0:0,0:0:0:0:
512,260,113349,2,0,L|424:276,1,80,12|0,0:0|0:0,0:0:0:0:
248,160,113702,2,0,L|324:168,1,71.9999978027344,6|2,0:0|0:0,0:0:0:0:
500,132,114055,1,12,0:0:0:0:
420,240,114231,1,2,0:0:0:0:
316,104,114408,6,0,P|312:60|328:20,1,80,12|2,0:0|0:0,0:0:0:0:
320,264,114761,2,0,P|323:302|303:358,1,80,12|2,0:0|0:0,0:0:0:0:
428,168,115114,2,0,P|464:144|524:132,1,80,12|2,0:0|0:0,0:0:0:0:
216,188,115467,2,0,P|184:164|184:84,1,120,12|0,2:0|2:0,2:0:0:0:
261,243,115820,6,0,B|221:267|181:247|181:247|229:227|213:175,1,160,14|8,0:0|0:0,0:0:0:0:
304,132,116349,1,8,0:0:0:0:
184,88,116526,1,8,0:0:0:0:
296,24,116702,1,2,0:0:0:0:
215,187,116878,1,8,0:0:0:0:
100,56,117055,1,2,0:0:0:0:
56,232,117231,6,0,L|64:332,1,80,12|2,0:0|0:0,0:0:0:0:
160,144,117584,1,10,0:0:0:0:
192,124,117673,1,8,0:0:0:0:
232,124,117761,1,8,0:0:0:0:
268,140,117849,1,0,0:0:0:0:
292,188,117937,1,10,0:0:0:0:
344,208,118026,1,0,0:0:0:0:
396,192,118114,1,10,0:0:0:0:
424,144,118202,1,0,0:0:0:0:
408,92,118290,1,0,0:0:0:0:
360,64,118378,1,0,0:0:0:0:
320,100,118467,1,10,0:0:0:0:
268,112,118555,1,0,0:0:0:0:
224,104,118643,5,6,0:0:0:0:
92,52,118820,1,0,0:0:0:0:
248,0,118996,1,8,0:0:0:0:
224,164,119173,1,0,0:0:0:0:
168,0,119349,1,2,0:0:0:0:
312,88,119526,1,2,0:0:0:0:
164,176,119702,5,0,0:0:0:0:
292,16,119878,2,0,P|327:14|364:32,1,71.9999978027344,10|0,0:0|0:0,0:0:0:0:
464,136,120231,1,2,0:0:0:0:
340,220,120408,2,0,P|332:180|344:128,1,71.9999978027344,8|0,0:0|0:0,0:0:0:0:
436,40,120761,1,2,0:0:0:0:
460,184,120937,1,2,0:0:0:0:
376,88,121114,2,0,P|332:80|284:104,1,80,8|0,0:0|0:0,0:0:0:0:
316,292,121467,6,0,B|363:299|395:271|395:271|455:283,1,143.999995605469,6|8,0:0|0:0,0:0:0:0:
232,320,121996,1,0,0:0:0:0:
232,320,122084,1,0,0:0:0:0:
232,320,122173,2,0,P|228:280|240:240,2,71.9999978027344,2|2|0,0:0|0:0|0:0,0:0:0:0:
372,224,122702,2,0,B|392:196|396:164|373:125|373:125|353:133|321:129,1,143.999995605469,8|2,0:0|0:0,0:0:0:0:
172,136,123231,5,8,0:0:0:0:
335,130,123408,1,2,0:0:0:0:
196,204,123584,1,8,0:0:0:0:
156,208,123673,1,0,0:0:0:0:
120,192,123761,1,8,0:0:0:0:
104,156,123849,1,0,0:0:0:0:
104,116,123937,2,0,B|108:24,1,71.9999978027344
72,256,124290,6,0,B|116:276|164:252|164:252|184:272|180:308,1,143.999995605469,12|2,0:0|0:0,0:0:0:0:
276,352,124820,2,0,P|287:308|283:272,1,71.9999978027344,0|2,2:0|2:0,2:0:0:0:
472,228,125173,1,0,0:0:0:0:
332,172,125349,1,8,0:0:0:0:
332,172,125526,1,0,0:0:0:0:
428,292,125702,1,2,0:0:0:0:
500,152,125878,1,0,0:0:0:0:
500,152,125967,1,0,0:0:0:0:
500,152,126055,5,8,0:0:0:0:
428,292,126231,1,0,0:0:0:0:
332,172,126408,1,2,0:0:0:0:
408,104,126584,1,0,0:0:0:0:
352,256,126761,1,8,0:0:0:0:
252,120,126937,1,0,0:0:0:0:
352,256,127114,6,0,B|347:247|371:292|371:292|419:268|420:216|384:200|359:196,1,176.000005371094,6|8,0:0|0:0,0:0:0:0:
252,120,127643,1,0,0:0:0:0:
282,249,127820,2,0,P|322:261|375:242,1,71.9999978027344,10|0,0:0|0:0,0:0:0:0:
356,120,128173,1,0,0:0:0:0:
344,344,128349,2,0,B|376:360|404:348|404:348|448:320|476:332|476:332|476:356|440:352,1,160,12|2,0:0|0:0,0:0:0:0:
367,196,128878,6,0,P|351:152|368:96,1,80,8|2,0:0|0:0,0:0:0:0:
282,249,129231,1,8,0:0:0:0:
246,221,129320,1,8,0:0:0:0:
202,213,129408,1,8,0:0:0:0:
158,221,129496,1,8,0:0:0:0:
122,245,129584,1,8,0:0:0:0:
74,237,129673,1,0,0:0:0:0:
46,197,129761,1,8,0:0:0:0:
46,149,129849,1,0,0:0:0:0:
84,116,129937,6,0,L|192:104,1,88.000002685547,6|0,0:0|0:0,0:0:0:0:
336,72,130290,2,0,L|248:60,1,88.000002685547,8|0,0:0|0:0,0:0:0:0:
152,228,130643,2,0,P|208:168|208:140,1,88.000002685547,10|2,0:0|0:0,0:0:0:0:
63,30,130996,2,0,L|87:130,1,88.000002685547,10|2,0:0|0:0,0:0:0:0:
144,300,131349,5,8,0:0:0:0:
272,180,131526,1,0,0:0:0:0:
96,192,131702,1,8,0:0:0:0:
236,72,131878,1,0,0:0:0:0:
176,248,132055,1,8,0:0:0:0:
32,124,132231,1,2,0:0:0:0:
176,248,132408,1,8,0:0:0:0:
0,324,132584,1,2,0:0:0:0:
188,336,132761,6,0,B|222:336|242:316|242:316|270:336|318:328|334:278,1,176.000005371094,6|8,0:0|0:0,0:0:0:0:
284,128,133290,1,8,0:0:0:0:
452,76,133467,1,10,0:0:0:0:
272,24,133643,1,2,0:0:0:0:
356,200,133820,1,10,0:0:0:0:
344,4,133996,1,2,0:0:0:0:
220,144,134173,6,0,P|180:156|108:132,1,88.000002685547,14|0,0:0|0:0,0:0:0:0:
284,100,134437,1,8,0:0:0:0:
300,136,134526,1,8,0:0:0:0:
292,176,134614,1,8,0:0:0:0:
268,208,134702,1,8,0:0:0:0:
224,216,134790,1,0,0:0:0:0:
176,204,134878,1,8,0:0:0:0:
132,232,134967,1,0,0:0:0:0:
120,288,135055,1,0,0:0:0:0:
148,332,135143,1,0,0:0:0:0:
200,344,135231,1,8,0:0:0:0:
244,328,135320,1,0,0:0:0:0:
292,324,135408,1,0,0:0:0:0:
336,344,135496,1,0,0:0:0:0:
376,348,135584,6,0,B|392:312|380:280|380:280|364:248|380:196,1,143.999995605469,6|2,0:0|0:0,0:0:0:0:
448,344,136114,2,0,B|460:308|448:276|448:276|432:244|448:196,1,143.999995605469,6|2,0:0|0:0,0:0:0:0:
376,207,136555,1,2,0:0:0:0:
340,200,136643,2,0,P|300:144|332:76,1,143.999995605469,14|0,0:0|0:0,0:0:0:0:
448,56,137173,1,8,0:0:0:0:
436,193,137349,5,0,0:0:0:0:
332,88,137526,1,2,0:0:0:0:
332,88,137614,1,2,0:0:0:0:
332,88,137702,1,8,0:0:0:0:
476,120,137878,1,2,0:0:0:0:
352,24,138055,1,8,0:0:0:0:
336,204,138231,1,0,0:0:0:0:
232,88,138408,6,0,P|224:52|252:-4,1,71.9999978027344,6|0,0:0|0:0,0:0:0:0:
336,204,138761,1,2,0:0:0:0:
188,232,138937,2,0,P|152:244|100:232,1,71.9999978027344,8|0,0:0|0:0,0:0:0:0:
80,96,139290,1,2,0:0:0:0:
80,96,139378,1,2,0:0:0:0:
80,96,139467,2,0,P|152:104|184:24,1,143.999995605469,12|0,0:0|0:0,0:0:0:0:
176,232,139996,1,10,0:0:0:0:
252,128,140173,5,0,0:0:0:0:
352,224,140349,1,2,0:0:0:0:
352,224,140437,1,2,0:0:0:0:
352,224,140526,2,0,L|440:208,1,71.9999978027344,8|0,0:0|0:0,0:0:0:0:
452,96,140790,2,0,L|472:180,1,80,8|0,0:0|0:0,0:0:0:0:
396,280,141055,1,8,0:0:0:0:
512,220,141231,5,2,0:0:0:0:
352,224,141408,1,0,0:0:0:0:
408,72,141584,1,2,0:0:0:0:
280,144,141761,2,0,P|240:152|188:136,1,71.9999978027344,8|0,0:0|0:0,0:0:0:0:
80,88,142114,1,2,0:0:0:0:
80,88,142202,1,2,0:0:0:0:
80,88,142290,2,0,P|139:68|100:-8,1,143.999995605469,8|0,0:0|0:0,0:0:0:0:
80,168,142820,6,0,P|112:172|156:156,1,71.9999978027344,8|0,0:0|0:0,0:0:0:0:
270,58,143173,1,2,0:0:0:0:
270,58,143261,1,2,0:0:0:0:
270,58,143349,2,0,L|246:146,1,71.9999978027344,8|2,0:0|0:0,0:0:0:0:
248,256,143702,1,8,0:0:0:0:
149,160,143878,1,2,0:0:0:0:
124,348,144055,6,0,L|144:252,1,71.9999978027344,6|0,0:0|0:0,0:0:0:0:
216,160,144408,1,2,0:0:0:0:
204,328,144584,1,8,0:0:0:0:
80,228,144761,1,0,0:0:0:0:
248,256,144937,2,0,L|304:248,1,35.9999989013672,2|0,0:0|0:0,0:0:0:0:
328,160,145114,2,0,L|228:176,1,71.9999978027344,8|0,0:0|0:0,0:0:0:0:
188,160,145378,1,0,0:0:0:0:
188,160,145467,1,8,0:0:0:0:
280,48,145643,5,2,0:0:0:0:
245,56,145731,1,2,0:0:0:0:
210,50,145820,1,8,0:0:0:0:
176,36,145908,1,0,0:0:0:0:
130,46,145996,1,10,0:0:0:0:
102,84,146084,1,0,0:0:0:0:
106,131,146172,1,0,0:0:0:0:
139,163,146260,1,0,0:0:0:0:
186,166,146349,1,10,0:0:0:0:
223,138,146437,1,0,0:0:0:0:
272,124,146526,2,0,P|316:128|341:166,1,71.9999978027344
234,238,146878,6,0,P|218:182|290:122,1,143.999995605469,12|2,0:0|0:0,0:0:0:0:
376,88,147408,1,2,0:0:0:0:
376,208,147584,2,0,B|424:200|424:200|476:240|528:192,1,143.999995605469,8|0,0:0|0:0,0:0:0:0:
336,272,148114,2,0,P|308:244|328:148,1,143.999995605469,2|2,0:0|0:0,0:0:0:0:
251,131,148643,5,2,0:0:0:0:
180,224,148820,1,0,0:0:0:0:
180,224,148908,1,0,0:0:0:0:
180,224,148996,1,8,0:0:0:0:
304,248,149173,1,0,0:0:0:0:
188,140,149349,1,0,0:0:0:0:
204,308,149526,1,2,0:0:0:0:
204,308,149614,1,2,0:0:0:0:
204,308,149702,6,0,B|184:344|144:352|144:352|92:300|128:236,1,176.000005371094,12|10,0:0|0:0,0:0:0:0:
124,120,150231,1,10,0:0:0:0:
212,188,150408,1,10,0:0:0:0:
312,144,150584,1,2,0:0:0:0:
296,32,150761,1,10,0:0:0:0:
184,20,150937,1,10,0:0:0:0:
212,188,151114,5,14,0:0:0:0:
364,104,151290,1,8,0:0:0:0:
188,124,151467,1,10,0:0:0:0:
296,16,151643,1,14,0:0:0:0:
304,200,151820,1,10,0:0:0:0:
120,228,151996,1,14,0:0:0:0:
276,124,152173,1,10,0:0:0:0:
216,300,152349,1,14,0:0:0:0:
104,152,152526,5,2,0:0:0:0:
140,136,152614,1,0,0:0:0:0:
180,136,152702,2,0,L|200:200,1,40,8|0,0:0|0:0,0:0:0:0:
280,336,152878,1,10,0:0:0:0:
280,336,152967,1,10,0:0:0:0:
280,336,153055,2,0,L|284:288,1,40,10|0,0:0|0:0,0:0:0:0:
316,148,153231,5,2,0:0:0:0:
356,180,153320,1,2,0:0:0:0:
408,176,153408,1,2,0:0:0:0:
440,136,153496,1,2,0:0:0:0:
440,84,153584,1,2,0:0:0:0:
400,48,153673,1,2,0:0:0:0:
352,44,153761,1,10,0:0:0:0:
312,60,153849,1,0,0:0:0:0:
268,60,153937,2,0,L|196:52,1,40,14|0,0:0|0:0,0:0:0:0:
64,145,154114,2,0,L|132:157,1,40,8|0,0:0|0:0,0:0:0:0:
232,232,154290,6,0,P|224:204|224:148,1,80,14|2,0:0|0:0,0:0:0:0:
152,248,154555,1,10,0:0:0:0:
176,300,154643,1,8,0:0:0:0:
228,320,154731,1,8,0:0:0:0:
284,308,154820,1,10,0:0:0:0:
332,276,154908,1,0,0:0:0:0:
388,288,154996,2,8,P|412:324|396:392,1,80,10|8,0:0|0:0,0:0:0:0:
232,232,155349,6,0,B|208:272|232:312|232:312|256:344|240:384,1,151.999995941162,6|2,0:0|0:0,0:0:0:0:
232,232,155878,1,2,0:0:0:0:
112,308,156055,2,0,P|104:240|136:164,1,151.999995941162,10|2,0:0|0:0,0:0:0:0:
200,300,156584,2,0,P|244:304|283:290,2,75.9999979705811,2|0|2,0:0|0:0|0:0,0:0:0:0:
135,164,157114,1,2,0:0:0:0:
288,112,157290,1,2,0:0:0:0:
152,44,157467,1,10,0:0:0:0:
240,200,157643,1,0,0:0:0:0:
64,208,157820,6,0,B|40:156|80:104|80:104|56:84|28:100,1,151.999995941162,6|0,0:0|0:0,0:0:0:0:
16,264,158349,1,2,0:0:0:0:
16,264,158526,2,0,B|68:296|112:260|112:260|140:272|140:324,2,151.999995941162,0|8|2,0:0|0:0|0:0,0:0:0:0:
137,298,159408,1,2,0:0:0:0:
248,252,159584,2,0,P|256:208|228:148,1,75.9999979705811,0|2,0:0|0:0,0:0:0:0:
272,52,159937,5,2,0:0:0:0:
328,144,160114,1,0,0:0:0:0:
432,164,160290,1,8,0:0:0:0:
512,60,160467,1,0,0:0:0:0:
368,68,160643,1,0,0:0:0:0:
384,212,160820,1,8,0:0:0:0:
512,140,160996,6,0,B|476:124|452:132|452:132|420:136|404:132|404:132|364:140|340:132,1,151.999995941162,6|2,0:0|0:0,0:0:0:0:
224,80,161526,1,2,0:0:0:0:
237,214,161702,2,0,P|201:150|229:74,1,151.999995941162,10|2,0:0|0:0,0:0:0:0:
340,136,162231,1,2,0:0:0:0:
280,276,162408,2,0,P|244:288|184:272,1,75.9999979705811,0|2,0:0|0:0,0:0:0:0:
247,133,162761,5,2,0:0:0:0:
140,188,162937,1,0,0:0:0:0:
172,72,163114,1,10,0:0:0:0:
216,216,163290,1,2,0:0:0:0:
84,136,163467,1,0,0:0:0:0:
247,133,163643,1,2,0:0:0:0:
180,284,163820,6,0,P|272:280|308:224,1,151.999995941162,6|2,0:0|0:0,0:0:0:0:
320,108,164349,1,2,0:0:0:0:
200,52,164526,2,0,B|180:32|152:32|152:32|104:68|72:36,1,113.999996955872,10|0,0:0|0:0,0:0:0:0:
60,44,164878,2,0,P|51:80|59:117,1,75.9999979705811,8|2,0:0|0:0,0:0:0:0:
160,192,165231,6,0,P|192:176|248:184,1,75.9999979705811,4|10,0:0|0:0,0:0:0:0:
372,56,165584,1,2,0:0:0:0:
340,184,165761,1,2,0:0:0:0:
340,184,165849,1,0,0:0:0:0:
340,184,165937,1,10,0:0:0:0:
436,160,166114,1,2,0:0:0:0:
320,256,166290,1,6,0:0:0:0:
268,112,166467,1,0,0:0:0:0:
396,232,166643,5,14,0:0:0:0:
396,232,166820,1,2,0:0:0:0:
216,204,166996,1,10,0:0:0:0:
396,232,167173,1,2,0:0:0:0:
216,204,167349,1,14,0:0:0:0:
352,96,167702,5,10,0:0:0:0:
352,96,167878,1,2,0:0:0:0:
172,148,168055,1,10,0:0:0:0:
352,96,168231,1,2,0:0:0:0:
352,96,168584,5,2,0:0:0:0:
400,232,168761,2,0,L|416:192,1,37.9999989852906,8|0,0:0|0:0,0:0:0:0:
420,68,168937,2,0,P|376:28|308:32,1,120,6|0,2:0|2:0,2:0:0:0:
240,48,169290,1,8,0:0:0:0:
328,196,169467,5,14,0:0:0:0:
328,196,169643,1,2,0:0:0:0:
168,228,169820,1,8,0:0:0:0:
296,108,169996,1,2,0:0:0:0:
168,228,170173,1,12,0:0:0:0:
180,72,170526,5,10,0:0:0:0:
184,76,170702,1,2,0:0:0:0:
272,216,170878,1,10,0:0:0:0:
112,176,171055,2,0,P|52:176|-8:216,1,107.999996704102,6|0,0:0|0:0,0:0:0:0:
0,268,171408,1,2,0:0:0:0:
140,280,171584,5,12,0:0:0:0:
10,197,171761,1,2,0:0:0:0:
60,340,171937,1,0,0:0:0:0:
112,176,172114,1,8,0:0:0:0:
232,288,172290,6,0,B|272:232|228:176,1,107.999996704102,6|0,0:0|0:0,0:0:0:0:
208,164,172643,2,0,P|180:192|144:200,1,71.9999978027344,2|2,0:0|0:0,0:0:0:0:
176,336,172996,2,0,P|241:362|300:316,1,143.999995605469,12|2,0:0|0:0,0:0:0:0:
149,199,173526,1,8,0:0:0:0:
320,68,173878,5,2,0:0:0:0:
152,100,174055,1,2,0:0:0:0:
293,146,174408,5,8,0:0:0:0:
168,28,174583,1,2,0:0:0:0:
120,148,174761,1,0,0:0:0:0:
244,60,174937,1,2,0:0:0:0:
248,204,175114,6,0,P|316:220|368:172,1,143.999995605469,14|10,0:0|0:0,0:0:0:0:
412,80,175643,1,10,0:0:0:0:
448,240,175820,1,10,0:0:0:0:
293,146,175996,1,10,0:0:0:0:
472,148,176173,1,10,0:0:0:0:
372,292,176349,1,10,0:0:0:0:
293,146,176526,6,0,L|228:140,3,35.9999989013672,10|0|0|0,0:0|0:0|0:0|0:0,0:0:0:0:
344,96,176878,1,10,0:0:0:0:
302,73,176966,1,2,0:0:0:0:
254,73,177054,1,10,0:0:0:0:
212,96,177142,1,2,0:0:0:0:
187,138,177230,5,14,0:0:0:0:
130,144,177319,1,0,0:0:0:0:
97,98,177408,1,2,0:0:0:0:
122,46,177496,1,0,0:0:0:0:
180,51,177584,5,10,0:0:0:0:
203,114,177672,1,0,0:0:0:0:
168,173,177760,1,2,0:0:0:0:
100,169,177848,1,0,0:0:0:0:
36,204,177937,6,0,L|28:304,1,83.9999974365235,14|2,0:0|0:0,0:0:0:0:
216,360,178290,1,8,0:0:0:0:
120,224,178467,1,0,0:0:0:0:
36,360,178643,2,0,P|60:372|120:360,1,80,2|2,0:0|0:0,0:0:0:0:
260,256,178996,2,0,P|204:244|152:264,1,80,8|2,0:0|0:0,0:0:0:0:
32,360,179349,2,0,L|36:268,1,80,0|2,0:0|0:0,0:0:0:0:
104,140,179702,5,10,0:0:0:0:
35,280,179878,1,0,0:0:0:0:
180,176,180055,2,0,P|184:124|164:84,2,80,2|2|8,0:0|0:0|0:0,0:0:0:0:
8,184,180584,1,0,0:0:0:0:
136,40,180761,2,0,P|184:32|224:48,1,80,6|2,0:0|0:0,0:0:0:0:
356,124,181114,2,0,P|308:132|268:116,1,80,12|0,0:0|0:0,0:0:0:0:
176,100,181467,5,2,0:0:0:0:
320,24,181643,1,2,0:0:0:0:
320,204,181820,1,8,0:0:0:0:
320,24,181996,1,2,0:0:0:0:
228,156,182173,1,0,0:0:0:0:
368,104,182349,1,2,0:0:0:0:
240,32,182526,1,8,0:0:0:0:
296,176,182702,1,0,0:0:0:0:
160,80,182878,5,2,0:0:0:0:
356,92,183055,1,2,0:0:0:0:
232,220,183231,1,8,0:0:0:0:
280,32,183408,1,0,0:0:0:0:
381,184,183584,6,0,P|336:180|297:204,1,80,14|0,0:0|0:0,0:0:0:0:
168,328,183937,2,0,P|199:296|266:291,1,80,10|0,0:0|0:0,0:0:0:0:
388,356,184290,2,0,L|292:332,1,80,2|0,0:0|0:0,0:0:0:0:
402,277,184643,2,0,L|386:365,1,80,10|0,0:0|0:0,0:0:0:0:
248,328,184908,1,0,0:0:0:0:
248,328,184996,6,0,L|272:208,1,120,6|0,0:0|0:0,0:0:0:0:
356,116,185349,2,0,P|364:148|328:208,1,80,10|0,0:0|0:0,0:0:0:0:
271,210,185702,1,2,0:0:0:0:
212,88,185878,1,0,0:0:0:0:
88,152,186055,2,0,B|75:111|91:87|91:87|103:55|79:19,1,120,8|0,0:0|0:0,0:0:0:0:
0,112,186408,5,12,0:0:0:0:
88,152,186584,1,0,0:0:0:0:
180,124,186761,1,8,0:0:0:0:
244,192,186937,1,0,0:0:0:0:
152,280,187114,2,0,P|128:236|124:156,1,120,2|0,0:0|0:0,0:0:0:0:
140,64,187467,5,0,0:0:0:0:
248,124,187643,1,8,0:0:0:0:
248,124,187731,1,0,0:0:0:0:
248,124,187820,1,0,0:0:0:0:
180,0,187996,1,2,0:0:0:0:
121,167,188173,1,8,0:0:0:0:
292,64,188349,1,10,0:0:0:0:
356,225,188526,5,10,0:0:0:0:
309,232,188614,1,0,0:0:0:0:
264,220,188702,1,10,0:0:0:0:
220,204,188790,1,0,0:0:0:0:
172,197,188878,1,2,0:0:0:0:
127,210,188966,1,0,0:0:0:0:
88,244,189055,1,2,0:0:0:0:
36,244,189143,1,0,0:0:0:0:
0,204,189231,6,0,P|-8:156|4:88,1,80,14|0,0:0|0:0,0:0:0:0:
132,28,189584,6,0,P|144:76|128:144,1,88.000002685547,12|0,0:0|0:0,0:0:0:0:
86,323,189937,2,0,P|76:276|98:215,1,80,10|2,0:0|0:0,0:0:0:0:
272,140,190290,1,8,0:0:0:0:
184,280,190467,1,2,0:0:0:0:
65,136,190643,6,0,P|105:116|165:120,1,80,10|2,0:0|0:0,0:0:0:0:
328,200,190996,2,0,L|216:200,1,80,8|2,0:0|0:0,0:0:0:0:
86,323,191349,2,0,P|125:326|162:313,1,80,8|2,0:0|0:0,0:0:0:0:
20,328,191702,2,0,B|16:284|56:264|56:264|40:244|56:204,1,120,8|0,0:0|0:0,0:0:0:0:
148,208,192055,6,12,P|212:160|172:88,1,160,14|14,0:0|0:0,0:0:0:0:
344,48,192584,1,2,0:0:0:0:
304,192,192761,1,8,0:0:0:0:
187,95,192937,1,2,0:0:0:0:
364,128,193114,1,10,0:0:0:0:
232,8,193290,1,0,0:0:0:0:
196,204,193467,5,2,0:0:0:0:
324,56,193643,1,2,0:0:0:0:
280,248,193820,1,8,0:0:0:0:
128,124,193996,1,2,0:0:0:0:
300,184,194173,2,0,B|340:176|340:176|374:191|428:164,2,120,2|0|0,0:0|0:0|0:0,0:0:0:0:
187,95,194878,5,14,0:0:0:0:
184,212,206173,6,0,P|220:200|260:200,1,71.9999978027344,2|0,0:0|0:0,0:0:0:0:
352,216,206526,1,10,0:0:0:0:
384,120,206702,1,0,0:0:0:0:
408,276,206878,2,0,P|348:296|292:268,1,107.999996704102,2|0,0:0|0:0,0:0:0:0:
284,216,207231,2,0,L|272:144,1,71.9999978027344,8|0,0:0|0:0,0:0:0:0:
200,76,207584,6,0,L|116:72,2,71.9999978027344,2|0|10,0:0|0:0|0:0,0:0:0:0:
300,72,208114,2,0,L|436:72,1,107.999996704102
468,128,208467,2,0,P|432:148|380:140,1,71.9999978027344,0|10,0:0|0:0,0:0:0:0:
264,128,208820,1,6,0:0:0:0:
264,128,208908,1,0,0:0:0:0:
264,128,208996,6,0,L|268:224,1,80,2|0,0:0|0:0,0:0:0:0:
404,256,209349,1,10,0:0:0:0:
332,132,209526,1,0,0:0:0:0:
320,272,209702,2,0,P|268:288|204:244,1,120,2|0,0:0|0:0,0:0:0:0:
168,304,210055,2,0,P|156:348|168:388,1,80,10|0,0:0|0:0,0:0:0:0:
316,348,210408,6,0,P|267:356|212:336,1,80,2|0,0:0|0:0,0:0:0:0:
88,344,210761,1,8,0:0:0:0:
212,256,210937,1,0,0:0:0:0:
68,204,211114,2,0,P|64:160|88:108,1,80,10|0,0:0|0:0,0:0:0:0:
224,112,211378,2,0,P|187:135|136:128,1,80,8|0,0:0|0:0,0:0:0:0:
112,56,211643,1,10,0:0:0:0:
144,228,211820,6,0,P|184:236|240:224,1,88.000002685547,14|0,0:0|0:0,0:0:0:0:
392,160,212173,2,0,P|340:156|296:164,1,88.000002685547,12|0,0:0|0:0,0:0:0:0:
268,364,212526,2,0,P|284:320|276:268,1,88.000002685547,8|2,0:0|0:0,0:0:0:0:
204,64,212878,2,0,P|209:109|232:156,1,88.000002685547,8|6,0:0|0:0,0:0:0:0:
372,248,213231,5,8,0:0:0:0:
404,96,213408,1,2,0:0:0:0:
256,200,213584,1,10,0:0:0:0:
448,248,213761,1,2,0:0:0:0:
324,96,213937,1,10,0:0:0:0:
256,276,214114,1,2,0:0:0:0:
436,164,214290,1,10,0:0:0:0:
212,196,214467,1,2,0:0:0:0:
296,360,214643,6,0,B|316:320|304:288|304:288|264:272|248:236|256:192|304:161|304:161|332:196|324:228|324:228|384:192|356:136|356:136|324:116|315:83,1,480.000018310548,14|0,0:0|0:0,0:0:0:0:
317,90,216584,1,2,0:0:0:0:
324,224,216761,2,0,P|373:227|420:220,2,90.0000034332277,10|8|0,0:0|0:0|0:0,0:0:0:0:
244,288,217378,1,0,0:0:0:0:
244,288,217467,6,0,B|212:228|248:176|248:176|292:120|236:68|236:68|160:88|192:160,1,360.000013732911,4|0,0:0|0:0,0:0:0:0:
164,336,218878,2,0,B|224:364|284:328|284:328|336:296|384:324|384:324|328:360|280:324|280:324|224:252|288:192,1,480.000018310548
352,192,220643,5,0,0:0:0:0:
311,296,220996,2,0,P|247:288|179:304,1,120,8|0,0:0|0:0,0:0:0:0:
120,352,221702,2,0,P|104:300|120:256,1,95.9999970703126
144,148,222408,1,8,0:0:0:0:
256,192,222761,6,0,P|304:192|344:112,1,143.999995605469
344,48,223467,2,0,P|368:36|392:32,1,47.9999985351563
216,48,223820,2,0,P|192:36|168:32,1,47.9999985351563,8|0,0:0|0:0,0:0:0:0:
280,128,224173,1,0,0:0:0:0:
344,184,224349,6,0,P|364:144|356:92,1,95.9999970703126
256,48,224878,1,0,0:0:0:0:
256,224,225231,1,8,0:0:0:0:
408,196,225584,2,0,P|380:192|356:196,1,47.9999985351563
460,248,225849,1,0,0:0:0:0:
460,248,225937,6,0,B|476:204|476:204|460:164|464:124,1,120.000004577637
396,316,226643,2,0,P|344:336|296:308,1,95.9999970703126,8|0,0:0|0:0,0:0:0:0:
348,259,227173,2,0,P|341:214|344:160,1,95.9999970703126
276,108,227702,5,0,0:0:0:0:
148,220,228055,1,8,0:0:0:0:
56,64,228408,1,0,0:0:0:0:
64,76,228584,1,2,0:0:0:0:
72,88,228761,5,14,0:0:0:0:
168,208,228937,1,2,0:0:0:0:
224,48,229114,1,2,0:0:0:0:
64,160,229290,1,10,0:0:0:0:
268,160,229467,1,2,0:0:0:0:
104,292,229643,1,2,0:0:0:0:
184,120,229820,1,10,0:0:0:0:
268,344,229996,2,0,L|268:296,1,47.9999985351563,2|0,0:0|0:0,0:0:0:0:
268,160,230173,5,10,0:0:0:0:
144,272,230349,1,2,0:0:0:0:
352,208,230526,1,0,0:0:0:0:
224,48,230702,1,14,0:0:0:0:
400,288,231584,6,0,P|420:216|384:160,1,143.999995605469,14|0,0:0|0:0,0:0:0:0:
316,80,232114,1,2,0:0:0:0:
240,152,232290,2,0,P|208:160|144:144,2,71.9999978027344,12|0|2,0:0|0:0|0:0,0:0:0:0:
328,240,232820,1,2,0:0:0:0:
208,308,232996,2,0,P|192:268|200:212,1,71.9999978027344,8|2,0:0|0:0,0:0:0:0:
252,372,233349,2,0,P|216:384|156:368,1,71.9999978027344,2|0,0:0|0:0,0:0:0:0:
124,276,233702,2,0,B|113:265|106:258|102:254|99:251|47:231|-7:263,1,107.999996704102,10|0,0:0|0:0,0:0:0:0:
124,276,234055,6,0,B|136:236|128:204|128:204|148:160|120:112,1,143.999995605469,14|0,0:0|0:0,0:0:0:0:
144,48,234584,1,2,0:0:0:0:
64,160,234761,2,0,B|32:144|16:148|16:148|-4:100|16:48,2,143.999995605469,2|8|2,0:0|0:0|0:0,0:0:0:0:
144,48,235643,1,8,0:0:0:0:
228,128,235820,2,0,P|272:136|320:120,1,71.9999978027344,0|2,0:0|0:0,0:0:0:0:
400,32,236173,5,2,0:0:0:0:
456,116,236349,1,0,0:0:0:0:
424,212,236526,1,8,0:0:0:0:
298,130,236702,1,2,0:0:0:0:
456,116,236878,1,0,0:0:0:0:
352,240,237055,1,8,0:0:0:0:
228,128,237231,6,0,B|190:105|160:120|160:120|144:152|92:148,1,143.999995605469,14|2,0:0|0:0,0:0:0:0:
140,24,237761,1,6,0:0:0:0:
28,184,237937,2,0,P|20:144|36:96,1,71.9999978027344,8|0,2:0|2:0,2:0:0:0:
213,186,238290,2,0,P|215:222|204:256,1,71.9999978027344,2|2,0:0|0:0,0:0:0:0:
172,60,238643,5,0,0:0:0:0:
77,138,238820,1,0,0:0:0:0:
213,186,238996,1,2,0:0:0:0:
92,272,239173,1,0,0:0:0:0:
144,116,239349,1,10,0:0:0:0:
256,260,239526,1,2,0:0:0:0:
112,208,239702,1,0,0:0:0:0:
240,112,239878,1,2,0:0:0:0:
224,320,240055,6,0,B|260:340|300:316|300:316|344:304|384:340,1,143.999995605469,6|2,0:0|0:0,0:0:0:0:
456,328,240584,1,2,0:0:0:0:
328,384,240761,2,0,P|312:320|340:260,1,107.999996704102,8|0,0:0|0:0,0:0:0:0:
436,252,241114,2,0,P|452:192|424:149,1,107.999996704102,12|0,0:0|0:0,0:0:0:0:
328,24,241467,5,10,0:0:0:0:
452,96,241643,1,8,0:0:0:0:
328,180,241820,1,2,0:0:0:0:
404,40,241996,1,0,0:0:0:0:
404,40,242084,1,8,0:0:0:0:
404,40,242173,1,8,0:0:0:0:
224,36,242349,1,2,0:0:0:0:
328,168,242526,1,10,0:0:0:0:
148,212,242702,1,0,0:0:0:0:
276,104,242878,5,14,0:0:0:0:
276,104,243055,1,2,0:0:0:0:
212,264,243231,1,8,0:0:0:0:
276,104,243408,1,2,0:0:0:0:
212,264,243584,1,14,0:0:0:0:
392,156,243937,5,8,0:0:0:0:
392,156,244114,1,2,0:0:0:0:
220,196,244290,1,10,0:0:0:0:
392,156,244467,1,2,0:0:0:0:
392,156,244820,5,2,0:0:0:0:
320,296,244996,2,0,L|308:252,1,35.9999989013672,8|0,0:0|0:0,0:0:0:0:
276,144,245173,2,0,P|220:120|160:140,1,120,6|0,0:0|0:0,0:0:0:0:
104,148,245526,1,8,0:0:0:0:
216,244,245702,5,10,0:0:0:0:
216,244,245878,1,2,0:0:0:0:
48,276,246055,1,10,0:0:0:0:
178,138,246231,1,2,0:0:0:0:
48,276,246408,1,14,0:0:0:0:
48,276,246761,5,10,0:0:0:0:
212,224,246937,1,2,0:0:0:0:
144,368,247114,1,2,0:0:0:0:
124,236,247290,2,0,P|116:184|128:116,1,107.999996704102,8|0,0:0|0:0,0:0:0:0:
172,72,247643,1,2,0:0:0:0:
240,196,247820,5,10,0:0:0:0:
123,129,247996,1,6,0:0:0:0:
236,48,248173,1,0,0:0:0:0:
88,40,248349,1,10,0:0:0:0:
232,128,248526,6,0,B|256:136|280:124|280:124|316:132|324:184,1,107.999996704102,6|0,0:0|0:0,0:0:0:0:
328,200,248878,2,0,P|360:216|404:208,1,71.9999978027344,2|0,0:0|0:0,0:0:0:0:
444,76,249231,2,0,B|420:84|396:72|396:72|360:80|356:116|372:152|372:152,1,143.999995605469,8|2,0:0|0:0,0:0:0:0:
344,320,249761,1,8,0:0:0:0:
371,150,250114,5,2,0:0:0:0:
460,296,250290,1,8,0:0:0:0:
320,208,250467,1,2,0:0:0:0:
212,304,250643,5,10,0:0:0:0:
272,152,250820,1,0,0:0:0:0:
112,220,250996,1,8,0:0:0:0:
292,304,251173,1,0,0:0:0:0:
184,192,251349,6,0,P|180:132|232:72,1,143.999995605469,12|10,0:0|0:0,0:0:0:0:
444,80,251878,1,10,0:0:0:0:
328,152,252055,1,10,0:0:0:0:
264,39,252231,1,2,0:0:0:0:
408,128,252408,1,14,0:0:0:0:
256,200,252584,1,2,0:0:0:0:
364,40,252761,5,12,0:0:0:0:
364,40,252849,1,0,0:0:0:0:
364,40,252937,1,2,0:0:0:0:
364,40,253026,1,0,0:0:0:0:
340,76,253114,1,8,0:0:0:0:
300,88,253202,1,0,0:0:0:0:
256,88,253290,1,2,0:0:0:0:
212,80,253378,1,0,0:0:0:0:
176,56,253467,5,14,0:0:0:0:
120,40,253555,1,2,0:0:0:0:
72,72,253643,1,8,0:0:0:0:
60,128,253731,1,0,0:0:0:0:
96,172,253820,5,8,0:0:0:0:
164,184,253908,1,10,0:0:0:0:
196,244,253996,1,10,0:0:0:0:
172,308,254084,1,10,0:0:0:0:
92,336,254173,6,0,P|48:312|32:268,1,88.000002685547,14|2,0:0|0:0,0:0:0:0:
84,96,254526,2,0,L|52:180,1,88.000002685547,14|0,0:0|0:0,0:0:0:0:
216,284,254878,1,2,0:0:0:0:
152,108,255055,1,2,0:0:0:0:
4,232,255231,2,2,P|60:252|108:232,1,88.000002685547,10|2,0:0|0:0,0:0:0:0:
248,196,255584,6,0,P|192:176|144:196,1,88.000002685547,0|2,0:0|0:0,0:0:0:0:
116,384,255937,2,0,L|132:268,1,88.000002685547,10|0,0:0|0:0,0:0:0:0:
80,136,256290,1,2,0:0:0:0:
128,296,256467,1,2,0:0:0:0:
296,244,256643,6,0,P|316:208|292:140,2,88.000002685547,14|0|2,0:0|0:0|0:0,0:0:0:0:
127,304,257173,1,2,0:0:0:0:
112,120,257349,2,0,P|148:96|204:96,1,88.000002685547,14|0,0:0|0:0,0:0:0:0:
388,120,257702,5,2,0:0:0:0:
244,192,257878,1,2,0:0:0:0:
248,32,258055,1,8,0:0:0:0:
328,180,258231,1,2,0:0:0:0:
352,12,258408,1,0,0:0:0:0:
191,92,258584,1,2,0:0:0:0:
352,12,258761,1,10,0:0:0:0:
428,168,258937,1,0,0:0:0:0:
248,32,259114,5,6,0:0:0:0:
432,96,259290,1,2,0:0:0:0:
248,176,259467,1,8,0:0:0:0:
352,12,259643,1,0,0:0:0:0:
368,240,259820,6,0,P|320:252|276:228,1,88.000002685547,14|0,0:0|0:0,0:0:0:0:
168,32,260173,2,0,P|196:72|192:116,1,88.000002685547,8|0,0:0|0:0,0:0:0:0:
49,259,260526,2,0,P|101:223|137:227,1,88.000002685547,2|0,0:0|0:0,0:0:0:0:
240,308,260878,2,0,P|200:324|140:328,1,88.000002685547,10|0,0:0|0:0,0:0:0:0:
59,346,261143,1,0,0:0:0:0:
59,346,261231,6,0,L|47:250,1,88.000002685547,2|0,0:0|0:0,0:0:0:0:
88,72,261584,2,0,L|96:168,1,88.000002685547,14|0,0:0|0:0,0:0:0:0:
112,296,261937,1,2,0:0:0:0:
212,148,262114,1,0,0:0:0:0:
308,296,262290,2,0,B|328:296|364:312|364:312|392:272|460:292,1,132.00000402832,10|0,0:0|0:0,0:0:0:0:
492,300,262643,5,12,0:0:0:0:
420,356,262820,1,0,0:0:0:0:
320,368,262996,1,10,0:0:0:0:
240,288,263173,1,0,0:0:0:0:
336,216,263349,2,0,B|360:200|392:200|392:200|420:140|376:104,1,132.00000402832,10|0,0:0|0:0,0:0:0:0:
368,56,263702,5,0,0:0:0:0:
216,124,263878,1,2,0:0:0:0:
216,124,263967,1,0,0:0:0:0:
216,124,264055,1,8,0:0:0:0:
336,216,264231,1,2,0:0:0:0:
272,40,264408,1,8,0:0:0:0:
156,172,264584,1,2,0:0:0:0:
328,112,264761,5,8,0:0:0:0:
212,244,264937,1,10,0:0:0:0:
160,268,265026,1,0,0:0:0:0:
104,252,265114,1,10,0:0:0:0:
72,204,265202,1,2,0:0:0:0:
68,148,265290,1,10,0:0:0:0:
100,100,265378,1,2,0:0:0:0:
152,80,265467,6,0,L|256:76,1,88.000002685547,8|0,0:0|0:0,0:0:0:0:
304,332,265820,2,0,P|284:284|292:216,1,88.000002685547,6|0,0:0|0:0,0:0:0:0:
400,56,266173,2,0,P|420:104|412:172,1,88.000002685547,6|0,0:0|0:0,0:0:0:0:
376,304,266526,1,8,0:0:0:0:
248,168,266702,1,2,0:0:0:0:
120,308,266878,6,0,P|168:320|240:296,1,88.000002685547,8|2,0:0|0:0,0:0:0:0:
432,224,267231,2,0,P|388:212|312:236,1,88.000002685547,10|0,0:0|0:0,0:0:0:0:
280,360,267584,2,0,L|273:272,1,88.000002685547,2|2,0:0|0:0,0:0:0:0:
96,72,267937,2,0,B|104:168|104:168|128:156|132:128,1,132.00000402832,10|0,0:0|0:0,0:0:0:0:
136,236,268290,6,0,P|72:233|39:127,1,176.000005371094,14|2,0:0|0:0,0:0:0:0:
192,112,268820,1,2,0:0:0:0:
48,24,268996,1,10,0:0:0:0:
32,192,269173,1,2,0:0:0:0:
184,48,269349,1,10,0:0:0:0:
212,248,269526,1,2,0:0:0:0:
44,116,269702,6,0,L|-20:104,3,44.0000013427735,10|0|0|0,0:0|0:0|0:0|0:0,0:0:0:0:
128,72,270055,1,8,0:0:0:0:
164,116,270143,1,2,0:0:0:0:
168,172,270231,1,2,0:0:0:0:
132,216,270320,1,2,0:0:0:0:
108,268,270408,1,8,0:0:0:0:
124,324,270496,1,0,0:0:0:0:
176,348,270584,5,2,0:0:0:0:
200,296,270673,1,0,0:0:0:0:
252,276,270761,1,10,0:0:0:0:
308,288,270849,1,0,0:0:0:0:
348,328,270937,1,2,0:0:0:0:
404,332,271026,1,0,0:0:0:0:
440,304,271114,6,0,L|436:208,1,71.9999978027344,14|2,0:0|0:0,0:0:0:0:
428,104,271467,1,10,0:0:0:0:
340,236,271643,1,2,0:0:0:0:
340,236,271731,1,0,0:0:0:0:
340,236,271820,1,10,0:0:0:0:
472,172,271996,1,2,0:0:0:0:
368,56,272173,1,8,0:0:0:0:
255,164,272349,6,0,P|203:172|150:159,1,107.999996704102,8|0,0:0|0:0,0:0:0:0:
116,144,272702,2,0,L|104:215,1,71.9999978027344,2|10,0:0|0:0,0:0:0:0:
36,64,273055,1,2,0:0:0:0:
36,64,273143,1,0,0:0:0:0:
36,64,273231,1,8,0:0:0:0:
4,232,273408,2,0,L|68:220,1,35.9999989013672
180,204,273584,6,0,P|212:256|180:328,1,143.999995605469,14|0,0:0|0:0,0:0:0:0:
304,360,274114,1,2,0:0:0:0:
304,360,274202,1,0,0:0:0:0:
304,360,274290,2,0,L|300:272,1,71.9999978027344,8|0,0:0|0:0,0:0:0:0:
360,128,274643,5,8,0:0:0:0:
412,288,274820,1,0,0:0:0:0:
412,288,274996,1,2,0:0:0:0:
444,128,275173,1,8,0:0:0:0:
292,196,275349,1,0,0:0:0:0:
292,196,275526,1,8,0:0:0:0:
416,64,275702,5,2,0:0:0:0:
380,48,275790,1,2,0:0:0:0:
340,52,275878,1,8,0:0:0:0:
304,68,275967,1,0,0:0:0:0:
276,96,276055,1,0,0:0:0:0:
236,104,276143,1,0,0:0:0:0:
196,100,276231,1,10,0:0:0:0:
156,88,276320,1,0,0:0:0:0:
120,80,276408,2,0,P|100:120|108:180,1,71.9999978027344,10|0,0:0|0:0,0:0:0:0:
88,268,276761,6,0,B|115:283|159:251|159:251|195:243|223:267,1,143.999995605469,6|2,0:0|0:0,0:0:0:0:
176,356,277290,1,2,0:0:0:0:
40,320,277467,2,0,P|20:284|36:224,1,71.9999978027344,8|0,0:0|0:0,0:0:0:0:
140,180,277820,1,0,0:0:0:0:
32,112,277996,1,2,0:0:0:0:
32,112,278173,5,0,0:0:0:0:
20,254,278349,1,8,0:0:0:0:
152,112,278526,1,2,0:0:0:0:
152,284,278702,1,2,0:0:0:0:
88,164,278878,2,0,P|72:108|100:52,1,107.999996704102,10|0,0:0|0:0,0:0:0:0:
180,44,279231,6,0,P|218:50|272:44,1,71.9999978027344,0|2,0:0|0:0,0:0:0:0:
280,44,279496,1,0,0:0:0:0:
312,36,279584,2,0,L|332:84,3,35.9999989013672,10|0|0|0,0:0|0:0|0:0|0:0,0:0:0:0:
264,136,279937,1,8,0:0:0:0:
248,176,280026,1,0,0:0:0:0:
268,216,280114,1,2,0:0:0:0:
308,232,280202,1,0,0:0:0:0:
348,220,280290,1,10,0:0:0:0:
384,196,280378,1,0,0:0:0:0:
428,200,280467,1,0,0:0:0:0:
460,228,280555,1,0,0:0:0:0:
460,272,280643,6,0,L|444:332,3,35.9999989013672,12|0|2|0,0:0|0:0|0:0|0:0,0:0:0:0:
300,336,280996,1,10,0:0:0:0:
308,292,281084,1,2,0:0:0:0:
320,248,281173,1,8,0:0:0:0:
332,204,281261,1,2,0:0:0:0:
372,224,281349,1,10,0:0:0:0:
420,216,281437,1,0,0:0:0:0:
448,176,281526,1,2,0:0:0:0:
440,132,281614,1,0,0:0:0:0:
404,100,281702,1,10,0:0:0:0:
360,88,281790,1,0,0:0:0:0:
316,96,281878,1,2,0:0:0:0:
272,108,281967,1,0,0:0:0:0:
224,100,282055,2,0,P|204:48|244:-4,1,107.999996704102,14|0,0:0|0:0,0:0:0:0:
144,148,282408,6,0,L|148:212,1,35.9999989013672,14|0,0:0|0:0,0:0:0:0:
148,264,282584,1,2,0:0:0:0:
140,68,282761,1,0,0:0:0:0:
232,209,282937,1,2,0:0:0:0:
232,209,283026,1,0,0:0:0:0:
232,209,283114,6,0,B|272:232|312:212|312:212|344:200|384:220,1,143.999995605469,14|8,0:0|0:0,0:0:0:0:
344,320,283643,1,2,0:0:0:0:
344,320,283731,1,0,0:0:0:0:
344,320,283820,2,0,P|316:332|260:316,1,71.9999978027344,10|0,0:0|0:0,0:0:0:0:
370,214,284173,1,10,0:0:0:0:
344,180,284261,1,2,0:0:0:0:
304,168,284349,1,8,0:0:0:0:
260,176,284437,1,0,0:0:0:0:
228,208,284526,2,0,L|216:252,1,35.9999989013672,8|0,0:0|0:0,0:0:0:0:
116,256,284702,2,0,L|128:216,1,35.9999989013672,8|0,0:0|0:0,0:0:0:0:
180,112,284878,6,0,B|208:88|248:88|248:88|276:92|292:112|292:112|300:88|260:72,1,176.000005371094,14|0,0:0|0:0,0:0:0:0:
104,40,285408,1,2,0:0:0:0:
104,40,285496,1,2,0:0:0:0:
104,40,285584,1,8,0:0:0:0:
224,24,285761,1,0,0:0:0:0:
244,200,285937,2,0,L|236:156,1,35.9999989013672,8|0,0:0|0:0,0:0:0:0:
224,24,286114,1,0,0:0:0:0:
120,144,286290,1,10,0:0:0:0:
288,112,286467,2,0,L|300:176,1,35.9999989013672,8|0,0:0|0:0,0:0:0:0:
312,256,286643,1,0,0:0:0:0:
376,108,286820,1,10,0:0:0:0:
196,136,286996,5,10,0:0:0:0:
392,200,287173,1,0,0:0:0:0:
296,48,287349,1,8,0:0:0:0:
260,76,287437,1,0,0:0:0:0:
252,124,287526,1,8,0:0:0:0:
284,160,287614,1,0,0:0:0:0:
328,168,287702,2,0,L|352:200,1,35.9999989013672,10|0,0:0|0:0,0:0:0:0:
388,308,287878,2,0,L|364:344,1,35.9999989013672,2|0,0:0|0:0,0:0:0:0:
224,296,288055,6,0,B|260:244|324:264|324:264|328:304|288:316,1,176.000005371094,6|2,0:0|0:0,0:0:0:0:
176,352,288584,1,6,0:0:0:0:
128,292,288761,2,0,B|92:240|28:260|28:260|24:300|64:312,1,176.000005371094,10|0,0:0|0:0,0:0:0:0:
188,232,289290,2,0,P|212:160|168:96,1,143.999995605469,2|8,0:0|0:0,0:0:0:0:
64,180,289820,2,0,B|116:204|136:172|136:172|96:152|56:176,1,143.999995605469,2|8,0:0|0:0,0:0:0:0:
188,232,290349,2,0,B|250:219|250:219|284:244|336:228,1,143.999995605469,10|2,0:0|0:0,0:0:0:0:
360,196,290790,1,2,0:0:0:0:
404,176,290878,6,0,P|444:232|400:292,1,143.999995605469,14|2,0:0|0:0,0:0:0:0:
327,230,291408,1,2,0:0:0:0:
296,352,291584,2,0,P|344:360|380:348,1,71.9999978027344,10|2,0:0|0:0,0:0:0:0:
473,168,291937,2,0,P|437:180|389:168,1,71.9999978027344,0|2,0:0|0:0,0:0:0:0:
296,88,292290,5,8,0:0:0:0:
268,224,292467,1,2,0:0:0:0:
403,175,292643,1,12,0:0:0:0:
224,140,292820,1,2,0:0:0:0:
392,68,292996,5,14,0:0:0:0:
336,248,293173,1,10,0:0:0:0:
207,62,293349,1,8,0:0:0:0:
403,175,293526,1,2,0:0:0:0:
200,296,293702,1,14,0:0:0:0:
256,192,293790,12,2,299349,0:0:0:0:
