osu file format v14

[General]
AudioFilename: audio.mp3
AudioLeadIn: 0
PreviewTime: 1274
Countdown: 0
SampleSet: None
StackLeniency: 0.7
Mode: 0
LetterboxInBreaks: 0
WidescreenStoryboard: 0

[Editor]
DistanceSpacing: 0.2
BeatDivisor: 4
GridSize: 32
TimelineZoom: 1

[Metadata]
Title:Krewrap no uta
TitleUnicode:クレラップの歌
Artist:Aitsuki Nakuru
ArtistUnicode:藍月なくる
Creator:Settia
Version:Easy
Source:
Tags:w
BeatmapID:1292635
BeatmapSetID:612544

[Difficulty]
HPDrainRate:5
CircleSize:4
OverallDifficulty:8
ApproachRate:9.5
SliderMultiplier:1.4
SliderTickRate:1

[Events]
//Background and Video events
0,0,"bg.jpg",0,0
//Break Periods
//Storyboard Layer 0 (Background)
//Storyboard Layer 1 (Fail)
//Storyboard Layer 2 (Pass)
//Storyboard Layer 3 (Foreground)
//Storyboard Sound Samples

[TimingPoints]
1368,329.67032967033,4,2,1,70,1,0

[HitObjects]
171,107,1369,5,0,0:0:0:0:
340,276,1698,1,0,0:0:0:0:
256,73,2028,1,0,0:0:0:0:
256,310,2358,1,0,0:0:0:0:
340,107,2687,5,0,0:0:0:0:
171,276,3017,1,0,0:0:0:0:
374,192,3347,1,0,0:0:0:0:
137,191,3676,1,0,0:0:0:0:
340,276,4006,5,0,0:0:0:0:
171,107,4335,1,0,0:0:0:0:
256,310,4665,1,0,0:0:0:0:
256,73,4995,1,0,0:0:0:0:
171,276,5325,5,0,0:0:0:0:
340,107,5407,1,0,0:0:0:0:
137,191,5984,1,0,0:0:0:0:
374,192,6066,1,0,0:0:0:0:
172,108,6643,5,0,0:0:0:0:
339,276,6808,1,0,0:0:0:0:
256,73,6973,1,0,0:0:0:0:
255,310,7138,1,0,0:0:0:0:
340,107,7303,1,0,0:0:0:0:
256,73,7962,5,0,0:0:0:0:
255,310,8127,1,0,0:0:0:0:
172,108,8292,1,0,0:0:0:0:
339,276,8456,1,0,0:0:0:0:
137,191,8621,5,0,0:0:0:0:
373,192,8785,1,0,0:0:0:0:
171,275,8951,1,0,0:0:0:0:
339,108,9115,1,0,0:0:0:0:
255,310,9281,5,0,0:0:0:0:
255,73,9445,1,0,0:0:0:0:
339,276,9610,1,0,0:0:0:0:
172,108,9774,1,0,0:0:0:0:
373,192,9940,5,0,0:0:0:0:
339,108,10022,1,0,0:0:0:0:
255,73,10105,1,0,0:0:0:0:
172,108,10187,1,0,0:0:0:0:
137,191,10270,1,0,0:0:0:0:
171,275,10352,1,0,0:0:0:0:
255,310,10434,1,0,0:0:0:0:
339,276,10517,1,0,0:0:0:0:
373,192,10599,5,0,0:0:0:0:
137,191,10764,1,0,0:0:0:0:
339,276,10929,1,0,0:0:0:0:
172,108,11094,1,0,0:0:0:0:
255,310,11259,1,0,0:0:0:0:
373,192,11918,5,0,0:0:0:0:
137,191,12000,1,0,0:0:0:0:
338,275,12577,1,0,0:0:0:0:
171,107,12659,1,0,0:0:0:0:
255,310,13237,5,0,0:0:0:0:
255,73,13401,1,0,0:0:0:0:
171,275,13566,1,0,0:0:0:0:
339,108,13731,1,0,0:0:0:0:
137,191,13896,1,0,0:0:0:0:
338,275,14555,5,0,0:0:0:0:
171,107,14720,1,0,0:0:0:0:
254,309,14885,1,0,0:0:0:0:
255,73,15050,1,0,0:0:0:0:
171,275,15215,5,0,0:0:0:0:
339,108,15379,1,0,0:0:0:0:
137,191,15544,1,0,0:0:0:0:
373,192,15709,1,0,0:0:0:0:
171,107,15874,5,0,0:0:0:0:
338,275,16039,1,0,0:0:0:0:
255,73,16204,1,0,0:0:0:0:
254,309,16369,1,0,0:0:0:0:
339,108,16533,5,0,0:0:0:0:
373,192,16616,1,0,0:0:0:0:
338,275,16698,1,0,0:0:0:0:
254,309,16781,1,0,0:0:0:0:
171,275,16863,1,0,0:0:0:0:
137,191,16945,1,0,0:0:0:0:
171,107,17028,1,0,0:0:0:0:
255,73,17110,1,0,0:0:0:0:
339,108,17193,5,0,0:0:0:0:
171,275,17358,1,0,0:0:0:0:
373,192,17522,1,0,0:0:0:0:
137,191,17687,1,0,0:0:0:0:
338,275,17852,1,0,0:0:0:0:
339,108,18511,5,0,0:0:0:0:
171,275,18676,1,0,0:0:0:0:
373,192,18840,1,0,0:0:0:0:
137,191,19005,1,0,0:0:0:0:
338,275,19170,1,0,0:0:0:0:
171,107,19830,5,0,0:0:0:0:
339,108,19995,1,0,0:0:0:0:
171,107,20160,1,0,0:0:0:0:
339,108,20325,1,0,0:0:0:0:
171,275,20489,5,0,0:0:0:0:
338,275,20654,1,0,0:0:0:0:
137,191,20819,1,0,0:0:0:0:
373,192,20984,1,0,0:0:0:0:
254,309,21149,5,0,0:0:0:0:
256,192,21231,12,0,21807,0:0:0:0:
171,107,22467,5,0,0:0:0:0:
340,276,22796,1,0,0:0:0:0:
256,73,23126,1,0,0:0:0:0:
256,310,23456,1,0,0:0:0:0:
340,107,23785,5,0,0:0:0:0:
171,276,24115,1,0,0:0:0:0:
374,192,24445,1,0,0:0:0:0:
137,191,24774,1,0,0:0:0:0:
340,276,25104,5,0,0:0:0:0:
171,107,25764,1,0,0:0:0:0:
256,310,25929,1,0,0:0:0:0:
256,73,26094,1,0,0:0:0:0:
171,276,26423,1,0,0:0:0:0:
