osu file format v14

[General]
AudioFilename: audio.mp3
AudioLeadIn: 0
PreviewTime: 228318
Countdown: 0
SampleSet: Soft
StackLeniency: 0.5
Mode: 0
LetterboxInBreaks: 0
WidescreenStoryboard: 0

[Editor]
DistanceSpacing: 0.3
BeatDivisor: 4
GridSize: 16
TimelineZoom: 1.5

[Metadata]
Title:Kimi no Shiranai Monogatari
TitleUnicode:君の知らない物語
Artist:Aitsuki Nakuru
ArtistUnicode:藍月なくる
Creator:eringiRa
Version:Precious
Source:化物語
Tags:supercell やなぎなぎ yanaginagi yanagi nagi 石塚陽大 Ishizuka Ishiduka Youdai ryo ed ending bakemonogatari the story you don't dont know cover 歌ってみた なくちゃ nakucha japanese pop jpop j-pop anime THAT_blazord racblazord blazord
BeatmapID:4491026
BeatmapSetID:2134493

[Difficulty]
HPDrainRate:5
CircleSize:3.8
OverallDifficulty:8.8
ApproachRate:9.3
SliderMultiplier:1.72
SliderTickRate:1

[Events]
//Background and Video events
0,0,"110111142_p0.jpg",0,0
//Break Periods
2,228428,239492
//Storyboard Layer 0 (Background)
//Storyboard Layer 1 (Fail)
//Storyboard Layer 2 (Pass)
//Storyboard Layer 3 (Foreground)
//Storyboard Layer 4 (Overlay)
//Storyboard Sound Samples

[TimingPoints]
774,363.636363636364,4,2,1,40,1,0
774,-133.333333333333,4,2,1,40,0,0
9501,-100,4,2,1,60,0,0
9683,-100,4,2,1,60,0,0
10228,-100,4,2,1,60,0,0
10592,-100,4,2,1,60,0,0
10955,-100,4,2,1,60,0,0
11319,-100,4,2,1,60,0,0
11683,-100,4,2,1,65,0,0
12046,-100,4,2,1,70,0,0
12410,-100,4,2,2,70,0,0
12592,-100,4,2,3,70,0,0
12774,-100,4,2,1,70,0,0
12955,-100,4,2,3,70,0,0
13137,-100,4,2,1,70,0,0
13319,-100,4,2,3,70,0,0
13501,-100,4,2,1,70,0,0
13683,-100,4,2,3,70,0,0
13864,-100,4,2,1,70,0,0
14046,-100,4,2,3,70,0,0
14228,-100,4,2,1,70,0,0
14410,-100,4,2,3,70,0,0
14592,-100,4,2,1,70,0,0
14774,-100,4,2,3,70,0,0
14955,-100,4,2,1,70,0,0
15137,-100,4,2,3,70,0,0
15319,-100,4,2,1,70,0,0
15501,-100,4,2,3,70,0,0
15683,-100,4,2,1,70,0,0
15864,-100,4,2,3,70,0,0
16046,-100,4,2,1,70,0,0
16228,-100,4,2,3,70,0,0
16410,-100,4,2,1,70,0,0
16592,-100,4,2,3,70,0,0
16774,-100,4,2,1,70,0,0
16955,-100,4,2,3,70,0,0
17137,-100,4,2,1,70,0,0
17319,-100,4,2,3,70,0,0
17501,-100,4,2,1,70,0,0
17683,-100,4,2,3,70,0,0
17864,-100,4,2,1,70,0,0
18774,-100,4,2,3,70,0,0
18955,-100,4,2,1,70,0,0
19137,-100,4,2,3,70,0,0
19319,-100,4,2,1,70,0,0
19501,-100,4,2,3,70,0,0
19683,-100,4,2,1,70,0,0
19864,-100,4,2,3,70,0,0
20046,-100,4,2,1,70,0,0
20228,-100,4,2,3,70,0,0
20410,-100,4,2,1,70,0,0
21046,-100,4,2,2,70,0,0
21683,-100,4,2,1,70,0,0
22137,-100,4,2,2,70,0,0
23228,-100,4,2,2,5,0,0
23501,-100,4,2,4,70,0,0
23592,-100,4,2,4,5,0,0
24046,-100,4,2,1,70,0,0
24228,-100,4,2,3,70,0,0
25501,-100,4,2,1,70,0,0
25683,-100,4,2,3,70,0,0
26046,-100,4,2,5,70,0,0
26228,-100,4,2,3,70,0,0
26592,-100,4,2,1,70,0,0
26774,-100,4,2,3,70,0,0
26955,-100,4,2,1,70,0,0
27137,-100,4,2,3,70,0,0
28046,-100,4,2,1,70,0,0
28228,-90.9090909090909,4,2,1,70,0,0
28592,-90.9090909090909,4,2,1,50,0,0
28774,-90.9090909090909,4,2,1,55,0,0
29137,-90.9090909090909,4,2,1,65,0,0
29501,-90.9090909090909,4,2,1,75,0,0
29864,-133.333333333333,4,2,1,40,0,0
35683,-153.846153846153,4,2,1,40,0,0
41501,-111.111111111111,4,2,1,50,0,0
41864,-111.111111111111,4,2,6,50,0,0
42046,-111.111111111111,4,2,1,50,0,0
42228,-111.111111111111,4,2,7,50,0,0
42410,-111.111111111111,4,2,1,50,0,0
42592,-111.111111111111,4,2,6,50,0,0
42774,-111.111111111111,4,2,1,60,0,0
42955,-111.111111111111,4,2,6,50,0,0
43137,-111.111111111111,4,2,1,50,0,0
43319,-111.111111111111,4,2,6,50,0,0
43501,-111.111111111111,4,2,1,50,0,0
43683,-111.111111111111,4,2,7,50,0,0
43864,-111.111111111111,4,2,1,50,0,0
44046,-111.111111111111,4,2,7,50,0,0
44228,-111.111111111111,4,2,1,50,0,0
44410,-111.111111111111,4,2,6,50,0,0
44592,-111.111111111111,4,2,1,50,0,0
44774,-111.111111111111,4,2,6,50,0,0
44955,-111.111111111111,4,2,1,50,0,0
45137,-111.111111111111,4,2,6,50,0,0
45319,-111.111111111111,4,2,1,50,0,0
45501,-111.111111111111,4,2,6,50,0,0
45683,-111.111111111111,4,2,1,50,0,0
45864,-111.111111111111,4,2,7,50,0,0
46046,-111.111111111111,4,2,1,50,0,0
46228,-111.111111111111,4,2,6,50,0,0
46410,-111.111111111111,4,2,1,50,0,0
46592,-111.111111111111,4,2,7,50,0,0
46774,-111.111111111111,4,2,1,50,0,0
46955,-111.111111111111,4,2,7,50,0,0
47319,-111.111111111111,4,2,6,50,0,0
47683,-111.111111111111,4,2,7,50,0,0
48046,-111.111111111111,4,2,6,50,0,0
48410,-111.111111111111,4,2,7,50,0,0
48774,-111.111111111111,4,2,6,50,0,0
49137,-111.111111111111,4,2,7,50,0,0
49501,-111.111111111111,4,2,6,50,0,0
49864,-111.111111111111,4,2,7,50,0,0
50228,-111.111111111111,4,2,6,50,0,0
50592,-111.111111111111,4,2,7,50,0,0
50955,-111.111111111111,4,2,6,50,0,0
51319,-111.111111111111,4,2,7,50,0,0
51683,-111.111111111111,4,2,6,50,0,0
52046,-111.111111111111,4,2,7,50,0,0
52410,-111.111111111111,4,2,6,50,0,0
52774,-111.111111111111,4,2,7,50,0,0
53137,-111.111111111111,4,2,1,60,0,0
53501,-111.111111111111,4,2,1,60,0,0
53864,-111.111111111111,4,2,1,60,0,0
54228,-111.111111111111,4,2,1,60,0,0
54592,-111.111111111111,4,2,1,60,0,0
54955,-111.111111111111,4,2,1,60,0,0
55319,-111.111111111111,4,2,1,65,0,0
55683,-111.111111111111,4,2,1,70,0,0
56046,-111.111111111111,4,2,1,60,0,0
56410,-111.111111111111,4,2,6,60,0,0
56774,-111.111111111111,4,2,1,60,0,0
57137,-111.111111111111,4,2,8,60,0,0
57319,-111.111111111111,4,2,6,60,0,0
58228,-111.111111111111,4,2,1,60,0,0
58592,-111.111111111111,4,2,8,60,0,0
58955,-111.111111111111,4,2,1,60,0,0
59319,-111.111111111111,4,2,6,60,0,0
59683,-111.111111111111,4,2,1,60,0,0
60046,-111.111111111111,4,2,8,60,0,0
60228,-111.111111111111,4,2,6,60,0,0
61137,-111.111111111111,4,2,1,60,0,0
61501,-249.999999999999,4,2,2,60,0,0
61864,-100,4,2,1,70,0,0
62228,-100,4,2,7,70,0,0
63319,-100,4,2,6,70,0,0
63683,-100,4,2,7,70,0,0
64046,-100,4,2,6,70,0,0
64410,-100,4,2,7,70,0,0
64774,-100,4,2,1,70,0,0
66046,-100,4,2,2,70,0,0
66228,-100,4,2,4,70,0,0
67683,-90.9090909090909,4,2,1,80,0,1
68046,-90.9090909090909,4,2,7,80,0,1
68774,-90.9090909090909,4,2,6,80,0,1
69683,-90.9090909090909,4,2,1,80,0,1
69864,-90.9090909090909,4,2,7,80,0,1
70046,-90.9090909090909,4,2,1,80,0,1
70228,-90.9090909090909,4,2,7,80,0,1
70410,-90.9090909090909,4,2,1,80,0,1
70592,-90.9090909090909,4,2,7,80,0,1
71683,-90.9090909090909,4,2,6,80,0,1
72592,-90.9090909090909,4,2,2,80,0,1
73137,-90.9090909090909,4,2,3,80,0,1
73319,-90.9090909090909,4,2,1,80,0,1
73864,-90.9090909090909,4,2,7,80,0,1
75683,-90.9090909090909,4,2,6,80,0,1
76046,-111.111111111111,4,2,2,80,0,1
76410,-90.9090909090909,4,2,1,80,0,1
76774,-90.9090909090909,4,2,7,80,0,1
76955,-90.9090909090909,4,2,2,80,0,1
77501,-90.9090909090909,4,2,7,80,0,1
77683,-90.9090909090909,4,2,1,80,0,1
78228,-90.9090909090909,4,2,7,80,0,1
78410,-90.9090909090909,4,2,1,80,0,1
78592,-90.9090909090909,4,2,6,80,0,1
78955,-90.9090909090909,4,2,1,80,0,1
79228,-90.9090909090909,4,2,2,80,0,1
79319,-90.9090909090909,4,2,1,80,0,1
79683,-90.9090909090909,4,2,7,80,0,1
80410,-90.9090909090909,4,2,6,80,0,1
81319,-90.9090909090909,4,2,1,80,0,1
81501,-90.9090909090909,4,2,7,80,0,1
81683,-90.9090909090909,4,2,1,80,0,1
81864,-90.9090909090909,4,2,7,80,0,1
82046,-90.9090909090909,4,2,1,80,0,1
82228,-90.9090909090909,4,2,7,80,0,1
83319,-90.9090909090909,4,2,6,80,0,1
83501,-90.9090909090909,4,2,1,80,0,1
83683,-90.9090909090909,4,2,6,80,0,1
84228,-90.9090909090909,4,2,2,80,0,1
84774,-90.9090909090909,4,2,4,80,0,1
85137,-111.111111111111,4,2,1,70,0,1
85501,-111.111111111111,4,2,7,70,0,1
86228,-111.111111111111,4,2,6,70,0,1
86592,-111.111111111111,4,2,1,70,0,1
86955,-111.111111111111,4,2,7,70,0,1
87683,-111.111111111111,4,2,6,70,0,1
87864,-111.111111111111,4,2,1,70,0,1
88410,-111.111111111111,4,2,7,70,0,1
89137,-111.111111111111,4,2,6,70,0,1
89501,-111.111111111111,4,2,1,70,0,1
89864,-111.111111111111,4,2,7,70,0,1
90592,-111.111111111111,4,2,1,70,0,1
90955,-111.111111111111,4,2,2,70,0,1
91319,-111.111111111111,4,2,2,60,0,1
91683,-111.111111111111,4,2,2,60,0,1
92410,-111.111111111111,4,2,2,60,0,1
93137,-111.111111111111,4,2,2,60,0,1
93864,-90.9090909090908,4,2,2,60,0,1
94410,-90.9090909090908,4,2,1,60,0,1
94955,-90.9090909090908,4,2,2,60,0,1
95319,-90.9090909090908,4,2,1,70,0,1
96046,-133.333333333333,4,2,1,70,0,1
96774,-99.9999999999999,4,2,1,70,0,0
96955,-99.9999999999999,4,2,3,70,0,0
98228,-99.9999999999999,4,2,1,70,0,0
98410,-99.9999999999999,4,2,3,70,0,0
98774,-99.9999999999999,4,2,5,70,0,0
98955,-99.9999999999999,4,2,3,70,0,0
99319,-99.9999999999999,4,2,1,70,0,0
99501,-99.9999999999999,4,2,3,70,0,0
99683,-99.9999999999999,4,2,1,70,0,0
99864,-99.9999999999999,4,2,3,70,0,0
100774,-99.9999999999999,4,2,2,70,0,0
101319,-99.9999999999999,4,2,2,70,0,0
101501,-99.9999999999999,4,2,2,70,0,0
101683,-99.9999999999999,4,2,2,70,0,0
101864,-99.9999999999999,4,2,2,70,0,0
102046,-99.9999999999999,4,2,2,70,0,0
102228,-99.9999999999999,4,2,2,70,0,0
102410,-99.9999999999999,4,2,2,70,0,0
102592,-111.111111111111,4,2,1,50,0,0
113864,-133.333333333333,4,2,1,50,0,0
114228,-111.111111111111,4,2,1,60,0,0
114410,-111.111111111111,4,2,3,60,0,0
114592,-111.111111111111,4,2,1,60,0,0
114774,-111.111111111111,4,2,5,60,0,0
114955,-111.111111111111,4,2,1,60,0,0
115137,-111.111111111111,4,2,5,60,0,0
115319,-111.111111111111,4,2,1,60,0,0
115501,-111.111111111111,4,2,5,60,0,0
115683,-111.111111111111,4,2,1,60,0,0
115864,-111.111111111111,4,2,5,60,0,0
116046,-111.111111111111,4,2,1,60,0,0
116228,-111.111111111111,4,2,5,60,0,0
116410,-111.111111111111,4,2,1,60,0,0
116592,-111.111111111111,4,2,5,60,0,0
116774,-111.111111111111,4,2,1,60,0,0
116955,-111.111111111111,4,2,5,60,0,0
117137,-111.111111111111,4,2,1,60,0,0
117319,-111.111111111111,4,2,5,60,0,0
117501,-111.111111111111,4,2,1,60,0,0
117683,-111.111111111111,4,2,5,60,0,0
117864,-111.111111111111,4,2,1,60,0,0
118046,-111.111111111111,4,2,5,60,0,0
118228,-111.111111111111,4,2,1,60,0,0
118410,-111.111111111111,4,2,5,60,0,0
118592,-111.111111111111,4,2,1,60,0,0
118774,-111.111111111111,4,2,5,60,0,0
118955,-111.111111111111,4,2,1,60,0,0
119137,-111.111111111111,4,2,5,60,0,0
119319,-111.111111111111,4,2,1,60,0,0
119501,-111.111111111111,4,2,5,60,0,0
119683,-111.111111111111,4,2,3,60,0,0
120046,-111.111111111111,4,2,2,60,0,0
120228,-111.111111111111,4,2,3,60,0,0
120774,-111.111111111111,4,2,1,60,0,0
120955,-111.111111111111,4,2,3,60,0,0
121501,-111.111111111111,4,2,1,60,0,0
121683,-111.111111111111,4,2,3,60,0,0
122228,-111.111111111111,4,2,1,60,0,0
122410,-111.111111111111,4,2,3,60,0,0
122592,-111.111111111111,4,2,1,60,0,0
122774,-111.111111111111,4,2,3,60,0,0
122955,-111.111111111111,4,2,1,60,0,0
123137,-111.111111111111,4,2,3,60,0,0
123683,-111.111111111111,4,2,1,60,0,0
123864,-111.111111111111,4,2,3,60,0,0
124410,-111.111111111111,4,2,1,60,0,0
124592,-111.111111111111,4,2,3,60,0,0
125137,-111.111111111111,4,2,1,60,0,0
125319,-111.111111111111,4,2,3,60,0,0
125864,-111.111111111111,4,2,2,70,0,0
126228,-111.111111111111,4,2,2,60,0,0
126592,-111.111111111111,4,2,2,60,0,0
126955,-111.111111111111,4,2,2,60,0,0
127319,-111.111111111111,4,2,2,60,0,0
127683,-111.111111111111,4,2,2,60,0,0
128046,-111.111111111111,4,2,2,60,0,0
128410,-111.111111111111,4,2,2,60,0,0
128774,-111.111111111111,4,2,1,60,0,0
129137,-111.111111111111,4,2,6,60,0,0
129501,-111.111111111111,4,2,1,60,0,0
129864,-111.111111111111,4,2,8,60,0,0
130046,-111.111111111111,4,2,6,60,0,0
130955,-111.111111111111,4,2,1,60,0,0
131319,-111.111111111111,4,2,8,60,0,0
131683,-111.111111111111,4,2,1,60,0,0
132046,-111.111111111111,4,2,6,60,0,0
132410,-111.111111111111,4,2,1,60,0,0
132774,-111.111111111111,4,2,8,60,0,0
132955,-111.111111111111,4,2,6,60,0,0
133864,-111.111111111111,4,2,1,60,0,0
134228,-111.111111111111,4,2,2,60,0,0
134592,-133.333333333333,4,2,1,60,0,0
137501,-133.333333333333,4,2,1,70,0,0
137864,-133.333333333333,4,2,1,60,0,0
138228,-133.333333333333,4,2,1,60,0,0
138592,-133.333333333333,4,2,1,60,0,0
138955,-133.333333333333,4,2,1,60,0,0
139319,-133.333333333333,4,2,1,60,0,0
139683,-133.333333333333,4,2,1,65,0,0
140046,-133.333333333333,4,2,1,70,0,0
140410,-90.9090909090909,4,2,1,80,0,1
140774,-90.9090909090909,4,2,7,80,0,1
141501,-90.9090909090909,4,2,6,80,0,1
142410,-90.9090909090909,4,2,1,80,0,1
142592,-90.9090909090909,4,2,7,80,0,1
142774,-90.9090909090909,4,2,1,80,0,1
142955,-90.9090909090909,4,2,7,80,0,1
143137,-90.9090909090909,4,2,1,80,0,1
143319,-90.9090909090909,4,2,7,80,0,1
144410,-90.9090909090909,4,2,6,80,0,1
145319,-90.9090909090909,4,2,1,80,0,1
145501,-90.9090909090909,4,2,7,80,0,1
145683,-90.9090909090909,4,2,2,80,0,1
145864,-90.9090909090909,4,2,4,80,0,1
146228,-90.9090909090909,4,2,1,80,0,1
146592,-90.9090909090909,4,2,7,80,0,1
148410,-83.3333333333333,4,2,1,80,0,1
148774,-100,4,2,2,80,0,1
149137,-90.9090909090909,4,2,1,80,0,1
149501,-90.9090909090909,4,2,7,80,0,1
149864,-90.9090909090909,4,2,2,80,0,1
150228,-90.9090909090909,4,2,7,80,0,1
150410,-90.9090909090909,4,2,1,80,0,1
150955,-90.9090909090909,4,2,7,80,0,1
151319,-90.9090909090909,4,2,6,80,0,1
151683,-90.9090909090909,4,2,1,80,0,1
151955,-90.9090909090909,4,2,2,80,0,1
152046,-90.9090909090909,4,2,1,80,0,1
152410,-90.9090909090909,4,2,7,80,0,1
153137,-90.9090909090909,4,2,6,80,0,1
154046,-90.9090909090909,4,2,1,80,0,1
154228,-90.9090909090909,4,2,7,80,0,1
154410,-90.9090909090909,4,2,1,80,0,1
154592,-90.9090909090909,4,2,7,80,0,1
154774,-90.9090909090909,4,2,1,80,0,1
154955,-90.9090909090909,4,2,7,80,0,1
156046,-90.9090909090909,4,2,6,80,0,1
156955,-90.9090909090909,4,2,1,80,0,1
157137,-90.9090909090909,4,2,7,80,0,1
157319,-90.9090909090909,4,2,2,80,0,1
157501,-90.9090909090909,4,2,4,80,0,1
157864,-90.9090909090909,4,2,1,70,0,1
158046,-111.111111111111,4,2,1,70,0,1
158228,-111.111111111111,4,2,7,70,0,1
158955,-111.111111111111,4,2,6,70,0,1
159683,-111.111111111111,4,2,7,70,0,1
160410,-111.111111111111,4,2,6,70,0,1
160592,-111.111111111111,4,2,1,70,0,1
161137,-111.111111111111,4,2,7,70,0,1
161864,-111.111111111111,4,2,6,70,0,1
162592,-111.111111111111,4,2,7,70,0,1
162955,-111.111111111111,4,2,2,70,0,1
163683,-111.111111111111,4,2,1,70,0,1
164046,-90.9090909090908,4,2,1,70,0,1
164410,-90.9090909090908,4,2,1,70,0,1
164774,-90.9090909090908,4,2,1,70,0,1
165137,-90.9090909090908,4,2,1,70,0,1
165501,-90.9090909090908,4,2,1,70,0,1
165864,-90.9090909090908,4,2,1,70,0,1
166228,-90.9090909090908,4,2,1,70,0,1
166592,-90.9090909090908,4,2,2,80,0,1
167137,-90.9090909090908,4,2,1,80,0,1
167683,-90.9090909090908,4,2,2,80,0,1
168046,-90.9090909090908,4,2,1,80,0,1
168592,-90.9090909090908,4,2,2,80,0,1
168774,-142.857142857143,4,2,2,80,0,1
168955,-142.857142857143,4,2,4,80,0,1
169501,-90.9090909090909,4,2,1,70,0,1
170046,-90.9090909090909,4,2,2,70,0,1
170592,-90.9090909090909,4,2,3,70,0,1
171137,-90.9090909090909,4,2,1,70,0,1
172046,-90.9090909090909,4,2,2,70,0,1
172410,-90.9090909090909,4,2,2,80,0,1
172955,-90.9090909090909,4,2,1,80,0,1
173501,-90.9090909090909,4,2,3,80,0,1
174046,-90.9090909090909,4,2,2,80,0,1
174592,-90.9090909090909,4,2,1,80,0,1
175319,-90.9090909090909,4,2,4,80,0,1
175683,-200,4,2,4,50,0,0
178046,-200,4,2,4,70,0,0
178592,-200,4,2,4,50,0,0
180410,-100,4,2,4,50,0,0
181137,-111.111111111111,4,2,1,60,0,0
181501,-111.111111111111,4,2,7,60,0,0
182592,-111.111111111111,4,2,6,60,0,0
182955,-111.111111111111,4,2,7,60,0,0
183864,-111.111111111111,4,2,1,60,0,0
184410,-111.111111111111,4,2,7,60,0,0
186592,-111.111111111111,4,2,1,60,0,0
187319,-111.111111111111,4,2,6,60,0,0
187501,-111.111111111111,4,2,2,60,0,0
188046,-111.111111111111,4,2,6,60,0,0
188228,-111.111111111111,4,2,1,60,0,0
188774,-111.111111111111,4,2,6,60,0,0
188955,-111.111111111111,4,2,2,60,0,0
189501,-111.111111111111,4,2,6,60,0,0
189864,-111.111111111111,4,2,1,60,0,0
190228,-111.111111111111,4,2,6,60,0,0
190592,-111.111111111111,4,2,2,60,0,0
190955,-111.111111111111,4,2,6,60,0,0
191137,-111.111111111111,4,2,1,60,0,0
191683,-111.111111111111,4,2,6,60,0,0
191864,-111.111111111111,4,2,2,60,0,0
192410,-111.111111111111,4,2,6,60,0,0
192774,-111.111111111111,4,2,1,60,0,0
195683,-90.9090909090909,4,2,2,70,0,0
196046,-90.9090909090909,4,2,2,60,0,0
196410,-90.9090909090909,4,2,2,60,0,0
197137,-90.9090909090909,4,2,2,60,0,0
197864,-90.9090909090909,4,2,2,60,0,0
198592,-90.9090909090909,4,2,1,60,0,0
199319,-90.9090909090909,4,2,1,65,0,0
200046,-90.9090909090909,4,2,1,70,0,0
200774,-90.9090909090909,4,2,1,75,0,0
201501,-90.9090909090909,4,2,1,80,0,0
202228,363.636363636364,4,2,1,80,1,0
202228,-100,4,2,1,80,0,0
202591,-100,4,2,6,80,0,0
204046,-100,4,2,7,80,0,0
204228,-100,4,2,1,80,0,0
204409,-100,4,2,7,80,0,0
204773,-100,4,2,6,80,0,0
205500,-100,4,2,7,80,0,0
205682,-100,4,2,1,80,0,0
205864,-100,4,2,7,80,0,0
206228,-100,4,2,6,80,0,0
206409,-100,4,2,1,80,0,0
206591,-100,4,2,6,80,0,0
206773,-100,4,2,1,80,0,0
206955,-100,4,2,6,80,0,0
208046,-100,4,2,1,80,0,0
208409,-100,4,2,6,80,0,0
208591,-100,4,2,1,80,0,0
208773,-100,4,2,7,80,0,0
208955,-100,4,2,1,80,0,0
209137,-100,4,2,6,80,0,0
209318,-100,4,2,1,80,0,0
209500,-100,4,2,7,80,0,0
209682,-100,4,2,1,80,0,0
209864,-100,4,2,6,80,0,0
210046,-100,4,2,1,80,0,0
210228,-100,4,2,6,80,0,0
210500,-100,4,2,1,80,0,0
210591,-100,4,2,7,80,0,0
210773,-100,4,2,1,80,0,0
210955,-100,4,2,6,80,0,0
211318,-100,4,2,7,80,0,0
211500,-100,4,2,1,80,0,0
211682,-100,4,2,6,80,0,0
211773,-100,4,2,1,80,0,0
212046,-100,4,2,6,80,0,0
212137,-100,4,2,1,80,0,0
212591,-100,4,2,6,80,0,0
213137,-100,4,2,1,80,0,0
213318,-100,4,2,6,80,0,0
213864,-111.111111111111,4,2,1,80,0,0
214228,-111.111111111111,4,2,2,80,0,0
216591,-111.111111111111,4,2,1,80,0,0
216773,-111.111111111111,4,2,2,80,0,0
219318,-111.111111111111,4,2,3,80,0,0
219682,-100,4,2,2,80,0,0
220228,-100,4,2,1,80,0,0
220773,-100,4,2,4,80,0,0
221137,-100,4,2,2,80,0,0
221682,-100,4,2,1,80,0,0
222228,-100,4,2,4,80,0,0
222591,-100,4,2,1,80,0,0
222955,-100,4,2,6,80,0,0
223137,-100,4,2,1,80,0,0
223318,-100,4,2,7,80,0,0
223500,-100,4,2,1,80,0,0
223682,-100,4,2,6,80,0,0
224228,-100,4,2,1,80,0,0
224409,-100,4,2,7,80,0,0
224591,-100,4,2,1,80,0,0
224773,-100,4,2,6,80,0,0
225500,-100,4,2,2,80,0,0
225864,-100,4,2,2,60,0,0
226228,-100,4,2,2,60,0,0
226591,-100,4,2,2,60,0,0
226955,-100,4,2,2,60,0,0
227318,-100,4,2,2,60,0,0
227682,-100,4,2,2,65,0,0
228046,-100,4,2,2,70,0,0
228409,-100,4,2,2,40,0,0
240046,-133.333333333333,4,2,1,60,0,0
240409,-133.333333333333,4,2,7,60,0,0
241137,-133.333333333333,4,2,8,60,0,0
241318,-133.333333333333,4,2,1,60,0,0
241864,-133.333333333333,4,2,7,60,0,0
242591,-133.333333333333,4,2,8,60,0,0
242773,-133.333333333333,4,2,1,60,0,0
243318,-133.333333333333,4,2,7,60,0,0
243864,-133.333333333333,4,2,1,60,0,0
244046,-133.333333333333,4,2,8,60,0,0
244228,-133.333333333333,4,2,1,60,0,0
244773,-133.333333333333,4,2,7,60,0,0
245318,-133.333333333333,4,2,1,60,0,0
245682,-133.333333333333,4,2,2,60,0,0
245864,-222.222222222221,4,2,2,50,0,0
246228,-222.222222222221,4,2,7,50,0,0
246955,-222.222222222221,4,2,9,50,0,0
247682,-222.222222222221,4,2,7,50,0,0
248409,-222.222222222221,4,2,9,50,0,0
248560,-133.333333333333,4,2,9,50,0,0
248773,-133.333333333333,4,2,4,50,0,0
250955,-100,4,2,4,70,0,0
251682,-111.111111111111,4,2,1,60,0,0
251864,-111.111111111111,4,2,3,60,0,0
252773,-111.111111111111,4,2,1,60,0,0
252955,-111.111111111111,4,2,3,60,0,0
253137,-111.111111111111,4,2,1,60,0,0
253318,-111.111111111111,4,2,3,60,0,0
253500,-111.111111111111,4,2,1,60,0,0
253682,-111.111111111111,4,2,5,60,0,0
253864,-111.111111111111,4,2,1,60,0,0
254046,-111.111111111111,4,2,5,60,0,0
254228,-111.111111111111,4,2,2,60,0,0
254773,-111.111111111111,4,2,3,60,0,0
255682,-111.111111111111,4,2,1,60,0,0
255864,-111.111111111111,4,2,3,60,0,0
256046,-111.111111111111,4,2,1,60,0,0
256228,-111.111111111111,4,2,3,60,0,0
256409,-111.111111111111,4,2,1,60,0,0
256591,-111.111111111111,4,2,5,60,0,0
256773,-111.111111111111,4,2,1,60,0,0
256955,-111.111111111111,4,2,5,60,0,0
257137,-111.111111111111,4,2,1,60,0,0
257500,-111.111111111111,4,2,1,70,0,0
257864,-111.111111111111,4,2,1,60,0,0
258228,-111.111111111111,4,2,1,60,0,0
258591,-111.111111111111,4,2,1,60,0,0
258955,-111.111111111111,4,2,1,60,0,0
259318,-111.111111111111,4,2,1,60,0,0
259682,-111.111111111111,4,2,1,65,0,0
260046,-111.111111111111,4,2,1,70,0,0
260409,-100,4,2,1,70,0,0
260955,-100,4,2,2,70,0,0
261500,-100,4,2,1,70,0,0
262046,-100,4,2,2,70,0,0
262955,-100,4,2,1,70,0,0
263137,-100,4,2,2,70,0,0
263318,-133.333333333333,4,2,1,50,0,0
263682,-133.333333333333,4,2,7,50,0,0
264409,-133.333333333333,4,2,6,50,0,0
264773,-133.333333333333,4,2,1,50,0,0
265137,-133.333333333333,4,2,6,50,0,0
265318,-133.333333333333,4,2,1,50,0,0
265864,-133.333333333333,4,2,7,50,0,0
266046,-133.333333333333,4,2,1,50,0,0
266591,-133.333333333333,4,2,7,50,0,0
267318,-133.333333333333,4,2,6,50,0,0
267682,-133.333333333333,4,2,1,50,0,0
268046,-133.333333333333,4,2,6,50,0,0
268228,-133.333333333333,4,2,1,50,0,0
268773,-133.333333333333,4,2,7,50,0,0
268955,-133.333333333333,4,2,1,50,0,0
269500,-133.333333333333,4,2,7,50,0,0
270773,-133.333333333333,4,2,1,50,0,0
270955,-133.333333333333,4,2,7,50,0,0
271318,-133.333333333333,4,2,1,50,0,0
271682,-133.333333333333,4,2,6,50,0,0
272046,-133.333333333333,4,2,2,50,0,0
272409,-133.333333333333,4,2,7,50,0,0
272773,-133.333333333333,4,2,1,50,0,0
273137,-133.333333333333,4,2,7,50,0,0
273318,-133.333333333333,4,2,1,50,0,0
273864,-133.333333333333,4,2,7,50,0,0
274046,-133.333333333333,4,2,1,50,0,0
274591,-133.333333333333,4,2,6,50,0,0
274773,-133.333333333333,4,2,1,50,0,0
274955,-133.333333333333,4,2,1,60,0,0
275318,-133.333333333333,4,2,7,60,0,0
275500,-133.333333333333,4,2,1,60,0,0
276046,-133.333333333333,4,2,3,60,0,0
276409,-133.333333333333,4,2,1,60,0,0
276773,-133.333333333333,4,2,6,60,0,0
276955,-133.333333333333,4,2,1,60,0,0
277500,-133.333333333333,4,2,4,60,0,0
277864,-133.333333333333,4,2,1,60,0,0
278228,-133.333333333333,4,2,7,60,0,0
278409,-133.333333333333,4,2,1,60,0,0
278955,-133.333333333333,4,2,3,60,0,0
279318,-133.333333333333,4,2,1,60,0,0
279682,-133.333333333333,4,2,6,60,0,0
279864,-133.333333333333,4,2,1,60,0,0
280228,-133.333333333333,4,2,2,60,0,0
280409,-133.333333333333,4,2,7,60,0,0
280591,-133.333333333333,4,2,2,60,0,0
281137,-133.333333333333,4,2,7,60,0,0
281318,-133.333333333333,4,2,1,60,0,0
281864,-133.333333333333,4,2,3,60,0,0
282228,-133.333333333333,4,2,1,60,0,0
282591,-133.333333333333,4,2,6,60,0,0
282773,-133.333333333333,4,2,1,60,0,0
283137,-133.333333333333,4,2,2,60,0,0
283318,-133.333333333333,4,2,7,60,0,0
283500,-133.333333333333,4,2,1,60,0,0
284046,-133.333333333333,4,2,7,60,0,0
284228,-133.333333333333,4,2,1,60,0,0
284773,-133.333333333333,4,2,3,60,0,0
285137,-133.333333333333,4,2,1,60,0,0
285500,-133.333333333333,4,2,6,60,0,0
285682,-133.333333333333,4,2,1,60,0,0
286046,-133.333333333333,4,2,2,60,0,0
286228,-133.333333333333,4,2,7,60,0,0
286409,-133.333333333333,4,2,2,60,0,0
286591,-133.333333333333,4,2,2,70,0,0
286955,-100,4,2,2,50,0,0
287318,-100,4,2,2,50,0,0
288046,-100,4,2,2,50,0,0
288773,-100,4,2,2,50,0,0
289500,-100,4,2,2,60,0,0
290228,-100,4,2,2,60,0,0
290955,-100,4,2,2,60,0,0
291682,-100,4,2,2,60,0,0
292409,-100,4,2,1,70,0,0
292591,-100,4,2,1,70,0,0
293137,-100,4,2,1,70,0,0
293864,-100,4,2,1,70,0,0
294591,-100,4,2,1,70,0,0
296591,-100,4,2,2,70,0,0
296773,-100,4,2,4,70,0,0
297137,-100,4,2,1,70,0,0
298228,-90.9090909090909,4,2,1,80,0,1
298591,-90.9090909090909,4,2,7,80,0,1
299318,-90.9090909090909,4,2,6,80,0,1
300228,-90.9090909090909,4,2,1,80,0,1
300409,-90.9090909090909,4,2,7,80,0,1
300591,-90.9090909090909,4,2,1,80,0,1
300773,-90.9090909090909,4,2,7,80,0,1
300955,-90.9090909090909,4,2,1,80,0,1
301137,-90.9090909090909,4,2,7,80,0,1
302228,-90.9090909090909,4,2,6,80,0,1
303137,-90.9090909090909,4,2,1,80,0,1
303318,-90.9090909090909,4,2,7,80,0,1
303500,-90.9090909090909,4,2,2,80,0,1
303682,-90.9090909090909,4,2,4,80,0,1
304046,-111.111111111111,4,2,1,70,0,1
304409,-111.111111111111,4,2,7,70,0,1
305500,-111.111111111111,4,2,1,70,0,1
305864,-111.111111111111,4,2,7,70,0,1
306591,-111.111111111111,4,2,6,70,0,1
306773,-111.111111111111,4,2,1,70,0,1
307318,-111.111111111111,4,2,7,70,0,1
308046,-111.111111111111,4,2,6,70,0,1
308409,-111.111111111111,4,2,1,70,0,1
308773,-111.111111111111,4,2,7,70,0,1
309137,-111.111111111111,4,2,2,70,0,1
309864,-111.111111111111,4,2,1,70,0,1
310228,-111.111111111111,4,2,1,70,0,1
310591,-111.111111111111,4,2,1,70,0,1
310955,-111.111111111111,4,2,1,70,0,1
311318,-111.111111111111,4,2,1,70,0,1
311682,-111.111111111111,4,2,1,70,0,1
312046,-111.111111111111,4,2,1,70,0,1
312409,-111.111111111111,4,2,1,75,0,1
312773,-111.111111111111,4,2,2,80,0,1
312955,-90.9090909090909,4,2,2,80,0,1
313318,-90.9090909090909,4,2,1,80,0,1
313864,-90.9090909090909,4,2,2,80,0,1
314228,-90.9090909090909,4,2,4,80,0,0
314591,-90.9090909090909,4,2,4,50,0,0
315682,-100,4,2,1,70,0,0
315864,-100,4,2,3,70,0,0
317137,-100,4,2,1,70,0,0
317318,-100,4,2,3,70,0,0
317682,-100,4,2,5,70,0,0
317864,-100,4,2,3,70,0,0
318228,-100,4,2,1,70,0,0
318409,-100,4,2,3,70,0,0
318591,-100,4,2,1,70,0,0
318773,-100,4,2,3,70,0,0
320046,-100,4,2,1,70,0,0
320228,-100,4,2,3,70,0,0
320591,-100,4,2,5,70,0,0
320773,-100,4,2,3,70,0,0
321137,-100,4,2,1,70,0,0
321318,-100,4,2,3,70,0,0
321500,-100,4,2,1,70,0,0
321682,-100,4,2,3,70,0,0
322955,-100,4,2,1,70,0,0
323137,-100,4,2,3,70,0,0
323500,-100,4,2,5,70,0,0
323682,-100,4,2,3,70,0,0
324046,-100,4,2,1,70,0,0
324228,-100,4,2,3,70,0,0
324409,-100,4,2,1,70,0,0
324591,-100,4,2,3,70,0,0
324773,-100,4,2,1,70,0,0
324955,-100,4,2,5,70,0,0
325137,-100,4,2,1,70,0,0
325318,-100,4,2,5,70,0,0
325500,-100,4,2,2,70,0,0
326046,-100,4,2,2,60,0,0
326228,-100,4,2,2,60,0,0
326409,-100,4,2,2,60,0,0
326591,-100,4,2,2,60,0,0
326773,-100,4,2,2,60,0,0
326955,-100,4,2,2,65,0,0
327137,-100,4,2,2,70,0,0
328046,-333.333333333333,4,2,10,80,0,0
335409,-250,4,2,10,70,0,0
335500,-250,4,2,10,70,0,0
335682,-250,4,2,2,70,0,0

[Colours]
Combo1 : 160,239,207
Combo2 : 89,85,255
Combo3 : 17,217,207

[HitObjects]
25,30,774,6,0,P|62:53|84:93,1,64.5000024604798,2|2,2:2|2:2,0:0:0:0:
141,140,1137,1,2,2:2:0:0:
141,140,1319,2,0,P|186:94|265:75,1,129.00000492096,2|2,2:2|2:2,0:0:0:0:
307,12,1864,2,0,P|336:36|332:84,1,64.5000024604798,2|2,2:2|2:2,0:0:0:0:
406,179,2228,6,0,P|439:189|474:216,2,64.5000024604798,2|2|2,2:2|2:2|2:2,0:0:0:0:
345,265,2774,2,0,P|375:273|402:291,1,64.5000024604798,2|0,2:2|0:0,0:0:0:0:
294,373,3137,1,2,2:2:0:0:
238,304,3319,2,0,P|248:265|255:213,1,64.5000024604798,0|2,0:0|2:2,0:0:0:0:
159,150,3683,6,0,P|121:202|55:199,1,129.00000492096,2|2,2:2|2:2,0:0:0:0:
73,22,4228,1,2,2:2:0:0:
14,90,4410,2,0,P|53:106|98:117,1,64.5000024604798,2|0,2:2|0:0,0:0:0:0:
170,54,4774,2,0,P|217:28|250:15,1,64.5000024604798,2|2,2:2|2:2,0:0:0:0:
395,88,5137,6,0,L|377:157,2,64.5000024604798,2|2|2,2:2|2:2|2:2,0:0:0:0:
321,39,5683,2,0,L|284:181,1,129.00000492096,2|2,2:2|2:2,0:0:0:0:
414,229,6228,2,0,P|448:214|459:179,1,64.5000024604798
252,286,6592,6,0,B|178:309|226:344|122:362,1,129.00000492096,2|0,2:2|0:0,0:0:0:0:
16,227,7137,1,0,0:0:0:0:
42,305,7319,2,0,P|78:285|88:245,1,64.5000024604798,2|0,2:2|0:0,0:0:0:0:
166,234,7683,2,0,P|160:194|115:180,1,64.5000024604798
22,121,8046,6,0,B|107:95|40:73|143:49,1,129.00000492096,2|0,2:2|0:0,0:0:0:0:
291,74,8592,1,0,0:0:0:0:
223,15,8774,2,0,P|207:60|196:98,1,64.5000024604798,2|0,2:2|0:0,0:0:0:0:
307,168,9137,2,0,P|356:143|389:128,1,64.5000024604798
477,321,9501,6,0,P|421:294|366:269,1,86,6|8,1:2|1:2,0:0:0:0:
156,182,9864,5,8,1:2:0:0:
241,372,10046,1,8,1:2:0:0:
307,168,10228,1,10,1:2:0:0:
138,289,10410,1,8,1:2:0:0:
349,356,10592,1,8,1:2:0:0:
229,118,10774,1,8,1:2:0:0:
99,373,10955,5,10,1:2:0:0:
380,217,11137,1,8,1:2:0:0:
110,83,11319,2,0,P|131:147|148:204,1,86,10|8,1:2|1:2,0:0:0:0:
261,294,11683,5,10,1:2:0:0:
394,94,11864,1,8,1:2:0:0:
203,211,12046,1,10,1:2:0:0:
417,328,12228,1,8,1:2:0:0:
287,63,12410,6,0,P|267:127|257:164,1,86,6|2,1:2|2:2,0:0:0:0:
446,233,12774,2,0,P|486:206|478:148,1,86,10|2,2:2|2:2,0:0:0:0:
177,301,13137,5,2,1:2:0:0:
351,183,13319,1,2,2:2:0:0:
301,368,13501,2,0,P|284:322|271:271,1,86,10|2,2:2|2:2,0:0:0:0:
145,166,13864,6,0,P|80:167|31:276,2,172,2|10|2,1:2|2:2|1:2,0:0:0:0:
349,120,14774,1,2,2:2:0:0:
205,7,14955,2,0,P|220:67|237:128,1,86,10|2,2:2|2:2,0:0:0:0:
411,183,15319,6,0,P|450:154|441:108,1,86,2|2,1:2|2:2,0:0:0:0:
279,223,15683,2,0,P|257:280|248:324,1,86,10|2,2:2|2:2,0:0:0:0:
34,348,16046,5,2,1:2:0:0:
183,229,16228,1,2,2:2:0:0:
30,138,16410,2,0,P|59:219|67:243,1,86,10|2,2:2|2:2,0:0:0:0:
261,63,16774,6,0,P|204:46|164:32,1,86,2|2,1:2|2:2,0:0:0:0:
68,22,17046,1,8,2:2:0:0:
75,37,17137,1,10,2:2:0:0:
83,51,17228,1,8,2:2:0:0:
91,66,17319,1,10,2:2:0:0:
275,235,17501,6,0,L|293:175,1,43,2|8,1:2|2:2,0:0:0:0:
186,143,17683,1,10,2:2:0:0:
186,143,17774,1,8,2:2:0:0:
186,143,17864,2,0,L|156:237,1,86,10|0,2:2|0:0,0:0:0:0:
283,368,18228,6,0,P|318:332|372:309,1,86,6|0,1:2|0:0,0:0:0:0:
428,199,18592,2,0,P|473:231|521:254,1,86,10|2,2:2|2:2,0:0:0:0:
200,51,18955,5,2,1:2:0:0:
290,238,19137,1,2,2:2:0:0:
418,90,19319,2,0,P|374:111|321:134,1,86,10|2,2:2|2:2,0:0:0:0:
180,247,19683,6,0,P|156:206|46:199,1,129,2|0,1:2|0:0,0:0:0:0:
49,272,20046,2,0,P|79:305|143:312,1,86,10|2,2:2|2:2,0:0:0:0:
379,358,20410,1,2,1:2:0:0:
392,318,20500,1,8,2:2:0:0:
375,279,20591,1,8,2:2:0:0:
337,261,20682,1,8,2:2:0:0:
297,273,20774,2,0,P|283:331|269:377,1,86,10|4,2:2|2:3,0:0:0:0:
145,183,21137,5,6,1:2:0:0:
331,94,21319,1,10,2:2:0:0:
331,94,21410,1,10,2:2:0:0:
331,94,21501,1,10,2:2:0:0:
153,277,21683,2,0,P|92:251|41:235,1,86,6|0,1:2|0:0,0:0:0:0:
230,93,22046,5,6,2:3:0:0:
226,105,22137,1,6,2:3:0:0:
222,117,22228,1,10,2:2:0:0:
17,23,22410,2,0,P|36:77|51:139,1,86,6|0,1:2|0:0,0:0:0:0:
274,237,22774,5,2,1:2:0:0:
272,224,22864,1,2,1:2:0:0:
270,211,22955,1,10,2:2:0:0:
166,362,23137,6,0,L|111:335,1,43,6|0,1:2|0:0,0:0:0:0:
390,220,23501,6,0,L|445:193,1,43,6|0,1:2|0:0,0:0:0:0:
193,21,24046,6,0,B|179:48|180:79|180:79|137:106|137:106|136:147|117:181,1,172,6|8,1:2|2:2,0:0:0:0:
50,36,24592,1,2,2:2:0:0:
227,181,24774,2,0,P|275:148|328:126,1,86,0|2,1:1|2:2,0:0:0:0:
494,191,25137,1,8,2:2:0:0:
410,25,25319,1,2,3:2:0:0:
410,25,25410,1,0,3:2:0:0:
410,25,25501,6,0,P|391:100|373:201,1,172,2|8,1:2|2:2,0:0:0:0:
295,368,26046,1,2,2:2:0:0:
497,312,26228,2,0,P|446:291|395:274,1,86,0|2,1:1|2:2,0:0:0:0:
269,160,26592,2,0,P|289:219|308:277,1,86,10|2,2:2|2:2,0:0:0:0:
186,367,26955,6,0,B|171:303|100:293|100:293|62:323|31:332,1,172,2|8,1:2|2:2,0:0:0:0:
156,202,27501,1,2,2:2:0:0:
156,202,27683,2,0,P|168:156|184:108,1,86,0|2,1:1|2:2,0:0:0:0:
109,22,28046,1,10,2:2:0:0:
283,174,28228,6,0,B|368:131|368:131|399:157|428:161,1,141.900004330444,14|0,2:2|0:0,0:0:0:0:
454,124,28592,1,10,1:2:0:0:
279,44,28774,1,10,1:2:0:0:
342,239,28955,1,10,1:2:0:0:
389,12,29137,5,10,1:2:0:0:
207,143,29319,1,10,1:2:0:0:
435,249,29501,1,10,1:2:0:0:
199,48,29683,1,10,1:2:0:0:
106,147,29864,6,0,P|120:200|126:223,1,64.5000024604798,2|2,2:2|2:2,0:0:0:0:
39,237,30228,2,0,P|31:206|23:175,1,64.5000024604798,2|2,2:2|2:2,0:0:0:0:
247,299,30592,2,0,P|209:280|173:266,1,64.5000024604798,2|0,2:2|0:0,0:0:0:0:
163,350,30955,2,0,P|192:362|221:377,1,64.5000024604798,2|2,2:2|2:2,0:0:0:0:
417,303,31319,6,0,B|395:228|366:263|354:166,1,129.00000492096,2|2,2:2|2:2,0:0:0:0:
471,118,31864,2,0,P|448:151|435:199,1,64.5000024604798,2|0,2:2|0:0,0:0:0:0:
332,82,32228,1,2,2:2:0:0:
332,82,32410,2,0,P|355:49|368:1,1,64.5000024604798,0|2,0:0|2:2,0:0:0:0:
176,14,32774,6,0,B|99:39|154:64|55:78,1,129.00000492096,0|2,0:0|2:2,0:0:0:0:
187,118,33319,1,0,0:0:0:0:
187,118,33501,2,0,P|224:132|257:152,1,64.5000024604798,2|2,2:2|2:2,0:0:0:0:
211,223,33864,2,0,P|182:207|152:196,1,64.5000024604798,2|2,2:2|2:2,0:0:0:0:
41,317,34228,6,0,P|52:357|71:399,2,64.5000024604798,0|2|2,0:0|2:2|2:2,0:0:0:0:
130,278,34774,2,0,B|207:294|174:324|247:345,1,129.00000492096,2|2,2:2|2:2,0:0:0:0:
345,368,35319,2,0,P|334:316|326:282,1,64.5000024604798
461,170,35683,6,0,P|443:215|382:216,1,111.799994882202,2|0,2:2|0:0,0:0:0:0:
307,160,36228,1,0,0:0:0:0:
307,160,36410,2,0,P|318:115|330:49,1,111.799994882202,2|0,2:2|0:0,0:0:0:0:
132,22,37137,6,0,P|98:72|43:67,1,111.799994882202,2|0,2:2|0:0,0:0:0:0:
20,163,37683,1,0,0:0:0:0:
20,163,37864,2,0,P|58:164|133:210,1,111.799994882202,2|0,2:2|0:0,0:0:0:0:
248,367,38592,6,0,L|270:239,2,111.799994882202,2|0|0,2:2|0:0|0:0,0:0:0:0:
344,345,39501,1,2,2:2:0:0:
344,345,39683,2,0,L|355:273,1,55.8999974411012,2|2,2:2|2:2,0:0:0:0:
179,288,40046,6,0,P|145:322|120:317,1,55.8999974411012,2|0,0:0|0:0,0:0:0:0:
78,380,40410,2,0,P|54:356|56:326,1,55.8999974411012,2|0,0:0|0:0,0:0:0:0:
15,201,40774,2,0,P|45:217|81:233,1,55.8999974411012,2|0,0:0|0:0,0:0:0:0:
144,164,41137,2,0,P|178:147|213:129,1,55.8999974411012,2|0,0:0|0:0,0:0:0:0:
379,173,41501,5,6,1:2:0:0:
284,19,41683,1,2,2:2:0:0:
419,71,41864,1,2,1:2:0:0:
272,171,42046,2,0,P|284:213|297:271,1,77.3999976379395,2|2,2:2|1:2,0:0:0:0:
393,358,42410,1,2,2:2:0:0:
467,294,42592,2,0,P|414:270|376:251,1,77.3999976379395,2|2,1:2|2:2,0:0:0:0:
239,323,42955,6,0,P|189:351|161:375,2,77.3999976379395,2|2|2,1:2|2:2|1:2,0:0:0:0:
105,283,43501,2,0,P|56:250|11:241,1,77.3999976379395,2|2,2:2|1:2,0:0:0:0:
170,141,43864,2,0,P|219:174|264:183,1,77.3999976379395,2|2,2:2|1:2,0:0:0:0:
433,120,44228,1,2,2:2:0:0:
362,21,44410,6,0,P|340:99|319:181,2,154.799995275879,2|2|2,1:2|1:2|1:2,0:0:0:0:
197,140,45319,1,2,2:2:0:0:
144,60,45501,2,0,P|206:42|235:32,1,77.3999976379395,2|2,1:2|2:2,0:0:0:0:
124,214,45864,6,0,B|114:166|46:147|46:147|21:177|-16:190,1,154.799995275879,2|2,1:2|1:2,0:0:0:0:
53,287,46410,2,0,P|67:327|81:375,1,77.3999976379395,2|2,2:2|1:2,0:0:0:0:
227,253,46774,1,2,2:2:0:0:
244,365,46955,2,0,P|199:347|158:335,1,77.3999976379395,2|0,1:2|0:0,0:0:0:0:
326,217,47319,6,0,B|349:309|377:243|407:379,1,154.799995275879,2|2,1:2|1:2,0:0:0:0:
433,222,47864,1,0,0:0:0:0:
281,141,48046,2,0,P|246:172|250:214,1,77.3999976379395,2|0,1:2|0:0,0:0:0:0:
388,117,48410,2,0,P|407:60|422:18,1,77.3999976379395,2|0,1:2|0:0,0:0:0:0:
274,9,48774,6,0,P|251:49|144:57,1,154.799995275879,2|2,1:2|1:2,0:0:0:0:
33,205,49319,1,0,0:0:0:0:
33,113,49501,2,0,P|83:130|120:169,1,77.3999976379395,2|0,1:2|0:0,0:0:0:0:
241,282,49864,1,2,1:2:0:0:
119,363,50046,1,0,3:2:0:0:
119,363,50137,1,0,3:2:0:0:
119,363,50228,6,0,P|126:300|162:200,2,154.799995275879,2|2|2,1:2|1:2|1:2,0:0:0:0:
313,209,51137,1,0,0:0:0:0:
319,310,51319,2,0,P|276:296|227:278,1,77.3999976379395,2|0,1:2|0:0,0:0:0:0:
389,146,51683,6,0,B|407:168|406:197|406:197|441:220|441:220|438:252|466:301,1,154.799995275879,2|2,1:2|1:2,0:0:0:0:
497,144,52228,1,0,0:0:0:0:
328,56,52410,2,0,P|309:108|298:149,1,77.3999976379395,2|0,1:2|0:0,0:0:0:0:
481,58,52774,2,0,P|462:22|405:27,1,77.3999976379395,2|0,1:2|0:0,0:0:0:0:
259,213,53137,5,6,1:2:0:0:
259,213,53501,5,8,1:2:0:0:
211,141,53683,1,8,1:2:0:0:
346,231,53864,1,8,1:2:0:0:
207,289,54046,1,8,1:2:0:0:
370,150,54228,1,8,1:2:0:0:
397,355,54410,1,8,1:2:0:0:
294,102,54592,5,8,1:2:0:0:
488,260,54774,1,8,1:2:0:0:
265,356,54955,1,8,1:2:0:0:
458,175,55137,1,8,1:2:0:0:
218,43,55319,5,8,1:2:0:0:
311,278,55501,1,8,1:2:0:0:
314,0,55683,5,10,1:2:0:0:
194,237,55864,1,8,1:2:0:0:
25,93,56046,6,0,P|46:42|52:9,1,77.3999976379395,6|0,1:2|0:0,0:0:0:0:
130,139,56410,2,0,P|111:187|102:230,1,77.3999976379395,2|0,1:2|0:0,0:0:0:0:
19,297,56774,2,0,P|60:286|119:381,1,154.799995275879,10|2,2:2|1:2,0:0:0:0:
285,256,57319,5,8,2:2:0:0:
281,267,57410,1,8,2:2:0:0:
277,278,57501,1,0,1:1:0:0:
192,211,57683,1,8,2:2:0:0:
276,373,57864,2,0,P|333:345|362:336,1,77.3999976379395,2|0,1:2|0:0,0:0:0:0:
487,369,58228,2,0,P|439:327|450:223,1,154.799995275879,10|2,2:2|1:2,0:0:0:0:
475,115,58774,1,0,3:0:0:0:
475,115,58864,1,0,3:0:0:0:
475,115,58955,6,0,P|422:131|384:149,1,77.3999976379395,2|0,1:2|0:0,0:0:0:0:
277,76,59319,2,0,P|271:37|311:6,1,77.3999976379395,2|0,1:2|0:0,0:0:0:0:
304,197,59683,2,0,B|218:223|277:255|177:290,1,154.799995275879,10|2,2:2|1:2,0:0:0:0:
38,171,60228,5,8,2:2:0:0:
42,181,60319,1,8,2:2:0:0:
46,191,60410,1,0,1:1:0:0:
164,210,60592,1,8,2:2:0:0:
22,311,60774,1,2,1:2:0:0:
136,82,60955,5,8,2:2:0:0:
132,93,61046,1,8,2:2:0:0:
128,104,61137,1,10,2:2:0:0:
38,17,61319,1,4,2:3:0:0:
203,140,61501,2,0,P|225:132|256:108,1,51.6,4|0,1:3|0:0,0:0:0:0:
330,101,61864,6,0,B|319:42|252:19|252:19|222:45|170:59,1,172,6|10,1:2|2:2,0:0:0:0:
278,224,62410,1,0,1:1:0:0:
464,64,62592,2,0,P|448:122|435:173,1,86,10|0,2:2|1:1,0:0:0:0:
304,342,62955,5,10,2:2:0:0:
473,218,63137,1,0,1:1:0:0:
412,383,63319,2,0,P|393:317|376:276,1,86,10|0,2:2|1:1,0:0:0:0:
202,208,63683,2,0,P|186:263|165:315,1,86,10|0,2:2|1:1,0:0:0:0:
17,39,64046,5,10,2:2:0:0:
109,216,64228,1,0,1:1:0:0:
211,71,64410,2,0,P|153:97|123:111,1,86,10|0,2:2|1:1,0:0:0:0:
352,206,64774,5,6,1:2:0:0:
370,120,64955,1,4,2:3:0:0:
391,33,65137,1,4,2:3:0:0:
466,196,65319,1,8,2:2:0:0:
466,196,65410,1,8,2:2:0:0:
466,196,65501,1,8,2:2:0:0:
255,284,65683,1,8,2:3:0:0:
441,378,65864,1,6,2:3:0:0:
252,152,66046,5,6,2:3:0:0:
244,176,66137,1,0,0:0:0:0:
236,200,66228,1,14,1:2:0:0:
45,358,67683,6,0,P|69:310|199:303,1,189.200005773926,4|10,1:2|2:2,0:0:0:0:
360,261,68228,1,0,0:0:0:0:
176,175,68410,1,2,1:2:0:0:
349,375,68592,1,0,1:1:0:0:
281,150,68774,2,0,P|256:221|238:281,1,94.600002886963,10|0,2:2|0:0,0:0:0:0:
473,129,69137,6,0,B|456:64|389:39|389:39|368:73|317:70,1,189.200005773926,2|10,1:2|2:2,0:0:0:0:
144,98,69683,2,0,P|161:50|178:-2,1,94.600002886963,2|2,1:2|2:2,0:0:0:0:
281,150,70046,1,2,1:2:0:0:
63,246,70228,1,10,2:2:0:0:
166,320,70410,1,10,2:2:0:0:
166,320,70501,1,8,2:2:0:0:
166,320,70592,5,2,1:2:0:0:
59,139,70774,1,0,1:1:0:0:
275,273,70955,2,0,P|255:329|243:374,1,94.600002886963,10|0,2:2|3:0,0:0:0:0:
245,362,71228,1,0,3:0:0:0:
245,362,71319,1,2,1:2:0:0:
467,265,71501,1,0,1:1:0:0:
322,136,71683,2,0,P|356:226|369:266,1,94.600002886963,10|0,2:2|0:0,0:0:0:0:
488,88,72046,6,0,P|461:36|335:34,1,189.200005773926,2|10,1:2|2:2,0:0:0:0:
179,129,72592,2,0,P|194:75|204:24,1,94.600002886963,2|0,2:2|1:1,0:0:0:0:
55,163,72955,1,14,2:2:0:0:
244,274,73137,1,12,2:2:0:0:
81,365,73319,1,10,2:3:0:0:
81,365,73410,1,4,2:3:0:0:
81,365,73501,5,4,1:2:0:0:
255,191,73683,1,0,1:1:0:0:
186,370,73864,2,0,P|168:315|148:267,1,94.600002886963,10|0,2:2|0:0,0:0:0:0:
343,239,74228,2,0,P|363:296|457:302,1,141.900004330444,2|0,1:2|0:0,0:0:0:0:
493,260,74592,2,0,P|479:212|463:146,1,94.600002886963,10|0,2:2|0:0,0:0:0:0:
325,16,74955,5,2,1:2:0:0:
253,194,75137,1,0,1:1:0:0:
159,121,75319,2,0,P|227:95|281:77,1,94.600002886963,10|0,2:2|0:0,0:0:0:0:
512,40,75683,2,0,B|491:-4|446:14|446:14|436:54|399:57,1,141.900004330444,2|0,1:2|0:0,0:0:0:0:
368,133,76046,2,0,P|336:171|352:218,1,77.3999976379395,14|0,2:2|0:0,0:0:0:0:
474,307,76410,5,6,1:2:0:0:
253,194,76592,1,0,1:1:0:0:
356,374,76774,2,0,P|372:311|388:253,1,94.600002886963,10|2,2:2|3:2,0:0:0:0:
377,274,77046,1,0,3:0:0:0:
374,264,77137,1,6,1:2:0:0:
167,376,77319,1,0,1:1:0:0:
174,167,77501,2,0,P|199:229|223:287,1,94.600002886963,10|2,2:2|2:2,0:0:0:0:
226,19,77864,5,6,1:2:0:0:
106,235,78046,1,0,1:1:0:0:
2,111,78228,2,0,P|53:91|105:68,1,94.600002886963,10|2,2:2|2:2,0:0:0:0:
353,210,78592,5,2,1:2:0:0:
354,174,78682,1,8,2:2:0:0:
337,144,78773,1,8,2:2:0:0:
305,129,78864,1,8,2:2:0:0:
271,136,78955,1,10,2:3:0:0:
409,293,79137,1,6,2:3:0:0:
200,186,79319,5,4,1:2:0:0:
393,45,79501,1,0,1:1:0:0:
193,194,79683,2,0,P|128:171|74:153,1,94.600002886963,10|0,2:2|3:0,0:0:0:0:
95,174,79955,1,0,3:0:0:0:
86,185,80046,1,2,1:2:0:0:
226,302,80228,1,0,1:1:0:0:
39,363,80410,2,0,P|57:306|74:265,1,94.600002886963,10|0,2:2|0:0,0:0:0:0:
311,196,80774,5,2,1:2:0:0:
178,375,80955,1,0,1:1:0:0:
380,272,81137,1,10,2:2:0:0:
242,119,81319,2,0,P|220:189|207:235,1,94.600002886963,2|2,1:2|2:2,0:0:0:0:
125,132,81683,1,2,1:2:0:0:
303,18,81864,2,0,P|321:69|345:129,1,94.600002886963,10|10,2:2|2:2,0:0:0:0:
335,106,82137,1,8,2:2:0:0:
335,106,82228,5,2,1:2:0:0:
208,37,82410,1,0,1:1:0:0:
408,185,82592,2,0,P|450:154|447:88,1,94.600002886963,10|0,2:2|0:0,0:0:0:0:
473,311,82955,1,2,1:2:0:0:
263,190,83137,1,0,1:1:0:0:
375,376,83319,2,0,P|360:313|349:267,1,94.600002886963,10|2,2:2|2:2,0:0:0:0:
259,103,83683,5,2,1:2:0:0:
142,289,83864,1,0,1:1:0:0:
70,161,84046,1,10,2:2:0:0:
271,320,84228,2,0,P|223:342|172:377,1,94.600002886963,2|0,2:2|1:1,0:0:0:0:
23,261,84592,1,14,2:2:0:0:
149,91,84774,2,0,P|167:151|182:200,1,94.600002886963,12|2,2:2|1:2,0:0:0:0:
176,181,85046,1,0,1:2:0:0:
176,181,85137,5,4,1:2:0:0:
294,104,85319,2,0,P|280:61|271:19,1,77.3999976379395,0|2,1:1|2:2,0:0:0:0:
445,195,85683,1,0,1:1:0:0:
438,106,85864,2,0,B|349:122|417:165|294:196,1,154.799995275879,8|2,2:2|2:2,0:0:0:0:
94,310,86592,5,2,1:2:0:0:
110,223,86774,2,0,P|149:235|171:291,1,77.3999976379395,0|2,1:1|2:2,0:0:0:0:
15,227,87137,1,0,1:1:0:0:
182,125,87319,1,8,2:2:0:0:
76,38,87501,2,0,P|60:105|50:140,1,77.3999976379395,0|2,1:1|2:2,0:0:0:0:
232,204,87864,1,10,2:2:0:0:
232,204,87955,1,8,2:2:0:0:
232,204,88046,5,4,1:2:0:0:
302,145,88228,2,0,P|290:96|284:63,1,77.3999976379395,0|2,1:1|2:2,0:0:0:0:
408,242,88592,1,0,1:1:0:0:
495,212,88774,2,0,P|475:162|368:168,1,154.799995275879,8|2,2:2|2:2,0:0:0:0:
150,305,89501,5,2,1:2:0:0:
204,377,89683,2,0,P|237:350|233:301,1,77.3999976379395,0|2,1:1|2:2,0:0:0:0:
74,363,90046,1,0,1:1:0:0:
128,206,90228,2,0,P|171:225|215:240,1,77.3999976379395,8|0,2:2|1:1,0:0:0:0:
383,153,90592,1,14,2:2:0:0:
256,27,90774,1,10,2:2:0:0:
251,49,90864,1,8,2:2:0:0:
246,71,90955,1,4,1:2:0:0:
246,71,91319,5,8,1:2:0:0:
291,155,91501,1,8,1:2:0:0:
148,68,91683,1,8,1:2:0:0:
271,250,91864,1,8,1:2:0:0:
352,57,92046,1,8,1:2:0:0:
137,212,92228,1,8,1:2:0:0:
420,317,92410,5,8,1:2:0:0:
266,112,92592,1,8,1:2:0:0:
177,377,92774,1,8,1:2:0:0:
451,218,92955,1,8,1:2:0:0:
148,68,93137,5,8,1:2:0:0:
280,363,93319,1,8,1:2:0:0:
35,243,93501,1,8,1:2:0:0:
266,112,93683,1,8,1:2:0:0:
37,24,93864,6,0,P|55:85|72:132,1,94.600002886963,12|0,1:2|1:1,0:0:0:0:
236,229,94228,1,0,1:1:0:0:
38,341,94410,2,0,P|97:298|137:276,1,94.600002886963,12|0,2:2|1:1,0:0:0:0:
323,264,94774,1,0,1:1:0:0:
164,163,94955,1,14,2:2:0:0:
265,373,95137,1,0,1:1:0:0:
403,132,95319,5,14,2:2:0:0:
198,317,95501,1,8,1:2:0:0:
484,200,95683,1,10,1:2:0:0:
198,50,95864,1,2,1:2:0:0:
198,50,96228,6,0,B|200:104|151:99|151:99|176:94|185:63,1,129.00000492096,2|2,1:2|2:2,0:0:0:0:
283,8,96774,6,0,B|389:32|314:88|425:106,1,172,4|8,1:2|2:2,0:0:0:0:
442,14,97319,1,2,2:2:0:0:
271,111,97501,2,0,P|289:164|311:215,1,86,0|2,1:1|2:2,0:0:0:0:
454,297,97864,2,0,P|464:244|465:193,1,86,8|2,2:2|2:2,0:0:0:0:
310,366,98228,6,0,P|281:307|171:311,1,172,2|8,1:2|2:2,0:0:0:0:
42,171,98774,2,0,P|58:230|75:272,1,86,2|0,2:2|1:1,0:0:0:0:
40,375,99137,1,2,2:2:0:0:
167,221,99319,2,0,P|202:205|266:221,1,86,10|2,2:2|2:2,0:0:0:0:
433,109,99683,6,0,B|417:53|351:36|351:36|324:64|287:67,1,172,2|8,1:2|2:2,0:0:0:0:
157,100,100228,1,2,2:2:0:0:
157,100,100410,2,0,P|170:58|177:7,1,86,0|2,1:1|2:2,0:0:0:0:
329,165,100774,1,10,2:2:0:0:
84,303,100955,1,14,2:2:0:0:
84,303,101319,5,10,1:2:0:0:
170,257,101501,1,10,1:2:0:0:
43,384,101683,1,10,1:2:0:0:
263,283,101864,5,10,1:2:0:0:
55,155,102046,1,10,1:2:0:0:
214,381,102228,1,10,1:2:0:0:
329,145,102410,1,10,1:2:0:0:
424,243,102592,6,0,P|406:299|399:345,1,77.3999976379395,6|2,1:2|2:2,0:0:0:0:
512,180,102955,2,0,P|472:164|435:147,1,77.3999976379395,2|2,1:2|2:2,0:0:0:0:
345,16,103319,2,0,P|381:45|377:92,1,77.3999976379395,2|2,1:2|2:2,0:0:0:0:
242,148,103683,2,0,P|250:97|297:80,1,77.3999976379395,2|2,1:2|2:2,0:0:0:0:
314,251,104046,6,0,B|222:275|290:325|169:343,1,154.799995275879,2|2,1:2|1:2,0:0:0:0:
65,291,104592,2,0,P|51:353|37:401,1,77.3999976379395,2|0,2:2|1:1,0:0:0:0:
176,258,104955,1,2,2:2:0:0:
16,189,105137,2,0,P|56:176|97:160,1,77.3999976379395,0|2,1:1|2:2,0:0:0:0:
284,72,105501,5,2,1:2:0:0:
284,72,105683,1,2,2:2:0:0:
213,19,105864,2,0,P|196:65|185:113,1,77.3999976379395,2|2,1:2|2:2,0:0:0:0:
355,138,106228,2,0,P|372:92|383:44,1,77.3999976379395,2|2,1:2|2:2,0:0:0:0:
231,173,106592,2,0,P|246:222|254:256,1,77.3999976379395,2|2,1:2|2:2,0:0:0:0:
390,342,106955,6,0,B|424:368|424:368|506:361|490:262,1,154.799995275879,2|2,1:2|1:2,0:0:0:0:
333,282,107501,2,0,P|306:313|308:367,1,77.3999976379395,2|0,2:2|1:1,0:0:0:0:
157,376,107864,1,2,2:2:0:0:
122,270,108046,2,0,P|173:289|208:297,1,77.3999976379395,0|0,1:1|0:0,0:0:0:0:
27,196,108410,6,0,B|43:145|96:147|96:147|129:188|176:172,1,154.799995275879,6|0,1:2|1:1,0:0:0:0:
258,77,108955,1,0,0:0:0:0:
195,17,109137,2,0,P|177:56|162:111,1,77.3999976379395,2|0,1:2|0:0,0:0:0:0:
274,162,109501,2,0,P|323:139|325:97,1,77.3999976379395,0|0,1:1|0:0,0:0:0:0:
466,44,109864,6,0,B|445:39|422:13|422:13|454:111,1,154.799995275879,2|0,1:2|1:1,0:0:0:0:
414,265,110410,1,0,0:0:0:0:
497,228,110592,2,0,P|464:193|411:190,1,77.3999976379395,2|0,1:2|0:0,0:0:0:0:
337,304,110955,2,0,P|370:339|423:342,1,77.3999976379395,0|2,1:1|2:2,0:0:0:0:
162,223,111319,6,0,P|179:281|198:380,2,154.799995275879,2|0|0,1:2|1:1|1:1,0:0:0:0:
88,139,112228,1,2,2:2:0:0:
46,232,112410,1,2,1:2:0:0:
199,130,112592,1,2,2:2:0:0:
88,19,112774,6,0,P|43:42|0:57,1,77.3999976379395,0|0,1:1|0:0,0:0:0:0:
199,130,113137,2,0,P|221:90|218:47,1,77.3999976379395,0|0,1:1|0:0,0:0:0:0:
46,232,113501,2,0,P|68:293|77:332,1,77.3999976379395,0|0,1:1|0:0,0:0:0:0:
163,284,113864,2,0,P|185:345|192:375,1,64.5000024604798,0|0,1:1|0:0,0:0:0:0:
346,371,114228,6,0,P|355:301|381:222,1,154.799995275879,6|2,1:2|1:2,0:0:0:0:
446,303,114774,1,2,2:2:0:0:
295,190,114955,2,0,P|278:235|269:292,1,77.3999976379395,2|2,1:2|2:2,0:0:0:0:
446,137,115319,2,0,P|446:89|399:59,1,77.3999976379395,2|2,1:2|2:2,0:0:0:0:
285,15,115683,5,2,1:2:0:0:
338,109,115864,1,2,2:2:0:0:
175,24,116046,1,2,1:2:0:0:
140,189,116228,2,0,P|212:156|240:141,1,77.3999976379395,2|0,2:2|1:1,0:0:0:0:
199,280,116592,1,2,2:2:0:0:
31,191,116774,2,0,P|50:130|63:88,1,77.3999976379395,0|2,1:1|2:2,0:0:0:0:
97,319,117137,6,0,P|42:300|-2:290,1,77.3999976379395,2|2,1:2|2:2,0:0:0:0:
276,315,117501,1,2,1:2:0:0:
138,213,117683,1,2,2:2:0:0:
171,377,117864,2,0,P|188:323|209:275,1,77.3999976379395,2|2,1:2|2:2,0:0:0:0:
340,180,118228,2,0,P|357:234|378:282,1,77.3999976379395,2|2,1:2|2:2,0:0:0:0:
410,66,118592,5,2,1:2:0:0:
292,14,118774,1,2,2:2:0:0:
241,145,118955,1,2,1:2:0:0:
129,85,119137,2,0,P|197:63|223:53,1,77.3999976379395,2|0,2:2|1:1,0:0:0:0:
8,27,119501,1,2,2:2:0:0:
28,191,119683,2,0,P|41:140|59:92,1,77.3999976379395,0|2,1:1|2:2,0:0:0:0:
205,223,120046,6,0,B|113:247|192:295|61:318,1,154.799995275879,6|0,1:2|1:1,0:0:0:0:
341,288,120592,1,2,2:2:0:0:
244,383,120774,2,0,P|253:336|272:276,1,77.3999976379395,2|2,1:2|2:2,0:0:0:0:
396,157,121137,2,0,P|404:194|418:230,1,77.3999976379395,0|2,1:1|2:2,0:0:0:0:
298,110,121501,6,0,P|316:63|426:47,1,154.799995275879,2|0,1:2|1:1,0:0:0:0:
477,129,122046,1,2,2:2:0:0:
313,207,122228,2,0,P|247:183|213:171,1,77.3999976379395,2|2,1:2|2:2,0:0:0:0:
32,140,122592,1,2,1:2:0:0:
168,34,122774,1,2,3:2:0:0:
168,34,122864,1,0,3:2:0:0:
168,34,122955,6,0,B|163:62|142:81|142:81|152:119|152:119|120:147|120:196,1,154.799995275879,6|0,1:2|1:1,0:0:0:0:
44,340,123501,1,2,2:2:0:0:
19,214,123683,2,0,P|75:248|110:265,1,77.3999976379395,2|2,1:2|2:2,0:0:0:0:
173,375,124046,2,0,P|209:342|259:331,1,77.3999976379395,0|2,1:1|2:2,0:0:0:0:
421,367,124410,6,0,P|390:320|396:210,1,154.799995275879,2|0,1:2|1:1,0:0:0:0:
476,280,124955,1,2,2:2:0:0:
307,165,125137,2,0,P|343:150|377:131,1,77.3999976379395,2|2,1:2|2:2,0:0:0:0:
205,5,125501,2,0,P|190:57|173:112,1,77.3999976379395,0|2,1:1|2:2,0:0:0:0:
92,304,125864,5,6,1:2:0:0:
92,304,126228,1,8,1:2:0:0:
185,278,126410,1,8,1:2:0:0:
48,142,126592,1,8,1:2:0:0:
23,235,126774,1,8,1:2:0:0:
210,185,126956,1,8,1:2:0:0:
142,117,127137,1,8,1:2:0:0:
384,13,127319,5,8,1:2:0:0:
299,238,127501,1,8,1:2:0:0:
222,69,127683,1,8,1:2:0:0:
430,213,127864,1,8,1:2:0:0:
194,371,128046,5,8,1:2:0:0:
336,123,128228,1,8,1:2:0:0:
84,242,128410,1,10,1:2:0:0:
363,349,128592,1,8,1:2:0:0:
149,116,128774,6,0,P|162:60|166:22,1,77.3999976379395,6|0,1:2|0:0,0:0:0:0:
24,118,129137,2,0,P|11:174|7:212,1,77.3999976379395,2|0,1:2|0:0,0:0:0:0:
105,326,129501,2,0,B|209:294|137:264|250:237,1,154.799995275879,10|2,2:2|1:2,0:0:0:0:
363,349,130046,1,8,2:2:0:0:
363,349,130137,1,8,2:2:0:0:
363,349,130228,5,0,1:1:0:0:
418,243,130410,1,8,2:2:0:0:
251,371,130592,1,2,1:2:0:0:
251,371,130955,2,0,P|206:330|164:321,1,77.3999976379395,10|0,2:2|0:0,0:0:0:0:
89,232,131319,2,0,P|103:169|109:132,1,77.3999976379395,2|0,1:2|0:0,0:0:0:0:
92,19,131683,6,0,P|44:41|2:56,1,77.3999976379395,2|0,1:2|0:0,0:0:0:0:
197,126,132046,2,0,P|236:140|288:173,1,77.3999976379395,2|0,1:2|0:0,0:0:0:0:
447,103,132410,2,0,P|454:61|359:24,1,154.799995275879,10|2,2:2|1:2,0:0:0:0:
355,143,132955,1,8,2:2:0:0:
355,143,133046,1,8,2:2:0:0:
355,143,133137,5,0,1:1:0:0:
474,200,133319,1,8,2:2:0:0:
271,314,133501,1,2,1:2:0:0:
369,375,133683,1,8,2:2:0:0:
365,359,133774,1,8,2:2:0:0:
361,344,133864,1,10,2:2:0:0:
167,231,134046,1,4,2:3:0:0:
355,143,134228,1,4,1:3:0:0:
104,375,134592,22,1,B|90:356|64:339|50:351|12:371|-6:333|-37:332|-44:273|-25:250|6:228|30:241|48:243|48:243|57:224|63:204|108:196|141:204|147:223|159:275|162:313|123:309|105:327|102:364,2,516.000019683839,6|2|14,1:2|2:2|1:2,0:0:0:0:
104,375,137864,5,8,1:2:0:0:
260,263,138046,1,8,1:2:0:0:
137,209,138228,1,8,1:2:0:0:
239,352,138410,1,8,1:2:0:0:
309,156,138592,1,10,1:2:0:0:
179,288,138774,1,10,1:2:0:0:
442,360,138955,5,10,1:2:0:0:
245,236,139137,1,8,1:2:0:0:
418,106,139319,1,10,1:2:0:0:
324,329,139501,1,10,1:2:0:0:
129,77,139683,5,8,1:2:0:0:
331,242,139864,1,10,1:2:0:0:
102,374,140046,1,8,1:2:0:0:
226,141,140228,1,10,1:2:0:0:
12,347,140410,6,0,B|23:269|102:265|102:265|129:302|185:312,1,189.200005773926,4|10,1:2|2:2,0:0:0:0:
324,164,140955,1,0,0:0:0:0:
234,376,141137,1,2,1:2:0:0:
434,273,141319,1,0,1:1:0:0:
241,106,141501,2,0,P|226:151|211:196,1,94.600002886963,10|0,2:2|0:0,0:0:0:0:
41,36,141864,6,0,B|35:76|10:96|10:96|128:46,1,189.200005773926,2|10,1:2|2:2,0:0:0:0:
332,75,142410,2,0,P|322:29|251:27,1,94.600002886963,2|2,1:2|2:2,0:0:0:0:
211,196,142774,1,2,1:2:0:0:
419,91,142955,1,10,2:2:0:0:
321,276,143137,1,10,2:2:0:0:
321,276,143228,1,8,2:2:0:0:
321,276,143319,5,2,1:2:0:0:
168,88,143501,1,0,1:1:0:0:
14,283,143683,2,0,L|119:236,1,94.600002886963,10|0,2:2|3:0,0:0:0:0:
100,244,143955,1,0,3:2:0:0:
100,244,144046,1,2,1:2:0:0:
50,382,144228,1,0,1:1:0:0:
239,286,144410,2,0,P|219:227|205:171,1,94.600002886963,10|0,2:2|0:0,0:0:0:0:
472,363,144774,6,0,B|455:293|376:273|376:273|356:300|301:310,1,189.200005773926,2|10,1:2|2:2,0:0:0:0:
491,220,145319,2,0,P|481:157|436:121,1,94.600002886963,2|2,2:2|1:2,0:0:0:0:
297,221,145683,1,14,2:2:0:0:
460,26,145864,2,0,P|401:54|336:75,1,94.600002886963,12|2,2:2|2:2,0:0:0:0:
163,24,146228,6,0,P|205:46|191:157,1,141.900004330444,4|0,1:2|0:0,0:0:0:0:
152,187,146592,2,0,P|97:157|30:150,1,94.600002886963,10|0,2:2|0:0,0:0:0:0:
82,331,146955,1,2,1:2:0:0:
278,188,147137,1,0,1:1:0:0:
195,375,147319,2,0,P|174:308|164:259,1,94.600002886963,10|0,2:2|0:0,0:0:0:0:
394,171,147683,6,0,P|375:232|355:288,1,94.600002886963,2|0,1:2|1:1,0:0:0:0:
422,384,148046,1,10,2:2:0:0:
251,268,148228,1,8,2:2:0:0:
251,268,148319,1,8,2:2:0:0:
251,268,148410,6,0,P|224:211|124:218,1,154.799995275879,6|0,1:2|0:0,0:0:0:0:
68,159,148774,2,0,P|61:202|43:241,1,86,6|0,1:2|0:0,0:0:0:0:
197,82,149137,5,6,1:2:0:0:
26,10,149319,1,0,1:1:0:0:
224,181,149501,2,0,P|276:147|336:110,1,94.600002886963,10|8,2:2|0:0,0:0:0:0:
311,135,149774,1,8,2:2:0:0:
318,140,149864,5,6,1:2:0:0:
500,249,150046,1,0,1:1:0:0:
443,27,150228,2,0,P|421:92|407:161,1,94.600002886963,10|10,2:2|2:2,0:0:0:0:
418,125,150501,1,8,2:2:0:0:
422,133,150592,5,6,1:2:0:0:
292,274,150774,1,0,1:1:0:0:
500,162,150955,1,10,2:2:0:0:
422,373,151137,1,0,0:0:0:0:
262,165,151319,5,2,1:2:0:0:
219,156,151409,1,8,2:2:0:0:
180,171,151500,1,8,2:2:0:0:
155,206,151591,1,8,2:2:0:0:
154,248,151682,1,10,1:2:0:0:
322,363,151864,1,6,2:3:0:0:
322,363,151955,1,4,2:3:0:0:
322,363,152046,6,0,B|345:302|418:291|418:291|459:334|501:325,1,189.200005773926,4|10,1:2|2:2,0:0:0:0:
331,128,152592,1,0,1:2:0:0:
331,128,152683,1,8,2:2:0:0:
331,128,152774,2,0,P|310:185|294:246,1,94.600002886963,2|0,1:2|1:1,0:0:0:0:
125,104,153137,2,0,P|140:51|148:4,1,94.600002886963,10|0,2:2|0:0,0:0:0:0:
33,272,153501,5,2,1:2:0:0:
208,160,153683,1,0,1:1:0:0:
70,383,153864,1,10,2:2:0:0:
253,290,154046,2,0,P|187:267|130:254,1,94.600002886963,2|2,1:2|2:2,0:0:0:0:
448,364,154410,1,2,1:2:0:0:
343,152,154592,2,0,P|373:208|352:262,1,94.600002886963,10|2,2:2|2:2,0:0:0:0:
363,244,154864,1,8,2:2:0:0:
358,252,154955,5,2,1:2:0:0:
475,140,155137,1,0,1:1:0:0:
270,69,155319,2,0,P|322:51|367:29,1,94.600002886963,10|0,2:2|3:0,0:0:0:0:
357,34,155592,1,0,3:0:0:0:
357,34,155683,1,2,1:2:0:0:
236,216,155864,1,0,1:1:0:0:
130,17,156046,2,0,P|114:78|101:129,1,94.600002886963,10|0,2:2|0:0,0:0:0:0:
232,300,156410,5,2,1:2:0:0:
39,192,156592,1,0,1:1:0:0:
109,382,156774,1,10,2:2:0:0:
322,177,156955,2,0,P|264:204|221:221,1,94.600002886963,2|2,2:2|1:2,0:0:0:0:
381,354,157319,5,14,2:2:0:0:
507,184,157501,1,12,2:2:0:0:
391,234,157683,1,2,1:2:0:0:
494,63,157864,5,4,1:2:0:0:
388,22,158046,2,0,P|410:108|418:131,1,77.3999976379395,0|2,1:1|2:2,0:0:0:0:
235,215,158410,1,0,1:1:0:0:
219,133,158592,2,0,P|262:129|307:232,1,154.799995275879,10|2,2:2|2:2,0:0:0:0:
116,313,159137,1,8,2:2:0:0:
116,313,159228,1,8,2:2:0:0:
116,313,159319,5,2,1:2:0:0:
188,370,159501,2,0,P|198:314|204:265,1,77.3999976379395,0|2,1:1|2:2,0:0:0:0:
50,154,159864,1,0,1:1:0:0:
68,241,160046,2,0,B|157:214|99:175|219:157,1,154.799995275879,10|2,2:2|2:2,0:0:0:0:
381,81,160592,1,10,2:2:0:0:
381,81,160683,1,8,2:2:0:0:
381,81,160774,5,4,1:2:0:0:
296,19,160955,2,0,L|275:104,1,77.3999976379395,0|2,1:1|2:2,0:0:0:0:
427,235,161319,1,0,1:1:0:0:
447,143,161501,2,0,B|360:175|360:175|355:208|323:236,1,154.799995275879,10|2,2:2|2:2,0:0:0:0:
259,169,162046,1,0,1:1:0:0:
346,323,162228,5,2,1:2:0:0:
346,323,162410,2,0,P|308:322|281:296,1,77.3999976379395,0|2,1:1|2:2,0:0:0:0:
114,366,162774,1,0,1:1:0:0:
160,209,162955,2,0,P|186:282|193:312,1,77.3999976379395,12|2,2:2|1:2,0:0:0:0:
259,169,163319,1,8,2:2:0:0:
61,39,163501,1,10,2:2:0:0:
66,61,163591,1,8,2:2:0:0:
71,83,163682,1,4,1:2:0:0:
71,83,164046,5,0,1:1:0:0:
45,174,164228,1,8,1:2:0:0:
161,103,164410,1,8,1:2:0:0:
97,249,164592,1,8,1:2:0:0:
247,125,164774,1,8,1:2:0:0:
107,8,164955,1,8,1:2:0:0:
221,258,165137,5,8,1:2:0:0:
357,25,165319,1,8,1:2:0:0:
132,170,165501,1,8,1:2:0:0:
395,286,165683,1,8,1:2:0:0:
209,19,165864,5,8,1:2:0:0:
110,316,166046,1,8,1:2:0:0:
415,203,166228,1,8,1:2:0:0:
111,43,166410,1,8,1:2:0:0:
297,331,166592,6,0,P|311:256|318:204,1,94.600002886963,12|0,1:2|1:1,0:0:0:0:
447,370,166955,1,0,1:1:0:0:
245,155,167137,2,0,P|312:134|355:119,1,94.600002886963,12|0,2:2|1:1,0:0:0:0:
180,247,167501,1,0,1:1:0:0:
306,30,167683,1,14,2:2:0:0:
126,153,167864,1,0,1:1:0:0:
378,280,168046,5,14,2:2:0:0:
156,367,168228,1,4,2:3:0:0:
423,186,168410,1,10,2:2:0:0:
73,41,168592,1,6,1:2:0:0:
432,191,168955,6,0,B|495:161|495:161|448:205,1,120.399996325684,6|2,1:2|2:2,0:0:0:0:
326,113,169501,6,0,P|344:17|349:-23,1,94.600002886963,12|0,2:2|1:1,0:0:0:0:
420,311,169864,1,0,1:1:0:0:
250,174,170046,2,0,B|233:254|154:259|154:259|131:223|77:207,1,189.200005773926,12|0,2:2|1:1,0:0:0:0:
25,41,170592,2,0,P|76:53|138:96,1,94.600002886963,12|0,2:2|1:1,0:0:0:0:
9,237,170955,5,0,1:1:0:0:
216,363,171137,2,0,P|202:307|185:265,1,94.600002886963,12|0,2:2|1:1,0:0:0:0:
117,373,171501,1,0,1:1:0:0:
332,224,171683,1,4,2:3:0:0:
170,133,171864,1,0,1:1:0:0:
346,326,172046,2,0,P|402:289|456:265,1,94.600002886963,4|0,2:3|1:1,0:0:0:0:
261,40,172410,5,14,2:2:0:0:
188,272,172592,1,0,1:1:0:0:
42,107,172774,1,0,1:1:0:0:
275,278,172955,5,12,2:2:0:0:
71,371,173137,1,0,1:1:0:0:
329,182,173319,1,0,1:1:0:0:
124,32,173501,2,0,P|149:95|166:148,1,94.600002886963,12|0,2:2|1:1,0:0:0:0:
461,177,173864,5,0,1:1:0:0:
231,68,174046,1,12,2:2:0:0:
359,284,174228,1,0,1:1:0:0:
487,57,174410,1,0,1:1:0:0:
237,232,174592,5,4,1:2:0:0:
237,232,174683,1,8,2:2:0:0:
237,232,174774,2,0,L|261:296,1,47.3000014434815,8|8,2:2|2:2,0:0:0:0:
368,372,174955,1,8,2:2:0:0:
414,375,175045,1,8,2:2:0:0:
450,346,175136,1,8,2:2:0:0:
459,301,175227,1,8,2:2:0:0:
435,261,175318,5,4,1:2:0:0:
141,174,175683,6,0,L|127:234,12,43,2|2|2|2|2|2|2|2|2|2|2|2|2,2:2|2:2|2:2|2:2|2:2|2:2|2:2|2:2|2:2|2:2|2:2|2:2|2:2,0:0:0:0:
43,238,178046,1,4,1:2:0:0:
234,135,178228,1,4,1:2:0:0:
63,35,178410,1,4,1:2:0:0:
184,293,178592,6,0,L|201:345,9,43,2|2|2|2|2|2|2|2|2|2,2:2|2:2|2:2|2:2|2:2|2:2|2:2|2:2|2:2|2:2,0:0:0:0:
387,362,180410,6,0,L|375:328,8,21.5,2|0|0|0|2|0|0|0|2,2:2|0:0|0:0|0:0|2:2|0:0|0:0|0:0|2:2,0:0:0:0:
461,222,180955,2,0,L|476:268,1,43,2|0,1:2|0:0,0:0:0:0:
496,341,181137,5,6,1:2:0:0:
300,357,181319,2,0,P|310:299|411:276,1,154.799995275879,0|0,1:1|1:1,0:0:0:0:
220,173,181864,1,10,2:2:0:0:
176,270,182046,2,0,P|129:248|14:223,1,154.799995275879,8|0,2:2|1:1,0:0:0:0:
109,67,182592,5,2,1:2:0:0:
109,67,182774,2,0,P|94:131|85:162,1,77.3999976379395,0|2,1:1|2:2,0:0:0:0:
192,29,183137,1,0,1:1:0:0:
305,156,183319,2,0,P|386:141|381:65,1,154.799995275879,10|2,2:2|2:2,0:0:0:0:
94,232,184046,5,6,1:2:0:0:
144,296,184228,2,0,B|238:303|175:362|290:390,1,154.799995275879,0|0,1:1|1:1,0:0:0:0:
379,202,184774,2,0,B|319:203|306:257|306:257|321:229|363:231,1,154.799995275879,10|2,2:2|2:2,0:0:0:0:
480,304,185319,1,0,1:1:0:0:
404,373,185501,5,2,1:2:0:0:
404,373,185683,2,0,P|388:325|377:292,1,77.3999976379395,0|2,1:1|2:2,0:0:0:0:
245,169,186046,2,0,L|234:211,3,25.7999992126465,0|0|0|10,1:1|0:0|0:0|2:2,0:0:0:0:
409,103,186410,1,0,1:1:0:0:
271,12,186592,1,4,2:3:0:0:
274,22,186683,1,8,2:2:0:0:
277,32,186774,1,8,2:2:0:0:
280,42,186864,1,8,2:2:0:0:
283,52,186955,1,4,1:2:0:0:
283,52,187319,5,2,1:2:0:0:
114,180,187501,1,2,1:2:0:0:
86,57,187683,2,0,B|178:88|178:88|187:131|217:152,1,154.799995275879,14|2,2:2|2:2,0:0:0:0:
474,285,188410,5,6,1:2:0:0:
479,195,188592,2,0,B|391:231|391:231|393:271|366:295,1,154.799995275879,2|2,1:2|1:2,0:0:0:0:
206,263,189137,1,14,2:2:0:0:
269,376,189319,2,0,P|282:308|301:221,1,154.799995275879,2|0,2:2|1:1,0:0:0:0:
105,112,189864,5,4,1:2:0:0:
115,210,190046,2,0,B|210:191|137:148|273:125,1,154.799995275879,0|0,1:1|1:1,0:0:0:0:
424,80,190592,1,14,2:2:0:0:
348,14,190774,2,0,B|309:56|309:56|354:156,1,154.799995275879,0|2,0:0|1:2,0:0:0:0:
423,284,191319,5,6,1:2:0:0:
486,218,191501,2,0,P|430:197|396:187,1,77.3999976379395,2|2,1:2|2:2,0:0:0:0:
245,259,191864,1,2,1:2:0:0:
315,361,192046,2,0,P|326:304|336:267,1,77.3999976379395,12|2,2:2|1:2,0:0:0:0:
160,179,192410,2,0,P|149:236|139:273,1,77.3999976379395,10|0,2:2|0:0,0:0:0:0:
342,72,192774,5,6,1:2:0:0:
342,72,193137,2,0,P|388:52|430:27,1,77.3999976379395,0|0,1:1|0:0,0:0:0:0:
352,164,193501,2,0,P|386:145|421:130,1,77.3999976379395,0|0,1:1|0:0,0:0:0:0:
366,251,193864,2,0,P|400:232|435:217,1,77.3999976379395,0|0,1:1|0:0,0:0:0:0:
226,371,194228,6,0,P|237:318|256:261,1,77.3999976379395,2|0,1:2|0:0,0:0:0:0:
131,321,194592,2,0,P|142:268|161:211,1,77.3999976379395,0|0,1:1|0:0,0:0:0:0:
38,261,194955,2,0,P|49:208|68:151,1,77.3999976379395,2|0,1:2|0:0,0:0:0:0:
148,43,195319,2,0,P|133:103|122:150,1,77.3999976379395,2|0,1:2|0:0,0:0:0:0:
313,235,195683,6,0,B|395:201|395:201|428:207|450:255,1,141.900004330444,6|0,1:2|0:0,0:0:0:0:
455,263,196046,1,8,1:2:0:0:
304,150,196228,1,8,1:2:0:0:
387,326,196410,1,8,1:2:0:0:
492,155,196592,1,8,1:2:0:0:
253,271,196774,1,8,1:2:0:0:
490,384,196955,1,8,1:2:0:0:
387,172,197137,6,0,P|402:105|418:48,1,94.600002886963,8|8,1:2|1:2,0:0:0:0:
234,4,197501,2,0,P|219:71|203:128,1,94.600002886963,8|8,1:2|1:2,0:0:0:0:
175,307,197864,1,8,1:2:0:0:
63,82,198046,1,8,1:2:0:0:
260,192,198228,1,10,1:2:0:0:
28,328,198410,1,8,1:2:0:0:
212,96,198592,5,14,1:2:0:0:
308,361,198774,1,8,1:2:0:0:
56,232,198955,1,8,1:2:0:0:
315,82,199137,1,8,1:2:0:0:
122,363,199319,1,8,1:2:0:0:
367,251,199501,1,8,1:2:0:0:
111,68,199683,2,0,P|126:115|154:193,1,94.600002886963,8|8,1:2|1:2,0:0:0:0:
329,365,200046,5,8,1:2:0:0:
437,141,200228,1,8,1:2:0:0:
255,310,200410,1,8,1:2:0:0:
512,180,200592,1,8,1:2:0:0:
288,50,200774,5,8,1:2:0:0:
459,339,200955,1,8,1:2:0:0:
171,226,201137,1,8,1:2:0:0:
434,45,201319,1,8,1:2:0:0:
151,303,201501,5,8,1:2:0:0:
104,301,201591,1,8,2:2:0:0:
70,269,201682,1,8,2:2:0:0:
65,223,201773,1,8,2:2:0:0:
90,185,201864,1,8,1:2:0:0:
118,165,201954,1,8,2:2:0:0:
129,132,202045,1,8,2:2:0:0:
119,99,202136,1,8,2:2:0:0:
54,51,202228,5,6,1:2:0:0:
54,51,202591,6,0,P|22:67|29:124,1,86,10|0,2:2|0:0,0:0:0:0:
170,227,202955,2,0,P|222:197|272:176,1,86,2|0,1:2|1:1,0:0:0:0:
334,19,203318,2,0,P|319:78|307:134,1,86,10|0,2:2|0:0,0:0:0:0:
460,261,203682,6,0,B|455:193|385:177|385:177|366:200|328:205,1,172,2|10,1:2|2:2,0:0:0:0:
227,277,204228,1,2,2:2:0:0:
347,377,204409,2,0,P|358:316|378:267,1,86,2|0,1:2|1:1,0:0:0:0:
503,122,204773,2,0,P|456:146|425:175,1,86,10|0,2:2|0:0,0:0:0:0:
227,277,205137,6,0,P|202:224|91:216,1,172,2|10,1:2|2:2,0:0:0:0:
88,375,205682,2,0,P|123:339|124:300,1,86,2|2,2:2|1:2,0:0:0:0:
51,139,206046,1,0,1:1:0:0:
16,273,206228,1,10,2:2:0:0:
251,132,206409,1,2,2:2:0:0:
150,45,206591,5,2,1:2:0:0:
150,45,206773,1,2,1:2:0:0:
320,183,206955,2,0,P|364:164|408:156,1,86,10|0,2:2|0:0,0:0:0:0:
177,216,207318,1,2,1:2:0:0:
343,291,207500,1,0,1:1:0:0:
264,384,207682,2,0,P|246:308|239:269,1,86,10|0,2:2|0:0,0:0:0:0:
18,258,208046,6,0,B|112:285|57:337|175:356,1,172,6|10,1:2|2:2,0:0:0:0:
265,163,208591,2,0,P|217:179|208:224,1,86,2|2,2:2|1:2,0:0:0:0:
79,105,208955,1,2,1:2:0:0:
79,105,209137,1,8,2:2:0:0:
221,0,209318,2,0,P|251:52|261:99,1,86,2|2,2:2|1:2,0:0:0:0:
404,187,209682,5,2,1:2:0:0:
399,170,209773,1,2,2:2:0:0:
394,153,209864,1,10,2:2:0:0:
492,263,210046,1,2,2:2:0:0:
255,384,210228,6,0,P|282:346|320:342,1,86,2|0,1:2|1:1,0:0:0:0:
363,252,210500,2,0,P|401:283|408:347,1,86,2|0,2:2|0:0,0:0:0:0:
486,349,210773,2,0,P|464:380|430:387,1,43,2|0,2:2|0:0,0:0:0:0:
249,294,210955,6,0,P|216:238|90:244,1,172,2|10,1:2|2:2,0:0:0:0:
43,27,211500,2,0,L|59:80,1,43,2|2,2:2|2:2,0:0:0:0:
170,140,211682,1,2,1:2:0:0:
211,141,211772,1,2,2:2:0:0:
242,112,211863,1,2,1:2:0:0:
243,70,211954,1,2,2:2:0:0:
214,40,212046,2,0,L|151:66,1,43,10|2,2:2|2:2,0:0:0:0:
35,210,212228,5,10,2:2:0:0:
26,203,212318,1,10,2:2:0:0:
17,196,212409,1,10,2:2:0:0:
339,70,212591,1,2,1:2:0:0:
17,196,212955,5,8,2:2:0:0:
22,207,213046,1,8,2:2:0:0:
27,218,213137,1,10,2:2:0:0:
282,3,213318,1,2,1:2:0:0:
282,3,213864,6,0,P|257:78|247:106,1,77.3999976379395,6|0,1:2|0:0,0:0:0:0:
167,122,214228,1,10,2:3:0:0:
167,122,214409,2,0,P|146:79|31:72,1,154.799995275879,2|2,2:2|1:2,0:0:0:0:
33,169,214955,2,0,P|68:172|102:223,1,77.3999976379395,10|0,2:3|0:0,0:0:0:0:
166,302,215318,5,2,1:2:0:0:
166,302,215500,2,0,P|202:266|250:254,1,77.3999976379395,2|10,1:2|2:3,0:0:0:0:
393,336,215864,1,2,2:2:0:0:
308,358,216046,1,2,1:2:0:0:
329,275,216228,1,2,1:2:0:0:
351,193,216409,1,10,2:3:0:0:
222,361,216591,1,10,2:3:0:0:
428,256,216773,6,0,P|460:280|468:344,1,77.3999976379395,6|2,1:3|1:2,0:0:0:0:
351,193,217137,1,10,2:3:0:0:
351,193,217318,2,0,P|387:161|437:182,1,77.3999976379395,2|2,2:2|1:2,0:0:0:0:
287,19,217682,1,2,1:2:0:0:
228,80,217864,2,0,P|167:57|125:49,1,77.3999976379395,10|0,2:3|0:0,0:0:0:0:
21,229,218228,5,2,1:2:0:0:
164,142,218409,1,2,1:2:0:0:
25,32,218591,2,0,P|46:89|62:137,1,77.3999976379395,10|2,2:3|2:2,0:0:0:0:
236,290,218955,5,2,1:2:0:0:
93,192,219137,1,2,1:2:0:0:
83,377,219318,2,0,P|103:312|119:273,1,77.3999976379395,10|0,2:3|0:0,0:0:0:0:
328,208,219682,5,14,2:2:0:0:
209,377,219864,1,0,1:1:0:0:
416,264,220046,1,2,1:2:0:0:
257,121,220228,2,0,P|243:183|234:233,1,86,14|0,2:2|1:1,0:0:0:0:
466,116,220591,1,2,1:2:0:0:
340,24,220773,2,0,P|353:82|365:136,1,86,14|0,2:2|1:1,0:0:0:0:
154,261,221137,5,14,2:2:0:0:
74,33,221318,1,0,1:1:0:0:
238,205,221500,1,2,1:2:0:0:
6,150,221682,2,0,P|59:127|121:105,1,86,14|0,2:2|1:1,0:0:0:0:
244,295,222046,1,2,1:2:0:0:
66,367,222228,2,0,P|80:301|96:249,1,86,14|0,2:2|1:1,0:0:0:0:
311,250,222591,5,6,1:2:0:0:
171,122,222773,1,0,1:1:0:0:
324,254,222955,2,0,P|373:224|379:193,1,86,10|2,2:2|2:2,0:0:0:0:
244,54,223318,2,0,P|265:120|281:171,1,86,2|2,1:2|1:2,0:0:0:0:
464,169,223682,2,0,P|447:128|383:116,1,86,10|0,2:2|0:0,0:0:0:0:
218,249,224046,6,0,B|126:278|187:328|70:349,1,172,2|10,1:2|2:2,0:0:0:0:
241,371,224591,1,2,2:2:0:0:
55,238,224773,2,0,P|75:171|85:123,1,86,2|0,1:2|1:1,0:0:0:0:
198,29,225137,2,0,P|211:87|229:137,1,86,10|0,2:2|0:0,0:0:0:0:
404,276,225500,5,14,2:2:0:0:
404,276,225864,1,10,1:2:0:0:
449,158,226046,1,10,1:2:0:0:
284,343,226228,5,10,1:2:0:0:
493,235,226409,1,10,1:2:0:0:
286,130,226591,1,10,1:2:0:0:
417,372,226773,1,10,1:2:0:0:
142,258,226955,5,10,1:2:0:0:
372,109,227137,1,10,1:2:0:0:
210,377,227318,1,10,1:2:0:0:
65,127,227500,1,10,1:2:0:0:
298,223,227682,5,10,1:2:0:0:
65,378,227864,1,10,1:2:0:0:
385,269,228046,5,10,1:2:0:0:
95,49,228228,1,10,1:2:0:0:
141,46,240046,6,0,P|91:52|17:92,2,129.00000492096,6|2|8,1:2|1:2|1:2,0:0:0:0:
142,49,241137,2,0,L|164:127,1,64.5000024604798,2|10,1:2|2:2,0:0:0:0:
166,117,241409,1,8,2:2:0:0:
172,123,241500,1,0,1:1:0:0:
100,216,241682,1,8,2:2:0:0:
100,216,241864,2,0,P|37:195|26:193,1,64.5000024604798,2|0,1:2|0:0,0:0:0:0:
109,362,242228,2,0,P|133:315|212:318,1,129.00000492096,8|2,1:2|1:2,0:0:0:0:
319,368,242773,5,8,2:2:0:0:
319,368,242864,1,8,2:2:0:0:
319,368,242955,2,0,L|303:282,1,64.5000024604798,2|8,1:2|2:2,0:0:0:0:
384,261,243318,2,0,P|374:215|366:176,1,64.5000024604798,2|0,1:2|0:0,0:0:0:0:
445,145,243682,2,0,P|414:103|334:113,1,129.00000492096,8|2,1:2|1:2,0:0:0:0:
247,88,244228,1,10,2:2:0:0:
247,88,244318,1,8,2:2:0:0:
247,88,244409,6,0,L|265:13,1,64.5000024604798,0|8,1:1|2:2,0:0:0:0:
148,119,244773,2,0,L|169:34,1,64.5000024604798,2|8,1:2|2:2,0:0:0:0:
157,48,245046,1,8,2:2:0:0:
151,40,245137,5,8,1:2:0:0:
2,209,245318,1,8,2:3:0:0:
86,172,245499,1,4,1:3:0:0:
144,268,245681,1,4,2:3:0:0:
298,145,245864,6,0,L|280:226,1,77.3999976379395,2|2,1:2|2:2,0:0:0:0:
465,350,246955,2,0,L|475:298,1,38.6999988189698,2|0,2:2|0:0,0:0:0:0:
397,272,247318,2,0,L|378:358,1,77.3999976379395,0|2,0:0|2:2,0:0:0:0:
370,141,248409,2,0,L|380:104,1,38.6999988189698,2|0,2:2|0:0,0:0:0:0:
190,11,248773,38,1,B|143:41|165:118|165:118|184:198|282:175|291:77|192:49|165:118|165:118|156:200|-1:251|-39:131|-9:62|121:54|-9:169|97:167,1,709.500027065278,6|0,2:2|0:0,0:0:0:0:
305,208,250955,2,0,L|233:251,1,43,8|0,1:2|0:0,0:0:0:0:
56,355,251137,1,8,1:2:0:0:
56,355,251682,6,0,B|140:327|81:289|192:268,1,154.799995275879,4|0,1:2|1:1,0:0:0:0:
293,364,252228,1,2,2:2:0:0:
293,364,252409,2,0,P|331:343|374:322,1,77.3999976379395,0|2,1:1|2:2,0:0:0:0:
465,364,252773,2,0,P|484:316|452:271,1,77.3999976379395,2|2,1:2|2:2,0:0:0:0:
309,239,253137,6,0,B|328:211|325:184|325:184|353:161|353:161|345:126|381:95,1,154.799995275879,2|2,1:2|1:2,0:0:0:0:
248,34,253682,2,0,P|262:87|271:132,1,77.3999976379395,2|0,2:2|1:1,0:0:0:0:
156,187,254046,1,2,2:2:0:0:
85,105,254228,2,0,P|142:82|180:69,1,77.3999976379395,0|10,1:1|2:2,0:0:0:0:
63,198,254500,1,8,2:2:0:0:
74,203,254591,6,0,B|90:298|132:221|156:350,1,154.799995275879,4|0,1:2|1:1,0:0:0:0:
17,376,255137,1,2,2:2:0:0:
17,376,255318,2,0,P|39:339|82:320,1,77.3999976379395,0|2,1:1|2:2,0:0:0:0:
227,273,255682,2,0,P|264:311|315:318,1,77.3999976379395,2|2,1:2|2:2,0:0:0:0:
432,369,256046,6,0,P|446:315|369:259,1,154.799995275879,2|2,1:2|1:2,0:0:0:0:
297,187,256591,2,0,P|313:127|317:87,1,77.3999976379395,2|0,2:2|1:1,0:0:0:0:
456,49,256955,2,0,P|445:108|435:162,1,77.3999976379395,2|0,2:2|1:1,0:0:0:0:
207,119,257318,1,10,2:2:0:0:
186,108,257409,1,8,2:2:0:0:
164,98,257500,1,4,1:2:0:0:
164,98,257864,6,0,L|141:161,3,38.6999988189698,8|8|8|8,2:2|2:2|2:2|2:2,0:0:0:0:
89,51,258228,2,0,L|101:14,3,38.6999988189698,8|8|8|8,2:2|2:2|2:2|2:2,0:0:0:0:
36,124,258591,2,0,L|16:180,3,38.6999988189698,8|8|8|8,2:2|2:2|2:2|2:2,0:0:0:0:
105,213,258955,5,10,2:2:0:0:
110,227,259046,1,8,2:2:0:0:
115,241,259137,1,8,2:2:0:0:
120,255,259228,1,8,2:2:0:0:
125,269,259318,2,0,L|104:338,3,38.6999988189698,8|8|8|8,2:2|2:2|2:2|2:2,0:0:0:0:
198,361,259682,5,8,2:2:0:0:
231,378,259772,1,8,2:2:0:0:
268,370,259863,1,8,2:2:0:0:
293,341,259954,1,8,2:2:0:0:
294,303,260045,1,10,2:2:0:0:
304,261,260136,1,8,2:2:0:0:
338,233,260227,1,10,2:2:0:0:
381,230,260318,1,8,2:2:0:0:
418,253,260409,5,4,1:2:0:0:
183,145,260591,2,0,L|130:166,2,43,8|8|8,2:2|2:2|2:2,0:0:0:0:
385,332,260955,5,4,1:2:0:0:
275,63,261137,1,8,2:2:0:0:
270,79,261228,1,8,2:2:0:0:
265,95,261318,1,8,2:2:0:0:
128,262,261500,5,6,1:2:0:0:
373,102,261682,2,0,L|420:73,2,43,8|8|10,2:2|2:2|2:2,0:0:0:0:
127,22,262046,5,4,1:2:0:0:
291,199,262228,1,8,2:2:0:0:
296,215,262319,1,8,2:2:0:0:
301,231,262409,1,8,2:2:0:0:
127,353,262591,5,8,2:2:0:0:
86,364,262681,1,8,2:2:0:0:
48,345,262772,1,8,2:2:0:0:
33,306,262863,1,8,2:2:0:0:
47,267,262955,2,0,L|68:211,1,43,10|4,2:3|2:3,0:0:0:0:
172,194,263137,2,0,L|150:257,1,43,4|4,2:3|2:3,0:0:0:0:
39,129,263318,6,0,L|25:58,1,64.5000024604798,4|0,1:2|0:0,0:0:0:0:
127,22,263682,2,0,P|149:74|289:92,1,193.50000738144,2|0,1:2|0:0,0:0:0:0:
349,140,264409,2,0,P|374:97|355:61,1,64.5000024604798,2|0,1:2|0:0,0:0:0:0:
432,18,264773,2,0,P|457:45|439:156,1,129.00000492096,2|2,2:2|1:2,0:0:0:0:
414,210,265318,2,0,P|384:237|281:210,1,129.00000492096,2|2,2:2|0:0,0:0:0:0:
218,193,265864,2,0,L|242:108,1,64.5000024604798,2|2,1:2|0:0,0:0:0:0:
124,93,266228,6,0,L|99:166,1,64.5000024604798,2|0,0:0|0:0,0:0:0:0:
27,207,266591,2,0,B|25:264|85:265|90:257|93:246|169:265|152:339,1,193.50000738144,2|0,1:2|0:0,0:0:0:0:
26,374,267318,2,0,P|52:349|99:334,1,64.5000024604798,2|0,1:2|0:0,0:0:0:0:
230,384,267682,2,0,P|273:358|247:271,1,129.00000492096,2|2,2:2|1:2,0:0:0:0:
262,201,268228,2,0,B|339:200|303:250|405:257,1,129.00000492096,2|2,2:2|2:2,0:0:0:0:
496,243,268773,2,0,P|484:289|476:326,1,64.5000024604798,2|0,1:2|0:0,0:0:0:0:
427,148,269137,6,0,L|447:76,1,64.5000024604798,4|0,2:2|0:0,0:0:0:0:
366,16,269500,2,0,L|330:146,1,129.00000492096,2|0,1:2|0:0,0:0:0:0:
480,305,270228,2,0,P|473:253|388:238,1,129.00000492096,2|0,1:2|0:0,0:0:0:0:
329,281,270773,1,2,2:2:0:0:
329,281,270955,1,2,1:2:0:0:
138,357,271318,2,0,P|126:301|150:282,1,64.5000024604798,2|0,2:2|0:0,0:0:0:0:
58,249,271682,2,0,P|84:220|129:230,1,64.5000024604798,2|0,1:2|0:0,0:0:0:0:
229,228,272046,6,0,B|255:151|173:134|173:134|125:108|153:56,1,193.50000738144,6|0,2:2|0:0,0:0:0:0:
320,13,272773,2,0,P|278:27|246:45,1,64.5000024604798,2|0,2:2|0:0,0:0:0:0:
297,123,273137,2,0,P|339:101|384:85,1,64.5000024604798,2|2,1:2|2:2,0:0:0:0:
447,14,273500,2,0,P|463:65|485:149,1,129.00000492096,6|2,2:2|1:2,0:0:0:0:
372,257,274046,1,2,2:2:0:0:
374,172,274228,2,0,P|421:193|457:210,1,64.5000024604798,2|0,2:2|0:0,0:0:0:0:
504,323,274591,2,0,P|463:307|415:295,1,64.5000024604798,2|2,1:2|2:2,0:0:0:0:
281,232,274955,6,0,B|262:308|327:285|302:366,1,129.00000492096,4|2,1:2|1:2,0:0:0:0:
305,352,275500,1,8,2:3:0:0:
128,247,275682,1,4,1:3:0:0:
128,247,276046,2,0,P|114:287|77:299,1,64.5000024604798,6|0,1:3|0:0,0:0:0:0:
46,210,276409,6,0,P|67:168|161:177,1,129.00000492096,2|2,1:2|1:2,0:0:0:0:
241,118,276955,1,6,2:3:0:0:
241,118,277137,2,0,L|224:49,1,64.5000024604798,0|2,1:1|2:2,0:0:0:0:
139,25,277500,2,0,B|109:42|113:64|113:64|122:48|146:42,1,64.5000024604798,6|2,1:3|2:2,0:0:0:0:
302,2,277864,6,0,L|348:137,1,129.00000492096,4|2,1:2|1:2,0:0:0:0:
343,124,278409,1,8,2:3:0:0:
484,282,278591,1,4,1:3:0:0:
484,282,278955,2,0,P|500:245|480:210,1,64.5000024604798,6|0,1:3|0:0,0:0:0:0:
420,359,279318,6,0,P|404:308|324:292,1,129.00000492096,2|2,1:2|1:2,0:0:0:0:
272,234,279864,1,10,2:3:0:0:
272,234,280046,2,0,P|243:263|242:296,1,64.5000024604798,4|6,1:3|2:3,0:0:0:0:
185,364,280409,2,0,L|116:338,1,64.5000024604798,2|10,1:2|2:2,0:0:0:0:
55,282,280682,1,8,2:2:0:0:
48,271,280773,6,0,P|60:226|142:226,1,129.00000492096,4|2,1:2|1:2,0:0:0:0:
133,217,281318,1,8,2:3:0:0:
43,43,281500,1,4,1:3:0:0:
43,43,281864,2,0,P|26:111|24:135,1,64.5000024604798,6|0,1:3|0:0,0:0:0:0:
195,164,282228,6,0,B|276:136|208:105|317:85,1,129.00000492096,2|2,1:2|1:2,0:0:0:0:
413,33,282773,1,10,2:3:0:0:
413,33,282955,2,0,P|399:77|393:114,1,64.5000024604798,4|6,1:3|2:3,0:0:0:0:
346,213,283318,2,0,P|318:194|308:152,1,64.5000024604798,2|2,1:2|2:2,0:0:0:0:
445,326,283682,6,0,B|450:308|472:292|472:292|377:342,1,129.00000492096,4|2,1:2|1:2,0:0:0:0:
396,331,284228,1,8,2:3:0:0:
212,227,284409,1,4,1:3:0:0:
212,227,284773,2,0,P|198:288|193:311,1,64.5000024604798,6|0,1:3|0:0,0:0:0:0:
120,358,285137,6,0,P|81:335|107:255,1,129.00000492096,2|2,1:2|1:2,0:0:0:0:
31,184,285682,2,0,P|66:153|102:160,1,64.5000024604798,10|4,2:3|1:3,0:0:0:0:
232,83,286046,1,6,2:3:0:0:
114,32,286228,1,2,1:2:0:0:
253,188,286409,1,10,2:2:0:0:
264,182,286500,1,8,2:2:0:0:
275,176,286591,1,4,1:2:0:0:
275,176,286955,6,0,P|265:247|231:250,1,86,8|8,1:2|1:2,0:0:0:0:
216,367,287318,2,0,P|160:348|151:303,1,86,8|8,1:2|1:2,0:0:0:0:
29,276,287682,2,0,P|41:227|99:227,1,86,10|8,1:2|1:2,0:0:0:0:
275,176,288046,5,10,1:2:0:0:
86,60,288228,1,8,1:2:0:0:
184,229,288409,1,10,2:2:0:0:
301,36,288591,1,10,1:2:0:0:
96,144,288773,5,8,1:2:0:0:
343,278,288955,1,10,1:2:0:0:
195,32,289137,1,8,1:2:0:0:
102,289,289318,1,10,1:2:0:0:
355,144,289500,6,0,P|294:167|240:191,1,86,8|8,1:2|1:2,0:0:0:0:
417,22,289864,2,0,P|463:52|454:117,1,86,8|8,1:2|1:2,0:0:0:0:
426,261,290228,2,0,P|439:202|456:142,1,86,8|8,1:2|1:2,0:0:0:0:
243,287,290591,2,0,P|261:333|269:385,1,86,10|8,1:2|1:2,0:0:0:0:
279,172,290955,5,10,1:2:0:0:
149,358,291137,1,8,1:2:0:0:
335,244,291318,1,10,1:2:0:0:
121,113,291500,1,10,1:2:0:0:
243,287,291682,5,8,1:2:0:0:
345,62,291864,1,10,1:2:0:0:
85,201,292046,1,8,1:2:0:0:
358,356,292228,1,10,1:2:0:0:
230,81,292409,6,0,P|207:164|200:198,1,86,12|0,2:2|0:2,0:0:0:0:
17,373,292773,1,8,1:2:0:0:
85,201,292955,1,8,1:2:0:0:
189,329,293137,1,8,1:2:0:0:
0,197,293318,1,8,1:2:0:0:
230,81,293500,1,10,1:2:0:0:
93,313,293682,1,8,1:2:0:0:
97,42,293864,5,10,1:2:0:0:
259,280,294046,1,8,1:2:0:0:
282,3,294228,1,10,1:2:0:0:
171,244,294409,1,10,1:2:0:0:
432,140,294591,5,8,1:2:0:0:
173,13,294773,1,10,1:2:0:0:
259,280,294955,1,8,1:2:0:0:
443,46,295137,1,10,1:2:0:0:
152,150,295318,6,0,L|81:120,2,43,8|8|0,2:2|2:2|1:1,0:0:0:0:
406,224,295682,1,0,1:1:0:0:
268,63,295864,5,8,2:2:0:0:
263,41,295955,1,8,2:2:0:0:
258,19,296046,1,2,1:2:0:0:
131,251,296228,1,0,1:1:0:0:
358,147,296409,2,0,L|414:122,2,43,8|8|4,2:2|2:2|1:2,0:0:0:0:
138,32,296773,5,6,1:2:0:0:
291,273,296955,1,8,2:2:0:0:
291,273,297046,1,8,2:2:0:0:
291,273,297137,2,0,P|275:331|261:382,1,86,4|0,1:2|1:1,0:0:0:0:
66,172,297500,6,0,L|83:230,1,43,10|0,2:2|0:0,0:0:0:0:
65,306,297682,1,8,2:2:0:0:
103,320,297772,1,8,2:2:0:0:
143,306,297863,1,8,2:2:0:0:
165,270,297955,1,8,2:2:0:0:
187,234,298046,1,8,2:2:0:0:
227,220,298137,1,8,2:2:0:0:
267,236,298227,5,4,1:2:0:0:
105,99,298409,1,0,1:1:0:0:
259,11,298591,2,0,P|236:70|224:138,1,94.600002886963,10|0,2:2|0:0,0:0:0:0:
228,100,298864,1,8,2:2:0:0:
228,100,298955,1,2,1:2:0:0:
348,288,299137,1,0,1:1:0:0:
454,79,299318,2,0,P|405:102|336:122,1,94.600002886963,10|0,2:2|0:0,0:0:0:0:
186,314,299682,5,2,1:2:0:0:
410,201,299864,1,0,1:1:0:0:
280,384,300046,1,10,2:2:0:0:
247,128,300228,2,0,P|279:200|297:249,1,94.600002886963,2|2,1:2|2:2,0:0:0:0:
115,377,300591,1,2,1:2:0:0:
30,180,300773,2,0,P|84:192|85:253,1,94.600002886963,10|2,2:2|2:2,0:0:0:0:
92,233,301046,1,8,2:2:0:0:
89,242,301137,5,2,1:2:0:0:
247,128,301318,1,0,1:1:0:0:
157,14,301500,2,0,P|139:85|128:133,1,94.600002886963,10|0,2:2|0:0,0:0:0:0:
141,112,301773,1,0,0:0:0:0:
147,118,301864,1,2,1:2:0:0:
29,63,302046,1,0,1:1:0:0:
216,239,302228,2,0,P|262:213|342:185,1,94.600002886963,10|0,2:2|0:0,0:0:0:0:
483,184,302591,5,2,1:2:0:0:
300,104,302773,1,0,1:1:0:0:
474,277,302955,1,10,2:2:0:0:
426,34,303137,2,0,P|401:105|387:151,1,94.600002886963,2|2,2:2|1:2,0:0:0:0:
267,308,303500,5,14,2:2:0:0:
168,140,303682,1,12,2:2:0:0:
351,266,303864,1,2,1:2:0:0:
130,372,304046,5,4,1:2:0:0:
102,250,304228,2,0,P|151:273|184:285,1,77.3999976379395,0|2,1:1|2:2,0:0:0:0:
338,146,304591,1,0,1:1:0:0:
273,80,304773,2,0,B|264:113|239:130|239:130|282:224,1,154.799995275879,8|2,2:2|2:2,0:0:0:0:
373,270,305318,1,0,1:1:0:0:
443,107,305500,5,2,1:2:0:0:
484,205,305682,2,0,P|429:189|392:179,1,77.3999976379395,0|2,1:1|2:2,0:0:0:0:
458,312,306046,1,0,1:1:0:0:
366,358,306228,2,0,P|307:339|302:242,1,154.799995275879,8|2,2:2|2:2,0:0:0:0:
373,270,306773,1,2,2:2:0:0:
221,112,306955,5,4,1:2:0:0:
226,193,307137,2,0,P|276:175|293:138,1,77.3999976379395,0|2,1:1|2:2,0:0:0:0:
56,74,307500,1,0,1:1:0:0:
161,22,307682,2,0,L|122:199,1,154.799995275879,8|2,2:2|2:2,0:0:0:0:
28,350,308228,1,0,1:1:0:0:
174,251,308409,1,2,1:2:0:0:
125,374,308591,2,0,P|104:310|93:270,1,77.3999976379395,0|2,1:1|2:2,0:0:0:0:
46,217,308955,1,0,1:1:0:0:
226,361,309137,6,0,P|286:339|301:309,1,77.3999976379395,12|2,2:2|1:2,0:0:0:0:
442,168,309501,1,10,2:2:0:0:
404,163,309591,1,8,2:2:0:0:
372,183,309682,1,10,2:2:0:0:
361,219,309773,1,8,2:2:0:0:
375,254,309864,1,4,1:2:0:0:
375,254,310228,5,0,1:1:0:0:
322,127,310409,1,8,1:2:0:0:
292,330,310591,1,8,1:2:0:0:
470,247,310773,1,8,1:2:0:0:
211,147,310955,1,8,1:2:0:0:
390,64,311137,1,8,1:2:0:0:
202,247,311318,5,8,1:2:0:0:
91,31,311500,1,8,1:2:0:0:
282,202,311682,1,8,1:2:0:0:
41,307,311864,1,8,1:2:0:0:
302,70,312046,5,8,1:2:0:0:
204,341,312228,1,8,1:2:0:0:
191,22,312409,1,8,1:2:0:0:
313,295,312591,1,8,1:2:0:0:
40,187,312773,5,12,2:2:0:0:
226,100,312955,2,0,P|208:154|190:221,1,94.600002886963,0|0,1:1|1:1,0:0:0:0:
287,383,313318,1,12,2:2:0:0:
454,190,313500,2,0,P|399:211|351:223,1,94.600002886963,0|0,1:1|1:1,0:0:0:0:
111,135,313864,5,14,2:2:0:0:
313,295,314046,1,0,1:1:0:0:
91,31,314228,1,14,1:2:0:0:
91,31,315682,6,0,B|134:9|184:27|184:27|195:87|250:79,1,172,6|8,1:2|2:2,0:0:0:0:
392,16,316228,1,2,2:2:0:0:
340,165,316409,2,0,P|316:94|293:57,1,86,0|2,1:1|2:2,0:0:0:0:
475,192,316773,2,0,P|451:255|449:304,1,86,8|2,2:2|2:2,0:0:0:0:
286,362,317137,6,0,P|247:331|264:213,1,172,2|8,1:2|2:2,0:0:0:0:
142,359,317682,2,0,P|97:341|51:332,1,86,2|0,0:0|1:2,0:0:0:0:
158,224,318046,1,2,0:0:0:0:
12,139,318228,2,0,P|30:190|45:233,1,86,10|0,0:0|0:0,0:0:0:0:
255,107,318591,6,0,B|249:43|180:31|180:31|166:58|121:68,1,172,2|8,1:2|2:2,0:0:0:0:
259,221,319137,1,2,2:2:0:0:
436,127,319318,2,0,P|449:69|461:22,1,86,0|2,1:1|2:2,0:0:0:0:
330,180,319682,1,8,2:2:0:0:
494,276,319864,1,2,3:2:0:0:
494,276,319955,1,0,3:2:0:0:
494,276,320046,6,0,B|385:292|451:353|340:368,1,172,2|8,1:2|2:2,0:0:0:0:
177,248,320591,2,0,P|221:236|280:210,1,86,2|0,2:0|1:1,0:0:0:0:
172,380,320955,1,2,2:2:0:0:
55,220,321137,2,0,P|64:175|80:131,1,86,10|2,2:2|2:2,0:0:0:0:
205,23,321500,6,0,P|214:76|325:97,1,172,6|8,1:2|2:2,0:0:0:0:
486,159,322046,1,2,2:2:0:0:
380,2,322228,2,0,P|401:50|416:99,1,86,0|2,1:1|2:2,0:0:0:0:
327,226,322591,2,0,P|343:181|400:168,1,86,8|2,2:2|2:2,0:0:0:0:
500,379,322955,6,0,B|471:316|411:308|411:308|386:335|340:337,1,172,2|8,1:2|2:2,0:0:0:0:
210,251,323500,2,0,P|229:202|239:153,1,86,2|0,2:2|1:1,0:0:0:0:
89,36,323864,1,2,2:2:0:0:
66,152,324046,2,0,P|128:128|168:113,1,86,10|2,2:2|2:2,0:0:0:0:
109,359,324409,6,0,P|60:344|72:237,1,172,2|10,1:2|2:2,0:0:0:0:
284,308,324955,1,2,2:2:0:0:
204,382,325137,2,0,P|190:324|172:276,1,86,2|2,1:2|2:2,0:0:0:0:
146,121,325500,5,10,2:2:0:0:
333,244,325682,1,14,2:2:0:0:
69,189,325864,5,2,1:2:0:0:
297,39,326046,1,10,1:2:0:0:
181,299,326228,1,10,1:2:0:0:
29,68,326409,1,10,1:2:0:0:
330,149,326591,5,10,1:2:0:0:
19,295,326773,1,10,1:2:0:0:
345,376,326955,1,10,1:2:0:0:
197,32,327137,1,10,1:2:0:0:
205,41,328046,38,1,B|152:9|152:9|144:75|144:75|88:114|88:114|147:143|147:143|166:209|166:209|214:161|214:161|283:164|283:164|251:103|251:103|298:5|437:9|437:9|333:30|306:107|306:107|371:29|437:47,1,1083.59996693115,6|4,1:2|2:3,0:0:0:0:
