osu file format v14

[General]
AudioFilename: audio.mp3
AudioLeadIn: 0
PreviewTime: 179578
Countdown: 0
SampleSet: Soft
StackLeniency: 0.7
Mode: 0
LetterboxInBreaks: 0
WidescreenStoryboard: 0

[Editor]
Bookmarks: 617,9395,10352,23116,49767,50086,50405,116948,117426,141041,165937,166097,166416,190350,210935,214046,222666,224020,230403
DistanceSpacing: 1
BeatDivisor: 4
GridSize: 8
TimelineZoom: 1.7

[Metadata]
Title:Dramatic Star
TitleUnicode:ドラマティックスター
Artist:Aitsuki Nakuru
ArtistUnicode:藍月なくる
Creator:Mnyui
Version:Stellar
Source:
Tags:
BeatmapID:2161474
BeatmapSetID:1000561

[Difficulty]
HPDrainRate:5.5
CircleSize:4
OverallDifficulty:9.3
ApproachRate:9.3
SliderMultiplier:1.7
SliderTickRate:1

[Events]
//Background and Video events
0,0,"AAAAAAAAA.jpg",0,0
//Break Periods
//Storyboard Layer 0 (Background)
//Storyboard Layer 1 (Fail)
//Storyboard Layer 2 (Pass)
//Storyboard Layer 3 (Foreground)
//Storyboard Layer 4 (Overlay)
//Storyboard Sound Samples

[TimingPoints]
616,319.148936170213,4,2,1,50,1,0
1892,-125,4,2,1,60,0,0
6998,-111.111111111111,4,2,1,70,0,0
15935,-99.9999999999999,4,2,1,80,0,0
20722,-142.857142857143,4,2,1,60,0,0
21360,-125,4,2,1,65,0,0
31254,-111.111111111111,4,2,1,70,0,0
36998,-90.9090909090908,4,2,1,80,0,0
37637,-111.111111111111,4,2,1,70,0,0
40030,-90.9090909090908,4,2,1,80,0,0
41307,-100,4,2,1,75,0,0
46573,-111.111111111111,4,2,1,70,0,0
49126,-100,4,2,1,75,0,0
56786,-90.9090909090909,4,2,1,80,0,0
61892,-83.3333333333333,4,2,1,90,0,0
82318,-90.9090909090909,4,2,1,75,0,0
87743,-111.111111111111,4,2,1,70,0,0
89818,-90.9090909090909,4,2,1,80,0,0
90296,-100,4,2,1,70,0,0
97158,-125,4,2,1,60,0,0
97956,-100,4,2,1,70,0,0
103381,-90.9090909090909,4,2,1,80,0,0
112956,-111.111111111111,4,2,1,75,0,0
114552,-71.4285714285714,4,2,1,75,0,0
115828,-100,4,2,1,70,0,0
117743,-142.857142857143,4,2,1,60,0,0
118062,-100,4,2,1,70,0,0
123169,-90.9090909090909,4,2,1,80,0,0
127956,-86.9565217391304,4,2,1,85,0,0
128275,-83.3333333333333,4,2,1,90,0,0
148701,-76.9230769230769,4,2,1,95,0,0
166573,-83.3333333333333,4,2,1,90,0,0
171679,-76.9230769230769,4,2,1,95,0,0
172796,-71.4285714285714,4,2,1,100,0,0
173435,-76.9230769230769,4,2,1,95,0,0
177264,-83.3333333333333,4,2,1,90,0,0
179658,-100,4,2,1,70,0,0
180616,-90.9090909090909,4,2,1,80,0,0
181733,-76.9230769230769,4,2,1,95,0,0
182371,-71.4285714285714,4,2,1,100,0,0
183169,-76.9230769230769,4,2,1,95,0,0
185722,-83.3333333333333,4,2,1,90,0,0
198488,-111.111111111111,4,2,1,70,0,0
203594,-83.3333333333333,4,2,1,90,0,0
213807,-76.9230769230769,4,2,1,95,0,0
221467,-100,4,2,1,70,0,0
222584,-232.558139534884,4,2,1,65,0,0
224020,-181.818181818182,4,2,1,60,0,0

[Colours]
Combo1 : 194,220,229
Combo2 : 47,138,197
Combo3 : 8,39,103

[HitObjects]
82,154,935,6,0,P|77:199|104:237,1,85,2|0,0:0|0:0,0:0:0:0:
143,95,1254,2,0,P|105:68|59:72,1,85,2|0,0:0|0:0,0:0:0:0:
163,177,1573,2,0,P|204:157|224:115,1,85,2|0,0:0|0:0,0:0:0:0:
348,13,1892,6,0,P|346:85|341:171,1,136,8|8,0:3|0:3,0:0:0:0:
306,233,2371,1,0,0:0:0:0:
447,219,2530,2,0,B|383:187|383:251|303:219,1,136,8|8,0:3|0:3,0:0:0:0:
256,124,3009,1,0,0:0:0:0:
244,289,3169,6,0,P|225:259|230:200,1,68,8|0,0:3|0:0,0:0:0:0:
266,134,3488,1,8,0:3:0:0:
234,299,3647,2,0,P|202:268|102:292,1,136
9,380,4126,1,8,0:3:0:0:
165,336,4286,1,0,0:0:0:0:
12,162,4445,6,0,P|31:231|31:317,1,136,8|8,0:3|0:3,0:0:0:0:
135,131,4924,2,0,P|121:164|125:208,1,68,0|8,0:0|0:3,0:0:0:0:
249,222,5243,2,0,P|227:193|186:174,1,68,0|8,0:0|0:3,0:0:0:0:
116,278,5562,1,0,0:0:0:0:
293,353,5722,6,0,P|319:319|396:327,1,102,8|0,0:3|0:0,0:0:0:0:
401,291,6041,2,0,P|370:272|334:278,1,68,8|0,0:3|0:0,0:0:0:0:
481,380,6360,2,0,P|479:323|488:232,1,136,8|8,0:3|0:3,0:0:0:0:
511,114,6839,1,0,0:0:0:0:
483,93,6919,1,0,0:0:0:0:
445,100,6998,6,0,B|388:94|388:94|357:118|357:118|268:109,1,152.999995330811,4|0,3:2|3:0,0:0:0:0:
142,87,7477,1,0,3:0:0:0:
286,36,7637,2,0,B|248:46|248:46|196:102|249:184,1,152.999995330811,0|0,3:0|3:0,0:0:0:0:
369,207,8116,2,0,P|329:186|295:194,1,76.4999976654053,2|0,3:1|3:0,0:0:0:0:
181,283,8435,2,0,P|219:258|229:225,1,76.4999976654053,2|0,3:1|3:0,0:0:0:0:
97,145,8754,5,2,3:1:0:0:
90,182,8834,1,0,0:0:0:0:
85,219,8913,1,0,3:0:0:0:
172,74,9073,1,2,3:1:0:0:
228,230,9233,1,0,3:1:0:0:
124,71,9392,2,0,L|183:60,1,38.2499988327027,2|0,3:1|3:1,0:0:0:0:
400,131,9552,6,0,L|356:143,3,38.2499988327027,8|0|0|0,3:2|3:1|3:1|3:1,0:0:0:0:
90,182,9871,2,0,L|134:194,3,38.2499988327027,8|0|0|0,3:2|3:1|3:1|3:1,0:0:0:0:
311,328,10190,6,0,L|324:258,1,38.2499988327027,8|0,3:2|3:1,0:0:0:0:
126,192,10350,2,0,L|136:242,1,38.2499988327027,0|0,3:1|3:1,0:0:0:0:
291,78,10509,1,8,3:2:0:0:
194,329,10669,1,4,3:2:0:0:
194,329,10988,5,8,0:0:0:0:
256,160,11147,1,8,0:0:0:0:
311,328,11307,1,8,0:0:0:0:
96,112,11467,5,8,0:0:0:0:
400,112,11626,1,8,0:0:0:0:
256,384,11786,1,8,0:0:0:0:
256,32,11945,1,8,0:0:0:0:
9,212,12903,5,8,0:0:0:0:
9,212,12983,1,8,0:0:0:0:
9,212,13062,2,0,L|65:226,1,38.2499988327027,2|2,3:0|3:0,0:0:0:0:
246,275,13222,2,0,L|190:289,1,38.2499988327027,2|2,3:0|3:0,0:0:0:0:
48,354,13381,5,4,3:2:0:0:
92,130,13541,1,8,0:0:0:0:
133,292,13701,1,2,3:0:0:0:
6,130,13860,2,0,P|55:124|88:119,1,76.4999976654053,4|0,3:2|3:2,0:0:0:0:
310,108,14179,5,8,3:2:0:0:
136,59,14339,1,2,3:0:0:0:
312,189,14498,2,0,P|355:176|380:146,1,76.4999976654053,8|0,3:2|0:0,0:0:0:0:
239,32,14818,5,8,3:2:0:0:
309,274,14977,1,2,3:0:0:0:
444,115,15137,2,0,P|411:84|372:77,1,76.4999976654053,2|0,3:0|0:0,0:0:0:0:
237,227,15456,2,0,L|180:218,1,38.2499988327027,8|8,3:2|3:2,0:0:0:0:
53,147,15616,1,8,3:2:0:0:
74,179,15695,1,8,3:2:0:0:
75,218,15775,1,8,3:2:0:0:
53,250,15855,1,8,3:2:0:0:
22,280,15935,6,0,B|105:249|96:331|187:303,1,170,4|8,3:2|0:0,0:0:0:0:
413,184,16413,1,0,0:0:0:0:
199,221,16573,1,2,0:2:0:0:
407,305,16733,1,0,0:0:0:0:
189,231,16892,1,8,0:0:0:0:
398,109,17052,6,0,P|401:157|403:195,1,85,0|2,0:0|0:0,0:0:0:0:
483,342,17371,2,0,P|455:312|414:312,1,85,2|8,0:1|0:2,0:0:0:0:
182,313,17690,2,0,B|229:319|256:277|256:277|267:324|334:332,1,170,2|0,0:1|3:2,0:0:0:0:
189,231,18169,1,8,0:2:0:0:
136,381,18328,2,0,P|108:351|112:274,1,85,12|0,3:2|0:0,0:0:0:0:
124,112,18647,6,0,L|119:161,1,42.5,8|2,3:2|3:0,0:0:0:0:
109,227,18807,1,8,3:2:0:0:
211,92,18967,6,0,L|206:141,1,42.5,0|0,3:0|3:0,0:0:0:0:
189,231,19126,1,8,3:2:0:0:
298,72,19286,6,0,L|293:121,1,42.5,2|2,3:0|3:0,0:0:0:0:
269,235,19445,1,8,3:2:0:0:
385,52,19605,1,4,3:2:0:0:
394,313,19924,5,2,0:0:0:0:
408,172,20084,1,2,0:0:0:0:
480,294,20243,1,2,0:0:0:0:
349,239,20403,1,2,0:0:0:0:
489,207,20562,1,2,0:0:0:0:
308,315,20722,6,0,P|261:311|222:307,1,59.4999981842042,2|0,3:3|0:0,0:0:0:0:
80,292,21041,1,4,0:0:0:0:
80,292,21360,5,2,0:0:0:0:
89,136,21520,1,2,0:0:0:0:
172,265,21679,1,2,0:0:0:0:
28,210,21839,1,0,0:0:0:0:
178,170,21998,1,2,0:0:0:0:
80,292,22158,1,0,0:0:0:0:
163,76,22318,5,2,0:0:0:0:
163,76,22477,2,0,P|217:71|245:70,1,68,0|2,0:0|0:0,0:0:0:0:
98,31,22796,2,0,P|81:71|86:101,1,68,0|2,0:0|0:0,0:0:0:0:
285,126,23116,2,0,P|306:88|264:0,1,136
83,94,23594,1,2,0:0:0:0:
225,284,23913,5,2,0:0:0:0:
184,110,24073,1,0,0:0:0:0:
113,277,24233,1,2,0:0:0:0:
184,120,24392,1,0,0:0:0:0:
225,294,24552,1,2,0:0:0:0:
184,130,24711,1,0,0:0:0:0:
34,294,24871,5,2,0:0:0:0:
34,294,25030,2,0,L|125:285,1,68,0|2,0:0|0:0,0:0:0:0:
272,364,25350,2,0,P|257:317|315:227,1,136
337,312,25828,1,2,0:0:0:0:
315,167,25988,1,0,0:0:0:0:
315,167,26068,1,0,0:0:0:0:
315,167,26147,6,0,B|282:152|251:175|251:175|217:202|162:178,1,136,6|2,0:0|0:0,0:0:0:0:
169,36,26786,2,0,B|205:17|205:17|203:115,1,136,2|2,0:0|0:0,0:0:0:0:
22,259,27424,2,0,B|58:242|58:242|94:277|158:255,1,136,2|2,0:0|0:0,0:0:0:0:
116,118,27903,1,0,0:0:0:0:
116,118,28062,2,0,P|116:156|119:193,1,68,2|0,0:0|0:0,0:0:0:0:
198,195,28381,1,2,0:0:0:0:
41,153,28541,5,0,0:0:0:0:
257,139,28701,2,0,P|280:188|241:264,1,136,2|2,0:0|0:0,0:0:0:0:
303,315,29179,2,0,P|273:335|231:329,1,68,0|2,0:0|0:0,0:0:0:0:
280,201,29498,2,0,P|271:234|248:258,1,68,0|2,0:0|0:0,0:0:0:0:
41,294,29818,6,0,B|79:272|79:272|196:290,1,136
301,317,30296,1,2,0:0:0:0:
133,203,30456,1,4,0:0:0:0:
133,203,30775,5,2,3:0:0:0:
233,165,30935,1,2,3:0:0:0:
301,317,31094,1,0,3:0:0:0:
301,317,31174,1,0,3:0:0:0:
301,317,31254,2,0,L|308:204,1,76.4999976654053,6|0,3:1|0:0,0:0:0:0:
254,35,31573,5,0,3:0:0:0:
295,230,31733,1,0,0:0:0:0:
379,49,31892,1,0,3:2:0:0:
204,149,32052,1,0,0:0:0:0:
402,165,32211,1,0,3:0:0:0:
242,23,32371,5,0,0:0:0:0:
285,240,32530,2,0,B|327:222|358:245|358:245|392:272|447:248,1,153,0|0,3:2|3:0,0:0:0:0:
315,384,33009,6,0,P|324:334|319:309,1,76.4999976654053,0|0,0:0|3:2,0:0:0:0:
208,200,33328,2,0,P|199:250|204:275,1,76.4999976654053,0|0,0:0|3:0,0:0:0:0:
279,161,33647,1,4,3:2:0:0:
208,349,33807,2,0,P|212:311|203:274,1,76.4999976654053,2|0,3:1|0:0,0:0:0:0:
150,93,34126,5,0,3:0:0:0:
68,274,34286,1,0,3:0:0:0:
140,83,34445,1,0,3:2:0:0:
193,284,34605,1,0,3:0:0:0:
41,155,34764,1,0,3:0:0:0:
242,177,34924,1,0,3:0:0:0:
21,155,35084,5,2,3:1:0:0:
203,274,35243,2,0,P|246:268|308:262,1,76.4999976654053,0|0,0:0|3:1,0:0:0:0:
232,101,35562,2,0,P|238:144|244:206,1,76.4999976654053,0|2,0:0|3:1,0:0:0:0:
120,83,35881,1,0,0:0:0:0:
321,93,36041,1,0,3:0:0:0:
151,203,36201,1,0,0:0:0:0:
47,37,36360,2,0,P|90:8|194:40,1,152.999995330811,2|0,3:1|0:0,0:0:0:0:
232,101,36839,1,0,0:0:0:0:
11,228,36998,6,0,B|77:166|77:166|161:213,1,187.000005706787,2|8,3:1|3:2,0:0:0:0:
283,369,37637,6,0,P|267:336|277:293,1,76.4999976654053,4|0,3:2|0:0,0:0:0:0:
396,237,37956,1,8,3:2:0:0:
240,218,38116,2,0,B|290:212|290:212|333:235|333:235|401:226,1,152.999995330811,6|8,3:1|3:2,0:0:0:0:
407,206,38514,1,8,3:2:0:0:
407,206,38594,2,0,L|444:200,2,38.2499988327027,8|0|2,3:2|0:0|3:0,0:0:0:0:
207,316,38913,5,12,3:2:0:0:
265,91,39233,1,8,3:2:0:0:
192,135,39392,5,4,3:2:0:0:
292,352,39711,1,8,3:2:0:0:
292,352,40030,6,0,B|312:297|285:259|285:259|252:216|286:153,1,187,6|2,3:1|3:1,0:0:0:0:
370,59,40509,1,2,3:0:0:0:
360,208,40669,1,6,3:1:0:0:
360,208,40748,1,2,3:0:0:0:
360,208,40828,1,2,3:0:0:0:
282,82,40988,1,2,3:0:0:0:
420,136,41147,1,2,3:0:0:0:
226,308,41307,6,0,P|209:270|82:274,1,170,4|0,3:2|3:0,0:0:0:0:
160,110,41786,1,8,3:2:0:0:
146,323,41945,1,0,0:0:0:0:
42,130,42105,1,8,3:2:0:0:
135,334,42264,1,0,0:0:0:0:
135,334,42344,1,0,0:0:0:0:
135,334,42424,1,0,0:0:0:0:
170,100,42584,5,12,3:2:0:0:
52,120,42903,1,12,3:2:0:0:
180,90,43222,1,12,3:2:0:0:
191,79,43541,5,2,0:1:0:0:
40,132,43701,1,8,3:2:0:0:
289,207,43860,2,0,B|354:190|354:190|396:209|396:209|463:195,1,170,4|0,3:2|3:0,0:0:0:0:
380,42,44339,1,8,3:2:0:0:
345,276,44498,1,0,0:0:0:0:
391,53,44658,1,8,3:2:0:0:
451,197,44818,1,2,3:0:0:0:
451,197,44897,1,0,0:0:0:0:
451,197,44977,1,0,3:0:0:0:
272,50,45137,5,12,3:2:0:0:
289,207,45456,1,12,3:2:0:0:
261,39,45775,1,12,3:2:0:0:
220,262,46094,5,2,3:0:0:0:
275,123,46254,1,2,3:0:0:0:
289,207,46413,1,2,3:0:0:0:
64,168,46573,6,0,B|108:145|147:182|147:182|209:177,1,152.999995330811,4|0,3:2|3:0,0:0:0:0:
355,153,47052,1,0,3:0:0:0:
195,92,47211,1,8,3:2:0:0:
289,207,47371,1,0,0:0:0:0:
342,69,47530,1,0,0:0:0:0:
209,177,47690,2,0,L|225:337,1,152.999995330811,2|2,3:0|3:0,0:0:0:0:
412,384,48169,6,0,P|414:339|416:308,1,76.4999976654053,2|0,0:1|0:0,0:0:0:0:
299,197,48488,2,0,P|301:235|303:273,1,76.4999976654053,8|0,3:2|0:0,0:0:0:0:
422,374,48807,2,0,P|424:329|426:298,1,76.4999976654053,2|0,0:1|0:0,0:0:0:0:
510,132,49126,6,0,B|473:102|439:105|439:105|392:142|337:108,1,170,4|8,3:2|3:2,0:0:0:0:
146,125,49605,1,8,3:2:0:0:
385,49,49764,5,8,3:2:0:0:
233,249,49924,1,8,3:2:0:0:
237,0,50084,5,8,3:2:0:0:
379,204,50243,1,8,3:2:0:0:
151,202,50403,5,4,3:2:0:0:
352,116,50562,2,0,L|407:130,2,42.5,2|2|2,3:0|3:0|3:0,0:0:0:0:
141,212,50881,5,12,3:2:0:0:
423,274,51041,2,0,L|463:313,2,42.5,2|2|2,3:0|3:0|3:0,0:0:0:0:
289,174,51360,2,0,P|242:177|288:237,1,127.5,12|0,3:2|0:0,0:0:0:0:
277,263,51679,6,0,B|234:243|193:273|193:273|149:308|78:277,1,170,4|8,3:2|3:2,0:0:0:0:
27,260,52158,1,0,0:0:0:0:
141,128,52318,2,0,P|148:175|140:213,1,85,0|0,3:0|0:0,0:0:0:0:
45,90,52637,1,8,3:2:0:0:
237,166,52796,2,0,P|281:162|323:157,1,85,0|0,0:0|0:2,0:0:0:0:
452,61,53116,2,0,P|426:85|429:142,1,85,0|8,3:0|3:2,0:0:0:0:
511,311,53435,6,0,P|501:266|386:242,1,170
288,343,53913,1,8,3:2:0:0:
321,157,54073,1,2,3:1:0:0:
321,157,54153,1,2,3:1:0:0:
321,157,54233,6,0,B|319:133|291:116|248:132|235:181|274:261,1,170,2|8,3:1|3:2,0:0:0:0:
357,81,54711,2,0,P|304:56|255:69,1,85,2|0,0:1|3:0,0:0:0:0:
166,105,55030,1,2,0:1:0:0:
321,157,55190,1,8,3:2:0:0:
142,20,55350,6,0,L|129:188,1,170,4|0,0:0|3:0,0:0:0:0:
117,308,55828,1,8,3:2:0:0:
19,142,55988,5,0,3:0:0:0:
19,142,56068,1,0,3:0:0:0:
19,142,56147,1,0,3:0:0:0:
0,333,56307,1,0,0:0:0:0:
128,189,56467,1,8,3:2:0:0:
199,368,56626,1,2,3:0:0:0:
410,212,56786,6,0,P|364:208|311:203,1,93.5000028533936,4|0,3:2|0:0,0:0:0:0:
107,85,57105,2,0,P|153:81|206:76,1,93.5000028533936,8|0,3:2|0:0,0:0:0:0:
420,92,57424,5,8,3:2:0:0:
176,154,57584,1,0,0:0:0:0:
420,212,57743,5,8,3:2:0:0:
165,154,57903,1,0,0:0:0:0:
425,10,58062,6,0,L|432:129,1,93.5000028533936,8|0,3:2|0:0,0:0:0:0:
443,322,58381,5,8,3:2:0:0:
330,148,58541,1,0,0:0:0:0:
319,357,58701,5,8,3:2:0:0:
319,357,58780,1,0,0:0:0:0:
319,357,58860,1,0,0:0:0:0:
420,113,59020,5,8,3:2:0:0:
212,268,59179,1,4,3:2:0:0:
0,115,59498,5,8,3:2:0:0:
34,129,59578,1,8,3:2:0:0:
70,137,59658,2,0,P|97:132|142:123,1,46.7500014266968,8|8,3:2|3:2,0:0:0:0:
231,49,59818,2,0,L|226:96,1,46.7500014266968,8|8,3:2|3:2,0:0:0:0:
212,268,59977,1,10,3:1:0:0:
315,69,60137,5,2,3:1:0:0:
349,309,60296,1,2,3:1:0:0:
414,0,60456,1,2,3:1:0:0:
414,0,60935,5,2,0:0:0:0:
448,240,61254,1,4,3:2:0:0:
299,62,61413,1,8,3:2:0:0:
273,89,61493,1,8,3:2:0:0:
237,101,61573,1,8,3:2:0:0:
200,93,61653,1,8,3:2:0:0:
168,72,61733,2,0,P|168:106|169:144,1,46.7500014266968,8|8,3:2|3:2,0:0:0:0:
27,289,61892,6,0,B|91:272|91:272|141:309|141:309|215:287,1,203.999993774414,4|8,3:2|0:2,0:0:0:0:
458,213,62371,1,0,0:0:0:0:
278,334,62530,2,0,P|293:279|263:224,1,101.999996887207
168,118,62850,1,8,0:2:0:0:
351,207,63009,6,0,P|310:166|248:164,1,101.999996887207,2|0,0:1|0:0,0:0:0:0:
99,274,63328,2,0,P|154:259|186:206,1,101.999996887207,2|8,0:1|0:2,0:0:0:0:
167,22,63647,2,0,P|151:77|181:132,1,101.999996887207,2|0,0:1|0:0,0:0:0:0:
277,238,63967,1,0,0:0:0:0:
284,23,64126,1,8,0:2:0:0:
407,243,64286,2,0,L|330:233,1,50.9999984436036,2|0,3:1|3:0,0:0:0:0:
126,180,64445,6,0,B|172:206|222:171|222:171|271:134|326:170,1,203.999993774414,0|8,3:0|3:2,0:0:0:0:
62,231,64924,2,0,P|42:185|56:136,1,101.999996887207,6|0,0:1|0:0,0:0:0:0:
157,46,65243,1,0,0:0:0:0:
136,263,65403,1,8,3:2:0:0:
157,36,65562,1,12,3:2:0:0:
136,273,65881,5,2,3:0:0:0:
157,26,66041,1,8,3:2:0:0:
246,170,66201,1,0,0:0:0:0:
0,130,66360,2,0,P|54:123|136:115,1,101.999996887207,12|0,3:2|0:0,0:0:0:0:
300,53,66679,1,8,0:0:0:0:
300,53,66759,1,8,0:0:0:0:
300,53,66839,2,0,L|307:116,1,50.9999984436036,8|8,0:0|0:0,0:0:0:0:
418,262,66998,6,0,B|361:224|299:269|299:269|218:257,1,203.999993774414,4|8,0:0|0:0,0:0:0:0:
108,230,67477,1,0,0:0:0:0:
297,374,67637,1,0,0:0:0:0:
228,147,67796,1,0,0:0:0:0:
150,370,67956,1,8,0:0:0:0:
346,230,68116,6,0,P|351:184|312:129,1,101.999996887207
136,119,68435,2,0,P|173:146|240:140,1,101.999996887207,0|8,0:0|0:0,0:0:0:0:
335,0,68754,2,0,P|292:18|264:79,1,101.999996887207
277,204,69073,1,0,0:0:0:0:
499,131,69233,2,0,P|461:103|394:109,1,101.999996887207,8|0,0:0|0:0,0:0:0:0:
267,214,69552,5,0,3:0:0:0:
325,10,69711,1,0,0:0:0:0:
372,266,69871,1,12,0:0:0:0:
184,80,70030,1,0,0:0:0:0:
184,80,70110,1,0,0:0:0:0:
184,80,70190,5,0,3:0:0:0:
405,179,70350,1,0,0:0:0:0:
112,225,70509,1,8,3:2:0:0:
464,252,70669,5,2,0:1:0:0:
430,338,70988,1,2,0:1:0:0:
331,113,71307,5,2,3:0:0:0:
331,113,71387,1,2,3:0:0:0:
331,113,71467,2,0,L|322:176,1,50.9999984436036,8|8,3:2|3:2,3:0:0:0:
350,334,71626,1,8,0:0:0:0:
314,315,71706,1,8,3:2:0:0:
273,319,71786,1,8,3:2:0:0:
238,340,71866,1,0,3:0:0:0:
198,332,71945,2,0,L|192:278,1,50.9999984436036,2|2,3:0|3:0,0:0:0:0:
76,128,72105,6,0,B|127:107|127:107|109:263,1,203.999993774414,4|8,0:0|0:0,0:0:0:0:
0,161,72584,1,0,0:0:0:0:
216,78,72743,2,0,L|191:280,1,203.999993774414,0|8,0:0|0:0,0:0:0:0:
372,109,73222,6,0,P|345:154|359:206,1,101.999996887207,2|0,0:1|0:0,0:0:0:0:
496,225,73541,2,0,P|470:179|418:165,1,101.999996887207,2|8,0:1|0:0,0:0:0:0:
216,78,73860,2,0,B|241:63|245:36|245:36|283:62|294:133|239:185,1,203.999993774414,2|0,0:1|0:0,0:0:0:0:
212,316,74339,1,8,0:0:0:0:
282,251,74498,1,0,0:0:0:0:
0,247,74658,6,0,B|71:229|71:229|104:256|104:256|207:232,1,203.999993774414,4|8,0:0|0:0,0:0:0:0:
43,48,75137,2,0,P|18:111|36:152,1,101.999996887207,4|0,0:0|0:0,0:0:0:0:
56,319,75456,1,0,0:0:0:0:
98,103,75616,1,8,0:0:0:0:
164,372,75775,1,6,0:1:0:0:
0,247,76094,5,0,0:0:0:0:
261,190,76254,1,8,3:2:0:0:
261,190,76334,1,0,3:0:0:0:
261,190,76413,1,0,3:0:0:0:
164,372,76573,5,2,3:0:0:0:
160,331,76653,1,2,3:0:0:0:
156,290,76733,1,2,3:0:0:0:
261,190,76892,5,2,3:1:0:0:
257,231,76972,1,2,3:1:0:0:
253,272,77052,1,2,3:1:0:0:
71,132,77211,2,0,P|126:120|182:147,1,101.999996887207,4|0,3:2|0:0,0:0:0:0:
396,221,77530,5,8,3:2:0:0:
113,200,77690,1,0,0:0:0:0:
340,62,77850,5,8,3:2:0:0:
101,211,78009,1,0,0:0:0:0:
407,232,78169,5,8,3:2:0:0:
201,42,78328,1,0,0:0:0:0:
275,328,78488,5,8,3:2:0:0:
453,87,78647,1,0,0:0:0:0:
87,204,78807,5,8,3:2:0:0:
413,366,78967,1,0,0:0:0:0:
256,117,79126,5,8,3:2:0:0:
174,384,79286,1,0,0:0:0:0:
414,191,79445,6,0,L|313:195,1,101.999996887207,12|0,3:2|0:0,0:0:0:0:
144,289,79764,2,0,B|208:274|208:274|178:125,1,203.999993774414,4|2,0:0|0:0,0:0:0:0:
117,34,80243,2,0,L|104:93,1,50.9999984436036,2|2,3:0|3:0,0:0:0:0:
78,212,80403,1,2,3:0:0:0:
32,126,80562,1,2,3:1:0:0:
68,222,80722,1,2,3:1:0:0:
335,115,80881,5,6,3:1:0:0:
259,127,81201,1,2,3:0:0:0:
431,358,81520,6,0,L|445:182,1,152.999995330811,12|0,0:0|0:0,0:0:0:0:
512,83,81839,1,8,3:2:0:0:
475,66,81919,1,8,3:2:0:0:
435,76,81998,1,8,3:2:0:0:
401,98,82078,1,8,3:2:0:0:
360,96,82158,1,8,3:2:0:0:
325,75,82238,1,8,3:2:0:0:
290,52,82318,6,0,L|191:46,1,93.5000028533936,4|0,0:0|0:0,0:0:0:0:
69,0,82637,2,0,P|88:47|69:101,1,93.5000028533936,8|0,0:2|0:0,0:0:0:0:
12,238,82956,1,2,0:1:0:0:
3,49,83116,1,0,0:0:0:0:
100,261,83275,1,8,0:0:0:0:
248,188,83435,6,0,L|123:197,1,93.5000028533936,2|0,0:1|0:0,0:0:0:0:
302,272,83754,2,0,L|427:281,1,93.5000028533936,2|8,0:1|0:0,0:0:0:0:
160,96,84073,2,0,P|102:115|172:187,1,187.000005706787,2|0,3:1|0:0,0:0:0:0:
393,139,84552,1,8,0:0:0:0:
177,287,84711,1,4,3:1:0:0:
422,324,85030,6,0,L|427:275,1,46.7500014266968,2|2,3:0|3:0,0:0:0:0:
437,209,85190,1,2,3:0:0:0:
335,344,85350,6,0,L|340:295,1,46.7500014266968,2|2,3:0|3:0,0:0:0:0:
357,205,85509,1,2,3:0:0:0:
248,364,85669,6,0,L|253:315,1,46.7500014266968,2|2,3:0|3:0,0:0:0:0:
278,200,85828,1,2,3:0:0:0:
161,384,85988,1,4,3:2:0:0:
148,158,86307,5,2,0:0:0:0:
134,299,86467,1,2,0:0:0:0:
62,177,86626,1,2,0:0:0:0:
193,232,86786,1,2,0:0:0:0:
53,264,86945,1,2,3:0:0:0:
224,312,87105,6,0,P|253:309|330:303,1,93.5000028533936,8|0,3:2|0:0,0:0:0:0:
488,295,87424,1,6,3:1:0:0:
343,201,87743,5,2,0:0:0:0:
406,361,87903,1,0,0:0:0:0:
449,195,88062,1,2,0:0:0:0:
406,370,88222,1,0,0:0:0:0:
343,210,88381,1,2,0:0:0:0:
488,304,88541,1,0,0:0:0:0:
267,382,88701,5,2,0:0:0:0:
402,283,88860,1,0,0:0:0:0:
181,222,89020,1,8,3:2:0:0:
435,111,89179,5,6,0:0:0:0:
425,101,89498,1,6,0:0:0:0:
415,91,89818,6,0,B|366:77|337:115|337:115|304:154|245:137,1,187.000005706787,6|0,0:0|0:0,0:0:0:0:
88,85,90296,1,8,3:2:0:0:
272,59,90456,1,0,0:0:0:0:
78,95,90616,2,0,L|85:185,1,85,0|0,3:0|0:0,0:0:0:0:
180,71,90935,1,0,0:0:0:0:
199,220,91094,1,8,3:2:0:0:
386,84,91254,5,0,0:0:0:0:
189,145,91413,1,0,0:0:0:0:
395,191,91573,1,8,3:2:0:0:
280,68,91733,2,0,L|267:23,2,42.5,0|0|0,0:0|0:0|3:0,0:0:0:0:
318,255,92052,1,0,0:0:0:0:
386,84,92211,1,8,3:2:0:0:
308,265,92371,2,0,L|247:260,1,43.3500002645874,2|2,3:0|3:0,0:0:0:0:
100,357,92530,6,0,B|134:324|134:324|256:333,1,170,2|8,3:2|3:2,0:0:0:0:
397,384,93009,2,0,L|390:329,1,43.3500002645874,2|2,3:0|3:0,0:0:0:0:
502,210,93169,2,0,B|451:194|451:194|390:236|337:193,1,170,2|8,3:1|3:2,0:0:0:0:
407,95,93647,2,0,L|380:165,1,42.5,2|2,3:0|3:0,0:0:0:0:
308,265,93807,2,0,B|260:226|195:264|195:264|132:245,1,170,2|8,3:1|3:2,0:0:0:0:
357,341,94286,1,2,0:1:0:0:
270,171,94445,6,0,L|273:129,3,42.5,8|8|8|8,3:2|3:2|3:2|3:2,0:0:0:0:
346,82,94764,1,8,3:2:0:0:
321,58,94844,1,8,3:2:0:0:
288,47,94924,1,8,3:2:0:0:
253,45,95004,1,8,3:2:0:0:
223,61,95084,1,2,3:0:0:0:
47,273,96360,6,0,L|91:279,3,42.5,8|8|8|8,3:2|0:0|0:0|0:0,0:0:0:0:
229,299,96679,1,8,3:2:0:0:
76,193,96839,1,4,3:2:0:0:
239,309,97158,6,0,L|398:292,1,136,2|0,0:0|3:0,0:0:0:0:
401,290,97557,1,8,0:0:0:0:
428,286,97637,1,14,3:1:0:0:
344,108,97956,5,8,3:2:0:0:
401,290,98116,1,0,0:0:0:0:
461,108,98275,1,0,3:0:0:0:
316,224,98435,1,2,3:0:0:0:
497,219,98594,2,0,P|458:199|397:205,1,85,0|8,0:0|3:2,0:0:0:0:
296,337,98913,5,0,3:0:0:0:
468,336,99073,2,0,P|438:303|378:288,1,85,0|8,0:0|3:2,0:0:0:0:
229,384,99392,2,0,P|261:354|276:294,1,85,0|0,0:0|3:0,0:0:0:0:
161,230,99711,2,0,P|170:272|214:315,1,85,0|8,0:0|3:2,0:0:0:0:
333,244,100030,1,0,0:0:0:0:
103,164,100190,2,0,P|82:202|89:264,1,85,2|0,0:1|0:0,0:0:0:0:
245,237,100509,5,8,3:2:0:0:
183,89,100669,1,0,0:0:0:0:
255,227,100828,2,0,L|342:214,1,85,0|0,3:0|3:0,0:0:0:0:
511,143,101147,1,0,0:0:0:0:
330,130,101307,1,8,3:2:0:0:
512,228,101467,5,2,0:1:0:0:
430,57,101626,2,0,P|424:103|420:149,1,85,0|8,0:0|3:2,0:0:0:0:
457,327,101945,2,0,L|406:312,1,42.5
318,290,102105,1,2,3:1:0:0:
502,238,102264,1,0,0:0:0:0:
307,301,102424,1,8,3:2:0:0:
420,141,102584,1,2,3:0:0:0:
415,174,102663,1,2,3:0:0:0:
411,207,102743,6,0,L|236:191,1,170,2|8,3:1|3:2,0:0:0:0:
41,97,103222,1,2,3:0:0:0:
41,97,103302,1,2,3:0:0:0:
41,97,103381,2,0,B|33:153|73:177|73:177|29:198|33:261,1,187.000005706787,0|8,3:0|3:2,0:0:0:0:
160,46,104020,6,0,P|175:105|165:139,1,93.5000028533936,6|0,0:1|0:0,0:0:0:0:
112,243,104339,1,8,3:2:0:0:
313,9,104498,2,0,P|280:137|302:211,1,187.000005706787,6|0,0:1|3:0,0:0:0:0:
274,221,104897,1,0,3:0:0:0:
274,221,104977,2,0,L|279:293,2,46.7500014266968,8|0|0,3:2|3:0|3:0,0:0:0:0:
449,32,105296,5,4,3:2:0:0:
480,278,105616,5,8,3:2:0:0:
459,22,105775,1,4,3:2:0:0:
359,208,106094,5,0,3:0:0:0:
349,218,106413,6,0,P|267:158|166:206,1,187.000005706787,6|2,3:1|3:1,0:0:0:0:
163,204,106812,1,2,3:1:0:0:
163,204,106892,1,2,3:1:0:0:
266,322,107052,1,2,3:1:0:0:
263,285,107131,1,2,3:1:0:0:
261,247,107211,1,2,3:1:0:0:
182,333,107371,1,2,3:1:0:0:
163,204,107530,1,2,3:1:0:0:
445,329,107690,6,0,B|378:313|378:313|326:334|326:334|241:317,1,187.000005706787,4|0,3:2|3:0,0:0:0:0:
65,253,108169,1,8,3:2:0:0:
261,247,108328,1,0,3:0:0:0:
86,357,108488,1,8,3:2:0:0:
271,237,108647,1,0,3:0:0:0:
271,237,108727,1,0,3:0:0:0:
271,237,108807,1,0,3:0:0:0:
126,127,108967,5,12,3:2:0:0:
141,288,109286,1,12,3:2:0:0:
116,117,109605,1,12,3:2:0:0:
151,298,109924,5,2,0:1:0:0:
126,127,110084,1,8,3:2:0:0:
296,357,110243,6,0,B|242:334|203:363|203:363|160:397|90:367,1,187.000005706787,4|0,3:2|3:0,0:0:0:0:
216,207,110722,1,8,3:2:0:0:
306,367,110881,1,0,0:0:0:0:
151,298,111041,1,8,3:2:0:0:
320,233,111201,1,2,3:0:0:0:
320,233,111280,1,0,3:0:0:0:
320,233,111360,1,0,3:0:0:0:
418,373,111520,5,12,3:2:0:0:
432,212,111839,1,12,3:2:0:0:
428,383,112158,1,12,3:2:0:0:
422,202,112477,5,2,3:0:0:0:
429,296,112637,1,2,3:0:0:0:
509,249,112796,1,2,3:0:0:0:
402,118,112956,6,0,P|342:170|352:249,1,152.999995330811,2|2,0:0|0:0,0:0:0:0:
338,336,113435,2,0,B|297:319|242:343|277:355|217:376|173:353,1,152.999995330811
86,319,113913,1,2,0:0:0:0:
203,280,114073,1,2,3:0:0:0:
206,283,114153,1,2,3:0:0:0:
209,286,114233,1,2,3:0:0:0:
151,45,114552,6,0,P|212:55|156:120,1,178.499994552612,6|0,3:1|0:0,0:0:0:0:
35,181,114871,6,0,B|78:163|135:188|98:200|161:222|208:198,1,178.499994552612,6|0,3:1|0:0,0:0:0:0:
331,143,115190,6,0,P|283:215|357:298,1,178.499994552612,6|0,3:1|0:0,0:0:0:0:
480,356,115509,6,0,B|405:334|405:334|343:376|343:376|236:351,1,237.999992736817,4|0,3:2|0:0,0:0:0:0:
117,308,115988,1,0,0:0:0:0:
362,215,116147,5,8,3:2:0:0:
127,318,116307,1,0,0:0:0:0:
244,110,116467,5,8,3:2:0:0:
260,356,116626,1,0,0:0:0:0:
123,106,116786,5,4,3:1:0:0:
64,252,116945,2,0,L|52:208,3,42.5,0|0|0|0,3:0|3:0|3:0|3:0,0:0:0:0:
232,151,117264,2,0,L|244:107,3,42.5,8|0|0|0,3:2|3:0|3:0|3:0,0:0:0:0:
226,295,117584,1,0,3:0:0:0:
226,295,117663,1,0,3:0:0:0:
226,295,117743,2,0,L|333:280,1,89.2499972763062,12|0,3:2|0:0,0:0:0:0:
443,291,118062,6,0,B|402:321|402:321|378:176,1,170,6|8,3:1|3:2,0:0:0:0:
358,47,118541,1,0,0:0:0:0:
436,147,118701,2,0,P|389:125|329:144,1,85
264,215,119020,1,8,3:2:0:0:
159,64,119179,6,0,P|181:105|171:150,1,85
264,215,119498,2,0,P|239:254|195:268,1,85,0|8,0:0|3:2,0:0:0:0:
70,326,119818,2,0,B|108:300|153:338|153:338|197:374|238:341,1,170
341,231,120296,1,8,3:2:0:0:
297,370,120456,2,0,P|299:339|294:318,1,42.5,2|0,0:1|0:0,0:0:0:0:
368,134,120616,6,0,P|340:184|232:149,1,170,2|8,3:1|3:2,0:0:0:0:
344,61,121094,2,0,P|395:62|434:96,1,85,2|0,0:1|0:0,0:0:0:0:
462,200,121413,1,2,0:1:0:0:
488,39,121573,1,8,3:2:0:0:
487,290,121733,6,0,B|418:279|418:279|389:244|389:244|308:234,1,170,4|0,0:2|3:0,0:0:0:0:
140,249,122211,1,8,3:2:0:0:
275,344,122371,5,2,3:0:0:0:
275,344,122451,1,2,3:0:0:0:
275,344,122530,1,2,3:0:0:0:
229,174,122690,1,2,3:0:0:0:
176,381,122850,1,8,3:2:0:0:
327,236,123009,1,0,0:0:0:0:
124,145,123169,6,0,L|129:238,1,93.5000028533936,4|0,3:2|0:0,0:0:0:0:
331,339,123488,2,0,L|336:245,1,93.5000028533936,8|0,3:2|0:0,0:0:0:0:
325,25,123807,5,8,3:2:0:0:
463,196,123967,1,0,0:0:0:0:
249,139,124126,5,8,3:2:0:0:
457,59,124286,1,0,0:0:0:0:
336,245,124445,6,0,L|228:234,1,93.5000028533936,8|0,3:2|0:0,0:0:0:0:
41,219,124764,5,8,3:2:0:0:
249,139,124924,1,0,3:0:0:0:
137,331,125084,6,0,L|135:274,1,46.7500014266968,0|0,3:0|3:0,0:0:0:0:
124,101,125243,1,0,3:0:0:0:
25,370,125403,5,8,3:2:0:0:
20,56,125562,1,4,3:2:0:0:
221,364,125881,6,0,L|277:359,1,46.7500014266968,8|8,3:2|3:2,0:0:0:0:
444,310,126041,1,8,3:2:0:0:
406,320,126121,1,8,3:2:0:0:
367,314,126201,1,8,3:2:0:0:
334,296,126280,1,8,3:2:0:0:
311,265,126360,1,10,3:1:0:0:
428,49,126520,5,2,3:1:0:0:
395,231,126679,1,2,3:1:0:0:
438,39,126839,1,2,3:1:0:0:
334,171,127158,5,2,3:0:0:0:
479,215,127318,1,8,3:2:0:0:
387,107,127477,1,0,0:1:0:0:
216,355,127637,6,0,P|182:309|179:348,1,140.25000428009,12|0,3:2|0:0,0:0:0:0:
303,322,127956,6,0,P|279:258|175:237,1,146.62500279665,12|0,3:2|0:0,0:0:0:0:
44,167,128275,6,0,B|89:171|111:152|111:152|149:177|149:177|187:137|250:160,1,203.999993774414,6|8,0:1|0:0,0:0:0:0:
411,228,128754,1,0,0:0:0:0:
344,88,128913,2,0,P|326:135|337:184,1,101.999996887207
310,345,129233,1,8,0:0:0:0:
488,194,129392,6,0,P|457:155|409:139,1,101.999996887207,2|0,0:1|0:0,0:0:0:0:
326,269,129711,2,0,P|376:263|410:227,1,101.999996887207,2|8,0:1|0:0,0:0:0:0:
214,122,130030,2,0,P|243:229|238:326,1,203.999993774414,2|0,0:1|0:0,0:0:0:0:
93,239,130509,1,8,0:0:0:0:
357,161,130669,2,0,L|296:144,1,50.9999984436036
49,165,130828,6,0,B|95:137|151:177|151:177|212:226|264:184,1,203.999993774414,0|8,3:0|0:0,0:0:0:0:
374,56,131307,2,0,P|352:101|365:149,1,101.999996887207,6|0,0:1|0:0,0:0:0:0:
492,314,131626,1,0,0:0:0:0:
482,135,131786,1,8,3:2:0:0:
385,382,131945,1,12,3:2:0:0:
385,382,132264,5,0,3:0:0:0:
375,150,132424,1,8,3:2:0:0:
272,346,132584,1,0,3:0:0:0:
448,259,132743,1,12,3:2:0:0:
235,240,133062,2,0,L|285:230,1,50.9999984436036,8|8,0:1|0:1,0:0:0:0:
448,259,133222,2,0,L|396:269,1,50.9999984436036,8|8,0:1|0:1,0:0:0:0:
245,250,133381,6,0,B|320:236|320:236|357:263|357:263|460:244,1,203.999993774414,4|8,3:2|0:0,0:0:0:0:
283,334,133860,1,0,0:0:0:0:
182,180,134020,2,0,P|157:231|171:289,1,101.999996887207
269,154,134339,1,8,0:0:0:0:
103,122,134498,6,0,P|143:92|194:91,1,101.999996887207
254,243,134818,2,0,P|208:222|181:179,1,101.999996887207,0|8,0:0|0:0,0:0:0:0:
242,0,135137,2,0,B|306:22|306:22|268:153,1,203.999993774414
335,301,135616,2,0,P|389:258|429:269,1,101.999996887207,8|0,0:0|0:0,0:0:0:0:
268,153,135935,5,0,3:0:0:0:
244,346,136094,1,0,3:1:0:0:
194,91,136254,1,12,3:2:0:0:
110,379,136413,5,0,3:0:0:0:
110,379,136493,1,0,3:0:0:0:
110,379,136573,1,0,3:0:0:0:
257,244,136733,1,0,3:0:0:0:
26,191,136892,1,12,3:2:0:0:
267,254,137052,5,2,3:1:0:0:
146,218,137371,5,2,3:1:0:0:
341,364,137690,6,0,L|350:296,1,50.9999984436036,2|2,3:0|3:0,0:0:0:0:
435,206,137850,2,0,L|441:256,1,50.9999984436036,8|8,3:2|3:2,0:0:0:0:
330,375,138009,1,8,3:2:0:0:
330,375,138089,1,8,3:2:0:0:
330,375,138169,2,0,L|339:307,1,50.9999984436036,2|2,3:0|3:0,0:0:0:0:
445,197,138328,2,0,L|451:247,1,50.9999984436036,2|2,3:0|3:0,0:0:0:0:
275,172,138488,6,0,B|357:157|357:157|373:121|373:121|473:104,1,203.999993774414,6|8,3:1|0:0,0:0:0:0:
304,36,138967,2,0,P|299:70|301:92,1,50.9999984436036
377,253,139126,2,0,B|324:230|279:267|279:267|235:303|187:274,1,203.999993774414,0|8,0:0|0:0,0:0:0:0:
435,312,139605,6,0,P|457:264|446:214,1,101.999996887207,2|0,0:1|0:0,0:0:0:0:
304,115,139924,2,0,P|334:158|383:173,1,101.999996887207,2|8,0:1|0:0,0:0:0:0:
512,28,140243,2,0,B|470:69|470:69|290:22,1,203.999993774414,2|0,0:1|3:0,0:0:0:0:
157,0,140722,1,8,0:0:0:0:
339,22,140881,1,0,0:0:0:0:
236,194,141041,6,0,B|305:121|264:38|192:58|172:97|200:144,1,203.999993774414,4|8,3:2|0:0,0:0:0:0:
325,258,141520,2,0,P|367:219|431:219,1,101.999996887207,6|0,0:1|0:0,0:0:0:0:
236,194,141839,1,0,0:0:0:0:
405,308,141998,1,8,3:2:0:0:
405,70,142158,1,12,3:2:0:0:
405,70,142477,5,0,3:0:0:0:
323,344,142637,1,8,3:2:0:0:
323,344,142717,1,8,3:2:0:0:
323,344,142796,1,8,3:2:0:0:
274,187,142956,6,0,L|286:124,3,50.9999984436036,2|2|2|2,3:0|3:0|3:0|3:0,0:0:0:0:
282,39,143275,1,2,3:1:0:0:
241,36,143355,1,2,3:1:0:0:
201,47,143435,1,2,3:1:0:0:
160,43,143514,1,0,0:0:0:0:
126,66,143594,6,0,L|134:178,1,101.999996887207,4|0,3:2|0:0,0:0:0:0:
177,384,143913,5,8,3:2:0:0:
199,82,144073,1,0,0:0:0:0:
331,323,144233,5,8,3:2:0:0:
70,218,144392,1,0,0:0:0:0:
351,153,144552,5,8,3:2:0:0:
166,356,144711,1,0,0:0:0:0:
472,194,144871,5,8,3:2:0:0:
181,247,145030,1,0,0:0:0:0:
472,290,145190,5,8,3:2:0:0:
241,160,145350,1,0,0:0:0:0:
386,356,145509,5,8,3:2:0:0:
434,98,145669,1,0,0:0:0:0:
371,374,145828,6,0,L|238:353,1,101.999996887207,12|0,3:2|0:0,0:0:0:0:
75,161,146147,6,0,B|137:133|137:133|121:292,1,203.999993774414,4|8,3:2|3:2,0:0:0:0:
217,90,146626,2,0,L|223:141,1,50.9999984436036,0|0,3:0|3:0,0:0:0:0:
237,232,146786,1,0,3:0:0:0:
137,133,146945,5,0,0:0:0:0:
227,242,147105,1,8,3:2:0:0:
403,82,147264,6,0,B|367:116|317:105|317:105|267:52|198:101,1,203.999993774414,4|8,3:2|3:2,0:0:0:0:
189,58,147663,1,0,0:0:0:0:
189,58,147743,2,0,L|104:52,2,50.9999984436036,2|2|2,3:0|3:0|3:0,0:0:0:0:
340,30,148062,1,2,3:0:0:0:
257,160,148222,5,0,0:0:0:0:
257,160,148302,1,0,0:0:0:0:
257,160,148381,2,0,L|273:281,1,101.999996887207,12|0,3:2|0:0,0:0:0:0:
487,218,148701,5,4,3:2:0:0:
257,160,148860,1,0,0:0:0:0:
487,96,149020,5,8,3:2:0:0:
242,160,149179,1,0,0:0:0:0:
502,218,149339,5,8,3:2:0:0:
227,160,149498,1,0,0:0:0:0:
502,96,149658,5,8,3:2:0:0:
212,160,149818,1,0,0:0:0:0:
412,308,149977,5,8,3:2:0:0:
287,73,150137,1,0,0:0:0:0:
287,359,150296,5,8,3:2:0:0:
412,124,150456,1,0,0:0:0:0:
277,369,150616,6,0,L|265:254,1,110.499994941712,8|0,3:2|0:0,0:0:0:0:
422,114,150935,2,0,L|409:225,1,110.499994941712,8|0,3:2|0:0,0:0:0:0:
181,380,151254,6,0,L|169:265,1,110.499994941712,8|0,3:2|0:0,0:0:0:0:
148,59,151573,5,8,3:2:0:0:
92,326,151733,1,0,0:0:0:0:
292,140,151892,5,8,3:2:0:0:
23,173,152052,1,0,0:0:0:0:
261,305,152211,5,8,3:2:0:0:
137,48,152371,1,0,0:0:0:0:
261,305,152530,6,0,L|388:294,1,110.499994941712,8|0,3:2|0:0,0:0:0:0:
143,183,152850,2,0,L|21:172,1,110.499994941712,8|0,3:2|0:0,0:0:0:0:
276,384,153169,2,0,L|392:374,1,110.499994941712,8|0,3:2|0:0,0:0:0:0:
158,262,153488,2,0,L|41:252,1,110.499994941712,2|0,3:0|0:0,0:0:0:0:
364,64,153807,6,0,L|376:173,1,110.499994941712,4|0,3:2|0:0,0:0:0:0:
243,40,154126,5,8,3:2:0:0:
146,255,154286,1,0,0:0:0:0:
135,15,154445,5,8,3:2:0:0:
262,215,154605,1,0,0:0:0:0:
232,29,154764,5,8,3:2:0:0:
135,244,154924,1,0,0:0:0:0:
124,4,155084,5,8,3:2:0:0:
251,204,155243,1,0,0:0:0:0:
33,67,155403,5,8,3:2:0:0:
303,120,155562,1,0,0:0:0:0:
27,300,155722,5,8,3:2:0:0:
125,107,155881,1,0,0:0:0:0:
195,361,156041,5,8,3:2:0:0:
125,119,156201,1,0,0:0:0:0:
82,373,156360,6,0,P|139:345|194:354,1,110.499994941712,8|0,3:2|0:0,0:0:0:0:
394,377,156679,5,8,3:2:0:0:
201,241,156839,1,0,0:0:0:0:
511,212,156998,5,8,3:2:0:0:
298,310,157158,1,0,0:0:0:0:
456,54,157318,5,8,3:2:0:0:
404,258,157477,1,0,0:0:0:0:
259,46,157637,6,0,L|254:172,1,110.499994941712,8|0,3:2|0:0,0:0:0:0:
116,349,157956,2,0,L|103:238,1,110.499994941712,8|0,3:2|0:0,0:0:0:0:
78,55,158275,5,2,3:0:0:0:
166,156,158435,1,0,0:0:0:0:
78,40,158594,5,8,3:2:0:0:
19,227,158754,1,0,0:0:0:0:
272,65,158913,6,0,L|161:59,1,110.499994941712,12|0,3:2|0:0,0:0:0:0:
342,229,159233,5,8,3:2:0:0:
409,36,159392,1,0,0:0:0:0:
498,298,159552,5,8,3:2:0:0:
359,137,159711,1,0,0:0:0:0:
298,384,159871,5,8,3:2:0:0:
436,195,160030,1,0,0:0:0:0:
175,273,160190,5,8,3:2:0:0:
410,305,160350,1,0,0:0:0:0:
183,105,160509,5,8,3:2:0:0:
324,314,160669,1,0,0:0:0:0:
319,62,160828,5,8,3:2:0:0:
175,273,160988,1,0,0:0:0:0:
436,195,161147,5,8,3:2:0:0:
168,90,161307,1,0,0:0:0:0:
416,384,161467,6,0,L|427:265,1,110.499994941712,8|0,3:2|0:0,0:0:0:0:
322,54,161786,5,8,3:2:0:0:
342,258,161945,1,0,0:0:0:0:
238,23,162105,5,8,3:2:0:0:
331,269,162264,1,0,0:0:0:0:
163,84,162424,5,8,3:2:0:0:
321,279,162584,1,0,0:0:0:0:
68,207,162743,5,8,3:2:0:0:
321,53,162903,1,0,0:0:0:0:
197,304,163062,5,8,3:2:0:0:
88,53,163222,1,0,0:0:0:0:
361,170,163381,5,8,3:2:0:0:
47,121,163541,1,0,0:0:0:0:
279,354,163701,5,12,3:2:0:0:
239,48,163860,1,0,0:0:0:0:
67,379,164020,6,0,L|196:363,1,110.499994941712,0|0,3:2|0:0,0:0:0:0:
388,330,164339,1,12,3:2:0:0:
212,276,164498,1,0,0:0:0:0:
212,276,164578,1,0,0:0:0:0:
212,276,164658,2,0,L|217:221,3,55.2499974708558,0|0|0|0,3:0|3:0|3:0|3:0,0:0:0:0:
170,160,164977,6,0,P|196:147|233:152,1,55.2499974708558,0|0,3:0|3:0,0:0:0:0:
322,208,165137,2,0,P|349:205|373:192,1,55.2499974708558,0|0,3:0|3:0,0:0:0:0:
484,53,165296,5,8,3:2:0:0:
508,329,165456,1,8,3:2:0:0:
498,319,165935,5,12,3:2:0:0:
461,302,166014,1,8,3:2:0:0:
420,302,166094,1,8,3:2:0:0:
384,322,166174,1,8,3:2:0:0:
343,338,166254,1,8,3:2:0:0:
299,327,166334,1,8,3:2:0:0:
267,296,166413,2,0,L|193:288,1,55.2499974708558,8|8,3:2|3:2,0:0:0:0:
53,212,166573,6,0,B|100:171|148:199|148:199|197:227|252:182,1,204,4|8,3:2|3:2,0:0:0:0:
373,67,167052,1,0,0:0:0:0:
190,131,167211,1,0,3:0:0:0:
310,233,167371,2,0,P|318:172|283:121,1,101.999996887207,0|10,0:0|3:1,0:0:0:0:
77,68,167690,6,0,L|289:44,1,203.999993774414,0|2,3:0|3:1,0:0:0:0:
450,21,168169,1,0,0:0:0:0:
448,258,168328,6,0,B|392:243|390:182|390:182|369:239|296:231,1,203.999993774414,8|0,3:2|0:0,0:0:0:0:
107,194,168807,2,0,L|209:184,1,101.999996887207,8|0,3:2|3:0,0:0:0:0:
53,103,169126,1,2,3:1:0:0:
43,291,169286,1,0,0:0:0:0:
63,113,169445,1,8,3:2:0:0:
208,296,169605,2,0,L|218:194,1,101.999996887207,2|0,0:1|0:0,0:0:0:0:
279,51,169924,2,0,L|289:153,1,101.999996887207,2|8,0:1|3:2,0:0:0:0:
475,277,170243,6,0,B|416:299|381:256|381:256|344:213|277:237,1,204,2|0,0:1|3:0,0:0:0:0:
446,197,170722,1,8,3:2:0:0:
220,288,170881,2,0,P|202:238|226:185,1,101.999996887207
376,157,171201,1,0,0:0:0:0:
202,82,171360,1,8,3:2:0:0:
109,328,171520,1,2,3:1:0:0:
109,328,171600,1,2,3:1:0:0:
109,329,171679,6,0,L|335:309,1,220.999989883423,4|8,3:2|3:2,0:0:0:0:
45,278,172158,2,0,P|27:341|57:394,1,110.499994941712,4|0,3:2|0:0,0:0:0:0:
400,347,172477,2,0,P|407:294|381:247,1,110.499994941712,0|8,0:0|3:2,0:0:0:0:
153,95,172796,6,0,B|192:39|192:39|208:208,1,237.999992736817,6|0,3:1|0:0,0:0:0:0:
219,319,173275,1,8,3:2:0:0:
450,183,173435,6,0,P|368:159|285:252,1,220.999989883423,4|0,3:2|3:0,0:0:0:0:
310,286,173834,1,0,3:0:0:0:
310,286,173913,2,0,L|311:367,2,55.2499974708558,2|0|0,3:0|3:0|3:0,0:0:0:0:
125,88,174233,6,0,L|122:224,1,110.499994941712,4|0,3:2|3:0,0:0:0:0:
354,117,174552,5,8,3:2:0:0:
115,78,174711,1,0,3:0:0:0:
285,249,174871,5,8,3:2:0:0:
249,11,175030,1,0,3:0:0:0:
138,226,175190,5,8,3:2:0:0:
364,107,175350,1,0,3:0:0:0:
402,362,175509,5,8,3:2:0:0:
219,180,175669,1,0,3:0:0:0:
474,220,175828,5,8,3:2:0:0:
246,338,175988,1,0,3:0:0:0:
264,96,176147,5,8,3:2:0:0:
344,285,176307,1,0,3:0:0:0:
449,111,176467,1,8,3:2:0:0:
334,275,176626,6,0,L|216:254,1,110.499994941712,6|0,0:1|0:0,0:0:0:0:
127,238,176945,1,8,3:2:0:0:
274,106,177105,1,8,3:2:0:0:
324,265,177264,6,0,L|206:244,1,101.999996887207,2|0,0:0|0:0,0:0:0:0:
137,228,177584,1,2,3:0:0:0:
284,116,177743,1,2,3:0:0:0:
314,255,177903,5,4,3:2:0:0:
256,192,178062,12,2,179339,0:1:0:0:
95,259,179658,6,0,P|129:305|183:315,1,85,2|0,0:0|0:0,0:0:0:0:
253,217,179977,2,0,P|196:222|161:263,1,85,2|0,0:0|0:0,0:0:0:0:
210,374,180296,2,0,P|234:320|215:269,1,85,2|0,0:0|0:0,0:0:0:0:
191,85,180616,6,0,B|191:62|147:34|105:57|96:115|158:188,1,187.000005706787,8|8,0:3|0:3,0:0:0:0:
175,238,181094,1,0,0:0:0:0:
5,205,181254,2,0,B|40:180|87:222|87:222|128:261|177:236,1,187,8|8,0:3|0:3,0:0:0:0:
329,382,181733,2,0,P|307:342|317:272,1,110.499994941712,6|0,0:0|0:0,0:0:0:0:
343,138,182052,2,0,P|319:177|253:202,1,110.499994941712,6|0,0:0|0:0,0:0:0:0:
45,87,182371,6,0,B|95:104|132:75|132:75|167:113|167:113|207:87|257:108,1,237.999992736817,6|8,0:0|3:2,0:0:0:0:
332,50,182770,1,8,3:2:0:0:
373,51,182850,1,8,3:2:0:0:
405,76,182929,1,8,3:2:0:0:
429,109,183009,2,0,L|425:210,1,59.4999981842042,8|8,3:2|3:2,0:0:0:0:
485,335,183169,6,0,P|447:258|325:278,1,220.999989883423,4|8,0:0|0:0,0:0:0:0:
237,379,183647,6,0,P|252:326|226:270,1,110.499994941712,2|0,0:1|0:0,0:0:0:0:
63,333,183967,2,0,L|204:329,1,110.499994941712,2|0,0:1|0:0,0:0:0:0:
4,282,184286,2,0,P|-15:332|0:384,1,110.499994941712,6|0,0:1|0:0,0:0:0:0:
113,165,184605,5,8,0:0:0:0:
118,331,184764,1,8,0:0:0:0:
82,91,185084,6,0,B|120:69|159:98|159:98|198:129|244:110,1,165.75,12|10,0:0|0:0,0:0:0:0:
353,66,185403,1,10,0:1:0:0:
326,94,185483,1,10,0:1:0:0:
323,133,185562,1,10,0:1:0:0:
347,162,185642,1,10,0:1:0:0:
378,179,185722,6,0,B|401:185|433:166|433:166|386:207|380:263|413:310,1,203.999993774414,4|8,3:2|0:0,0:0:0:0:
478,247,186201,1,0,0:0:0:0:
330,353,186360,2,0,P|289:301|240:303,1,101.999996887207,0|0,3:0|0:0,0:0:0:0:
106,371,186679,1,8,0:0:0:0:
196,249,186839,6,0,P|177:308|207:362,1,101.999996887207
176,168,187158,2,0,P|116:181|84:234,1,101.999996887207,0|8,0:0|0:0,0:0:0:0:
236,111,187477,2,0,P|195:65|133:64,1,101.999996887207
258,187,187796,1,0,0:0:0:0:
323,26,187956,2,0,P|312:82|327:129,1,101.999996887207,8|0,0:0|0:0,0:0:0:0:
376,284,188275,5,0,3:0:0:0:
396,78,188435,1,0,3:0:0:0:
481,317,188594,1,8,0:0:0:0:
258,187,188754,5,0,3:0:0:0:
258,187,188834,1,0,3:0:0:0:
258,187,188913,1,0,3:0:0:0:
499,125,189073,1,0,0:0:0:0:
366,294,189233,1,8,3:2:0:0:
483,42,189392,5,2,3:1:0:0:
428,184,189711,5,2,3:1:0:0:
428,184,190030,5,8,3:2:0:0:
398,155,190110,1,8,3:2:0:0:
357,151,190190,2,0,P|323:153|276:173,1,50.9999984436036,8|8,3:2|3:2,0:0:0:0:
236,225,190350,5,8,3:2:0:0:
200,244,190429,1,8,3:2:0:0:
160,232,190509,2,0,P|141:199|142:154,1,50.9999984436036,2|2,3:0|3:0,0:0:0:0:
34,53,190669,1,2,3:0:0:0:
34,53,190748,1,2,3:0:0:0:
34,53,190828,6,0,P|49:116|42:273,1,203.999993774414,6|8,0:1|0:0,0:0:0:0:
145,352,191307,2,0,P|137:306|142:296,1,50.9999984436036
215,160,191467,2,0,P|279:179|343:156,1,101.999996887207,2|0,0:1|0:0,0:0:0:0:
433,103,191786,1,8,0:0:0:0:
415,283,191945,6,0,P|396:227|407:181,1,101.999996887207,2|0,0:1|0:0,0:0:0:0:
512,46,192264,2,0,P|473:90|427:103,1,101.999996887207,2|8,0:1|0:0,0:0:0:0:
253,92,192584,6,0,B|273:71|270:43|270:43|313:59|342:124|302:189,1,203.999993774414,2|0,0:1|3:0,0:0:0:0:
424,303,193062,2,0,P|384:272|334:277,1,101.999996887207,8|0,0:0|3:0,0:0:0:0:
138,384,193381,6,0,B|161:333|127:280|127:280|97:239|136:169,1,204,4|8,0:0|0:0,0:0:0:0:
376,228,193860,2,0,B|337:276|337:276|180:232,1,203.999993774414,4|0,0:0|0:0,0:0:0:0:
14,179,194339,1,8,0:0:0:0:
238,155,194498,1,4,0:0:0:0:
238,155,194818,5,0,3:0:0:0:
24,189,194977,1,8,3:2:0:0:
24,189,195057,1,8,3:2:0:0:
24,189,195137,1,8,3:2:0:0:
189,287,195296,6,0,L|199:237,1,50.9999984436036,2|2,3:0|3:0,0:0:0:0:
228,164,195456,1,2,3:0:0:0:
262,350,195616,6,0,L|272:300,1,50.9999984436036,2|2,3:1|3:1,0:0:0:0:
301,227,195775,1,2,3:1:0:0:
512,130,195935,6,0,L|407:113,1,101.999996887207,4|0,3:2|0:0,0:0:0:0:
217,20,196254,5,8,3:2:0:0:
301,227,196413,1,0,0:0:0:0:
354,9,196573,5,8,3:2:0:0:
183,153,196733,1,0,0:0:0:0:
364,20,196892,5,8,3:2:0:0:
402,220,197052,1,0,0:0:0:0:
268,80,197211,5,8,3:2:0:0:
196,282,197371,1,0,0:0:0:0:
392,210,197530,5,8,3:2:0:0:
175,60,197690,1,0,3:0:0:0:
175,60,197770,1,0,3:0:0:0:
175,60,197850,1,8,3:2:0:0:
271,178,198009,1,0,3:0:0:0:
81,163,198169,2,0,L|190:152,1,101.999996887207,2|0,3:0|0:0,0:0:0:0:
418,73,198488,6,0,P|394:130|404:225,1,152.999995330811,4|0,3:2|0:0,0:0:0:0:
474,151,198967,1,0,0:0:0:0:
424,290,199126,2,0,B|385:306|352:274|352:274|318:243|274:262,1,153,8|0,3:2|0:0,0:0:0:0:
213,384,199605,6,0,P|224:347|207:294,1,76.4999976654053,0|0,3:0|0:0,0:0:0:0:
69,354,199924,1,2,3:0:0:0:
69,354,200084,2,0,L|164:341,1,76.4999976654053
100,195,200403,2,0,L|112:290,1,76.4999976654053,8|0,3:2|0:0,0:0:0:0:
217,154,200722,2,0,L|204:249,1,76.4999976654053
124,76,201041,1,6,3:1:0:0:
124,76,201360,5,8,3:1:0:0:
206,229,201520,1,8,3:1:0:0:
304,23,201679,1,10,3:1:0:0:
100,195,201839,1,10,3:1:0:0:
395,286,201998,1,10,3:1:0:0:
198,31,202158,1,10,3:1:0:0:
198,31,202477,5,2,3:1:0:0:
302,258,202637,1,8,3:2:0:0:
402,32,202796,1,2,3:1:0:0:
291,269,202956,5,2,3:0:0:0:
291,269,203036,1,2,3:0:0:0:
291,269,203116,2,0,L|220:256,1,38.2499988327027,2|2,3:0|3:0,0:0:0:0:
182,182,203275,2,0,L|253:169,1,38.2499988327027,10|2,3:1|3:0,0:0:0:0:
114,296,203435,2,0,L|43:283,1,38.2499988327027,2|2,0:1|0:1,0:0:0:0:
86,95,203594,6,0,P|94:164|85:210,1,101.999996887207,6|0,3:1|0:0,0:0:0:0:
22,323,203913,2,0,P|89:291|147:319,1,101.999996887207,8|0,3:2|3:0,0:0:0:0:
262,358,204233,1,0,3:0:0:0:
88,372,204392,1,0,0:0:0:0:
213,184,204552,2,0,P|196:238|211:294,1,101.999996887207,8|0,3:2|3:0,0:0:0:0:
326,135,204871,1,0,0:0:0:0:
141,125,205030,1,0,3:0:0:0:
285,243,205190,1,8,3:2:0:0:
261,5,205350,1,0,0:0:0:0:
261,5,205429,1,0,0:0:0:0:
261,5,205509,6,0,P|253:59|248:128,1,101.999996887207,0|0,3:0|0:0,0:0:0:0:
187,261,205828,2,0,P|239:226|287:241,1,101.999996887207,8|0,3:2|0:0,0:0:0:0:
388,382,206147,6,0,B|362:333|375:292|375:292|435:224|375:151,1,203.999993774414,0|8,3:0|3:2,0:0:0:0:
274,232,206626,2,0,L|328:221,1,50.9999984436036
456,137,206786,2,0,P|412:110|337:138,1,101.999996887207,0|0,3:0|0:0,0:0:0:0:
296,18,207105,2,0,P|269:62|297:137,1,101.999996887207,8|0,3:2|0:0,0:0:0:0:
393,285,207424,5,0,0:0:0:0:
290,183,207584,2,0,L|272:235,1,50.9999984436036,0|0,3:0|0:0,0:0:0:0:
223,343,207743,2,0,P|175:310|107:325,1,101.999996887207,8|0,3:2|3:0,0:0:0:0:
84,185,208062,1,0,3:0:0:0:
9,380,208222,2,0,P|-3:322|6:274,1,101.999996887207,0|8,0:0|3:2,0:0:0:0:
150,235,208541,1,0,0:0:0:0:
0,125,208701,6,0,B|36:162|36:162|192:134,1,203.999993774414,4|8,3:2|3:2,0:0:0:0:
360,41,209179,2,0,P|334:87|345:134,1,101.999996887207,0|0,3:0|3:0,0:0:0:0:
388,283,209498,1,0,0:0:0:0:
426,94,209658,1,8,3:2:0:0:
378,293,209818,2,0,L|273:280,1,101.999996887207,0|0,0:0|3:0,0:0:0:0:
181,269,210137,1,0,3:0:0:0:
442,356,210296,2,0,P|465:294|447:242,1,101.999996887207,8|0,3:2|0:0,0:0:0:0:
275,169,210616,6,0,P|280:219|286:270,1,101.999996887207,0|0,3:0|0:0,0:0:0:0:
463,173,210935,2,0,P|412:167|361:161,1,101.999996887207,8|0,3:2|0:0,0:0:0:0:
130,87,211254,6,0,B|193:106|193:106|264:52|334:93,1,203.999993774414,0|8,3:0|3:2,0:0:0:0:
476,0,211733,1,0,0:0:0:0:
476,0,211812,1,0,0:0:0:0:
476,0,211892,2,0,P|430:62|431:115,1,101.999996887207,0|0,3:0|0:0,0:0:0:0:
481,256,212211,1,8,3:2:0:0:
302,189,212371,2,0,L|429:188,1,101.999996887207,2|0,0:1|0:0,0:0:0:0:
212,280,212690,5,0,3:0:0:0:
302,189,212850,1,8,3:2:0:0:
95,151,213009,1,0,3:0:0:0:
326,308,213169,1,0,3:0:0:0:
71,343,213328,1,0,3:0:0:0:
291,177,213488,1,8,3:2:0:0:
6,104,213647,1,0,3:0:0:0:
209,367,213807,6,0,P|196:313|209:260,1,110.499994941712,12|0,3:2|0:2,0:2:0:0:
406,234,214126,2,0,P|365:271|313:286,1,110.499994941712,8|0,3:2|0:2,0:2:0:0:
87,189,214445,5,8,3:2:0:0:
380,149,214605,1,0,0:2:0:0:
118,8,214764,5,8,3:2:0:0:
394,149,214924,1,0,0:2:0:0:
124,310,215084,6,0,L|114:186,1,110.499994941712,8|0,3:2|0:2,0:2:0:0:
279,15,215403,2,0,L|270:125,1,110.499994941712,8|0,3:2|0:2,0:2:0:0:
266,365,215722,5,8,3:2:0:0:
387,72,215881,1,0,0:2:0:0:
439,380,216041,5,8,3:2:0:0:
387,61,216201,1,0,0:2:0:0:
159,268,216360,6,0,L|283:261,1,110.499994941712,8|0,3:2|0:2,0:2:0:0:
489,150,216679,2,0,L|378:143,1,110.499994941712,8|0,3:2|0:2,0:2:0:0:
135,32,216998,5,8,3:2:0:0:
378,143,217158,1,0,0:2:0:0:
117,196,217318,5,8,3:2:0:0:
298,0,217477,1,0,0:2:0:0:
347,269,217637,5,8,3:2:0:0:
240,67,217796,1,0,0:2:0:0:
152,320,217956,5,8,3:2:0:0:
240,82,218116,1,0,0:0:0:0:
347,282,218275,6,0,L|350:337,2,55.2499974708558,8|8|8,3:2|0:0|0:0,0:0:0:0:
502,145,218594,6,0,L|441:135,1,55.2499974708558,8|8,3:2|0:0,0:0:0:0:
271,211,218754,2,0,L|327:194,1,55.2499974708558,8|8,0:0|0:0,0:0:0:0:
512,155,218913,6,0,L|403:137,1,110.499994941712,12|0,3:2|0:0,0:0:0:0:
243,85,219233,2,0,L|351:67,1,110.499994941712,8|0,3:2|0:0,0:0:0:0:
173,271,219552,5,8,3:2:0:0:
95,33,219711,1,0,0:0:0:0:
18,271,219871,5,8,3:2:0:0:
243,85,220030,1,0,0:0:0:0:
51,151,220190,5,2,3:0:0:0:
199,195,220350,1,0,3:0:0:0:
38,378,220509,6,0,P|91:350|152:369,1,110.499994941712,12|0,0:0|0:0,0:0:0:0:
209,205,220828,1,2,3:0:0:0:
240,342,220988,1,2,3:0:0:0:
296,213,221147,1,2,3:0:0:0:
315,298,221307,1,2,3:0:0:0:
434,169,221467,6,0,B|385:182|354:149|354:149|323:116|251:139,1,170,4|0,3:2|0:0,0:0:0:0:
156,218,221945,1,0,3:0:0:0:
120,140,222105,2,0,P|166:73|193:133,1,170,8|0,3:2|0:0,0:0:0:0:
264,216,222584,6,0,B|311:261|378:228|378:228|373:278|416:308|416:308|452:281|450:237,1,292.40000446167,4|0,0:0|0:0,0:0:0:0:
335,157,224020,6,0,B|313:115|331:69|331:69|379:70|409:111|409:111|431:72|486:65|486:65|500:121|471:153|471:153|517:162|539:213|539:213|503:245|449:225|449:225|455:281|415:308|415:308|374:279|378:228|378:228|306:263|258:210|258:210|258:102|220:10|168:-28|84:-18|32:56|77:135|77:135|-17:104|-86:184|-73:241|-20:331|73:327|139:322|213:286|213:286|182:317|188:369,1,1870.00005706787,2|0,0:1|0:0,0:0:0:0:
