osu file format v14

[General]
AudioFilename: audio.mp3
AudioLeadIn: 0
PreviewTime: 60936
Countdown: 0
SampleSet: Soft
StackLeniency: 0.7
Mode: 0
LetterboxInBreaks: 0
WidescreenStoryboard: 0

[Editor]
Bookmarks: 96107,110469
DistanceSpacing: 0.7
BeatDivisor: 4
GridSize: 16
TimelineZoom: 2

[Metadata]
Title:Dramatic Star
TitleUnicode:ドラマティックスター
Artist:Aitsuki Nakuru
ArtistUnicode:藍月なくる
Creator:HeTo
Version:Wishes
Source:
Tags:アトランティックF. お星さまに恋してる。 atlantic f. endorfin. a than_lily i'm in love stars japanese pop
BeatmapID:2202353
BeatmapSetID:1053975

[Difficulty]
HPDrainRate:6
CircleSize:4
OverallDifficulty:8.7
ApproachRate:9.3
SliderMultiplier:1.82
SliderTickRate:1

[Events]
//Background and Video events
0,0,"bg.jpg",0,0
//Break Periods
//Storyboard Layer 0 (Background)
//Storyboard Layer 1 (Fail)
//Storyboard Layer 2 (Pass)
//Storyboard Layer 3 (Foreground)
//Storyboard Layer 4 (Overlay)
//Storyboard Sound Samples

[TimingPoints]
697,319.148936170213,4,2,5,40,1,0
697,-153.846153846154,4,2,5,40,0,0
1973,-133.333333333333,4,2,5,40,0,0
6681,-133.333333333333,4,2,5,5,0,0
6760,-133.333333333333,4,2,5,50,0,0
7079,-117.647058823529,4,2,5,50,0,0
10750,-105.263157894737,4,2,5,60,0,0
16016,-105.263157894737,4,2,5,60,0,0
20005,-181.818181818182,4,2,5,40,0,0
21042,-181.818181818182,4,2,5,5,0,0
21122,-133.333333333333,4,2,5,45,0,0
21361,-133.333333333333,4,2,5,5,0,0
21441,-133.333333333333,4,2,5,45,0,0
31335,-105.263157894737,4,2,5,50,0,0
37718,-105.263157894737,4,2,5,60,0,0
46654,-117.64705882353,4,2,5,55,0,0
51681,-117.64705882353,4,2,5,5,0,0
51760,-105.263157894737,4,2,5,60,0,0
60537,-153.846153846154,4,2,5,65,0,0
61335,-105.263157894737,4,2,5,65,0,0
61973,-95.2380952380952,4,2,5,70,0,1
79766,-95.2380952380952,4,2,5,5,0,1
79845,-133.333333333333,4,2,5,65,0,1
81601,-105.263157894737,4,2,5,60,0,1
82399,-105.263157894737,4,2,5,60,0,0
92611,-95.2380952380952,4,2,5,70,0,1
100271,-133.333333333333,4,2,5,60,0,0
101388,-312.5,4,2,5,45,0,0
102824,-357.142857142857,4,2,5,35,0,0
105377,-357.142857142857,4,2,5,30,0,0
107931,-357.142857142857,4,2,5,25,0,0
109207,-357.142857142857,4,2,5,15,0,0
110484,-357.142857142857,4,2,5,10,0,0

[Colours]
Combo1 : 255,191,191
Combo2 : 108,182,255
Combo3 : 255,255,168
Combo4 : 192,192,192

[HitObjects]
254,168,1016,5,2,0:0:0:0:
131,258,1335,1,2,0:0:0:0:
281,310,1654,1,2,0:0:0:0:
221,370,1973,6,0,P|200:305|245:233,1,136.500005207062,2|0,0:0|0:0,0:0:0:0:
305,188,2452,1,2,0:0:0:0:
357,269,2611,2,0,P|390:252|487:226,1,136.500005207062,2|0,0:0|0:0,0:0:0:0:
494,133,3090,1,2,0:0:0:0:
494,133,3250,6,0,P|465:129|429:112,1,68.250002603531,0|2,0:0|0:0,0:0:0:0:
368,51,3569,2,0,P|398:35|432:30,1,68.250002603531,0|2,0:0|0:0,0:0:0:0:
332,140,3888,2,0,P|324:106|292:-4,1,136.500005207062
249,164,4367,1,2,0:0:0:0:
318,221,4526,6,0,B|417:236|350:181|460:194,1,136.500005207062,2|2,0:0|0:0,0:0:0:0:
346,317,5005,2,0,P|315:302|282:292,1,68.250002603531,2|0,0:0|0:0,0:0:0:0:
213,187,5324,2,0,P|245:177|276:162,1,68.250002603531,2|0,0:0|0:0,0:0:0:0:
177,264,5643,1,2,0:0:0:0:
128,188,5803,6,0,L|122:327,1,136.500005207062
295,359,6441,2,0,L|289:243,1,102.375003905296,2|0,0:0|0:0,0:0:0:0:
306,220,6760,2,0,L|307:171,3,34.1250013017655,0|0|0|0,1:2|0:0|0:0|0:0,0:0:0:0:
280,116,7079,6,0,P|359:125|375:204,1,154.700002950668,6|8,1:2|0:0,0:0:0:0:
204,300,7718,2,0,B|107:286|159:350|44:344,1,154.700002950668,2|8,0:0|0:0,0:0:0:0:
186,378,8197,1,2,0:0:0:0:
91,191,8356,6,0,P|77:237|69:276,1,77.3500014753342,8|0,0:0|0:0,0:0:0:0:
177,147,8675,1,8,0:0:0:0:
0,197,8835,1,2,0:0:0:0:
212,296,8994,2,0,P|258:285|293:257,1,77.3500014753342,8|2,0:0|0:0,0:0:0:0:
109,203,9314,1,8,0:0:0:0:
242,92,9473,1,8,0:0:0:0:
242,92,9553,1,8,0:0:0:0:
242,92,9633,6,8,P|247:110|252:129,3,38.6750007376671,8|8|8|8,0:0|0:0|0:0|0:0,0:0:0:0:
343,220,9952,2,8,P|348:201|356:177,3,38.6750007376671,8|8|8|8,0:0|0:0|0:0|0:0,0:0:0:0:
340,12,10271,2,8,P|328:59|328:66,1,38.6750007376671
492,202,10431,2,8,P|487:183|480:165,1,38.6750007376671
317,5,10590,1,8,0:0:0:0:
418,226,10750,6,0,P|431:162|450:100,1,129.674996537304,6|0,1:2|0:0,0:0:0:0:
447,67,11069,1,8,0:0:0:0:
288,255,11228,1,8,0:0:0:0:
174,47,11388,1,8,0:0:0:0:
338,143,11548,1,8,0:0:0:0:
92,262,11707,1,8,0:0:0:0:
264,87,11867,1,8,0:0:0:0:
312,355,12026,1,6,1:2:0:0:
70,70,12984,6,0,P|53:118|50:130,1,43.224998845768,8|8,0:0|0:0,0:0:0:0:
115,261,13143,1,8,0:0:0:0:
152,282,13222,1,8,0:0:0:0:
195,284,13302,1,8,3:0:0:0:
234,267,13382,1,8,3:0:0:0:
262,234,13462,5,4,1:2:0:0:
231,21,13622,1,8,0:0:0:0:
177,202,13782,1,8,3:0:0:0:
321,0,13941,2,0,P|340:56|349:100,1,86.449997691536,6|0,1:2|0:0,0:0:0:0:
268,316,14260,5,8,0:0:0:0:
196,87,14420,1,8,3:0:0:0:
370,246,14579,2,0,P|426:228|463:218,1,86.449997691536,6|0,1:2|0:0,0:0:0:0:
111,156,14899,5,8,0:0:0:0:
259,337,15058,1,8,3:0:0:0:
265,98,15218,2,0,P|246:154|237:198,1,86.449997691536,6|0,1:2|0:0,0:0:0:0:
124,369,15537,5,8,0:0:0:0:
81,370,15616,1,8,0:0:0:0:
42,351,15696,1,8,0:0:0:0:
17,317,15776,1,8,0:0:0:0:
12,274,15856,1,8,0:0:0:0:
27,234,15935,1,8,0:0:0:0:
60,206,16016,6,0,B|168:197|99:266|243:254,1,172.899995383072,6|8,1:2|0:0,0:0:0:0:
352,101,16494,1,0,0:0:0:0:
417,291,16654,1,2,1:2:0:0:
319,131,16814,1,0,1:2:0:0:
262,324,16973,1,8,0:0:0:0:
426,179,17133,6,0,P|473:158|514:155,1,86.449997691536,2|0,1:2|0:0,0:0:0:0:
371,357,17452,2,0,P|328:351|289:332,1,86.449997691536,2|8,1:2|0:0,0:0:0:0:
477,243,17771,1,2,0:0:0:0:
289,123,17931,1,0,1:2:0:0:
391,286,18090,1,0,1:2:0:0:
426,84,18250,1,8,0:0:0:0:
234,252,18409,6,0,P|224:188|190:65,1,172.899995383072,6|8,1:2|0:0,0:0:0:0:
178,47,18808,1,8,0:0:0:0:
178,47,18888,1,8,0:0:0:0:
121,246,19048,2,0,P|77:229|58:224,1,43.224998845768,8|8,0:0|0:0,0:0:0:0:
1,118,19207,1,8,0:0:0:0:
209,147,19367,2,0,P|165:164|146:169,1,43.224998845768,8|8,0:0|0:0,0:0:0:0:
2,268,19526,1,8,0:0:0:0:
100,58,19686,1,6,1:2:0:0:
100,58,20005,6,0,P|93:90|88:121,2,50.0500015274048,2|2|2,0:0|0:0|0:0,0:0:0:0:
191,154,20484,2,0,P|186:129|181:104,1,50.0500015274048,2|2,0:0|0:0,0:0:0:0:
286,4,20803,2,0,P|278:46|272:95,1,75.0750022911072,4|0,3:0|0:0,0:0:0:0:
260,111,21122,6,0,P|271:160|280:234,1,102.375003905296,6|0,1:2|0:0,0:0:0:0:
179,269,21441,2,0,P|187:235|199:203,1,68.250002603531,2|0,0:0|0:0,0:0:0:0:
324,332,21760,2,0,P|281:351|246:361,1,68.250002603531,2|0,0:0|0:0,0:0:0:0:
155,285,22079,2,0,P|163:251|175:219,1,68.250002603531,2|0,0:0|0:0,0:0:0:0:
308,300,22399,5,2,0:0:0:0:
355,217,22558,2,0,P|387:227|418:242,1,68.250002603531,2|0,0:0|0:0,0:0:0:0:
489,333,22877,2,0,P|497:280|501:256,1,68.250002603531,2|0,0:0|0:0,0:0:0:0:
375,373,23197,2,0,P|367:320|363:296,1,68.250002603531,2|0,0:0|0:0,0:0:0:0:
291,240,23516,1,0,0:0:0:0:
227,363,23675,5,2,0:0:0:0:
227,363,23994,2,0,P|191:346|146:338,1,68.250002603531,2|0,0:0|0:0,0:0:0:0:
52,255,24314,2,0,P|88:238|133:230,1,68.250002603531,2|0,0:0|0:0,0:0:0:0:
217,339,24633,2,0,P|181:322|136:314,1,68.250002603531,2|0,0:0|0:0,0:0:0:0:
260,171,24952,5,2,0:0:0:0:
317,234,25111,2,0,P|353:217|398:209,1,68.250002603531,2|0,0:0|0:0,0:0:0:0:
249,97,25431,2,0,P|236:157|233:179,1,68.250002603531,2|0,0:0|0:0,0:0:0:0:
155,230,25750,1,2,0:0:0:0:
79,178,25909,1,2,0:0:0:0:
9,232,26069,1,2,0:0:0:0:
9,232,26149,1,2,0:0:0:0:
9,232,26228,6,0,L|-1:72,1,136.500005207062,2|0,0:0|0:0,0:0:0:0:
112,271,26867,2,0,B|195:281|147:223|250:228,1,136.500005207062,2|0,0:0|0:0,0:0:0:0:
351,44,27505,2,0,P|375:107|389:174,1,136.500005207062,2|0,0:0|0:0,0:0:0:0:
405,290,27984,2,0,P|374:220|307:205,1,136.500005207062,2|0,0:0|0:0,0:0:0:0:
321,294,28462,1,0,0:0:0:0:
480,231,28622,1,2,0:0:0:0:
480,231,28782,6,0,P|460:274|446:374,1,136.500005207062,2|0,0:0|0:0,0:0:0:0:
372,193,29260,2,0,P|359:145|348:115,1,68.250002603531,2|0,0:0|0:0,0:0:0:0:
295,261,29579,2,0,P|284:293|277:328,1,68.250002603531,2|0,0:0|0:0,0:0:0:0:
222,111,29899,6,0,P|159:132|139:194,1,136.500005207062,2|0,0:0|0:0,0:0:0:0:
216,263,30377,1,2,0:0:0:0:
327,116,30537,2,0,P|338:148|347:182,1,68.250002603531,4|0,0:0|0:0,0:0:0:0:
260,22,30856,1,8,3:0:0:0:
402,105,31016,1,8,3:0:0:0:
216,189,31175,1,4,3:0:0:0:
216,189,31255,1,4,3:0:0:0:
216,189,31335,6,0,P|178:172|130:159,1,86.449997691536,6|0,1:2|0:0,0:0:0:0:
15,294,31654,1,2,1:2:0:0:
155,255,31814,1,2,0:0:0:0:
9,139,31973,1,2,1:2:0:0:
80,252,32133,1,2,0:0:0:0:
131,83,32292,1,2,1:2:0:0:
40,230,32452,1,2,0:0:0:0:
234,176,32611,5,2,1:2:0:0:
89,109,32771,2,0,P|79:67|66:25,1,86.449997691536,2|0,0:0|1:2,0:0:0:0:
191,175,33090,2,0,P|178:216|168:258,1,86.449997691536,2|0,0:0|1:2,0:0:0:0:
311,141,33409,1,2,0:0:0:0:
171,66,33569,1,0,1:2:0:0:
267,208,33728,1,10,0:0:0:0:
326,8,33888,6,0,P|350:66|357:93,1,86.449997691536,0|0,1:2|0:0,0:0:0:0:
335,231,34207,1,2,1:2:0:0:
221,128,34367,1,2,0:0:0:0:
276,286,34526,1,2,1:2:0:0:
386,159,34686,1,2,0:0:0:0:
246,247,34845,1,2,1:2:0:0:
403,315,35005,1,2,0:0:0:0:
287,180,35165,5,2,1:2:0:0:
233,364,35324,2,0,P|181:351|143:330,1,86.449997691536,2|0,0:0|1:2,0:0:0:0:
75,183,35643,2,0,P|113:164|156:155,1,86.449997691536,2|0,0:0|1:2,0:0:0:0:
276,286,35962,1,2,0:0:0:0:
313,108,36122,1,2,1:2:0:0:
176,248,36282,1,2,0:0:0:0:
409,248,36441,6,0,B|314:261|361:197|234:208,1,172.899995383072,2|0,1:2|1:2,0:0:0:0:
473,173,36920,1,0,0:0:0:0:
419,0,37079,2,0,P|406:50|382:180,1,172.899995383072,2|8,1:2|0:0,0:0:0:0:
274,364,37718,6,0,P|268:319|250:273,1,86.449997691536,6|0,1:2|0:0,0:0:0:0:
295,59,38037,1,8,0:0:0:0:
418,300,38197,2,0,P|425:257|438:216,1,86.449997691536,6|0,1:2|0:0,0:0:0:0:
264,132,38516,1,8,0:0:0:0:
221,133,38595,1,8,0:0:0:0:
185,159,38675,1,8,0:0:0:0:
165,194,38755,1,8,3:0:0:0:
169,237,38835,1,8,3:0:0:0:
97,368,38994,6,0,P|51:361|10:342,1,86.449997691536,10|0,0:0|0:0,0:0:0:0:
35,142,39314,1,10,0:0:0:0:
251,228,39473,6,0,L|235:313,1,86.449997691536,6|0,1:2|0:0,0:0:0:0:
104,77,39792,6,0,L|119:162,1,86.449997691536,6|0,1:2|0:0,0:0:0:0:
369,0,40111,6,0,P|349:57|328:180,1,172.899995383072,6|8,1:2|0:0,0:0:0:0:
147,242,40590,1,8,3:0:0:0:
236,61,40750,1,8,3:0:0:0:
236,61,40829,1,8,3:0:0:0:
236,61,40909,1,4,3:0:0:0:
353,279,41069,1,4,3:0:0:0:
218,147,41228,1,8,0:0:0:0:
166,352,41388,6,0,B|62:363|119:298|-8:307,1,172.899995383072,6|0,1:2|1:2,0:0:0:0:
74,88,41867,5,10,0:0:0:0:
146,269,42026,1,0,1:2:0:0:
197,9,42186,5,10,0:0:0:0:
111,190,42345,1,8,3:0:0:0:
111,190,42425,1,8,3:0:0:0:
111,190,42505,1,4,3:0:0:0:
360,98,42665,5,6,1:2:0:0:
146,269,42984,5,6,1:2:0:0:
422,321,43303,5,6,1:2:0:0:
187,167,43622,5,0,1:2:0:0:
305,357,43782,1,8,0:0:0:0:
309,102,43941,6,0,P|287:158|262:283,1,172.899995383072,6|0,1:2|1:2,0:0:0:0:
247,6,44420,5,10,0:0:0:0:
354,217,44579,1,0,1:2:0:0:
191,89,44739,5,10,0:0:0:0:
149,298,44899,1,8,3:0:0:0:
149,298,44978,1,8,3:0:0:0:
149,298,45058,1,4,3:0:0:0:
402,261,45218,5,6,1:2:0:0:
103,174,45537,5,6,1:2:0:0:
345,28,45856,5,6,1:2:0:0:
183,265,46175,5,8,3:0:0:0:
138,93,46335,1,4,3:0:0:0:
291,197,46494,1,4,3:0:0:0:
87,182,46654,6,0,P|138:158|244:131,1,154.700002950668,6|2,1:2|1:2,0:0:0:0:
291,197,47133,1,2,0:0:0:0:
395,49,47292,2,0,L|378:224,1,154.700002950668,8|0,0:0|0:0,0:0:0:0:
365,345,47771,6,0,B|464:357|418:297|540:309,1,154.700002950668,10|8,0:0|0:0,0:0:0:0:
420,152,48250,2,0,P|403:198|391:246,1,77.3500014753342,2|0,1:2|0:0,0:0:0:0:
270,196,48569,2,0,P|287:242|299:290,1,77.3500014753342,10|0,0:0|0:0,0:0:0:0:
401,125,48888,2,0,P|384:171|372:219,1,77.3500014753342,2|0,1:2|0:0,0:0:0:0:
233,54,49207,6,0,P|179:79|165:140,1,116.025002213001,12|0,0:0|0:0,0:0:0:0:
180,151,49526,1,8,0:0:0:0:
371,115,49686,1,8,0:0:0:0:
199,265,49845,1,8,0:0:0:0:
450,323,50005,1,8,0:0:0:0:
252,144,50165,1,8,0:0:0:0:
289,384,50324,1,8,0:0:0:0:
418,97,50484,6,0,P|434:159|444:204,1,77.3500014753342,6|0,1:2|0:0,0:0:0:0:
427,209,50723,1,8,3:0:0:0:
427,209,50803,1,8,3:0:0:0:
226,29,50962,6,0,P|210:91|200:136,1,77.3500014753342,12|0,0:0|0:0,0:0:0:0:
217,141,51201,1,8,3:0:0:0:
217,141,51281,1,8,3:0:0:0:
189,296,51441,6,0,P|141:278|63:266,1,116.025002213001,12|0,0:0|0:0,0:0:0:0:
11,306,51760,6,0,P|-1:258|95:195,1,172.899995383072,6|8,1:2|0:0,0:0:0:0:
189,296,52239,1,2,0:0:0:0:
189,296,52319,1,8,0:0:0:0:
189,296,52399,2,0,L|201:381,1,86.449997691536,0|0,1:2|1:2,0:0:0:0:
289,182,52718,1,10,0:0:0:0:
352,333,52877,6,0,P|402:314|443:304,1,86.449997691536,2|0,0:0|1:2,0:0:0:0:
484,180,53197,2,0,P|434:161|393:151,1,86.449997691536,2|8,0:0|0:0,0:0:0:0:
348,355,53516,1,2,0:0:0:0:
348,355,53595,1,8,0:0:0:0:
348,355,53675,2,0,P|398:336|439:326,1,86.449997691536,0|0,1:2|1:2,0:0:0:0:
193,157,53994,2,0,P|204:213|211:254,1,86.449997691536,8|2,0:0|0:0,0:0:0:0:
250,323,54234,1,2,0:0:0:0:
250,323,54314,6,0,P|263:210|287:137,1,172.899995383072,2|8,1:2|0:0,0:0:0:0:
408,38,54792,1,2,0:0:0:0:
408,38,54872,1,8,0:0:0:0:
408,38,54952,2,0,L|505:24,1,86.449997691536,0|0,1:2|1:2,0:0:0:0:
375,192,55271,1,8,0:0:0:0:
286,16,55431,6,0,P|219:24|216:141,1,172.899995383072,6|0,1:2|1:2,0:0:0:0:
395,112,55909,1,8,0:0:0:0:
213,240,56069,1,8,3:0:0:0:
213,240,56149,1,8,3:0:0:0:
213,240,56228,1,8,3:0:0:0:
390,147,56388,1,4,3:0:0:0:
159,96,56548,1,8,0:0:0:0:
345,259,56707,1,0,1:2:0:0:
258,34,56867,6,0,P|240:84|219:176,1,129.674996537304,6|0,1:2|0:0,0:0:0:0:
241,196,57186,5,10,0:0:0:0:
49,67,57345,1,0,1:2:0:0:
78,333,57505,5,10,0:0:0:0:
141,104,57665,1,0,1:2:0:0:
185,374,57824,5,10,0:0:0:0:
65,158,57984,1,0,1:2:0:0:
274,311,58143,6,0,P|323:293|366:283,1,86.449997691536,10|0,0:0|0:0,0:0:0:0:
256,31,58462,5,10,0:0:0:0:
178,279,58622,1,0,1:2:0:0:
477,237,58782,5,10,0:0:0:0:
194,128,58941,1,0,1:2:0:0:
478,69,59101,5,10,0:0:0:0:
356,284,59260,2,0,P|348:213|324:99,1,172.899995383072,6|8,1:2|0:0,0:0:0:0:
399,18,59659,1,8,0:0:0:0:
399,18,59739,2,0,P|451:5|463:4,1,43.224998845768,8|8,0:0|0:0,0:0:0:0:
228,134,59899,2,0,P|176:121|164:120,1,43.224998845768,8|8,0:0|0:0,0:0:0:0:
474,210,60058,5,8,0:0:0:0:
271,39,60218,1,8,0:0:0:0:
301,282,60377,1,8,0:0:0:0:
399,18,60537,5,6,1:2:0:0:
173,262,61016,5,2,0:0:0:0:
243,183,61335,1,6,1:2:0:0:
111,93,61494,1,8,0:0:0:0:
111,93,61574,1,8,0:0:0:0:
111,93,61654,2,8,P|100:123|96:155,1,43.224998845768
255,55,61814,2,8,P|249:34|241:14,1,43.224998845768
261,203,61973,6,0,B|372:185|321:260|470:241,1,191.099994168091,6|8,1:2|0:0,0:0:0:0:
353,73,62452,1,2,0:0:0:0:
256,290,62611,2,0,P|193:277|161:233,1,95.5499970840455,2|0,1:2|1:2,0:0:0:0:
240,83,62931,1,10,0:0:0:0:
320,333,63090,6,0,P|281:364|230:361,1,95.5499970840455,2|0,1:2|0:0,0:0:0:0:
311,108,63409,2,0,P|287:154|278:222,1,95.5499970840455,2|8,1:2|0:0,0:0:0:0:
473,324,63728,2,0,P|467:275|443:233,1,95.5499970840455,2|0,0:0|1:2,0:0:0:0:
393,45,64048,1,0,1:2:0:0:
320,258,64207,1,8,0:0:0:0:
512,157,64367,1,8,0:0:0:0:
512,157,64447,1,8,0:0:0:0:
512,157,64526,6,0,P|468:125|421:126,1,95.5499970840455,6|0,1:2|0:0,0:0:0:0:
369,317,64845,1,10,0:0:0:0:
269,84,65005,2,0,P|252:136|243:182,1,95.5499970840455,6|0,1:2|0:0,0:0:0:0:
149,367,65324,2,0,P|139:320|123:275,1,95.5499970840455,2|8,1:2|0:0,0:0:0:0:
121,31,65643,6,0,P|69:22|25:152,1,191.099994168091,6|0,1:2|1:2,0:0:0:0:
195,260,66122,1,8,0:0:0:0:
22,214,66282,1,0,1:2:0:0:
255,45,66441,2,0,B|277:74|277:74|278:142,1,95.5499970840455,12|0,0:0|0:0,0:0:0:0:
219,339,66760,5,8,0:0:0:0:
173,352,66839,1,8,0:0:0:0:
128,339,66919,1,8,0:0:0:0:
98,303,66999,1,8,0:0:0:0:
96,255,67079,6,0,B|218:277|166:193|304:231,1,191.099994168091,6|8,1:2|0:0,0:0:0:0:
316,85,67558,1,2,0:0:0:0:
386,287,67718,1,2,1:2:0:0:
241,128,67877,1,2,1:2:0:0:
232,304,68037,1,10,0:0:0:0:
382,55,68197,6,0,P|427:28|483:22,1,95.5499970840455,2|0,1:2|0:0,0:0:0:0:
448,261,68516,2,0,P|401:252|361:227,1,95.5499970840455,2|8,1:2|0:0,0:0:0:0:
263,91,68835,1,2,0:0:0:0:
512,146,68994,2,0,P|471:171|425:179,1,95.5499970840455,0|2,1:2|1:2,0:0:0:0:
322,21,69314,1,8,0:0:0:0:
261,248,69473,1,0,0:0:0:0:
444,102,69633,6,0,P|466:194|485:288,1,191.099994168091,2|8,1:2|0:0,0:0:0:0:
303,176,70111,1,2,0:0:0:0:
303,176,70191,1,8,0:0:0:0:
303,176,70271,2,0,P|291:224|285:279,1,95.5499970840455,4|4,3:0|3:0,0:0:0:0:
197,92,70590,1,8,0:0:0:0:
395,236,70750,5,6,1:2:0:0:
83,357,71069,5,6,1:2:0:0:
286,123,71388,5,8,3:0:0:0:
286,123,71468,1,8,0:0:0:0:
286,123,71548,2,8,P|302:184|304:192,1,47.7749985420228
180,278,71707,2,8,P|184:253|189:230,1,47.7749985420228
159,97,71867,5,8,3:0:0:0:
122,66,71946,1,8,3:0:0:0:
76,63,72026,1,4,3:0:0:0:
36,87,72106,1,4,3:0:0:0:
17,131,72186,6,0,P|39:186|61:321,1,191.099994168091,6|8,1:2|0:0,0:0:0:0:
186,136,72665,1,2,0:0:0:0:
186,136,72744,1,8,0:0:0:0:
186,136,72824,2,0,P|229:109|283:113,1,95.5499970840455,0|0,1:2|1:2,0:0:0:0:
173,249,73143,1,10,0:0:0:0:
248,30,73303,6,0,P|295:30|334:56,1,95.5499970840455,2|0,1:2|0:0,0:0:0:0:
431,233,73622,2,0,P|442:174|454:133,1,95.5499970840455,2|8,1:2|0:0,0:0:0:0:
270,218,73941,2,0,P|282:264|290:311,1,95.5499970840455,2|0,0:0|1:2,0:0:0:0:
349,148,74260,1,0,1:2:0:0:
184,263,74420,1,8,0:0:0:0:
371,298,74579,1,2,0:0:0:0:
107,153,74739,5,6,1:2:0:0:
182,369,74899,1,0,1:2:0:0:
276,158,75058,1,10,0:0:0:0:
90,339,75218,2,0,P|38:328|2:293,1,95.5499970840455,6|0,1:2|0:0,0:0:0:0:
207,109,75537,5,2,1:2:0:0:
245,324,75697,1,10,0:0:0:0:
32,112,75856,2,0,P|68:81|115:73,1,95.5499970840455,6|0,1:2|0:0,0:0:0:0:
123,259,76175,1,0,1:2:0:0:
245,70,76335,2,8,L|234:144,2,47.7749985420228
274,291,76654,5,8,3:0:0:0:
274,291,76734,1,8,3:0:0:0:
274,291,76814,2,0,P|326:273|333:272,1,47.7749985420228,4|4,3:0|3:0,0:0:0:0:
354,137,76973,1,8,3:0:0:0:
354,137,77053,1,8,3:0:0:0:
354,137,77133,2,0,P|406:155|413:156,1,47.7749985420228,0|4,3:0|3:0,0:0:0:0:
476,320,77292,6,0,L|493:137,1,143.324995626068,6|0,1:2|0:0,0:0:0:0:
497,154,77611,5,10,0:0:0:0:
246,232,77771,1,0,1:2:0:0:
356,0,77931,5,10,0:0:0:0:
406,242,78090,1,0,1:2:0:0:
180,28,78250,5,10,0:0:0:0:
392,121,78409,1,0,1:2:0:0:
107,204,78569,5,10,0:0:0:0:
306,101,78728,1,0,1:2:0:0:
17,15,78888,5,10,0:0:0:0:
235,145,79048,1,0,1:2:0:0:
16,280,79207,5,10,0:0:0:0:
156,48,79367,1,0,1:2:0:0:
189,336,79526,6,10,B|276:353|229:288|330:304,1,143.324995626068,12|0,0:0|0:0,0:0:0:0:
401,355,79845,6,0,P|409:264|291:222,1,204.750007810593,6|0,1:2|0:0,0:0:0:0:
283,226,80404,1,8,0:0:0:0:
283,226,80484,1,8,0:0:0:0:
145,62,80643,1,4,3:0:0:0:
260,126,80803,1,4,3:0:0:0:
81,212,80962,5,6,1:2:0:0:
428,99,81282,5,8,3:0:0:0:
231,262,81601,6,0,P|244:199|261:167,1,86.449997691536,6|0,1:2|0:0,0:0:0:0:
148,39,81920,5,8,0:0:0:0:
109,20,81999,1,8,0:0:0:0:
66,21,82079,1,8,0:0:0:0:
29,43,82159,1,8,0:0:0:0:
7,80,82239,1,8,0:0:0:0:
5,122,82318,1,8,0:0:0:0:
24,161,82399,6,0,B|132:144|86:222|211:203,1,172.899995383072,6|8,1:2|0:0,0:0:0:0:
314,38,82877,1,0,0:0:0:0:
314,38,82957,1,8,0:0:0:0:
314,38,83037,2,0,P|296:86|285:140,1,86.449997691536,2|0,1:2|1:2,0:0:0:0:
351,268,83356,1,8,0:0:0:0:
158,123,83516,6,0,P|176:171|187:225,1,86.449997691536,2|0,1:2|0:0,0:0:0:0:
307,358,83835,1,2,1:2:0:0:
359,171,83994,1,10,0:0:0:0:
190,346,84154,1,0,0:0:0:0:
190,346,84234,1,8,0:0:0:0:
190,346,84314,2,0,P|144:366|87:356,1,86.449997691536,2|0,1:2|1:2,0:0:0:0:
39,177,84633,2,0,P|81:176|120:195,1,86.449997691536,10|0,0:0|0:0,0:0:0:0:
292,332,84952,6,0,P|298:263|340:160,1,172.899995383072,2|8,1:2|0:0,0:0:0:0:
182,29,85431,1,0,0:0:0:0:
182,29,85510,1,8,0:0:0:0:
182,29,85590,2,0,P|202:79|208:128,1,86.449997691536,2|0,1:2|1:2,0:0:0:0:
218,250,85909,1,8,0:0:0:0:
345,62,86069,6,0,L|445:47,1,86.449997691536,2|0,1:2|0:0,0:0:0:0:
505,229,86388,2,0,L|419:216,1,86.449997691536,2|8,1:2|0:0,0:0:0:0:
264,133,86707,1,0,0:0:0:0:
264,133,86787,1,8,0:0:0:0:
264,133,86867,2,0,P|244:183|238:232,1,86.449997691536,2|0,1:2|1:2,0:0:0:0:
472,205,87186,1,8,0:0:0:0:
306,361,87345,1,2,0:0:0:0:
380,194,87505,6,0,P|400:244|406:293,1,86.449997691536,6|0,1:2|0:0,0:0:0:0:
217,200,87824,2,0,P|225:157|242:118,1,86.449997691536,10|0,0:0|0:0,0:0:0:0:
266,88,88064,1,8,0:0:0:0:
266,88,88143,1,2,1:2:0:0:
406,204,88303,2,0,P|426:254|432:303,1,86.449997691536,0|8,1:2|0:0,0:0:0:0:
239,367,88622,6,0,P|188:343|65:330,1,172.899995383072,2|0,1:2|1:2,0:0:0:0:
152,164,89101,1,8,0:0:0:0:
318,294,89260,1,0,0:0:0:0:
318,294,89340,1,8,0:0:0:0:
318,294,89420,2,0,P|360:285|398:265,1,86.449997691536,2|0,1:2|1:2,0:0:0:0:
269,82,89739,2,0,P|245:140|237:199,1,86.449997691536,10|0,0:0|0:0,0:0:0:0:
488,132,90058,6,0,P|481:48|386:34,1,172.899995383072,2|8,1:2|0:0,0:0:0:0:
297,162,90537,1,0,0:0:0:0:
297,162,90617,1,8,0:0:0:0:
297,162,90697,2,0,P|286:120|268:81,1,86.449997691536,2|0,1:2|1:2,0:0:0:0:
415,212,91016,1,8,0:0:0:0:
244,2,91175,6,0,P|205:103|195:153,1,129.674996537304,2|0,1:2|0:0,0:0:0:0:
213,149,91494,1,2,1:2:0:0:
277,311,91654,1,10,0:0:0:0:
141,253,91814,1,2,0:0:0:0:
141,253,91893,1,8,0:0:0:0:
141,253,91973,1,2,1:2:0:0:
303,197,92133,1,2,1:2:0:0:
102,109,92292,1,10,0:0:0:0:
355,49,92452,1,2,0:0:0:0:
184,344,92611,6,0,P|137:348|95:325,1,95.5499970840455,6|0,1:2|0:0,0:0:0:0:
273,106,92931,2,0,P|298:151|302:199,1,95.5499970840455,10|0,0:0|0:0,0:0:0:0:
55,70,93250,5,10,0:0:0:0:
305,3,93409,1,0,1:2:0:0:
36,191,93569,5,10,0:0:0:0:
281,268,93728,1,0,1:2:0:0:
144,10,93888,6,0,L|134:109,1,95.5499970840455,10|0,0:0|0:0,0:0:0:0:
9,329,94207,2,0,L|-1:233,1,95.5499970840455,10|0,0:0|0:0,0:0:0:0:
227,268,94526,5,10,0:0:0:0:
0,142,94686,1,0,1:2:0:0:
322,49,94845,5,10,0:0:0:0:
105,205,95005,1,0,1:2:0:0:
322,338,95165,6,0,P|369:339|408:313,1,95.5499970840455,10|0,0:0|0:0,0:0:0:0:
512,119,95484,2,0,P|472:93|425:94,1,95.5499970840455,10|0,0:0|0:0,0:0:0:0:
232,266,95803,5,10,0:0:0:0:
311,11,95962,1,0,1:2:0:0:
420,347,96122,5,10,0:0:0:0:
344,96,96281,1,0,1:2:0:0:
195,308,96441,6,0,P|140:307|105:262,1,95.5499970840455,10|0,0:0|0:0,0:0:0:0:
386,170,96760,5,10,0:0:0:0:
101,104,96920,1,0,1:2:0:0:
326,280,97079,6,0,P|339:332|340:347,2,47.7749985420228,8|8|8,0:0|0:0|0:0,0:0:0:0:
512,181,97399,5,8,0:0:0:0:
491,138,97478,1,8,0:0:0:0:
451,113,97558,1,8,0:0:0:0:
404,112,97638,1,8,0:0:0:0:
364,137,97718,6,0,P|380:191|388:258,1,95.5499970840455,6|0,1:2|0:0,0:0:0:0:
186,381,98037,2,0,P|193:333|207:285,1,95.5499970840455,10|0,0:0|0:0,0:0:0:0:
199,43,98356,5,10,0:0:0:0:
313,307,98516,1,0,1:2:0:0:
37,283,98675,5,10,0:0:0:0:
296,165,98835,1,0,1:2:0:0:
0,136,98994,5,8,3:0:0:0:
183,272,99154,1,0,1:2:0:0:
71,87,99314,6,0,P|48:143|22:253,1,143.324995626068,12|0,0:0|0:0,0:0:0:0:
43,259,99633,1,8,3:0:0:0:
153,132,99792,1,8,3:0:0:0:
241,256,99952,1,4,3:0:0:0:
302,186,100111,1,4,3:0:0:0:
370,256,100271,6,0,B|451:241|406:306|521:293,1,136.500005207062,6|0,1:2|0:0,0:0:0:0:
401,129,100750,1,0,0:0:0:0:
502,74,100909,2,0,L|481:221,1,136.500005207062,8|0,0:0|0:0,0:0:0:0:
382,332,101388,6,0,B|229:343|334:258|161:276,1,232.96,4|0,1:2|0:0,0:0:0:0:
148,277,102744,1,2,0:0:0:0:
131,276,102824,6,0,B|138:221|177:179|177:179|125:163|79:116|79:116|140:91|198:101|198:101|198:39|228:-7|228:-7|274:37|277:103|277:103|342:77|398:98|398:98|371:151|299:179|299:179|342:216|346:279|346:279|277:272|236:224|236:224|234:301|227:367,1,1223.04001492969,2|0,0:0|0:0,0:0:0:0:
