osu file format v14

[General]
AudioFilename: audio.mp3
AudioLeadIn: 0
PreviewTime: 60936
Countdown: 0
SampleSet: Soft
StackLeniency: 0.7
Mode: 0
LetterboxInBreaks: 0
WidescreenStoryboard: 1

[Editor]
Bookmarks: 15522,96107,110469
DistanceSpacing: 1.3
BeatDivisor: 4
GridSize: 16
TimelineZoom: 2

[Metadata]
Title:Dramatic Star
TitleUnicode:ドラマティックスター
Artist:Aitsuki Nakuru
ArtistUnicode:藍月なくる
Creator:HeTo
Version:Insane
Source:
Tags:アトランティックF. お星さまに恋してる。 atlantic f. endorfin. a than_lily i'm in love stars japanese pop
BeatmapID:2205086
BeatmapSetID:1053975

[Difficulty]
HPDrainRate:5.5
CircleSize:3.8
OverallDifficulty:8
ApproachRate:9
SliderMultiplier:1.72
SliderTickRate:1

[Events]
//Background and Video events
0,0,"bg.jpg",0,0
//Break Periods
//Storyboard Layer 0 (Background)
//Storyboard Layer 1 (Fail)
//Storyboard Layer 2 (Pass)
//Storyboard Layer 3 (Foreground)
//Storyboard Layer 4 (Overlay)
//Storyboard Sound Samples

[TimingPoints]
697,319.148936170213,4,2,5,40,1,0
697,-153.846153846154,4,2,5,40,0,0
1973,-133.333333333333,4,2,5,40,0,0
6681,-133.333333333333,4,2,5,5,0,0
6760,-133.333333333333,4,2,5,55,0,0
7079,-117.647058823529,4,2,5,60,0,0
10750,-105.263157894737,4,2,5,65,0,0
16016,-105.263157894737,4,2,5,65,0,0
20005,-181.818181818182,4,2,5,40,0,0
21042,-181.818181818182,4,2,5,5,0,0
21122,-133.333333333333,4,2,5,50,0,0
21361,-133.333333333333,4,2,5,5,0,0
21441,-133.333333333333,4,2,5,50,0,0
31335,-105.263157894737,4,2,5,55,0,0
37718,-105.263157894737,4,2,5,60,0,0
46654,-117.64705882353,4,2,5,65,0,0
51681,-117.64705882353,4,2,5,5,0,0
51760,-105.263157894737,4,2,5,65,0,0
60537,-153.846153846154,4,2,5,65,0,0
61335,-105.263157894737,4,2,5,65,0,0
61973,-95.2380952380952,4,2,5,70,0,1
79766,-95.2380952380952,4,2,5,5,0,1
79845,-133.333333333333,4,2,5,65,0,1
81601,-105.263157894737,4,2,5,65,0,1
82399,-105.263157894737,4,2,5,65,0,0
92611,-95.2380952380952,4,2,5,70,0,1
100271,-133.333333333333,4,2,5,65,0,0
101388,-333.333333333333,4,2,5,45,0,0
102744,-333.333333333333,4,2,5,5,0,0
102824,-357.142857142857,4,2,5,35,0,0
105377,-357.142857142857,4,2,5,30,0,0
107931,-357.142857142857,4,2,5,25,0,0
109207,-357.142857142857,4,2,5,15,0,0
110484,-357.142857142857,4,2,5,10,0,0

[Colours]
Combo1 : 255,191,191
Combo2 : 108,182,255
Combo3 : 255,255,168
Combo4 : 192,192,192

[HitObjects]
501,143,1016,5,2,0:0:0:0:
465,225,1335,1,2,0:0:0:0:
376,211,1654,1,2,0:0:0:0:
346,127,1973,6,0,P|311:97|211:119,1,129.00000492096,2|0,0:0|0:0,0:0:0:0:
156,151,2452,1,2,0:0:0:0:
156,151,2611,2,0,L|147:22,1,129.00000492096,2|2,0:0|0:0,0:0:0:0:
71,117,3090,1,2,0:0:0:0:
71,117,3250,6,0,P|62:84|45:55,1,64.5000024604798,0|2,0:0|0:0,0:0:0:0:
156,151,3569,2,0,P|140:179|132:210,1,64.5000024604798,0|2,0:0|0:0,0:0:0:0:
231,114,3888,2,0,P|264:125|288:227,1,129.00000492096,0|0,0:0|0:0,0:0:0:0:
346,288,4367,1,2,0:0:0:0:
346,288,4526,6,0,P|386:273|476:259,1,129.00000492096,2|2,0:0|0:0,0:0:0:0:
503,173,5005,2,0,P|454:156|438:148,1,64.5000024604798,2|0,0:0|0:0,0:0:0:0:
365,94,5324,2,0,P|414:77|430:69,1,64.5000024604798,2|0,0:0|0:0,0:0:0:0:
288,17,5643,1,2,0:0:0:0:
288,17,5803,6,0,L|276:170,1,129.00000492096,0|0,0:0|0:0,0:0:0:0:
215,278,6441,2,0,P|175:263|157:203,1,96.7500036907198,0|0,0:0|0:0,0:0:0:0:
135,168,6760,2,0,L|143:114,3,32.2500012302399,0|0|0|0,1:2|0:0|0:0|0:0,0:0:0:0:
197,61,7079,6,0,P|212:105|232:211,1,146.200002788544,6|8,1:2|0:0,0:0:0:0:
144,359,7718,2,0,B|-6:330,1,146.200002788544,2|8,0:0|0:0,0:0:0:0:
151,228,8197,1,2,0:0:0:0:
241,317,8356,6,0,L|325:298,1,73.1000013942719,8|0,0:0|0:0,0:0:0:0:
389,149,8675,2,0,P|413:214|420:238,1,73.1000013942719,8|2,0:0|0:0,0:0:0:0:
240,121,8994,2,0,P|251:86|265:52,1,73.1000013942719,8|2,0:0|0:0,0:0:0:0:
268,222,9314,1,8,0:0:0:0:
128,96,9473,1,8,0:0:0:0:
128,96,9553,1,8,0:0:0:0:
128,96,9633,6,8,L|133:132,3,36.5500006971359,8|8|8|8,0:0|0:0|0:0|0:0,0:0:0:0:
238,258,9952,2,8,L|243:221,3,36.5500006971359
168,313,10271,5,8,0:0:0:0:
189,341,10350,1,8,0:0:0:0:
222,357,10430,1,8,0:0:0:0:
258,354,10510,1,8,0:0:0:0:
289,335,10590,1,8,0:0:0:0:
431,193,10750,6,0,P|447:253|466:354,1,163.399995636749,6|8,1:2|0:0,0:0:0:0:
303,210,11228,1,8,0:0:0:0:
323,330,11388,1,8,0:0:0:0:
397,119,11548,1,8,0:0:0:0:
381,268,11707,1,8,0:0:0:0:
220,103,11867,1,8,0:0:0:0:
247,289,12026,1,6,1:2:0:0:
436,15,12984,6,0,L|445:60,1,40.8499989091873,8|8,0:0|0:0,0:0:0:0:
336,136,13143,2,0,L|344:95,3,40.8499989091873,8|8|8|8,0:0|0:0|3:0|3:0,0:0:0:0:
213,6,13462,6,0,P|189:56|180:97,1,81.6999978183747,4|8,1:2|0:0,0:0:0:0:
236,229,13782,1,8,3:0:0:0:
58,40,13941,6,0,P|82:90|102:198,1,163.399995636749,6|8,1:2|0:0,0:0:0:0:
192,340,14420,1,8,3:0:0:0:
300,166,14579,6,0,B|393:184|358:118|486:131,1,163.399995636749,6|8,1:2|0:0,0:0:0:0:
318,41,15058,1,8,3:0:0:0:
235,228,15218,2,0,P|189:215|157:195,1,81.6999978183747,6|0,1:2|0:0,0:0:0:0:
86,68,15537,6,0,L|98:19,3,40.8499989091873,8|8|8|8,0:0|0:0|0:0|0:0,0:0:0:0:
12,190,15856,2,0,L|2:150,1,40.8499989091873,8|8,0:0|0:0,0:0:0:0:
82,290,16016,6,0,B|174:280|123:351|247:337,1,163.399995636749,6|8,1:2|0:0,0:0:0:0:
329,147,16494,1,0,0:0:0:0:
374,273,16654,2,0,P|389:326|394:363,1,81.6999978183747,2|0,1:2|1:2,0:0:0:0:
239,165,16973,1,8,0:0:0:0:
230,339,17133,6,0,P|237:299|249:260,1,81.6999978183747,2|0,1:2|0:0,0:0:0:0:
434,176,17452,2,0,P|445:215|452:255,1,81.6999978183747,2|8,1:2|0:0,0:0:0:0:
260,89,17771,2,0,P|210:88|175:200,1,163.399995636749,2|0,0:0|1:2,0:0:0:0:
325,300,18250,1,8,0:0:0:0:
387,86,18409,6,0,P|438:68|472:64,1,81.6999978183747,6|0,1:2|0:0,0:0:0:0:
326,217,18728,1,8,0:0:0:0:
326,217,18808,1,8,0:0:0:0:
326,217,18888,2,0,P|285:210|247:195,1,81.6999978183747,8|8,0:0|0:0,0:0:0:0:
206,163,19127,1,8,0:0:0:0:
206,163,19207,1,8,0:0:0:0:
311,0,19367,2,0,P|320:18|326:38,2,40.8499989091873,8|8|8,0:0|0:0|0:0,0:0:0:0:
453,193,19686,5,6,1:2:0:0:
452,192,20005,2,0,L|463:125,2,47.3000014434815,2|2|2,0:0|0:0|0:0,0:0:0:0:
362,73,20484,2,0,L|369:119,1,47.3000014434815,2|2,0:0|0:0,0:0:0:0:
326,217,20803,2,0,P|279:198|243:193,1,70.9500021652222,4|0,3:0|0:0,0:0:0:0:
232,211,21122,6,0,P|199:224|118:224,1,96.7500036907198,6|0,1:2|0:0,0:0:0:0:
112,208,21441,2,0,P|100:250|94:282,1,64.5000024604798,2|0,0:0|0:0,0:0:0:0:
0,129,21760,2,0,P|9:159|16:191,1,64.5000024604798,2|0,0:0|0:0,0:0:0:0:
95,81,22079,2,0,P|133:66|175:71,1,64.5000024604798,2|0,0:0|0:0,0:0:0:0:
239,147,22399,5,2,0:0:0:0:
239,147,22558,2,0,L|248:84,1,64.5000024604798,2|0,0:0|0:0,0:0:0:0:
345,16,22877,2,0,L|354:79,1,64.5000024604798,2|0,0:0|0:0,0:0:0:0:
207,179,23197,2,0,L|227:50,1,129.00000492096,2|0,0:0|0:0,0:0:0:0:
324,205,23675,5,2,0:0:0:0:
324,205,23994,2,0,P|365:189|387:186,1,64.5000024604798,2|0,0:0|0:0,0:0:0:0:
459,301,24314,2,0,P|429:288|397:282,1,64.5000024604798,2|0,0:0|0:0,0:0:0:0:
283,371,24633,2,0,L|289:299,1,64.5000024604798,2|0,0:0|0:0,0:0:0:0:
185,223,24952,5,2,0:0:0:0:
185,223,25111,2,0,P|203:278|207:296,1,64.5000024604798,2|0,0:0|0:0,0:0:0:0:
84,361,25431,2,0,P|92:329|103:299,1,64.5000024604798,2|0,0:0|0:0,0:0:0:0:
4,172,25750,1,2,0:0:0:0:
23,257,25909,1,2,0:0:0:0:
110,129,26069,1,2,0:0:0:0:
110,129,26149,1,2,0:0:0:0:
110,129,26228,6,0,B|178:111|152:166|245:147,1,129.00000492096,2|0,0:0|0:0,0:0:0:0:
411,2,26867,2,0,P|393:57|374:153,1,129.00000492096,2|0,0:0|0:0,0:0:0:0:
345,283,27505,6,0,P|358:234|446:222,1,129.00000492096,2|0,0:0|0:0,0:0:0:0:
383,357,27984,2,0,B|273:388|313:311|194:323,1,193.50000738144,2|0,0:0|0:0,0:0:0:0:
228,170,28622,1,2,0:0:0:0:
228,170,28782,6,0,P|244:216|250:243,1,64.5000024604798,2|0,0:0|0:0,0:0:0:0:
390,188,29101,1,0,0:0:0:0:
327,71,29260,2,0,P|315:101|307:132,1,64.5000024604798,2|0,0:0|0:0,0:0:0:0:
196,16,29579,2,0,P|201:47|203:79,1,64.5000024604798,2|0,0:0|0:0,0:0:0:0:
111,243,29899,6,0,P|56:240|25:165,1,129.00000492096,2|0,0:0|0:0,0:0:0:0:
126,104,30377,1,2,0:0:0:0:
201,198,30537,2,0,P|235:188|275:182,1,64.5000024604798,4|0,0:0|0:0,0:0:0:0:
369,91,30856,1,8,3:0:0:0:
242,93,31016,1,8,3:0:0:0:
397,206,31175,1,4,3:0:0:0:
397,206,31255,1,4,3:0:0:0:
397,206,31335,6,0,P|407:138|438:31,1,163.399995636749,6|2,1:2|1:2,0:0:0:0:
316,225,31814,1,2,0:0:0:0:
496,164,31973,2,0,P|509:212|513:250,1,81.6999978183747,2|2,1:2|0:0,0:0:0:0:
379,125,32292,2,0,P|384:84|395:45,1,81.6999978183747,2|2,1:2|0:0,0:0:0:0:
279,208,32611,6,0,P|222:195|180:178,1,81.6999978183747,2|2,1:2|0:0,0:0:0:0:
248,328,32931,1,0,1:2:0:0:
82,301,33090,2,0,P|139:288|181:271,1,81.6999978183747,2|0,0:0|1:2,0:0:0:0:
72,126,33409,2,0,P|55:183|48:232,1,81.6999978183747,2|0,0:0|1:2,0:0:0:0:
147,61,33728,1,10,0:0:0:0:
200,187,33888,6,0,L|383:164,1,163.399995636749,0|2,1:2|1:2,0:0:0:0:
487,114,34367,1,2,0:0:0:0:
451,277,34526,2,0,L|370:265,1,81.6999978183747,2|2,1:2|0:0,0:0:0:0:
218,213,34845,2,0,L|301:201,1,81.6999978183747,2|2,1:2|0:0,0:0:0:0:
177,344,35165,5,2,1:2:0:0:
108,233,35324,2,0,P|96:180|90:143,1,81.6999978183747,2|0,0:0|1:2,0:0:0:0:
270,297,35643,2,0,P|282:244|288:207,1,81.6999978183747,2|0,0:0|1:2,0:0:0:0:
184,75,35962,1,2,0:0:0:0:
209,223,36122,1,2,1:2:0:0:
325,69,36282,1,2,0:0:0:0:
161,161,36441,6,0,L|-1:136,1,163.399995636749,2|0,1:2|1:2,0:0:0:0:
222,95,36920,1,0,0:0:0:0:
222,273,37079,2,0,L|384:248,1,163.399995636749,2|8,1:2|0:0,0:0:0:0:
385,19,37718,6,0,P|359:78|352:108,1,81.6999978183747,6|0,1:2|0:0,0:0:0:0:
456,211,38037,1,8,0:0:0:0:
242,81,38197,2,0,P|268:140|275:170,1,81.6999978183747,6|0,1:2|0:0,0:0:0:0:
247,326,38516,1,8,0:0:0:0:
219,350,38595,1,8,0:0:0:0:
184,359,38675,1,8,0:0:0:0:
149,351,38755,1,8,3:0:0:0:
120,328,38835,1,8,3:0:0:0:
99,145,38994,6,0,P|45:127|0:119,1,81.6999978183747,10|0,0:0|0:0,0:0:0:0:
183,265,39314,1,10,0:0:0:0:
195,30,39473,6,0,L|206:116,1,81.6999978183747,6|0,1:2|0:0,0:0:0:0:
309,289,39792,6,0,L|319:207,1,81.6999978183747,6|0,1:2|0:0,0:0:0:0:
405,43,40111,6,0,P|458:42|485:147,1,163.399995636749,6|8,1:2|0:0,0:0:0:0:
403,228,40590,1,8,3:0:0:0:
293,84,40750,1,8,3:0:0:0:
293,84,40829,1,8,3:0:0:0:
293,84,40909,2,0,P|242:63|210:54,1,81.6999978183747,4|4,3:0|3:0,0:0:0:0:
302,240,41228,1,8,0:0:0:0:
405,51,41388,6,0,P|423:120|445:247,1,163.399995636749,6|0,1:2|1:2,0:0:0:0:
300,357,41867,2,0,L|308:256,1,81.6999978183747,10|0,0:0|1:2,0:0:0:0:
277,158,42186,1,10,0:0:0:0:
409,322,42345,2,0,P|450:307|462:304,2,40.8499989091873,8|8|4,3:0|3:0|3:0,0:0:0:0:
242,195,42665,5,6,1:2:0:0:
177,268,42984,5,6,1:2:0:0:
197,363,43303,6,0,B|94:386|146:316|9:345,1,163.399995636749,6|0,1:2|1:2,0:0:0:0:
89,166,43782,1,8,0:0:0:0:
197,280,43941,6,0,P|263:259|370:243,1,163.399995636749,6|0,1:2|1:2,0:0:0:0:
253,104,44420,2,0,P|235:157|224:199,1,81.6999978183747,10|0,0:0|1:2,0:0:0:0:
298,28,44739,1,10,0:0:0:0:
133,145,44899,2,0,L|93:136,2,40.8499989091873,8|8|4,3:0|3:0|3:0,0:0:0:0:
299,238,45218,5,6,1:2:0:0:
405,278,45537,5,6,1:2:0:0:
503,220,45856,6,0,L|514:37,1,163.399995636749,6|8,1:2|3:0,0:0:0:0:
307,99,46335,1,4,3:0:0:0:
417,156,46494,1,4,3:0:0:0:
314,20,46654,6,0,B|217:20|279:70|166:72,1,146.200002788544,6|2,1:2|1:2,0:0:0:0:
109,155,47133,1,2,0:0:0:0:
50,56,47292,2,0,P|35:104|15:204,1,146.200002788544,8|0,0:0|0:0,0:0:0:0:
101,331,47771,6,0,P|150:335|181:249,1,146.200002788544,10|8,0:0|0:0,0:0:0:0:
58,137,48250,2,0,P|44:182|39:217,1,73.1000013942719,2|0,1:2|0:0,0:0:0:0:
187,134,48569,2,0,P|180:98|168:63,1,73.1000013942719,10|0,0:0|0:0,0:0:0:0:
266,247,48888,2,0,P|313:233|346:229,1,73.1000013942719,2|0,1:2|0:0,0:0:0:0:
510,149,49207,6,0,P|462:129|367:115,1,146.200002788544,12|8,0:0|0:0,0:0:0:0:
356,302,49686,1,8,0:0:0:0:
219,141,49845,1,8,0:0:0:0:
367,202,50005,1,8,0:0:0:0:
197,342,50165,1,8,0:0:0:0:
292,163,50324,1,8,0:0:0:0:
382,351,50484,6,0,P|446:334|473:304,1,73.1000013942719,6|0,1:2|0:0,0:0:0:0:
477,291,50723,1,8,3:0:0:0:
477,291,50803,1,8,3:0:0:0:
403,134,50962,6,0,P|369:191|371:231,1,73.1000013942719,12|0,0:0|0:0,0:0:0:0:
378,243,51201,1,8,3:0:0:0:
378,243,51281,1,8,3:0:0:0:
249,374,51441,6,0,P|241:325|210:243,1,109.650002091408,12|0,0:0|0:0,0:0:0:0:
201,185,51760,6,0,P|180:225|144:354,1,163.399995636749,6|8,1:2|0:0,0:0:0:0:
149,102,52239,1,2,0:0:0:0:
277,222,52399,2,0,P|317:207|372:200,1,81.6999978183747,0|0,1:2|1:2,0:0:0:0:
310,317,52718,1,10,0:0:0:0:
339,104,52877,6,0,P|379:110|417:125,1,81.6999978183747,2|0,0:0|1:2,0:0:0:0:
505,278,53197,2,0,P|512:209|517:182,1,81.6999978183747,2|8,0:0|0:0,0:0:0:0:
384,360,53516,2,0,P|379:296|351:190,1,163.399995636749,2|0,0:0|1:2,0:0:0:0:
257,71,53994,1,8,0:0:0:0:
187,221,54154,1,2,0:0:0:0:
187,221,54234,1,2,0:0:0:0:
187,221,54314,6,0,L|23:193,1,163.399995636749,2|8,1:2|0:0,0:0:0:0:
157,30,54792,2,0,P|177:104|180:117,1,81.6999978183747,2|0,0:0|1:2,0:0:0:0:
278,240,55111,2,0,P|287:200|299:161,1,81.6999978183747,0|8,1:2|0:0,0:0:0:0:
415,12,55431,6,0,B|448:55|448:55|453:170,1,163.399995636749,6|0,1:2|1:2,0:0:0:0:
282,60,55909,1,8,0:0:0:0:
366,246,56069,1,8,3:0:0:0:
366,246,56149,1,8,3:0:0:0:
366,246,56228,1,8,3:0:0:0:
361,89,56388,1,4,3:0:0:0:
244,237,56548,2,0,P|196:227|157:207,1,81.6999978183747,8|0,0:0|1:2,0:0:0:0:
219,5,56867,6,0,L|231:103,1,81.6999978183747,6|0,1:2|0:0,0:0:0:0:
53,267,57186,2,0,L|62:185,1,81.6999978183747,10|0,0:0|1:2,0:0:0:0:
244,237,57505,5,10,0:0:0:0:
105,104,57665,1,0,1:2:0:0:
180,297,57824,5,10,0:0:0:0:
228,86,57984,1,0,1:2:0:0:
103,329,58143,6,0,P|42:351|16:350,1,81.6999978183747,10|0,0:0|0:0,0:0:0:0:
189,165,58462,2,0,P|229:169|265:187,1,81.6999978183747,10|0,0:0|1:2,0:0:0:0:
331,335,58782,5,10,0:0:0:0:
382,165,58941,1,0,1:2:0:0:
212,249,59101,1,10,0:0:0:0:
457,341,59260,6,0,P|465:268|495:152,1,163.399995636749,6|8,1:2|0:0,0:0:0:0:
465,145,59659,1,8,0:0:0:0:
465,145,59739,2,0,L|459:89,3,40.8499989091873,8|8|8|8,0:0|0:0|0:0|0:0,0:0:0:0:
298,244,60058,5,8,0:0:0:0:
266,31,60218,1,8,0:0:0:0:
394,183,60377,1,8,0:0:0:0:
181,174,60537,5,6,1:2:0:0:
355,335,61016,5,2,0:0:0:0:
282,268,61335,1,6,1:2:0:0:
190,352,61494,1,8,0:0:0:0:
190,352,61574,1,8,0:0:0:0:
190,352,61654,2,8,L|183:305,1,40.8499989091873
111,247,61814,2,8,L|117:206,1,40.8499989091873
167,54,61973,6,0,P|189:118|209:233,1,180.599994488526,6|8,1:2|0:0,0:0:0:0:
302,330,62452,1,2,0:0:0:0:
364,157,62611,2,0,P|413:140|463:135,1,90.2999972442628,2|0,1:2|1:2,0:0:0:0:
374,253,62931,1,10,0:0:0:0:
271,80,63090,6,0,P|222:63|172:58,1,90.2999972442628,2|0,1:2|0:0,0:0:0:0:
266,262,63409,2,0,L|281:169,1,90.2999972442628,2|8,1:2|0:0,0:0:0:0:
84,54,63728,2,0,L|113:243,1,180.599994488526,2|0,0:0|1:2,0:0:0:0:
160,360,64207,1,8,0:0:0:0:
29,217,64367,1,8,0:0:0:0:
29,217,64447,1,8,0:0:0:0:
29,217,64526,6,0,L|14:320,1,90.2999972442628,6|0,1:2|0:0,0:0:0:0:
187,179,64845,1,10,0:0:0:0:
200,372,65005,2,0,P|152:346|97:344,1,90.2999972442628,6|0,1:2|0:0,0:0:0:0:
312,266,65324,2,0,P|358:240|415:238,1,90.2999972442628,2|8,1:2|0:0,0:0:0:0:
173,81,65643,6,0,B|153:188|226:138|197:262,1,180.599994488526,6|0,1:2|1:2,0:0:0:0:
260,105,66122,2,0,P|271:39|279:7,1,90.2999972442628,8|0,0:0|1:2,0:0:0:0:
88,125,66441,2,0,P|97:169|104:213,1,90.2999972442628,12|0,0:0|0:0,0:0:0:0:
249,336,66760,1,8,0:0:0:0:
277,364,66839,1,8,0:0:0:0:
316,375,66919,1,8,0:0:0:0:
355,366,66999,1,8,0:0:0:0:
385,339,67079,6,0,P|404:298|525:298,1,180.599994488526,6|8,1:2|0:0,0:0:0:0:
343,211,67558,1,2,0:0:0:0:
466,348,67718,1,2,1:2:0:0:
420,166,67877,1,2,1:2:0:0:
308,299,68037,1,10,0:0:0:0:
492,146,68197,6,0,P|506:201|515:251,1,90.2999972442628,2|0,1:2|0:0,0:0:0:0:
357,102,68516,2,0,P|365:57|377:14,1,90.2999972442628,2|8,1:2|0:0,0:0:0:0:
266,214,68835,2,0,P|212:214|181:191,1,90.2999972442628,2|0,0:0|1:2,0:0:0:0:
276,89,69154,1,2,1:2:0:0:
320,282,69314,2,0,P|374:282|405:259,1,90.2999972442628,8|0,0:0|0:0,0:0:0:0:
198,359,69633,6,0,P|130:343|7:324,1,180.599994488526,2|8,1:2|0:0,0:0:0:0:
154,175,70111,1,2,0:0:0:0:
154,175,70191,1,8,0:0:0:0:
154,175,70271,1,4,3:0:0:0:
4,238,70431,1,4,3:0:0:0:
183,266,70590,1,8,0:0:0:0:
74,96,70750,5,6,1:2:0:0:
198,359,71069,5,6,1:2:0:0:
203,29,71388,5,8,3:0:0:0:
203,29,71468,1,8,0:0:0:0:
203,29,71548,2,8,L|214:100,3,45.1499986221314,8|8|8|8,0:0|0:0|0:0|0:0,0:0:0:0:
308,179,71867,2,0,L|314:134,3,45.1499986221314,8|8|4|4,3:0|3:0|3:0|3:0,0:0:0:0:
389,36,72186,6,0,P|442:19|488:132,1,180.599994488526,6|8,1:2|0:0,0:0:0:0:
364,261,72665,1,2,0:0:0:0:
364,261,72744,1,8,0:0:0:0:
364,261,72824,2,0,L|269:247,1,90.2999972442628,0|0,1:2|1:2,0:0:0:0:
450,347,73143,1,10,0:0:0:0:
407,162,73303,6,0,L|502:148,1,90.2999972442628,2|0,1:2|0:0,0:0:0:0:
318,10,73622,2,0,P|298:58|292:99,1,90.2999972442628,2|8,1:2|0:0,0:0:0:0:
184,260,73941,2,0,P|176:180|138:78,1,180.599994488526,2|0,0:0|1:2,0:0:0:0:
289,27,74420,2,0,P|269:75|263:116,1,90.2999972442628,8|2,0:0|0:0,0:0:0:0:
83,267,74739,5,6,1:2:0:0:
271,215,74899,1,0,1:2:0:0:
106,134,75058,1,10,0:0:0:0:
250,307,75218,2,0,L|345:284,1,90.2999972442628,6|0,1:2|0:0,0:0:0:0:
150,210,75537,5,2,1:2:0:0:
205,379,75697,1,10,0:0:0:0:
312,192,75856,2,0,L|496:237,1,180.599994488526,6|0,1:2|1:2,0:0:0:0:
288,331,76335,1,8,0:0:0:0:
288,331,76415,1,8,0:0:0:0:
288,331,76494,1,8,0:0:0:0:
234,155,76654,6,0,L|220:211,3,45.1499986221314,8|8|4|4,3:0|3:0|3:0|3:0,0:0:0:0:
155,317,76973,2,0,L|145:274,3,45.1499986221314,8|8|0|4,3:0|3:0|3:0|3:0,0:0:0:0:
136,80,77292,6,0,P|68:73|36:180,1,180.599994488526,6|10,1:2|0:0,0:0:0:0:
144,273,77771,1,0,1:2:0:0:
236,106,77931,2,0,P|282:86|339:84,1,90.2999972442628,10|0,0:0|1:2,0:0:0:0:
244,299,78250,1,10,0:0:0:0:
149,127,78409,1,0,1:2:0:0:
347,293,78569,6,0,P|393:313|450:315,1,90.2999972442628,10|0,0:0|1:2,0:0:0:0:
417,75,78888,1,10,0:0:0:0:
486,249,79048,1,0,1:2:0:0:
321,82,79207,2,0,P|302:139|296:175,1,90.2999972442628,10|0,0:0|1:2,0:0:0:0:
229,361,79526,2,10,P|220:316|185:219,1,135.449995866394,12|0,0:0|0:0,0:0:0:0:
163,153,79845,6,0,B|273:135|215:207|359:192,1,193.50000738144,6|0,1:2|0:0,0:0:0:0:
375,182,80404,1,8,0:0:0:0:
375,182,80484,1,8,0:0:0:0:
319,111,80643,1,4,3:0:0:0:
357,274,80803,1,4,3:0:0:0:
490,129,80962,5,6,1:2:0:0:
296,335,81282,5,8,3:0:0:0:
393,95,81601,6,0,P|412:138|423:190,1,81.6999978183747,6|0,1:2|0:0,0:0:0:0:
422,324,81920,2,0,L|473:314,1,40.8499989091873,8|8,0:0|0:0,0:0:0:0:
295,247,82079,2,0,L|244:237,3,40.8499989091873,8|8|8|8,0:0|0:0|0:0|0:0,0:0:0:0:
351,362,82399,6,0,L|520:334,1,163.399995636749,6|8,1:2|0:0,0:0:0:0:
377,218,82877,1,0,0:0:0:0:
279,317,83037,2,0,L|172:296,1,81.6999978183747,2|0,1:2|1:2,0:0:0:0:
292,156,83356,1,8,0:0:0:0:
390,254,83516,6,0,L|497:233,1,81.6999978183747,2|0,1:2|0:0,0:0:0:0:
385,47,83835,2,0,P|371:104|368:142,1,81.6999978183747,2|10,1:2|0:0,0:0:0:0:
255,214,84154,1,0,0:0:0:0:
255,214,84234,1,8,0:0:0:0:
255,214,84314,2,0,P|249:173|238:134,1,81.6999978183747,2|0,1:2|1:2,0:0:0:0:
404,31,84633,2,0,P|390:88|387:126,1,81.6999978183747,10|0,0:0|0:0,0:0:0:0:
242,239,84952,6,0,B|153:223|201:285|62:264,1,163.399995636749,2|8,1:2|0:0,0:0:0:0:
219,319,85431,1,0,0:0:0:0:
96,166,85590,2,0,P|40:143|-1:136,1,81.6999978183747,2|0,1:2|1:2,0:0:0:0:
98,285,85909,1,8,0:0:0:0:
186,125,86069,6,0,P|242:102|283:95,1,81.6999978183747,2|0,1:2|0:0,0:0:0:0:
370,310,86388,2,0,L|382:229,1,81.6999978183747,2|8,1:2|0:0,0:0:0:0:
246,186,86707,1,0,0:0:0:0:
246,186,86787,1,8,0:0:0:0:
246,186,86867,2,0,L|258:266,1,81.6999978183747,2|0,1:2|1:2,0:0:0:0:
389,324,87186,2,0,L|401:243,1,81.6999978183747,8|2,0:0|0:0,0:0:0:0:
397,38,87505,6,0,P|455:15|484:15,1,81.6999978183747,6|0,1:2|0:0,0:0:0:0:
512,184,87824,2,0,P|471:178|435:160,1,81.6999978183747,10|0,0:0|0:0,0:0:0:0:
318,73,88143,1,2,1:2:0:0:
256,185,88303,2,0,P|219:203|179:208,1,81.6999978183747,0|8,1:2|0:0,0:0:0:0:
190,14,88622,6,0,P|170:77|162:115,1,81.6999978183747,2|0,1:2|0:0,0:0:0:0:
100,250,88941,1,0,1:2:0:0:
24,71,89101,2,0,P|44:134|52:172,1,81.6999978183747,8|0,0:0|0:0,0:0:0:0:
202,268,89420,2,0,P|258:247|300:239,1,81.6999978183747,2|0,1:2|1:2,0:0:0:0:
81,350,89739,2,0,P|25:329|-17:321,1,81.6999978183747,10|0,0:0|0:0,0:0:0:0:
169,253,90058,6,0,P|230:222|342:202,1,163.399995636749,2|8,1:2|0:0,0:0:0:0:
418,257,90537,1,0,0:0:0:0:
265,122,90697,2,0,P|276:73|289:33,1,81.6999978183747,2|0,1:2|1:2,0:0:0:0:
341,221,91016,1,8,0:0:0:0:
452,78,91175,6,0,P|463:117|472:157,1,81.6999978183747,2|0,1:2|0:0,0:0:0:0:
416,281,91494,1,2,1:2:0:0:
299,145,91654,1,10,0:0:0:0:
273,311,91814,1,2,0:0:0:0:
300,125,91973,1,2,1:2:0:0:
341,268,92133,1,2,1:2:0:0:
310,104,92292,1,10,0:0:0:0:
184,282,92452,1,2,0:0:0:0:
167,38,92611,6,0,P|119:15|70:10,1,90.2999972442628,6|0,1:2|0:0,0:0:0:0:
35,215,92931,2,0,P|79:207|119:186,1,90.2999972442628,10|0,0:0|0:0,0:0:0:0:
249,131,93250,5,10,0:0:0:0:
33,99,93409,1,0,1:2:0:0:
200,255,93569,5,10,0:0:0:0:
167,38,93728,1,0,1:2:0:0:
35,215,93888,6,0,L|50:303,1,90.2999972442628,10|0,0:0|0:0,0:0:0:0:
211,371,94207,2,0,L|227:283,1,90.2999972442628,10|0,0:0|0:0,0:0:0:0:
358,115,94526,5,10,0:0:0:0:
165,201,94686,1,0,1:2:0:0:
369,259,94845,5,10,0:0:0:0:
183,118,95005,1,0,1:2:0:0:
314,366,95165,6,0,P|378:343|414:335,1,90.2999972442628,10|0,0:0|0:0,0:0:0:0:
508,205,95484,2,0,P|444:182|408:174,1,90.2999972442628,10|0,0:0|0:0,0:0:0:0:
242,250,95803,5,10,0:0:0:0:
426,261,95962,1,0,1:2:0:0:
269,81,96122,5,10,0:0:0:0:
330,263,96282,1,0,1:2:0:0:
422,24,96441,6,0,P|446:67|453:109,1,90.2999972442628,10|0,0:0|0:0,0:0:0:0:
241,190,96760,2,0,P|249:145|271:106,1,90.2999972442628,10|0,0:0|0:0,0:0:0:0:
402,284,97079,6,0,L|454:270,2,45.1499986221314,8|8|8,0:0|0:0|0:0,0:0:0:0:
285,356,97399,1,8,0:0:0:0:
244,350,97478,1,8,0:0:0:0:
204,344,97558,1,8,0:0:0:0:
164,338,97638,1,8,0:0:0:0:
124,332,97718,6,0,L|118:241,1,90.2999972442628,6|0,1:2|0:0,0:0:0:0:
251,103,98037,2,0,L|245:194,1,90.2999972442628,10|0,0:0|0:0,0:0:0:0:
200,30,98356,5,10,0:0:0:0:
140,174,98516,1,0,1:2:0:0:
310,48,98675,5,10,0:0:0:0:
339,230,98835,1,0,1:2:0:0:
123,64,98994,6,0,P|80:48|26:46,1,90.2999972442628,8|0,3:0|1:2,0:0:0:0:
158,235,99314,2,0,P|202:231|245:215,1,90.2999972442628,12|0,0:0|0:0,0:0:0:0:
322,153,99633,5,8,3:0:0:0:
406,203,99792,1,8,3:0:0:0:
387,300,99952,1,4,3:0:0:0:
288,311,100111,1,4,3:0:0:0:
288,311,100271,6,0,L|149:283,1,129.00000492096,6|0,1:2|0:0,0:0:0:0:
113,216,100750,1,0,0:0:0:0:
199,88,100909,2,0,P|208:133|220:221,1,129.00000492096,8|0,0:0|0:0,0:0:0:0:
404,361,101388,6,0,B|423:224|342:296|364:149,1,219.299993307495,4|2,1:2|0:0,0:0:0:0:
379,139,102824,5,2,0:0:0:0:
256,192,102904,12,0,110484,0:0:0:0:
