osu file format v14

[General]
AudioFilename: audio.mp3
AudioLeadIn: 0
PreviewTime: 59967
Countdown: 0
SampleSet: Normal
StackLeniency: 0.7
Mode: 0
LetterboxInBreaks: 0
WidescreenStoryboard: 0

[Editor]
Bookmarks: 19144
DistanceSpacing: 0.8
BeatDivisor: 3
GridSize: 4
TimelineZoom: 4.399998

[Metadata]
Title:Countdown
TitleUnicode:Countdown
Artist:Aitsuki Nakuru
ArtistUnicode:Aitsuki Nakuru
Creator:Seox
Version:Easy
Source:
Tags:
BeatmapID:1871596
BeatmapSetID:895725

[Difficulty]
HPDrainRate:5
CircleSize:4
OverallDifficulty:9
ApproachRate:9.5
SliderMultiplier:1.7
SliderTickRate:1

[Events]
//Background and Video events
0,0,"tamagosho_sky_stars_telescope_night_window_102167_1366x768.jpg",0,0
//Break Periods
2,59650,61012
2,91085,98708
//Storyboard Layer 0 (Background)
//Storyboard Layer 1 (Fail)
//Storyboard Layer 2 (Pass)
//Storyboard Layer 3 (Foreground)
//Storyboard Sound Samples

[TimingPoints]
103,260.869565217391,4,1,0,100,1,0
103,-100,4,1,0,100,0,0
3233,-133.333333333333,4,1,0,100,0,0
4276,-100,4,1,0,100,0,0
21883,-133.333333333333,4,1,0,100,0,0
23972,-100,4,1,0,100,0,0
31798,-133.333333333333,4,1,0,100,0,0
32059,-181.818181818181,4,1,0,100,0,0
32320,-100,4,1,0,100,0,0
49016,-133.333333333333,4,1,0,100,0,0
57489,-200,4,1,0,100,0,0
61537,-83.3333333333333,4,1,0,100,0,1
90885,-200,4,1,0,100,0,0
99233,-200,4,1,0,100,0,0
132494,-83.3333333333333,4,1,0,100,0,0

[HitObjects]
54,94,494,5,0,0:0:0:0:
54,94,559,1,0,0:0:0:0:
54,94,624,2,0,L|60:192,1,85
208,288,885,2,0,L|212:196,1,85
378,86,1146,5,0,0:0:0:0:
398,314,1276,1,0,0:0:0:0:
174,198,1407,1,0,0:0:0:0:
395,111,1537,1,0,0:0:0:0:
372,338,1667,1,0,0:0:0:0:
180,170,1798,1,0,0:0:0:0:
441,211,1928,1,0,0:0:0:0:
239,329,2059,1,0,0:0:0:0:
200,71,2189,5,0,0:0:0:0:
441,211,2320,1,0,0:0:0:0:
139,308,2450,1,0,0:0:0:0:
355,61,2581,1,0,0:0:0:0:
304,376,2711,2,0,P|260:334|206:331,1,85
72,176,2972,2,0,P|96:216|96:268,1,85
244,168,3233,6,0,L|320:152,2,63.7500024318696
354,238,3624,1,0,0:0:0:0:
354,238,3754,2,0,L|424:252,1,63.7500024318696
297,333,4015,1,0,0:0:0:0:
196,316,4146,2,0,P|160:280|148:244,1,63.7500024318696
146,87,4406,6,0,P|165:112|176:136,1,42.5
258,156,4537,2,0,P|243:190|224:212,1,42.5
290,275,4667,2,0,P|261:288|232:292,1,42.5
217,375,4798,2,0,P|186:355|168:336,1,42.5
108,82,4928,1,0,0:0:0:0:
387,197,5059,1,0,0:0:0:0:
68,324,5189,6,0,B|37:287|37:287|36:152,1,170
316,48,5580,2,0,L|304:148,1,85
195,345,5841,2,0,L|180:252,1,85
327,18,6102,2,0,L|316:124,1,85
183,374,6363,6,0,L|168:264,1,85
383,159,6624,2,0,P|336:196|288:196,1,85
75,102,6885,2,0,P|125:67|176:68,1,85
412,180,7145,1,0,0:0:0:0:
146,145,7276,6,0,B|136:196|144:216|144:216|136:248|136:248|148:284|140:336,1,170
345,348,7667,2,0,L|448:344,1,85
146,145,7928,2,0,L|52:140,1,85
364,368,8189,2,0,L|472:360,1,85
126,124,8450,2,0,L|16:116,1,85
432,256,8710,2,0,L|444:156,1,85
426,140,8906,1,0,0:0:0:0:
426,140,8971,1,0,0:0:0:0:
183,264,9102,1,0,0:0:0:0:
191,51,9232,1,0,0:0:0:0:
276,332,9363,6,0,B|233:351|233:351|100:344,1,170
259,86,9754,1,0,0:0:0:0:
259,86,9884,1,0,0:0:0:0:
403,252,10015,2,0,B|438:210|438:210|440:80,1,170
256,33,10406,1,0,0:0:0:0:
168,199,10536,5,0,0:0:0:0:
56,128,10667,2,0,B|36:84|36:84|48:28,1,85
258,128,10928,1,0,0:0:0:0:
100,308,11058,2,0,B|54:319|54:319|5:300,1,85
168,198,11319,1,0,0:0:0:0:
239,320,11449,1,0,0:0:0:0:
386,233,11580,6,0,L|456:228,3,42.5
313,158,11841,2,0,L|344:120,1,42.5
208,124,11971,2,0,L|200:72,3,42.5
88,148,12232,1,0,0:0:0:0:
81,197,12297,1,0,0:0:0:0:
74,246,12362,1,0,0:0:0:0:
67,296,12428,1,0,0:0:0:0:
62,345,12493,1,0,0:0:0:0:
62,345,12558,1,0,0:0:0:0:
62,345,12623,6,0,L|8:336,3,42.5
152,316,12884,2,0,L|216:308,3,42.5
74,246,13145,1,0,0:0:0:0:
252,197,13275,1,0,0:0:0:0:
252,197,13536,6,0,L|56:196,1,170
331,118,13927,2,0,P|366:184|364:212,1,85
211,348,14188,2,0,P|182:307|176:264,1,85
352,86,14449,1,0,0:0:0:0:
323,240,14580,1,0,0:0:0:0:
445,93,14710,5,0,0:0:0:0:
258,73,14840,1,0,0:0:0:0:
458,207,14971,1,0,0:0:0:0:
315,15,15101,1,0,0:0:0:0:
236,240,15232,2,0,P|241:286|279:334,1,85
309,141,15492,1,0,0:0:0:0:
88,188,15623,6,0,P|68:268|104:364,1,170
397,351,16014,2,0,L|408:256,1,85
220,129,16275,2,0,L|228:224,1,85
366,91,16536,1,0,0:0:0:0:
101,78,16666,1,0,0:0:0:0:
188,289,16797,5,0,0:0:0:0:
229,60,16927,1,0,0:0:0:0:
86,220,17058,1,0,0:0:0:0:
308,178,17188,1,0,0:0:0:0:
101,78,17320,1,0,0:0:0:0:
314,270,17450,1,0,0:0:0:0:
228,214,17581,1,0,0:0:0:0:
376,220,17711,6,0,P|396:262|317:358,1,170
128,324,18102,2,0,P|178:302|227:306,1,85
420,188,18363,2,0,P|374:206|312:199,1,85
127,163,18624,1,0,0:0:0:0:
183,82,18755,1,0,0:0:0:0:
40,148,18885,6,0,P|23:202|32:248,1,85
284,144,19146,2,0,P|293:85|284:39,1,85
127,163,19407,1,0,0:0:0:0:
227,216,19537,1,0,0:0:0:0:
132,276,19668,1,0,0:0:0:0:
228,312,19798,2,0,P|166:304|54:369,1,170
324,252,20190,2,0,P|350:293|357:351,1,85
176,208,20451,2,0,P|190:161|232:121,1,85
297,122,20646,1,0,0:0:0:0:
297,122,20711,1,0,0:0:0:0:
90,100,20842,1,0,0:0:0:0:
202,328,20972,5,0,0:0:0:0:
376,156,21103,2,0,L|393:111,1,42.5
200,80,21364,2,0,L|174:118,1,42.5
400,296,21624,2,0,L|423:251,1,42.5
90,100,21885,2,0,P|66:205|56:308,1,191.250007295609
388,291,23451,5,0,0:0:0:0:
388,291,23517,1,0,0:0:0:0:
388,291,23582,2,0,L|332:292,1,31.8750012159348
270,346,23712,2,0,L|216:348,1,31.8750012159348
161,279,23843,2,0,L|108:280,1,31.8750012159348
52,316,23975,6,0,P|40:258|124:188,1,170
248,212,24366,2,0,P|268:172|264:115,1,85
190,45,24627,1,0,0:0:0:0:
185,147,24756,1,0,0:0:0:0:
338,152,24886,1,0,0:0:0:0:
352,57,25016,1,0,0:0:0:0:
440,240,25146,6,0,L|445:139,1,85
320,260,25407,2,0,L|335:370,1,85
185,328,25668,1,0,0:0:0:0:
222,185,25798,1,0,0:0:0:0:
75,206,25929,1,0,0:0:0:0:
288,332,26060,6,0,P|319:277|312:156,1,170
160,40,26451,2,0,P|181:81|222:106,1,85
439,197,26712,1,0,0:0:0:0:
462,55,26842,1,0,0:0:0:0:
335,105,26973,1,0,0:0:0:0:
468,188,27103,6,0,P|403:208|344:312,1,170
184,352,27494,2,0,P|207:309|209:257,1,85
85,108,27755,1,0,0:0:0:0:
53,230,27886,1,0,0:0:0:0:
232,123,28016,1,0,0:0:0:0:
44,48,28147,6,0,P|83:111|196:124,1,170
364,96,28538,2,0,P|343:141|339:198,1,85
216,348,28799,2,0,P|237:301|241:244,1,85
284,31,29060,1,0,0:0:0:0:
457,135,29190,1,0,0:0:0:0:
457,135,29320,6,0,L|452:252,1,85
336,348,29581,2,0,L|325:241,1,85
214,118,29839,1,0,0:0:0:0:
161,244,29969,1,0,0:0:0:0:
100,132,30102,2,0,L|89:68,1,42.5
208,36,30233,2,0,P|261:48|292:182,1,170
161,244,30624,2,0,L|60:250,1,85
224,344,30885,2,0,L|336:340,1,85
434,244,31146,1,0,0:0:0:0:
436,353,31276,1,0,0:0:0:0:
336,204,31407,6,0,P|354:186|396:172,1,42.5
448,112,31537,2,0,P|381:132|305:103,1,127.5
309,116,31798,2,0,P|254:101|198:113,1,95.6250036478044
200,120,32059,2,0,P|160:136|112:132,1,70.1250021400452
120,136,32320,6,0,P|140:250|136:304,1,170
268,248,32711,2,0,P|256:309|241:356,1,85
32,168,32972,2,0,P|44:233|59:280,1,85
201,58,33233,1,0,0:0:0:0:
330,130,33363,1,0,0:0:0:0:
208,208,33494,6,0,L|105:206,1,85
256,352,33755,2,0,P|302:328|326:292,1,85
330,130,34018,1,0,0:0:0:0:
414,197,34148,1,0,0:0:0:0:
428,42,34278,1,0,0:0:0:0:
204,104,34409,6,0,B|184:144|184:144|195:300,1,170
96,328,34800,2,0,L|80:235,1,85
282,164,35061,1,0,0:0:0:0:
71,137,35191,1,0,0:0:0:0:
316,76,35322,2,0,P|360:112|374:158,1,85
440,308,35583,6,0,P|392:330|336:329,1,85
186,244,35844,1,0,0:0:0:0:
300,238,35974,1,0,0:0:0:0:
112,332,36104,2,0,P|92:280|92:232,1,85
178,103,36365,1,0,0:0:0:0:
300,238,36496,6,0,B|316:200|316:200|316:56,1,170
436,104,36887,2,0,L|438:216,1,85
172,200,37148,2,0,L|177:102,1,85
380,268,37409,2,0,P|352:304|288:320,1,85
72,332,37669,6,0,P|110:314|140:275,1,85
120,92,37930,2,0,P|84:136|72:188,1,85
244,140,38191,2,0,L|248:36,1,85
428,132,38452,1,0,0:0:0:0:
364,320,38582,2,0,B|336:280|336:280|332:136,1,170
252,336,38974,2,0,L|248:236,1,85
92,216,39235,2,0,L|96:112,1,85
260,48,39430,1,0,0:0:0:0:
292,64,39495,2,0,L|296:176,1,85
176,348,39756,5,0,0:0:0:0:
176,144,39887,1,0,0:0:0:0:
176,144,39952,1,0,0:0:0:0:
176,144,40017,1,0,0:0:0:0:
300,360,40147,1,0,0:0:0:0:
84,264,40278,1,0,0:0:0:0:
288,284,40408,1,0,0:0:0:0:
72,344,40539,1,0,0:0:0:0:
364,168,40669,6,0,B|384:212|384:212|384:360,1,170
160,304,41060,1,0,0:0:0:0:
192,128,41191,1,0,0:0:0:0:
364,168,41321,2,0,L|372:112,1,42.5
460,292,41582,2,0,L|464:240,1,42.5
256,332,41843,6,0,L|260:280,1,42.5
156,200,42104,2,0,L|168:148,1,42.5
52,324,42365,2,0,L|48:280,1,42.5
272,212,42626,2,0,L|280:152,1,42.5
124,108,42756,2,0,P|76:184|104:288,1,170
200,332,43147,1,0,0:0:0:0:
272,212,43278,1,0,0:0:0:0:
376,292,43408,2,0,L|368:356,1,42.5
472,184,43669,2,0,L|476:240,1,42.5
216,108,43930,6,0,L|208:168,1,42.5
360,176,44191,1,0,0:0:0:0:
261,346,44321,1,0,0:0:0:0:
261,346,44386,1,0,0:0:0:0:
261,346,44451,1,0,0:0:0:0:
168,243,44582,1,0,0:0:0:0:
86,345,44712,1,0,0:0:0:0:
300,248,44843,6,0,B|396:268|396:268|432:256|448:196,1,170
384,80,45234,1,0,0:0:0:0:
256,160,45364,1,0,0:0:0:0:
184,48,45495,2,0,P|128:48|64:160,1,170
160,256,45886,1,0,0:0:0:0:
160,256,46017,6,0,P|128:288|68:304,1,85
256,224,46277,1,0,0:0:0:0:
256,224,46408,2,0,P|272:288|264:328,1,85
336,160,46669,1,0,0:0:0:0:
320,48,46799,1,0,0:0:0:0:
224,128,46930,6,0,B|280:144|280:144|408:132,1,170
176,56,47321,2,0,P|144:84|136:132,1,85
256,228,47582,2,0,L|244:328,1,85
80,272,47842,2,0,L|92:370,1,85
340,196,48103,5,0,0:0:0:0:
160,180,48234,1,0,0:0:0:0:
160,180,48299,1,0,0:0:0:0:
160,180,48364,1,0,0:0:0:0:
400,264,48495,1,0,0:0:0:0:
164,336,48625,1,0,0:0:0:0:
276,95,48755,1,0,0:0:0:0:
256,284,48886,1,0,0:0:0:0:
88,76,49016,6,0,B|65:109|65:109|64:224,1,127.500004863739
128,295,49408,2,0,L|278:282,1,127.500004863739
392,336,49929,1,0,0:0:0:0:
460,200,50190,6,0,L|468:52,2,127.500004863739
316,124,50973,1,0,0:0:0:0:
316,124,51103,2,0,L|328:272,1,127.500004863739
232,120,51494,2,0,P|248:68|336:44,1,127.500004863739
420,136,52016,1,0,0:0:0:0:
416,232,52146,1,0,0:0:0:0:
416,324,52277,5,0,0:0:0:0:
328,272,52407,2,0,L|331:181,1,63.7500024318696
160,240,52668,1,0,0:0:0:0:
160,240,52733,1,0,0:0:0:0:
160,240,52799,2,0,L|164:152,1,63.7500024318696
56,88,53059,1,0,0:0:0:0:
56,88,53190,6,0,L|208:84,1,127.500004863739
324,160,53581,2,0,L|244:152,1,63.7500024318696
424,92,53842,2,0,B|436:128|436:128|428:244,1,127.500004863739
312,336,54364,5,0,0:0:0:0:
192,224,54625,1,0,0:0:0:0:
156,232,54690,1,0,0:0:0:0:
128,256,54755,1,0,0:0:0:0:
116,292,54821,1,0,0:0:0:0:
124,324,54885,2,0,B|96:296|96:296|96:188,1,127.500004863739
144,92,55277,6,0,P|180:104|276:76,1,127.500004863739
376,112,55668,2,0,P|384:68|380:28,1,63.7500024318696
300,192,55929,2,0,P|344:204|452:188,1,127.500004863739
384,336,56320,1,0,0:0:0:0:
384,336,56385,1,0,0:0:0:0:
384,336,56450,6,0,L|312:328,1,63.7500024318696
212,260,56711,1,0,0:0:0:0:
212,260,56842,2,0,L|132:264,1,63.7500024318696
56,324,57103,2,0,L|48:176,1,127.500004863739
256,192,57494,12,0,59450,0:0:0:0:
88,100,61537,6,0,P|196:88|256:192,1,203.999993774414
72,340,61928,2,0,P|64:280|96:232,1,101.999996887207
168,164,62189,1,0,0:0:0:0:
208,304,62319,1,0,0:0:0:0:
308,188,62450,2,0,B|328:164|328:164|328:72,1,101.999996887207
452,128,62711,6,0,B|448:212|448:212|460:256|460:256|456:352,1,203.999993774414
264,320,63102,1,0,0:0:0:0:
264,320,63232,2,0,P|320:320|380:304,1,101.999996887207
168,164,63493,1,0,0:0:0:0:
84,312,63624,6,0,B|52:280|52:280|56:88,1,203.999993774414
276,112,64015,2,0,P|280:160|260:224,1,101.999996887207
164,36,64276,1,0,0:0:0:0:
324,32,64406,1,0,0:0:0:0:
444,188,64537,2,0,B|459:166|459:166|460:75,1,101.999996887207
324,32,64798,6,0,P|272:48|204:40,1,101.999996887207
60,192,65058,1,0,0:0:0:0:
192,144,65189,1,0,0:0:0:0:
120,304,65319,2,0,P|68:308|0:288,1,101.999996887207
208,240,65580,1,0,0:0:0:0:
264,336,65710,6,0,B|408:336|408:336|436:316|436:252,1,203.999993774414
356,184,66102,2,0,P|344:120|348:64,1,101.999996887207
208,240,66363,1,0,0:0:0:0:
160,64,66493,1,0,0:0:0:0:
72,240,66623,2,0,L|68:356,1,101.999996887207
268,160,66884,6,0,B|184:152|184:152|144:160|144:160|40:152,1,203.999993774414
272,40,67276,1,0,0:0:0:0:
360,248,67406,2,0,L|480:240,1,101.999996887207
428,104,67667,1,0,0:0:0:0:
248,172,67797,6,0,P|228:224|312:352,1,203.999993774414
56,216,68189,2,0,L|44:344,1,101.999996887207
164,212,68449,1,0,0:0:0:0:
144,68,68580,1,0,0:0:0:0:
260,112,68710,2,0,L|380:96,1,101.999996887207
448,168,68971,5,0,0:0:0:0:
376,332,69102,1,0,0:0:0:0:
304,240,69232,1,0,0:0:0:0:
476,264,69362,1,0,0:0:0:0:
476,264,69428,1,0,0:0:0:0:
476,264,69493,1,0,0:0:0:0:
264,328,69623,1,0,0:0:0:0:
304,100,69754,1,0,0:0:0:0:
376,332,69884,6,0,P|256:324|148:368,1,203.999993774414
33,294,70275,2,0,P|153:286|232:320,1,203.999993774414
304,240,70667,1,0,0:0:0:0:
244,160,70797,2,0,P|176:160|128:176,1,101.999996887207
356,104,71058,6,0,P|428:104|476:120,1,101.999996887207
200,56,71319,2,0,L|208:300,1,203.999993774414
80,208,71710,1,0,0:0:0:0:
308,136,71840,1,0,0:0:0:0:
44,300,71971,2,0,P|-4:216|64:104,1,203.999993774414
296,276,72362,5,0,0:0:0:0:
80,208,72493,1,0,0:0:0:0:
320,272,72623,1,0,0:0:0:0:
128,328,72754,1,0,0:0:0:0:
128,328,72819,1,0,0:0:0:0:
128,328,72884,1,0,0:0:0:0:
192,140,73014,1,0,0:0:0:0:
376,192,73145,5,0,0:0:0:0:
376,192,73275,2,0,L|364:264,3,50.9999984436036
444,288,73536,2,0,L|448:360,3,50.9999984436036
300,336,73797,2,0,L|296:272,1,50.9999984436036
195,251,73927,2,0,L|200:184,1,50.9999984436036
300,164,74058,6,0,P|296:108|156:56,1,203.999993774414
96,239,74449,2,0,P|143:255|207:247,1,101.999996887207
300,164,74710,1,0,0:0:0:0:
376,264,74840,1,0,0:0:0:0:
456,172,74971,6,0,P|472:132|464:56,1,101.999996887207
296,40,75231,6,0,L|164:52,1,101.999996887207
48,124,75492,1,0,0:0:0:0:
168,192,75623,1,0,0:0:0:0:
56,248,75753,2,0,L|48:372,1,101.999996887207
260,344,76014,1,0,0:0:0:0:
260,344,76144,6,0,P|340:328|344:192,1,203.999993774414
218,109,76536,2,0,P|183:140|171:216,1,101.999996887207
328,52,76796,1,0,0:0:0:0:
328,52,76927,1,0,0:0:0:0:
432,168,77057,2,0,P|456:236|444:308,1,101.999996887207
164,316,77318,5,0,0:0:0:0:
304,264,77449,1,0,0:0:0:0:
96,248,77579,2,0,P|72:304|84:364,1,101.999996887207
204,200,77840,1,0,0:0:0:0:
76,140,77970,1,0,0:0:0:0:
180,92,78101,1,0,0:0:0:0:
180,92,78231,6,0,B|276:84|276:84|300:88|300:88|400:80,1,203.999993774414
460,192,78622,2,0,P|472:248|468:296,1,101.999996887207
340,348,78883,1,0,0:0:0:0:
256,268,79014,1,0,0:0:0:0:
188,352,79144,2,0,L|84:356,1,101.999996887207
48,252,79405,6,0,P|32:172|60:48,1,203.999993774414
176,56,79796,1,0,0:0:0:0:
224,160,79927,2,0,P|264:168|328:144,1,101.999996887207
368,48,80187,1,0,0:0:0:0:
448,140,80318,6,0,B|464:200|464:200|444:352,1,203.999993774414
248,328,80711,2,0,L|360:316,1,101.999996887207
156,256,80972,2,0,L|54:266,1,101.999996887207
212,144,81233,1,0,0:0:0:0:
296,232,81363,1,0,0:0:0:0:
268,76,81494,6,0,P|200:56|116:148,1,203.999993774414
156,256,81885,1,0,0:0:0:0:
156,256,81950,1,0,0:0:0:0:
156,256,82016,1,0,0:0:0:0:
212,144,82146,1,0,0:0:0:0:
296,232,82276,1,0,0:0:0:0:
400,132,82407,6,0,P|428:196|412:332,1,203.999993774414
296,184,82798,2,0,P|284:128|284:68,1,101.999996887207
160,256,83059,2,0,P|156:176|144:128,1,101.999996887207
44,104,83320,1,0,0:0:0:0:
44,104,83450,1,0,0:0:0:0:
76,308,83581,6,0,P|124:332|180:336,1,101.999996887207
408,292,83842,2,0,P|360:316|304:320,1,101.999996887207
160,256,84103,1,0,0:0:0:0:
296,192,84233,1,0,0:0:0:0:
140,120,84363,1,0,0:0:0:0:
140,120,84494,6,0,P|235:99|360:96,1,203.999993774414
460,216,84885,2,0,P|380:200|340:200,1,101.999996887207
152,248,85146,1,0,0:0:0:0:
152,248,85276,1,0,0:0:0:0:
264,360,85407,2,0,P|288:312|288:248,1,101.999996887207
68,176,85668,6,0,L|72:296,1,101.999996887207
304,192,85929,1,0,0:0:0:0:
152,248,86059,1,0,0:0:0:0:
192,144,86189,1,0,0:0:0:0:
264,360,86320,1,0,0:0:0:0:
304,192,86450,2,0,L|304:260,1,50.9999984436036
396,344,86581,6,0,L|392:132,1,203.999993774414
464,48,86972,1,0,0:0:0:0:
476,224,87102,1,0,0:0:0:0:
240,96,87233,1,0,0:0:0:0:
268,284,87363,1,0,0:0:0:0:
60,308,87494,2,0,L|56:248,1,50.9999984436036
136,120,87624,6,0,L|152:344,1,203.999993774414
460,308,88016,2,0,L|460:180,1,101.999996887207
276,216,88211,1,0,0:0:0:0:
247,197,88276,2,0,L|239:81,1,101.999996887207
136,120,88537,2,0,L|136:56,1,50.9999984436036
324,128,88668,6,0,P|232:160|156:248,1,203.999993774414
340,324,89059,2,0,L|448:312,1,101.999996887207
248,248,89320,2,0,P|216:296|216:352,1,101.999996887207
368,220,89516,1,0,0:0:0:0:
368,220,89581,2,0,L|368:104,1,101.999996887207
176,40,89842,6,0,L|188:168,1,101.999996887207
64,324,90102,2,0,L|48:212,1,101.999996887207
168,184,90363,1,0,0:0:0:0:
212,228,90450,1,0,0:0:0:0:
268,192,90537,1,0,0:0:0:0:
324,232,90624,1,0,0:0:0:0:
372,184,90711,1,0,0:0:0:0:
416,236,90798,1,0,0:0:0:0:
464,196,90885,1,0,0:0:0:0:
192,116,99233,5,0,0:0:0:0:
196,304,99494,1,0,0:0:0:0:
392,296,99755,1,0,0:0:0:0:
384,104,100016,1,0,0:0:0:0:
383,62,100276,5,0,0:0:0:0:
428,287,100537,1,0,0:0:0:0:
199,333,100798,1,0,0:0:0:0:
159,112,101059,1,0,0:0:0:0:
252,192,101189,1,0,0:0:0:0:
80,184,101320,5,0,0:0:0:0:
56,104,101581,1,0,0:0:0:0:
208,272,101842,1,0,0:0:0:0:
252,192,102102,1,0,0:0:0:0:
64,296,102363,5,0,0:0:0:0:
312,332,102624,1,0,0:0:0:0:
424,188,102885,2,0,L|436:240,1,42.5
348,128,103146,2,0,L|344:180,1,42.5
296,40,103407,5,0,0:0:0:0:
432,48,103668,1,0,0:0:0:0:
168,128,103929,1,0,0:0:0:0:
348,128,104189,1,0,0:0:0:0:
88,248,104450,5,0,0:0:0:0:
80,60,104711,1,0,0:0:0:0:
184,328,104972,1,0,0:0:0:0:
216,236,105102,1,0,0:0:0:0:
288,316,105233,1,0,0:0:0:0:
320,228,105363,1,0,0:0:0:0:
387,329,105494,6,0,P|468:257|315:257,1,340
408,264,106798,1,0,0:0:0:0:
408,264,106863,1,0,0:0:0:0:
408,264,106929,1,0,0:0:0:0:
408,264,106994,1,0,0:0:0:0:
408,264,107059,1,0,0:0:0:0:
408,264,107581,6,0,L|268:272,2,127.5
220,196,108624,2,0,P|184:256|200:320,2,127.5
304,120,109668,6,0,L|404:112,1,85
452,52,110059,1,0,0:0:0:0:
452,52,110189,2,0,P|468:96|468:152,1,85
408,252,110581,1,0,0:0:0:0:
408,252,110711,6,0,L|312:252,1,85
184,332,111102,1,0,0:0:0:0:
184,332,111168,1,0,0:0:0:0:
184,332,111233,2,0,L|96:332,1,85
60,136,111755,6,0,P|62:217|60:276,2,127.5
104,56,112668,1,0,0:0:0:0:
148,148,112798,1,0,0:0:0:0:
200,64,112929,2,0,L|296:56,1,85
336,132,113320,2,0,L|428:116,1,85
456,44,113711,1,0,0:0:0:0:
456,44,113842,2,0,L|448:100,1,42.5
428,256,114102,5,0,0:0:0:0:
428,256,114168,1,0,0:0:0:0:
428,256,114233,1,0,0:0:0:0:
428,256,114298,1,0,0:0:0:0:
428,256,114363,2,0,L|336:268,1,85
256,344,114755,1,0,0:0:0:0:
256,344,114885,6,0,L|164:328,1,85
68,320,115276,1,0,0:0:0:0:
68,320,115407,2,0,L|56:224,1,85
152,136,115929,6,0,P|168:180|140:264,2,127.5
96,60,116972,5,0,0:0:0:0:
96,60,117102,1,0,0:0:0:0:
56,136,117233,2,0,P|51:191|54:231,1,85
192,69,117755,1,0,0:0:0:0:
352,32,118016,6,0,P|352:64|348:88,1,42.5
388,176,118276,1,0,0:0:0:0:
388,176,118407,2,0,L|364:224,1,42.5
320,324,118668,1,0,0:0:0:0:
224,288,118798,1,0,0:0:0:0:
140,336,118929,1,0,0:0:0:0:
140,336,118994,1,0,0:0:0:0:
140,336,119059,6,0,L|88:336,1,42.5
176,164,119320,1,0,0:0:0:0:
224,288,119450,1,0,0:0:0:0:
296,164,119581,2,0,P|304:116|280:68,1,85
191,48,119972,1,0,0:0:0:0:
191,48,120102,6,0,L|61:49,2,127.5
272,120,121016,5,0,0:0:0:0:
272,120,121276,2,0,B|320:128|320:128|364:120,1,85
456,184,121668,2,0,P|460:216|464:276,1,85
396,340,122059,1,0,0:0:0:0:
396,340,122189,6,0,L|352:348,1,42.5
256,336,122450,1,0,0:0:0:0:
256,336,122581,2,0,L|196:336,1,42.5
132,304,122842,1,0,0:0:0:0:
56,344,122972,2,0,P|52:320|52:284,1,42.5
112,216,123233,5,0,0:0:0:0:
52,144,123363,1,0,0:0:0:0:
52,144,123429,1,0,0:0:0:0:
52,144,123494,2,0,L|48:92,1,42.5
144,76,123755,2,0,L|144:24,1,42.5
248,120,124016,2,0,L|248:72,1,42.5
352,164,124276,6,0,P|360:208|348:256,1,85
168,328,124668,1,0,0:0:0:0:
168,328,124798,2,0,P|216:296|248:292,1,85
472,336,125189,1,0,0:0:0:0:
472,336,125320,6,0,P|408:332|380:316,1,85
368,188,125711,1,0,0:0:0:0:
368,188,125842,2,0,L|368:96,1,85
204,52,126233,1,0,0:0:0:0:
204,52,126363,6,0,L|208:148,1,85
144,236,126755,1,0,0:0:0:0:
144,236,126885,2,0,P|100:248|52:248,1,85
204,328,127276,1,0,0:0:0:0:
204,328,127407,6,0,P|248:316|300:320,1,85
368,248,127798,1,0,0:0:0:0:
368,248,127929,2,0,L|368:160,1,85
460,80,128320,1,0,0:0:0:0:
460,80,128450,6,0,L|460:176,1,85
344,40,128972,1,0,0:0:0:0:
328,344,129233,1,0,0:0:0:0:
160,24,129494,5,0,0:0:0:0:
256,360,129755,1,0,0:0:0:0:
99,123,130016,5,0,0:0:0:0:
139,341,130276,1,0,0:0:0:0:
265,60,130537,5,0,0:0:0:0:
295,68,130602,1,0,0:0:0:0:
320,88,130668,1,0,0:0:0:0:
329,118,130733,1,0,0:0:0:0:
328,149,130798,1,0,0:0:0:0:
312,176,130863,1,0,0:0:0:0:
285,194,130929,1,0,0:0:0:0:
253,199,130994,1,0,0:0:0:0:
221,194,131059,1,0,0:0:0:0:
191,181,131124,1,0,0:0:0:0:
162,166,131189,1,0,0:0:0:0:
129,169,131255,1,0,0:0:0:0:
103,187,131320,1,0,0:0:0:0:
85,213,131385,1,0,0:0:0:0:
80,244,131450,1,0,0:0:0:0:
83,276,131516,1,0,0:0:0:0:
98,303,131581,5,0,0:0:0:0:
125,319,131646,1,0,0:0:0:0:
155,326,131711,1,0,0:0:0:0:
183,312,131776,1,0,0:0:0:0:
205,288,131842,1,0,0:0:0:0:
231,271,131907,1,0,0:0:0:0:
262,268,131972,1,0,0:0:0:0:
292,277,132037,1,0,0:0:0:0:
315,298,132102,1,0,0:0:0:0:
256,352,132233,1,0,0:0:0:0:
256,352,132494,6,0,B|224:324|224:324|224:156,1,203.999993774414
132,64,132885,2,0,L|128:180,1,101.999996887207
136,332,133146,1,0,0:0:0:0:
60,232,133276,1,0,0:0:0:0:
36,345,133407,2,0,P|96:329|144:333,1,101.999996887207
256,352,133668,6,0,P|360:344|408:260,1,203.999993774414
380,112,134059,1,0,0:0:0:0:
312,272,134189,1,0,0:0:0:0:
256,120,134320,2,0,L|264:8,1,101.999996887207
456,44,134581,6,0,P|488:136|408:204,1,203.999993774414
214,294,134972,2,0,P|266:274|334:274,1,101.999996887207
408,328,135233,1,0,0:0:0:0:
464,240,135363,1,0,0:0:0:0:
384,176,135494,2,0,L|392:68,1,101.999996887207
202,90,135755,6,0,L|214:302,1,203.999993774414
104,340,136146,1,0,0:0:0:0:
56,240,136276,2,0,L|48:128,1,101.999996887207
168,40,136537,1,0,0:0:0:0:
256,246,136668,2,0,B|164:238|164:238|132:250|132:250|40:238,1,203.999993774414
328,192,137059,2,0,P|348:256|332:312,1,101.999996887207
464,344,137320,2,0,P|444:280|460:224,1,101.999996887207
452,116,137581,1,0,0:0:0:0:
328,192,137711,1,0,0:0:0:0:
329,31,137842,6,0,P|423:25|447:125,1,203.999993774414
328,192,138233,1,0,0:0:0:0:
328,192,138363,2,0,L|204:184,1,101.999996887207
100,284,138624,1,0,0:0:0:0:
40,124,138755,2,0,P|52:68|180:92,1,203.999993774414
226,185,139146,2,0,L|218:305,1,101.999996887207
396,348,139407,1,0,0:0:0:0:
324,272,139537,1,0,0:0:0:0:
432,244,139668,2,0,L|436:140,1,101.999996887207
327,68,139929,6,0,L|323:284,1,203.999993774414
192,64,140320,1,0,0:0:0:0:
192,64,140385,1,0,0:0:0:0:
192,64,140450,1,0,0:0:0:0:
104,256,140581,1,0,0:0:0:0:
226,185,140711,1,0,0:0:0:0:
177,351,140842,6,0,P|213:275|337:283,1,203.999993774414
432,348,141233,2,0,B|456:328|456:328|460:240,1,101.999996887207
368,180,141494,2,0,L|368:72,1,101.999996887207
204,36,141755,2,0,L|204:144,1,101.999996887207
108,236,142016,5,0,0:0:0:0:
216,280,142146,1,0,0:0:0:0:
124,336,142276,2,0,L|4:336,1,101.999996887207
288,212,142537,2,0,P|312:264|304:328,1,101.999996887207
108,236,142798,1,0,0:0:0:0:
304,120,142929,2,0,P|372:160|424:280,1,203.999993774414
228,378,143320,6,0,P|212:334|220:266,1,101.999996887207
104,268,143581,2,0,P|140:204|172:188,1,101.999996887207
304,120,143842,2,0,L|436:120,1,101.999996887207
252,48,144102,5,0,0:0:0:0:
212,52,144168,1,0,0:0:0:0:
172,56,144233,1,0,0:0:0:0:
132,60,144298,1,0,0:0:0:0:
92,64,144363,1,0,0:0:0:0:
24,176,144494,1,0,0:0:0:0:
176,228,144624,1,0,0:0:0:0:
44,328,144755,1,0,0:0:0:0:
84,332,144820,1,0,0:0:0:0:
124,336,144885,1,0,0:0:0:0:
164,336,144950,1,0,0:0:0:0:
204,340,145016,6,0,P|264:304|268:168,1,203.999993774414
100,176,145407,2,0,P|88:232|108:288,1,101.999996887207
392,248,145668,2,0,L|400:144,1,101.999996887207
168,126,145929,2,0,L|175:227,1,101.999996887207
472,192,146189,5,0,0:0:0:0:
316,136,146320,1,0,0:0:0:0:
456,64,146450,2,0,B|472:100|472:100|472:180,1,101.999996887207
368,328,146711,2,0,P|280:336|236:332,1,101.999996887207
56,352,146972,1,0,0:0:0:0:
56,352,147102,2,0,B|88:312|88:312|88:144,1,203.999993774414
184,64,147494,2,0,L|184:180,1,101.999996887207
256,336,147755,1,0,0:0:0:0:
320,236,147885,1,0,0:0:0:0:
384,332,148016,2,0,L|488:332,1,101.999996887207
464,152,148276,6,0,P|456:216|424:248,1,101.999996887207
320,236,148537,1,0,0:0:0:0:
224,152,148668,1,0,0:0:0:0:
160,248,148798,2,0,L|164:364,1,101.999996887207
56,188,149059,1,0,0:0:0:0:
168,80,149189,6,0,P|248:64|384:80,1,203.999993774414
480,136,149581,2,0,P|424:160|388:204,1,101.999996887207
216,232,149842,2,0,P|272:256|308:300,1,101.999996887207
448,336,150102,2,0,B|464:304|464:304|464:236,1,101.999996887207
392,108,150363,6,0,P|324:140|196:96,1,203.999993774414
64,84,150755,1,0,0:0:0:0:
64,84,150885,2,0,P|80:144|72:204,1,101.999996887207
60,304,151146,1,0,0:0:0:0:
164,336,151276,6,0,P|264:344|392:328,1,203.999993774414
460,232,151668,1,0,0:0:0:0:
336,208,151798,1,0,0:0:0:0:
448,140,151929,2,0,L|456:28,1,101.999996887207
252,40,152189,2,0,L|260:152,1,101.999996887207
440,300,152450,6,0,L|452:90,1,203.999993774414
252,40,152842,1,0,0:0:0:0:
144,184,152972,1,0,0:0:0:0:
296,124,153102,1,0,0:0:0:0:
280,316,153233,1,0,0:0:0:0:
192,248,153363,6,0,P|72:256|40:340,1,203.999993774414
184,344,153755,2,0,L|300:344,1,101.999996887207
360,236,154016,1,0,0:0:0:0:
408,352,154146,1,0,0:0:0:0:
464,192,154276,2,0,B|476:168|476:168|476:76,1,101.999996887207
376,40,154537,5,0,0:0:0:0:
300,160,154668,1,0,0:0:0:0:
208,56,154798,2,0,B|156:48|156:48|100:56,1,101.999996887207
48,144,155059,1,0,0:0:0:0:
40,248,155189,1,0,0:0:0:0:
84,340,155320,2,0,L|136:332,1,50.9999984436036
284,296,155450,2,0,L|72:288,1,203.999993774414
340,232,155842,6,0,P|368:280|360:344,1,101.999996887207
436,144,156102,1,0,0:0:0:0:
464,252,156233,1,0,0:0:0:0:
344,136,156363,2,0,P|360:88|408:64,1,101.999996887207
252,176,156624,6,0,L|144:172,1,101.999996887207
96,60,156885,1,0,0:0:0:0:
52,188,157016,1,0,0:0:0:0:
233,75,157146,2,0,L|253:183,1,101.999996887207
152,340,157407,1,0,0:0:0:0:
251,175,157537,6,0,P|352:184|368:284,1,203.999993774414
152,340,157929,5,0,0:0:0:0:
373,271,158059,1,0,0:0:0:0:
92,232,158189,5,0,0:0:0:0:
408,328,158320,1,0,0:0:0:0:
168,116,158450,5,0,0:0:0:0:
168,116,158516,1,0,0:0:0:0:
168,116,158581,2,0,P|188:192|200:332,1,203.999993774414
304,72,158972,5,0,0:0:0:0:
40,220,159102,1,0,0:0:0:0:
40,220,159168,1,0,0:0:0:0:
40,220,159233,1,0,0:0:0:0:
344,208,159363,5,0,0:0:0:0:
48,84,159494,1,0,0:0:0:0:
404,132,159624,2,0,P|440:232|384:316,1,203.999993774414
88,336,160016,6,0,L|68:224,1,101.999996887207
172,96,160211,1,0,0:0:0:0:
200,104,160276,2,0,L|220:212,1,101.999996887207
348,348,160537,2,0,L|356:236,1,101.999996887207
468,52,160798,5,0,0:0:0:0:
356,80,160929,1,0,0:0:0:0:
232,252,161059,1,0,0:0:0:0:
344,208,161190,1,0,0:0:0:0:
136,328,161320,5,0,0:0:0:0:
84,320,161407,1,0,0:0:0:0:
52,276,161494,1,0,0:0:0:0:
60,224,161581,1,0,0:0:0:0:
100,184,161668,1,0,0:0:0:0:
152,192,161755,1,0,0:0:0:0:
184,232,161842,1,0,0:0:0:0:
