osu file format v14

[General]
AudioFilename: audio.mp3
AudioLeadIn: 0
PreviewTime: 66177
Countdown: 0
SampleSet: Normal
StackLeniency: 0.7
Mode: 1
LetterboxInBreaks: 0
WidescreenStoryboard: 1

[Editor]
DistanceSpacing: 0.8
BeatDivisor: 4
GridSize: 32
TimelineZoom: 4.199998

[Metadata]
Title:Azura Luno
TitleUnicode:Azura Luno
Artist:Aitsuki Nakuru
ArtistUnicode:藍月なくる
Creator:Nepoch
Version:Aitsuki Nakuru
Source:osu!
Tags:FA Featured Artist 5th Fifth Album 3rd Third Solo Nacollection-3- RD-Sounds 凋叶棕 Diao Ye Zong ティアオイエツォン pop jpop j-pop Japanese female vocals
BeatmapID:2772148
BeatmapSetID:1338234

[Difficulty]
HPDrainRate:5.5
CircleSize:2
OverallDifficulty:5.5
ApproachRate:10
SliderMultiplier:1.4
SliderTickRate:1

[Events]
//Background and Video events
0,0,"BG.jpg",0,50
//Break Periods
//Storyboard Layer 0 (Background)
//Storyboard Layer 1 (Fail)
//Storyboard Layer 2 (Pass)
//Storyboard Layer 3 (Foreground)
//Storyboard Layer 4 (Overlay)
//Storyboard Sound Samples

[TimingPoints]
14240,500,3,1,0,80,1,0
14240,-66.6666666666667,3,1,0,80,0,0
29177,-68.0272108843538,3,1,0,65,0,0
29615,-69.4444444444444,3,1,0,65,0,0
29865,-70.9219858156028,3,1,0,65,0,0
29990,-71.9424460431655,3,1,0,65,0,0
30240,-73.5294117647059,3,1,0,65,0,0
30490,-74.6268656716418,3,1,0,65,0,0
30615,-75.7575757575758,3,1,0,65,0,0
30740,-76.9230769230769,3,1,0,65,0,0
54677,-76.9230769230769,3,1,0,70,0,0
65240,-76.3358778625954,3,1,0,70,0,0
65365,-75.7575757575758,3,1,0,70,0,0
65490,-75.187969924812,3,1,0,70,0,0
65615,-74.0740740740741,3,1,0,70,0,0
65740,-72.992700729927,3,1,0,70,0,0
65865,-71.9424460431655,3,1,0,70,0,0
65990,-71.4285714285714,3,1,0,70,0,0
66240,-70.4225352112676,3,1,0,70,0,0
66365,-69.4444444444444,3,1,0,70,0,0
66490,-68.4931506849315,3,1,0,70,0,0
66615,-67.5675675675676,3,1,0,70,0,0
66708,-66.6666666666667,3,1,0,80,0,0
66740,-66.6666666666667,3,1,0,80,0,1
89240,-66.6666666666667,3,1,0,80,0,0
99240,-71.4285714285714,3,1,0,80,0,0
99490,-72.463768115942,3,1,0,80,0,0
99740,-73.5294117647059,3,1,0,80,0,0
100115,-74.6268656716418,3,1,0,80,0,0
100365,-75.7575757575758,3,1,0,80,0,0
100490,-76.3358778625954,3,1,0,80,0,0
100740,-77.5193798449612,3,1,0,80,0,0
100990,-78.740157480315,3,1,0,80,0,0
101177,-80,3,1,0,50,0,0
112927,-79.3650793650794,3,1,0,70,0,0
113115,-78.125,3,1,0,70,0,0
113240,-76.9230769230769,3,1,0,70,0,0
137177,-76.9230769230769,3,1,0,70,0,0
147740,-76.3358778625954,3,1,0,70,0,0
147865,-75.7575757575758,3,1,0,70,0,0
147990,-75.187969924812,3,1,0,70,0,0
148115,-74.0740740740741,3,1,0,70,0,0
148240,-72.992700729927,3,1,0,70,0,0
148365,-71.9424460431655,3,1,0,70,0,0
148490,-71.4285714285714,3,1,0,70,0,0
148740,-70.4225352112676,3,1,0,70,0,0
148865,-69.4444444444444,3,1,0,70,0,0
148990,-68.4931506849315,3,1,0,70,0,0
149115,-67.5675675675676,3,1,0,70,0,0
149208,-66.6666666666667,3,1,0,80,0,0
149240,-66.6666666666667,3,1,0,80,0,1
171740,-66.6666666666667,3,1,0,80,0,0
201677,-66.6666666666667,3,1,0,70,0,0
212240,-67.5675675675676,3,1,0,70,0,0
212490,-68.4931506849315,3,1,0,70,0,0
212615,-68.9655172413793,3,1,0,70,0,0
212865,-69.9300699300699,3,1,0,70,0,0
212990,-70.4225352112676,3,1,0,70,0,0
213240,-71.4285714285714,3,1,0,70,0,0
213490,-72.463768115942,3,1,0,70,0,0
213677,-74.0740740740741,3,1,0,60,0,0
225240,-80,3,1,0,60,0,0
236177,-80,3,1,0,65,0,0
248177,-76.9230769230769,3,1,0,70,0,0
252740,-76.3358778625954,3,1,0,70,0,0
252865,-75.7575757575758,3,1,0,70,0,0
252990,-75.187969924812,3,1,0,70,0,0
253115,-74.0740740740741,3,1,0,70,0,0
253240,-72.992700729927,3,1,0,70,0,0
253365,-71.9424460431655,3,1,0,70,0,0
253490,-71.4285714285714,3,1,0,70,0,0
253740,-70.4225352112676,3,1,0,70,0,0
253865,-69.4444444444444,3,1,0,70,0,0
253990,-68.4931506849315,3,1,0,70,0,0
254115,-67.5675675675676,3,1,0,70,0,0
254208,-66.6666666666667,3,1,0,80,0,0
254240,-66.6666666666667,3,1,0,80,0,1
276740,-66.6666666666667,3,1,0,80,0,0
288677,-66.6666666666667,3,1,0,65,0,0
315990,-67.5675675675676,3,1,0,65,0,0
316115,-68.4931506849315,3,1,0,65,0,0
316240,-69.4444444444444,3,1,0,65,0,0
316365,-70.4225352112676,3,1,0,65,0,0
316490,-71.4285714285714,3,1,0,65,0,0
316740,-72.463768115942,3,1,0,65,0,0
316990,-73.5294117647059,3,1,0,65,0,0
317177,-74.0740740740741,3,1,0,40,0,0
320177,-80,3,1,0,25,0,0

[HitObjects]
256,96,14240,5,4,0:0:0:0:
256,192,14740,1,8,0:0:0:0:
256,192,14990,1,8,0:0:0:0:
256,192,15240,1,0,0:0:0:0:
256,192,15365,1,0,0:0:0:0:
256,192,15490,1,8,0:0:0:0:
256,192,15615,1,8,0:0:0:0:
256,192,15740,1,0,0:0:0:0:
256,192,16240,1,8,0:0:0:0:
256,192,16490,1,0,0:0:0:0:
256,192,16740,1,0,0:0:0:0:
256,192,16865,1,8,0:0:0:0:
256,192,16990,1,0,0:0:0:0:
256,192,17240,1,8,0:0:0:0:
256,192,17740,1,0,0:0:0:0:
256,192,17990,1,8,0:0:0:0:
256,192,18240,1,8,0:0:0:0:
256,192,18365,1,0,0:0:0:0:
256,192,18490,1,8,0:0:0:0:
256,192,18740,1,0,0:0:0:0:
256,192,18990,1,0,0:0:0:0:
256,192,19240,1,8,0:0:0:0:
256,192,19490,1,0,0:0:0:0:
256,192,19740,1,8,0:0:0:0:
256,192,19865,1,0,0:0:0:0:
256,192,19990,1,8,0:0:0:0:
256,192,20115,1,8,0:0:0:0:
256,96,20240,1,4,0:0:0:0:
256,192,20740,1,8,0:0:0:0:
256,192,20990,1,0,0:0:0:0:
256,192,21240,1,8,0:0:0:0:
256,192,21365,1,8,0:0:0:0:
256,192,21490,1,0,0:0:0:0:
256,192,21740,1,8,0:0:0:0:
256,192,22240,1,0,0:0:0:0:
256,192,22490,1,8,0:0:0:0:
256,192,22740,1,0,0:0:0:0:
256,192,22865,1,0,0:0:0:0:
256,192,22990,1,0,0:0:0:0:
256,192,23240,1,8,0:0:0:0:
256,192,23740,1,0,0:0:0:0:
256,192,23865,1,0,0:0:0:0:
256,192,23990,1,8,0:0:0:0:
256,192,24115,1,0,0:0:0:0:
256,192,24240,1,8,0:0:0:0:
256,192,24365,1,0,0:0:0:0:
256,192,24615,1,0,0:0:0:0:
256,96,24740,1,12,0:0:0:0:
256,192,25115,1,8,0:0:0:0:
256,192,25240,1,0,0:0:0:0:
256,192,25365,1,0,0:0:0:0:
256,192,25490,1,8,0:0:0:0:
256,192,25740,1,8,0:0:0:0:
256,192,25990,1,0,0:0:0:0:
256,192,26240,1,8,0:0:0:0:
256,192,26365,1,0,0:0:0:0:
256,192,26615,1,8,0:0:0:0:
256,192,26865,1,0,0:0:0:0:
256,192,26990,1,8,0:0:0:0:
256,192,27240,1,8,0:0:0:0:
256,192,27365,1,0,0:0:0:0:
256,192,27490,1,0,0:0:0:0:
256,96,27740,1,12,0:0:0:0:
256,192,27990,1,0,0:0:0:0:
256,192,28115,1,8,0:0:0:0:
256,192,28365,1,0,0:0:0:0:
256,192,28490,1,0,0:0:0:0:
256,192,28740,1,8,0:0:0:0:
256,192,28865,1,8,0:0:0:0:
256,192,28990,1,0,0:0:0:0:
256,192,29240,1,8,0:0:0:0:
256,192,29615,1,8,0:0:0:0:
256,192,29865,1,0,0:0:0:0:
256,192,29990,1,8,0:0:0:0:
256,192,30240,1,8,0:0:0:0:
256,192,30490,1,0,0:0:0:0:
256,192,30615,1,0,0:0:0:0:
256,192,30740,1,8,0:0:0:0:
256,192,31115,1,0,0:0:0:0:
256,192,31365,1,8,0:0:0:0:
256,192,31490,1,0,0:0:0:0:
256,192,31740,1,0,0:0:0:0:
256,192,31990,1,8,0:0:0:0:
256,192,32240,1,0,0:0:0:0:
256,192,32615,1,8,0:0:0:0:
256,192,32865,1,0,0:0:0:0:
256,192,32990,1,8,0:0:0:0:
256,192,33240,1,8,0:0:0:0:
256,192,33490,1,0,0:0:0:0:
256,192,33740,1,8,0:0:0:0:
256,192,34115,5,0,0:0:0:0:
256,192,34365,5,8,0:0:0:0:
256,192,34490,1,0,0:0:0:0:
256,192,34740,1,0,0:0:0:0:
256,192,34990,1,8,0:0:0:0:
256,192,35240,1,0,0:0:0:0:
256,192,35615,1,8,0:0:0:0:
256,192,35865,1,8,0:0:0:0:
256,192,35990,1,0,0:0:0:0:
256,192,36240,1,8,0:0:0:0:
256,192,36365,1,0,0:0:0:0:
256,192,36490,1,8,0:0:0:0:
256,192,36740,1,0,0:0:0:0:
256,192,37115,1,8,0:0:0:0:
256,192,37365,1,0,0:0:0:0:
256,192,37490,1,8,0:0:0:0:
256,192,37740,1,0,0:0:0:0:
256,192,37990,1,0,0:0:0:0:
256,192,38240,1,8,0:0:0:0:
256,192,38615,1,0,0:0:0:0:
256,192,38865,1,8,0:0:0:0:
256,192,38990,1,0,0:0:0:0:
256,192,39240,1,8,0:0:0:0:
256,192,39365,1,8,0:0:0:0:
256,192,39490,1,0,0:0:0:0:
256,192,39740,1,8,0:0:0:0:
256,192,40115,1,8,0:0:0:0:
256,192,40365,1,0,0:0:0:0:
256,192,40490,1,8,0:0:0:0:
256,192,40740,1,8,0:0:0:0:
256,192,40990,1,0,0:0:0:0:
256,192,41240,1,8,0:0:0:0:
256,192,41740,1,0,0:0:0:0:
256,192,41990,1,8,0:0:0:0:
256,192,42240,1,0,0:0:0:0:
256,192,42740,1,8,0:0:0:0:
256,192,43115,1,8,0:0:0:0:
256,192,43365,1,0,0:0:0:0:
256,192,43490,1,8,0:0:0:0:
256,192,43740,1,0,0:0:0:0:
256,192,43990,1,8,0:0:0:0:
256,192,44240,1,8,0:0:0:0:
256,192,44615,1,0,0:0:0:0:
256,192,44865,1,8,0:0:0:0:
256,192,44990,1,0,0:0:0:0:
256,192,45240,1,0,0:0:0:0:
256,192,45490,1,8,0:0:0:0:
256,192,45615,1,0,0:0:0:0:
256,192,45740,1,8,0:0:0:0:
256,192,46115,1,0,0:0:0:0:
256,192,46365,1,8,0:0:0:0:
256,192,46490,1,8,0:0:0:0:
256,192,46740,1,0,0:0:0:0:
256,192,46865,1,0,0:0:0:0:
256,192,46990,1,8,0:0:0:0:
256,192,47115,1,0,0:0:0:0:
256,192,47240,1,8,0:0:0:0:
256,192,47490,1,0,0:0:0:0:
256,192,47615,1,8,0:0:0:0:
256,192,47865,1,8,0:0:0:0:
256,192,47990,1,0,0:0:0:0:
256,192,48240,1,0,0:0:0:0:
256,192,48490,1,0,0:0:0:0:
256,192,48740,1,8,0:0:0:0:
256,192,49115,1,0,0:0:0:0:
256,192,49365,1,0,0:0:0:0:
256,192,49490,1,0,0:0:0:0:
256,192,49740,1,8,0:0:0:0:
256,192,49990,1,0,0:0:0:0:
256,192,50240,1,8,0:0:0:0:
256,192,50615,1,0,0:0:0:0:
256,192,50865,1,8,0:0:0:0:
256,192,50990,1,0,0:0:0:0:
256,192,51240,1,0,0:0:0:0:
256,192,51490,1,8,0:0:0:0:
256,192,51740,1,0,0:0:0:0:
256,192,52115,1,8,0:0:0:0:
256,192,52365,1,0,0:0:0:0:
256,192,52490,1,8,0:0:0:0:
256,192,52740,1,0,0:0:0:0:
256,192,52990,1,8,0:0:0:0:
256,192,53240,1,0,0:0:0:0:
256,192,53740,1,0,0:0:0:0:
256,192,53990,1,8,0:0:0:0:
256,192,54490,1,0,0:0:0:0:
256,192,54615,1,0,0:0:0:0:
256,96,54740,1,12,0:0:0:0:
256,192,54990,1,0,0:0:0:0:
256,192,55240,1,0,0:0:0:0:
256,192,55490,1,8,0:0:0:0:
256,192,55740,1,0,0:0:0:0:
256,192,55865,1,0,0:0:0:0:
256,192,56115,1,0,0:0:0:0:
256,192,56240,1,8,0:0:0:0:
256,192,56490,1,0,0:0:0:0:
256,192,56740,1,0,0:0:0:0:
256,192,56990,1,8,0:0:0:0:
256,192,57240,1,8,0:0:0:0:
256,192,57365,1,8,0:0:0:0:
256,192,57615,1,0,0:0:0:0:
256,96,57740,1,12,0:0:0:0:
256,192,57990,1,0,0:0:0:0:
256,192,58240,1,8,0:0:0:0:
256,192,58365,1,0,0:0:0:0:
256,192,58490,1,8,0:0:0:0:
256,192,58740,1,0,0:0:0:0:
256,192,58865,1,8,0:0:0:0:
256,192,59115,1,0,0:0:0:0:
256,192,59240,1,8,0:0:0:0:
256,192,59365,1,8,0:0:0:0:
256,192,59490,1,0,0:0:0:0:
256,192,59740,1,0,0:0:0:0:
256,192,59865,1,0,0:0:0:0:
256,192,59990,1,8,0:0:0:0:
256,192,60240,1,0,0:0:0:0:
256,192,60365,1,8,0:0:0:0:
256,192,60615,1,8,0:0:0:0:
256,96,60740,1,4,0:0:0:0:
256,192,61115,1,0,0:0:0:0:
256,192,61240,1,0,0:0:0:0:
256,96,61490,1,12,0:0:0:0:
256,192,61865,1,0,0:0:0:0:
256,192,61990,1,8,0:0:0:0:
256,96,62240,1,4,0:0:0:0:
256,192,62615,1,8,0:0:0:0:
256,192,62740,1,0,0:0:0:0:
256,96,62990,1,12,0:0:0:0:
256,192,63240,1,0,0:0:0:0:
256,192,63365,1,0,0:0:0:0:
256,192,63490,1,8,0:0:0:0:
256,192,63615,1,8,0:0:0:0:
256,192,63740,1,0,0:0:0:0:
256,192,64115,1,0,0:0:0:0:
256,96,64490,1,12,0:0:0:0:
256,192,64740,1,0,0:0:0:0:
256,192,64990,1,8,0:0:0:0:
256,192,65240,1,0,0:0:0:0:
256,192,65365,1,0,0:0:0:0:
256,192,65490,1,8,0:0:0:0:
256,192,65615,1,0,0:0:0:0:
256,192,65740,1,8,0:0:0:0:
256,192,65865,1,8,0:0:0:0:
256,192,65990,1,0,0:0:0:0:
256,192,66240,1,8,0:0:0:0:
256,192,66365,1,0,0:0:0:0:
256,192,66490,1,8,0:0:0:0:
256,192,66615,1,0,0:0:0:0:
256,96,66740,1,12,0:0:0:0:
256,192,67115,1,0,0:0:0:0:
256,192,67240,1,0,0:0:0:0:
256,192,67490,1,8,0:0:0:0:
256,192,67740,1,8,0:0:0:0:
256,192,67865,1,0,0:0:0:0:
256,192,67990,1,0,0:0:0:0:
256,192,68115,1,0,0:0:0:0:
256,192,68240,1,8,0:0:0:0:
256,192,68615,1,0,0:0:0:0:
256,192,68740,1,8,0:0:0:0:
256,192,68865,1,0,0:0:0:0:
256,192,68990,1,8,0:0:0:0:
256,192,69240,1,0,0:0:0:0:
256,192,69365,1,0,0:0:0:0:
256,192,69490,1,8,0:0:0:0:
256,192,69615,1,0,0:0:0:0:
256,192,69740,1,8,0:0:0:0:
256,192,70115,1,8,0:0:0:0:
256,192,70240,1,0,0:0:0:0:
256,192,70490,1,8,0:0:0:0:
256,192,70740,1,0,0:0:0:0:
256,192,70865,1,0,0:0:0:0:
256,192,70990,1,8,0:0:0:0:
256,192,71240,1,0,0:0:0:0:
256,192,71615,1,8,0:0:0:0:
256,192,71740,1,0,0:0:0:0:
256,192,71990,1,8,0:0:0:0:
256,192,72240,1,8,0:0:0:0:
256,192,72365,1,0,0:0:0:0:
256,192,72490,1,0,0:0:0:0:
256,96,72740,1,12,0:0:0:0:
256,192,73115,1,0,0:0:0:0:
256,192,73240,1,8,0:0:0:0:
256,192,73490,1,8,0:0:0:0:
256,192,73740,1,0,0:0:0:0:
256,192,73865,1,0,0:0:0:0:
256,192,73990,1,8,0:0:0:0:
256,192,74240,1,0,0:0:0:0:
256,192,74615,1,8,0:0:0:0:
256,192,74740,1,0,0:0:0:0:
256,192,74990,1,8,0:0:0:0:
256,192,75240,1,0,0:0:0:0:
256,192,75365,1,8,0:0:0:0:
256,192,75490,1,0,0:0:0:0:
256,192,75740,1,8,0:0:0:0:
256,192,75990,1,8,0:0:0:0:
256,192,76115,1,0,0:0:0:0:
256,192,76365,1,0,0:0:0:0:
256,192,76490,1,8,0:0:0:0:
256,192,76740,1,0,0:0:0:0:
256,192,76865,1,0,0:0:0:0:
256,192,76990,1,8,0:0:0:0:
256,96,77240,1,4,0:0:0:0:
256,192,77615,1,8,0:0:0:0:
256,192,77865,1,0,0:0:0:0:
256,192,77990,1,8,0:0:0:0:
256,192,78240,1,8,0:0:0:0:
256,192,78365,1,0,0:0:0:0:
256,192,78490,1,8,0:0:0:0:
256,192,78615,1,0,0:0:0:0:
256,96,78740,1,12,0:0:0:0:
256,192,79115,1,0,0:0:0:0:
256,192,79240,1,0,0:0:0:0:
256,192,79490,1,8,0:0:0:0:
256,192,79740,1,8,0:0:0:0:
256,192,79865,1,0,0:0:0:0:
256,192,79990,1,8,0:0:0:0:
256,192,80115,1,8,0:0:0:0:
256,192,80240,1,0,0:0:0:0:
256,192,80615,1,0,0:0:0:0:
256,192,80740,1,8,0:0:0:0:
256,192,80865,1,0,0:0:0:0:
256,192,80990,1,8,0:0:0:0:
256,192,81240,1,0,0:0:0:0:
256,192,81365,1,0,0:0:0:0:
256,192,81490,1,8,0:0:0:0:
256,192,81615,1,0,0:0:0:0:
256,192,81740,1,8,0:0:0:0:
256,192,82115,1,0,0:0:0:0:
256,192,82240,1,8,0:0:0:0:
256,192,82490,1,0,0:0:0:0:
256,192,82740,1,0,0:0:0:0:
256,192,82990,1,8,0:0:0:0:
256,192,83240,1,8,0:0:0:0:
256,192,83615,1,0,0:0:0:0:
256,192,83740,1,0,0:0:0:0:
256,192,83990,1,8,0:0:0:0:
256,192,84240,1,8,0:0:0:0:
256,192,84365,1,8,0:0:0:0:
256,192,84490,1,0,0:0:0:0:
256,96,84740,1,12,0:0:0:0:
256,192,85115,1,0,0:0:0:0:
256,192,85240,1,8,0:0:0:0:
256,192,85365,1,0,0:0:0:0:
256,192,85490,1,8,0:0:0:0:
256,192,85740,1,0,0:0:0:0:
256,192,85990,1,8,0:0:0:0:
256,192,86115,1,0,0:0:0:0:
256,192,86240,1,8,0:0:0:0:
256,192,86490,1,0,0:0:0:0:
256,192,86615,1,8,0:0:0:0:
256,192,86740,1,0,0:0:0:0:
256,192,86990,1,8,0:0:0:0:
256,192,87240,1,0,0:0:0:0:
256,192,87365,1,0,0:0:0:0:
256,192,87490,1,8,0:0:0:0:
256,192,87615,1,0,0:0:0:0:
256,192,87740,1,8,0:0:0:0:
256,192,88115,1,0,0:0:0:0:
256,192,88240,1,0,0:0:0:0:
256,192,88490,1,8,0:0:0:0:
256,192,88740,1,8,0:0:0:0:
256,192,88990,1,0,0:0:0:0:
256,192,89240,1,8,0:0:0:0:
256,192,89615,1,8,0:0:0:0:
256,192,89865,1,8,0:0:0:0:
256,192,89990,1,0,0:0:0:0:
256,192,90240,1,8,0:0:0:0:
256,192,90365,1,8,0:0:0:0:
256,192,90490,1,0,0:0:0:0:
256,192,90740,1,8,0:0:0:0:
256,192,91115,1,8,0:0:0:0:
256,192,91365,1,0,0:0:0:0:
256,192,91490,1,0,0:0:0:0:
256,192,91740,1,8,0:0:0:0:
256,192,91990,1,0,0:0:0:0:
256,192,92240,1,8,0:0:0:0:
256,192,92615,1,8,0:0:0:0:
256,192,92865,1,0,0:0:0:0:
256,192,92990,1,8,0:0:0:0:
256,192,93240,1,8,0:0:0:0:
256,192,93490,1,0,0:0:0:0:
256,192,93740,1,8,0:0:0:0:
256,192,94115,1,8,0:0:0:0:
256,192,94240,1,0,0:0:0:0:
256,192,94490,1,0,0:0:0:0:
256,192,94740,1,8,0:0:0:0:
256,192,94990,1,0,0:0:0:0:
256,192,95240,1,8,0:0:0:0:
256,192,95615,1,8,0:0:0:0:
256,192,95865,1,0,0:0:0:0:
256,192,95990,1,0,0:0:0:0:
256,192,96240,1,8,0:0:0:0:
256,192,96490,1,0,0:0:0:0:
256,192,96740,1,8,0:0:0:0:
256,192,97115,1,8,0:0:0:0:
256,192,97365,1,8,0:0:0:0:
256,192,97490,1,0,0:0:0:0:
256,192,97740,1,8,0:0:0:0:
256,192,97865,1,8,0:0:0:0:
256,192,97990,1,8,0:0:0:0:
256,96,98240,1,4,0:0:0:0:
256,192,99240,1,0,0:0:0:0:
256,192,99490,1,8,0:0:0:0:
256,96,99740,1,4,0:0:0:0:
256,192,100115,1,8,0:0:0:0:
256,192,100365,1,0,0:0:0:0:
256,192,100490,1,0,0:0:0:0:
256,192,100740,1,8,0:0:0:0:
256,192,100990,1,0,0:0:0:0:
256,192,101240,1,8,0:0:0:0:
256,192,101615,1,0,0:0:0:0:
256,192,101865,1,0,0:0:0:0:
256,192,101990,1,8,0:0:0:0:
256,192,102240,1,0,0:0:0:0:
256,192,102490,1,8,0:0:0:0:
256,192,102740,1,0,0:0:0:0:
256,192,103115,1,8,0:0:0:0:
256,192,103365,1,0,0:0:0:0:
256,192,103490,1,8,0:0:0:0:
256,192,103740,1,8,0:0:0:0:
256,192,103990,1,8,0:0:0:0:
256,192,104240,1,0,0:0:0:0:
256,192,104615,1,8,0:0:0:0:
256,192,104865,1,0,0:0:0:0:
256,192,104990,1,8,0:0:0:0:
256,192,105240,1,0,0:0:0:0:
256,192,105490,1,0,0:0:0:0:
256,192,105740,1,8,0:0:0:0:
256,192,106115,1,8,0:0:0:0:
256,192,106365,1,0,0:0:0:0:
256,192,106490,1,8,0:0:0:0:
256,192,106740,1,8,0:0:0:0:
256,192,106865,1,8,0:0:0:0:
256,192,106990,1,0,0:0:0:0:
256,192,107240,1,8,0:0:0:0:
256,192,107615,1,0,0:0:0:0:
256,192,107865,1,0,0:0:0:0:
256,192,107990,1,8,0:0:0:0:
256,192,108240,1,0,0:0:0:0:
256,192,108740,1,8,0:0:0:0:
256,192,109115,1,0,0:0:0:0:
256,192,109365,1,0,0:0:0:0:
256,192,109490,1,8,0:0:0:0:
256,192,109740,1,8,0:0:0:0:
256,192,110240,1,8,0:0:0:0:
256,192,110615,1,0,0:0:0:0:
256,192,110865,1,0,0:0:0:0:
256,192,110990,1,8,0:0:0:0:
256,192,111240,1,0,0:0:0:0:
256,192,111490,1,8,0:0:0:0:
256,192,111740,1,0,0:0:0:0:
256,192,112115,1,0,0:0:0:0:
256,192,112365,1,0,0:0:0:0:
256,192,112490,1,8,0:0:0:0:
256,192,112740,1,0,0:0:0:0:
256,192,112990,1,8,0:0:0:0:
256,192,113115,1,0,0:0:0:0:
256,192,113240,1,8,0:0:0:0:
256,192,113615,1,0,0:0:0:0:
256,192,113990,1,8,0:0:0:0:
256,192,114240,1,8,0:0:0:0:
256,192,114490,1,0,0:0:0:0:
256,192,114740,1,8,0:0:0:0:
256,192,115490,1,0,0:0:0:0:
256,192,115990,1,8,0:0:0:0:
256,192,116240,1,8,0:0:0:0:
256,192,116615,1,0,0:0:0:0:
256,192,116865,1,0,0:0:0:0:
256,192,116990,1,8,0:0:0:0:
256,192,117490,1,0,0:0:0:0:
256,192,117740,1,8,0:0:0:0:
256,192,118115,1,0,0:0:0:0:
256,192,118365,1,8,0:0:0:0:
256,192,118490,1,0,0:0:0:0:
256,192,118990,1,0,0:0:0:0:
256,192,119240,1,8,0:0:0:0:
256,192,119615,1,0,0:0:0:0:
256,192,119865,1,0,0:0:0:0:
256,192,119990,1,0,0:0:0:0:
256,192,120240,1,8,0:0:0:0:
256,192,120490,1,0,0:0:0:0:
256,192,120740,1,8,0:0:0:0:
256,192,120990,1,0,0:0:0:0:
256,192,121115,1,8,0:0:0:0:
256,192,121365,1,8,0:0:0:0:
256,192,121490,1,8,0:0:0:0:
256,192,121740,1,0,0:0:0:0:
256,192,122240,1,8,0:0:0:0:
256,192,122615,1,0,0:0:0:0:
256,192,122865,1,8,0:0:0:0:
256,192,122990,1,0,0:0:0:0:
256,192,123240,1,0,0:0:0:0:
256,192,123490,1,8,0:0:0:0:
256,192,123740,1,0,0:0:0:0:
256,192,124115,1,0,0:0:0:0:
256,192,124240,1,8,0:0:0:0:
256,192,124490,1,8,0:0:0:0:
256,192,124740,1,0,0:0:0:0:
256,192,124990,1,0,0:0:0:0:
256,192,125240,1,8,0:0:0:0:
256,192,125615,1,0,0:0:0:0:
256,192,125865,1,0,0:0:0:0:
256,192,125990,1,8,0:0:0:0:
256,192,126240,1,0,0:0:0:0:
256,192,126490,1,8,0:0:0:0:
256,192,126740,1,0,0:0:0:0:
256,192,127115,1,0,0:0:0:0:
256,192,127365,1,8,0:0:0:0:
256,192,127490,1,0,0:0:0:0:
256,192,127740,1,0,0:0:0:0:
256,192,127990,1,8,0:0:0:0:
256,192,128115,1,0,0:0:0:0:
256,192,128240,1,8,0:0:0:0:
256,192,128615,1,0,0:0:0:0:
256,192,128865,1,8,0:0:0:0:
256,192,128990,1,0,0:0:0:0:
256,192,129240,1,0,0:0:0:0:
256,192,129490,1,8,0:0:0:0:
256,192,129615,1,0,0:0:0:0:
256,192,129740,1,8,0:0:0:0:
256,192,130115,1,0,0:0:0:0:
256,192,130365,1,8,0:0:0:0:
256,192,130490,1,0,0:0:0:0:
256,192,130740,1,0,0:0:0:0:
256,192,130865,1,8,0:0:0:0:
256,192,131115,1,8,0:0:0:0:
256,192,131240,1,0,0:0:0:0:
256,192,131615,1,0,0:0:0:0:
256,192,131865,1,8,0:0:0:0:
256,192,131990,1,0,0:0:0:0:
256,192,132240,1,0,0:0:0:0:
256,192,132490,1,8,0:0:0:0:
256,192,132740,1,0,0:0:0:0:
256,192,133115,1,8,0:0:0:0:
256,192,133365,1,0,0:0:0:0:
256,192,133490,1,8,0:0:0:0:
256,192,133740,1,0,0:0:0:0:
256,192,133990,1,0,0:0:0:0:
256,192,134240,1,8,0:0:0:0:
256,192,134615,1,0,0:0:0:0:
256,192,134865,1,8,0:0:0:0:
256,192,134990,1,0,0:0:0:0:
256,192,135240,1,0,0:0:0:0:
256,192,135490,1,8,0:0:0:0:
256,192,135740,1,0,0:0:0:0:
256,192,136365,1,0,0:0:0:0:
256,192,136490,1,8,0:0:0:0:
256,192,136990,1,0,0:0:0:0:
256,192,137115,1,0,0:0:0:0:
256,96,137240,1,12,0:0:0:0:
256,192,137490,1,0,0:0:0:0:
256,192,137740,1,0,0:0:0:0:
256,192,137990,1,8,0:0:0:0:
256,192,138240,1,0,0:0:0:0:
256,192,138365,1,0,0:0:0:0:
256,192,138615,1,0,0:0:0:0:
256,192,138740,1,8,0:0:0:0:
256,192,138990,1,0,0:0:0:0:
256,192,139240,1,0,0:0:0:0:
256,192,139490,1,8,0:0:0:0:
256,192,139740,1,8,0:0:0:0:
256,192,139865,1,8,0:0:0:0:
256,192,140115,1,0,0:0:0:0:
256,96,140240,1,12,0:0:0:0:
256,192,140490,1,0,0:0:0:0:
256,192,140740,1,8,0:0:0:0:
256,192,140865,1,0,0:0:0:0:
256,192,140990,1,8,0:0:0:0:
256,192,141240,1,0,0:0:0:0:
256,192,141365,1,8,0:0:0:0:
256,192,141615,1,0,0:0:0:0:
256,192,141740,1,8,0:0:0:0:
256,192,141865,1,8,0:0:0:0:
256,192,141990,1,0,0:0:0:0:
256,192,142240,1,0,0:0:0:0:
256,192,142365,1,0,0:0:0:0:
256,192,142490,1,8,0:0:0:0:
256,192,142740,1,0,0:0:0:0:
256,192,142865,1,8,0:0:0:0:
256,192,143115,1,8,0:0:0:0:
256,96,143240,1,4,0:0:0:0:
256,192,143615,1,0,0:0:0:0:
256,192,143740,1,0,0:0:0:0:
256,96,143990,1,12,0:0:0:0:
256,192,144365,1,0,0:0:0:0:
256,192,144490,1,8,0:0:0:0:
256,96,144740,1,4,0:0:0:0:
256,192,145115,1,8,0:0:0:0:
256,192,145240,1,0,0:0:0:0:
256,96,145490,1,12,0:0:0:0:
256,192,145740,1,0,0:0:0:0:
256,192,145865,1,0,0:0:0:0:
256,192,145990,1,8,0:0:0:0:
256,192,146115,1,8,0:0:0:0:
256,192,146240,1,0,0:0:0:0:
256,192,146615,1,0,0:0:0:0:
256,96,146990,1,12,0:0:0:0:
256,192,147240,1,0,0:0:0:0:
256,192,147490,1,8,0:0:0:0:
256,192,147740,1,0,0:0:0:0:
256,192,147865,1,0,0:0:0:0:
256,192,147990,1,8,0:0:0:0:
256,192,148115,1,0,0:0:0:0:
256,192,148240,1,8,0:0:0:0:
256,192,148365,1,8,0:0:0:0:
256,192,148490,1,0,0:0:0:0:
256,192,148740,1,8,0:0:0:0:
256,192,148865,1,0,0:0:0:0:
256,192,148990,1,8,0:0:0:0:
256,192,149115,1,0,0:0:0:0:
256,96,149240,1,12,0:0:0:0:
256,192,149615,1,0,0:0:0:0:
256,192,149740,1,0,0:0:0:0:
256,192,149990,1,8,0:0:0:0:
256,192,150240,1,8,0:0:0:0:
256,192,150365,1,0,0:0:0:0:
256,192,150490,1,0,0:0:0:0:
256,192,150615,1,0,0:0:0:0:
256,192,150740,1,8,0:0:0:0:
256,192,151115,1,0,0:0:0:0:
256,192,151240,1,8,0:0:0:0:
256,192,151365,1,0,0:0:0:0:
256,192,151490,1,8,0:0:0:0:
256,192,151740,1,0,0:0:0:0:
256,192,151865,1,0,0:0:0:0:
256,192,151990,1,8,0:0:0:0:
256,192,152115,1,0,0:0:0:0:
256,192,152240,1,8,0:0:0:0:
256,192,152615,1,0,0:0:0:0:
256,192,152740,1,0,0:0:0:0:
256,192,152990,1,8,0:0:0:0:
256,192,153240,1,0,0:0:0:0:
256,192,153365,1,0,0:0:0:0:
256,192,153490,1,8,0:0:0:0:
256,192,153740,1,0,0:0:0:0:
256,192,154115,1,8,0:0:0:0:
256,192,154240,1,0,0:0:0:0:
256,192,154490,1,8,0:0:0:0:
256,192,154740,1,8,0:0:0:0:
256,192,154865,1,0,0:0:0:0:
256,192,154990,1,0,0:0:0:0:
256,96,155240,1,12,0:0:0:0:
256,192,155615,1,0,0:0:0:0:
256,192,155740,1,8,0:0:0:0:
256,192,155990,1,8,0:0:0:0:
256,192,156240,1,0,0:0:0:0:
256,192,156365,1,0,0:0:0:0:
256,192,156490,1,8,0:0:0:0:
256,192,156740,1,0,0:0:0:0:
256,192,157115,1,8,0:0:0:0:
256,192,157240,1,0,0:0:0:0:
256,192,157490,1,8,0:0:0:0:
256,192,157740,1,0,0:0:0:0:
256,192,157865,1,8,0:0:0:0:
256,192,157990,1,0,0:0:0:0:
256,192,158240,1,8,0:0:0:0:
256,192,158490,1,8,0:0:0:0:
256,192,158615,1,0,0:0:0:0:
256,192,158865,1,0,0:0:0:0:
256,192,158990,1,8,0:0:0:0:
256,192,159240,1,0,0:0:0:0:
256,192,159365,1,0,0:0:0:0:
256,192,159490,1,8,0:0:0:0:
256,96,159740,1,4,0:0:0:0:
256,192,160115,1,8,0:0:0:0:
256,192,160365,1,0,0:0:0:0:
256,192,160490,1,8,0:0:0:0:
256,192,160740,1,0,0:0:0:0:
256,192,160865,1,8,0:0:0:0:
256,192,160990,1,0,0:0:0:0:
256,192,161115,1,0,0:0:0:0:
256,96,161240,1,12,0:0:0:0:
256,192,161615,1,0,0:0:0:0:
256,192,161740,1,0,0:0:0:0:
256,192,161990,1,8,0:0:0:0:
256,192,162240,1,8,0:0:0:0:
256,192,162365,1,0,0:0:0:0:
256,192,162490,1,8,0:0:0:0:
256,192,162615,1,8,0:0:0:0:
256,192,162740,1,0,0:0:0:0:
256,192,163115,1,0,0:0:0:0:
256,192,163240,1,8,0:0:0:0:
256,192,163365,1,0,0:0:0:0:
256,192,163490,1,8,0:0:0:0:
256,192,163740,1,0,0:0:0:0:
256,192,163865,1,0,0:0:0:0:
256,192,163990,1,8,0:0:0:0:
256,192,164115,1,0,0:0:0:0:
256,192,164240,1,8,0:0:0:0:
256,192,164615,1,0,0:0:0:0:
256,192,164740,1,8,0:0:0:0:
256,192,164990,1,0,0:0:0:0:
256,192,165240,1,0,0:0:0:0:
256,192,165490,1,8,0:0:0:0:
256,192,165740,1,0,0:0:0:0:
256,192,166115,1,8,0:0:0:0:
256,192,166240,1,0,0:0:0:0:
256,192,166490,1,8,0:0:0:0:
256,192,166740,1,8,0:0:0:0:
256,192,166865,1,8,0:0:0:0:
256,192,166990,1,0,0:0:0:0:
256,96,167240,1,12,0:0:0:0:
256,192,167615,1,0,0:0:0:0:
256,192,167740,1,8,0:0:0:0:
256,192,167865,1,0,0:0:0:0:
256,192,167990,1,8,0:0:0:0:
256,192,168240,1,0,0:0:0:0:
256,192,168490,1,8,0:0:0:0:
256,192,168615,1,0,0:0:0:0:
256,192,168740,1,8,0:0:0:0:
256,192,168990,1,0,0:0:0:0:
256,192,169115,1,8,0:0:0:0:
256,192,169240,1,0,0:0:0:0:
256,192,169490,1,8,0:0:0:0:
256,192,169740,1,0,0:0:0:0:
256,192,169865,1,0,0:0:0:0:
256,192,169990,1,8,0:0:0:0:
256,192,170115,1,0,0:0:0:0:
256,192,170240,1,8,0:0:0:0:
256,192,170615,1,0,0:0:0:0:
256,192,170990,1,8,0:0:0:0:
256,192,171240,1,8,0:0:0:0:
256,192,171490,1,0,0:0:0:0:
256,192,171740,1,8,0:0:0:0:
256,192,171990,1,0,0:0:0:0:
256,192,172115,1,0,0:0:0:0:
256,192,172365,1,0,0:0:0:0:
256,192,172490,1,8,0:0:0:0:
256,192,172740,1,8,0:0:0:0:
256,192,172865,1,0,0:0:0:0:
256,192,172990,1,0,0:0:0:0:
256,192,173240,1,8,0:0:0:0:
256,192,173865,1,8,0:0:0:0:
256,192,173990,1,0,0:0:0:0:
256,192,174240,1,0,0:0:0:0:
256,192,174365,1,8,0:0:0:0:
256,192,174490,1,8,0:0:0:0:
256,192,174615,1,0,0:0:0:0:
256,192,174740,1,8,0:0:0:0:
256,192,175240,1,0,0:0:0:0:
256,192,175365,1,0,0:0:0:0:
256,192,175490,1,8,0:0:0:0:
256,192,175740,1,0,0:0:0:0:
256,192,175990,1,8,0:0:0:0:
256,192,176115,1,0,0:0:0:0:
256,192,176240,1,8,0:0:0:0:
256,192,176615,1,0,0:0:0:0:
256,192,176865,1,8,0:0:0:0:
256,192,176990,1,8,0:0:0:0:
256,192,177240,1,0,0:0:0:0:
256,192,177490,1,8,0:0:0:0:
256,192,177615,1,0,0:0:0:0:
256,192,177740,1,8,0:0:0:0:
256,192,177990,1,8,0:0:0:0:
256,192,178240,1,0,0:0:0:0:
256,192,178490,1,8,0:0:0:0:
256,192,178740,1,0,0:0:0:0:
256,192,178865,1,0,0:0:0:0:
256,192,178990,1,8,0:0:0:0:
256,192,179240,1,0,0:0:0:0:
256,192,179490,1,8,0:0:0:0:
256,192,179615,1,0,0:0:0:0:
256,192,179740,1,8,0:0:0:0:
256,192,179990,1,8,0:0:0:0:
256,192,180240,1,0,0:0:0:0:
256,192,180365,1,0,0:0:0:0:
256,192,180490,1,8,0:0:0:0:
256,192,180615,1,0,0:0:0:0:
256,192,180740,1,8,0:0:0:0:
256,192,181240,1,0,0:0:0:0:
256,192,181490,1,8,0:0:0:0:
256,192,181740,1,0,0:0:0:0:
256,192,181990,1,8,0:0:0:0:
256,192,182115,1,0,0:0:0:0:
256,192,182240,1,8,0:0:0:0:
256,192,182615,1,8,0:0:0:0:
256,192,182740,1,0,0:0:0:0:
256,192,182990,1,8,0:0:0:0:
256,192,183240,1,0,0:0:0:0:
256,192,183365,1,0,0:0:0:0:
256,192,183490,1,8,0:0:0:0:
256,192,183740,1,8,0:0:0:0:
256,192,183990,1,0,0:0:0:0:
256,192,184240,1,0,0:0:0:0:
256,192,184490,1,8,0:0:0:0:
256,192,184740,1,0,0:0:0:0:
256,192,184990,1,8,0:0:0:0:
256,192,185115,1,0,0:0:0:0:
256,192,185240,1,8,0:0:0:0:
256,192,185490,1,0,0:0:0:0:
256,192,185615,1,0,0:0:0:0:
256,192,185740,1,8,0:0:0:0:
256,192,185990,1,0,0:0:0:0:
256,192,186115,1,0,0:0:0:0:
256,192,186240,1,8,0:0:0:0:
256,192,186365,1,0,0:0:0:0:
256,192,186490,1,8,0:0:0:0:
256,192,186615,1,8,0:0:0:0:
256,192,186740,1,0,0:0:0:0:
256,192,187115,1,8,0:0:0:0:
256,192,187240,1,0,0:0:0:0:
256,192,187490,1,0,0:0:0:0:
256,192,187740,1,0,0:0:0:0:
256,192,187990,1,8,0:0:0:0:
256,192,188115,1,0,0:0:0:0:
256,192,188240,1,8,0:0:0:0:
256,192,188615,1,8,0:0:0:0:
256,192,188740,1,8,0:0:0:0:
256,192,188990,1,0,0:0:0:0:
256,192,189240,1,0,0:0:0:0:
256,192,189490,1,8,0:0:0:0:
256,192,189740,1,0,0:0:0:0:
256,192,189990,1,0,0:0:0:0:
256,192,190115,1,0,0:0:0:0:
256,192,190240,1,8,0:0:0:0:
256,192,190490,1,0,0:0:0:0:
256,192,190740,1,8,0:0:0:0:
256,192,190865,1,0,0:0:0:0:
256,192,190990,1,8,0:0:0:0:
256,192,191240,1,0,0:0:0:0:
256,192,191490,1,0,0:0:0:0:
256,192,191615,1,8,0:0:0:0:
256,192,191865,1,8,0:0:0:0:
256,192,191990,1,0,0:0:0:0:
256,192,192240,1,0,0:0:0:0:
256,192,192365,1,0,0:0:0:0:
256,192,192490,1,8,0:0:0:0:
256,192,192615,1,0,0:0:0:0:
256,192,192740,1,8,0:0:0:0:
256,192,192990,1,8,0:0:0:0:
256,192,193115,1,0,0:0:0:0:
256,192,193365,1,0,0:0:0:0:
256,192,193490,1,8,0:0:0:0:
256,192,193740,1,0,0:0:0:0:
256,192,193990,1,8,0:0:0:0:
256,192,194240,1,8,0:0:0:0:
256,192,194490,1,8,0:0:0:0:
256,192,194615,1,0,0:0:0:0:
256,192,194865,1,0,0:0:0:0:
256,192,194990,1,8,0:0:0:0:
256,192,195240,1,0,0:0:0:0:
256,192,195490,1,8,0:0:0:0:
256,192,195740,1,8,0:0:0:0:
256,192,195990,1,0,0:0:0:0:
256,192,196115,1,0,0:0:0:0:
256,192,196240,1,8,0:0:0:0:
256,192,196365,1,0,0:0:0:0:
256,192,196490,1,8,0:0:0:0:
256,192,196740,1,0,0:0:0:0:
256,192,196990,1,8,0:0:0:0:
256,192,197240,1,0,0:0:0:0:
256,192,197490,5,8,0:0:0:0:
256,192,197615,1,8,0:0:0:0:
256,192,197740,1,0,0:0:0:0:
256,192,197990,1,0,0:0:0:0:
256,192,198115,1,8,0:0:0:0:
256,192,198365,1,8,0:0:0:0:
256,192,198615,1,8,0:0:0:0:
256,192,198740,1,0,0:0:0:0:
256,192,198990,1,0,0:0:0:0:
256,192,199115,1,8,0:0:0:0:
256,192,199365,1,0,0:0:0:0:
256,192,199490,1,0,0:0:0:0:
256,192,199740,1,8,0:0:0:0:
256,192,199990,1,0,0:0:0:0:
256,192,200240,1,0,0:0:0:0:
256,192,200490,1,0,0:0:0:0:
256,192,200615,1,8,0:0:0:0:
256,192,200865,1,0,0:0:0:0:
256,192,200990,1,0,0:0:0:0:
256,192,201240,1,0,0:0:0:0:
256,192,201490,1,0,0:0:0:0:
256,96,201740,1,12,0:0:0:0:
256,192,202115,1,0,0:0:0:0:
256,192,202240,1,0,0:0:0:0:
256,192,202490,1,8,0:0:0:0:
256,192,202740,1,0,0:0:0:0:
256,192,202990,1,8,0:0:0:0:
256,192,203240,1,0,0:0:0:0:
256,192,203490,1,0,0:0:0:0:
256,192,203615,1,8,0:0:0:0:
256,192,203865,1,0,0:0:0:0:
256,192,203990,1,8,0:0:0:0:
256,192,204115,1,8,0:0:0:0:
256,192,204240,1,8,0:0:0:0:
256,192,204365,1,0,0:0:0:0:
256,192,204490,1,8,0:0:0:0:
256,192,204615,1,0,0:0:0:0:
256,192,204740,1,8,0:0:0:0:
256,192,205115,1,0,0:0:0:0:
256,192,205240,1,8,0:0:0:0:
256,192,205490,1,0,0:0:0:0:
256,192,205740,1,0,0:0:0:0:
256,192,205865,1,0,0:0:0:0:
256,192,205990,1,8,0:0:0:0:
256,192,206240,1,0,0:0:0:0:
256,192,206490,1,0,0:0:0:0:
256,192,206615,1,0,0:0:0:0:
256,192,206740,1,8,0:0:0:0:
256,192,206865,1,0,0:0:0:0:
256,192,206990,1,8,0:0:0:0:
256,192,207115,1,8,0:0:0:0:
256,192,207240,1,0,0:0:0:0:
256,192,207365,1,0,0:0:0:0:
256,192,207490,1,8,0:0:0:0:
256,96,207740,1,12,0:0:0:0:
256,192,207990,1,0,0:0:0:0:
256,192,208115,1,0,0:0:0:0:
256,192,208240,1,8,0:0:0:0:
256,192,208490,1,0,0:0:0:0:
256,192,208740,1,0,0:0:0:0:
256,192,208990,1,8,0:0:0:0:
256,192,209240,1,0,0:0:0:0:
256,192,209490,1,8,0:0:0:0:
256,192,209615,1,0,0:0:0:0:
256,192,209865,1,0,0:0:0:0:
256,192,209990,1,8,0:0:0:0:
256,192,210240,1,0,0:0:0:0:
256,192,210490,1,8,0:0:0:0:
256,192,210615,1,8,0:0:0:0:
256,192,210740,1,0,0:0:0:0:
256,192,211115,1,0,0:0:0:0:
256,192,211240,1,8,0:0:0:0:
256,192,211490,1,0,0:0:0:0:
256,192,211740,1,0,0:0:0:0:
256,192,211990,1,8,0:0:0:0:
256,192,212240,1,0,0:0:0:0:
256,192,212490,1,8,0:0:0:0:
256,192,212615,1,0,0:0:0:0:
256,192,212865,1,0,0:0:0:0:
256,192,212990,1,8,0:0:0:0:
256,192,213240,1,0,0:0:0:0:
256,192,213490,1,0,0:0:0:0:
256,96,213740,1,12,0:0:0:0:
256,192,214115,1,0,0:0:0:0:
256,192,214365,1,8,0:0:0:0:
256,192,214490,1,0,0:0:0:0:
256,96,214740,1,12,0:0:0:0:
256,192,214990,1,0,0:0:0:0:
256,192,215240,1,0,0:0:0:0:
256,96,215365,1,12,0:0:0:0:
256,192,215615,1,0,0:0:0:0:
256,192,215865,1,0,0:0:0:0:
256,192,215990,1,0,0:0:0:0:
256,96,216240,1,12,0:0:0:0:
256,192,216490,1,0,0:0:0:0:
256,96,216740,1,12,0:0:0:0:
256,192,217115,1,0,0:0:0:0:
256,192,217365,1,8,0:0:0:0:
256,192,217490,1,0,0:0:0:0:
256,96,217740,1,12,0:0:0:0:
256,192,217990,1,0,0:0:0:0:
256,192,218240,1,0,0:0:0:0:
256,96,218365,1,12,0:0:0:0:
256,192,218615,1,0,0:0:0:0:
256,192,218865,1,0,0:0:0:0:
256,192,218990,1,0,0:0:0:0:
256,96,219240,1,12,0:0:0:0:
256,192,219490,1,0,0:0:0:0:
256,96,219740,1,4,0:0:0:0:
256,192,220115,1,0,0:0:0:0:
256,192,220365,1,8,0:0:0:0:
256,192,220490,1,0,0:0:0:0:
256,192,220740,1,0,0:0:0:0:
256,192,220990,1,8,0:0:0:0:
256,96,221240,1,4,0:0:0:0:
256,192,221615,1,0,0:0:0:0:
256,192,221865,1,8,0:0:0:0:
256,192,221990,1,8,0:0:0:0:
256,192,222240,1,0,0:0:0:0:
256,192,222490,1,8,0:0:0:0:
256,96,222740,1,4,0:0:0:0:
256,192,223490,1,8,0:0:0:0:
256,192,224240,1,8,0:0:0:0:
256,192,225240,1,8,0:0:0:0:
256,192,225490,1,8,0:0:0:0:
256,192,225615,1,8,0:0:0:0:
256,192,225740,1,0,0:0:0:0:
256,192,226240,1,0,0:0:0:0:
256,192,226490,1,8,0:0:0:0:
256,192,227240,1,0,0:0:0:0:
256,192,227740,1,8,0:0:0:0:
256,192,227865,1,0,0:0:0:0:
256,192,227990,1,8,0:0:0:0:
256,192,228490,1,0,0:0:0:0:
256,192,228740,1,8,0:0:0:0:
256,192,229115,1,0,0:0:0:0:
256,192,229240,1,0,0:0:0:0:
256,192,229490,1,8,0:0:0:0:
256,192,229740,1,8,0:0:0:0:
256,192,229990,1,0,0:0:0:0:
256,192,230240,1,8,0:0:0:0:
256,192,230615,1,8,0:0:0:0:
256,192,230740,1,0,0:0:0:0:
256,192,230990,1,8,0:0:0:0:
256,192,231740,1,8,0:0:0:0:
256,192,232240,1,0,0:0:0:0:
256,192,232490,1,8,0:0:0:0:
256,192,232990,1,8,0:0:0:0:
256,192,233240,1,0,0:0:0:0:
256,192,233615,1,0,0:0:0:0:
256,192,233740,1,8,0:0:0:0:
256,192,233990,1,8,0:0:0:0:
256,192,234490,1,8,0:0:0:0:
256,192,234615,1,0,0:0:0:0:
256,192,234740,1,8,0:0:0:0:
256,192,234990,1,0,0:0:0:0:
256,192,235115,1,0,0:0:0:0:
256,192,235365,1,0,0:0:0:0:
256,192,235490,1,8,0:0:0:0:
256,192,235990,1,8,0:0:0:0:
256,192,236240,1,0,0:0:0:0:
256,192,237240,1,8,0:0:0:0:
256,192,237365,1,0,0:0:0:0:
256,192,237490,1,0,0:0:0:0:
256,192,237615,1,0,0:0:0:0:
256,192,237740,1,8,0:0:0:0:
256,192,238240,1,0,0:0:0:0:
256,192,238490,1,8,0:0:0:0:
256,192,239240,1,8,0:0:0:0:
256,192,239740,1,8,0:0:0:0:
256,192,239865,1,0,0:0:0:0:
256,192,239990,1,8,0:0:0:0:
256,192,240490,1,0,0:0:0:0:
256,192,240740,1,8,0:0:0:0:
256,192,241115,1,8,0:0:0:0:
256,192,241240,1,0,0:0:0:0:
256,192,241490,1,0,0:0:0:0:
256,192,241740,1,8,0:0:0:0:
256,192,241990,1,0,0:0:0:0:
256,192,242240,1,8,0:0:0:0:
256,192,242615,1,0,0:0:0:0:
256,192,242740,1,0,0:0:0:0:
256,192,242990,1,8,0:0:0:0:
256,192,243740,1,0,0:0:0:0:
256,192,244240,1,8,0:0:0:0:
256,192,244490,1,8,0:0:0:0:
256,192,244990,1,0,0:0:0:0:
256,192,245240,1,8,0:0:0:0:
256,192,245615,1,8,0:0:0:0:
256,192,245740,1,0,0:0:0:0:
256,192,245990,1,8,0:0:0:0:
256,192,246490,1,0,0:0:0:0:
256,192,246740,1,8,0:0:0:0:
256,192,246990,1,0,0:0:0:0:
256,192,247115,1,0,0:0:0:0:
256,192,247490,1,8,0:0:0:0:
256,192,247990,1,8,0:0:0:0:
256,96,248240,1,4,0:0:0:0:
256,192,248615,1,0,0:0:0:0:
256,192,248865,1,0,0:0:0:0:
256,192,248990,1,8,0:0:0:0:
256,192,249240,1,0,0:0:0:0:
256,192,249490,1,8,0:0:0:0:
256,192,249740,1,8,0:0:0:0:
256,192,250115,1,0,0:0:0:0:
256,192,250365,1,0,0:0:0:0:
256,192,250490,1,8,0:0:0:0:
256,192,250740,1,0,0:0:0:0:
256,192,250990,1,8,0:0:0:0:
256,96,251240,1,4,0:0:0:0:
256,192,251615,1,0,0:0:0:0:
256,192,251865,1,0,0:0:0:0:
256,192,251990,1,8,0:0:0:0:
256,192,252240,1,0,0:0:0:0:
256,192,252490,1,8,0:0:0:0:
256,192,252740,1,8,0:0:0:0:
256,192,252865,1,0,0:0:0:0:
256,192,252990,1,0,0:0:0:0:
256,192,253115,1,8,0:0:0:0:
256,192,253240,1,8,0:0:0:0:
256,192,253365,1,0,0:0:0:0:
256,192,253490,1,8,0:0:0:0:
256,192,253740,1,8,0:0:0:0:
256,192,253865,1,0,0:0:0:0:
256,192,253990,1,8,0:0:0:0:
256,192,254115,1,0,0:0:0:0:
256,96,254240,5,12,0:0:0:0:
256,192,254615,1,8,0:0:0:0:
256,192,254740,1,0,0:0:0:0:
256,192,254990,1,8,0:0:0:0:
256,192,255240,1,8,0:0:0:0:
256,192,255365,1,0,0:0:0:0:
256,192,255490,1,0,0:0:0:0:
256,192,255615,1,0,0:0:0:0:
256,192,255740,1,8,0:0:0:0:
256,192,256115,1,0,0:0:0:0:
256,192,256240,1,8,0:0:0:0:
256,192,256365,1,0,0:0:0:0:
256,192,256490,1,8,0:0:0:0:
256,192,256740,1,0,0:0:0:0:
256,192,256865,1,0,0:0:0:0:
256,192,256990,1,8,0:0:0:0:
256,192,257115,1,0,0:0:0:0:
256,192,257240,1,8,0:0:0:0:
256,192,257615,1,0,0:0:0:0:
256,192,257740,1,0,0:0:0:0:
256,192,257990,1,8,0:0:0:0:
256,192,258240,1,0,0:0:0:0:
256,192,258365,1,0,0:0:0:0:
256,192,258490,1,8,0:0:0:0:
256,192,258740,1,8,0:0:0:0:
256,192,259115,1,8,0:0:0:0:
256,192,259240,1,0,0:0:0:0:
256,192,259490,1,8,0:0:0:0:
256,192,259740,1,8,0:0:0:0:
256,192,259865,1,0,0:0:0:0:
256,192,259990,1,0,0:0:0:0:
256,96,260240,1,12,0:0:0:0:
256,192,260615,1,0,0:0:0:0:
256,192,260740,1,8,0:0:0:0:
256,192,260990,1,8,0:0:0:0:
256,192,261240,1,0,0:0:0:0:
256,192,261365,1,0,0:0:0:0:
256,192,261490,1,8,0:0:0:0:
256,192,261740,1,0,0:0:0:0:
256,192,262115,1,8,0:0:0:0:
256,192,262240,1,0,0:0:0:0:
256,192,262490,1,8,0:0:0:0:
256,192,262740,1,0,0:0:0:0:
256,192,262865,1,8,0:0:0:0:
256,192,262990,1,0,0:0:0:0:
256,192,263240,1,8,0:0:0:0:
256,192,263490,1,8,0:0:0:0:
256,192,263615,1,0,0:0:0:0:
256,192,263865,1,0,0:0:0:0:
256,192,263990,1,8,0:0:0:0:
256,192,264240,1,0,0:0:0:0:
256,192,264365,1,0,0:0:0:0:
256,192,264490,1,8,0:0:0:0:
256,96,264740,1,4,0:0:0:0:
256,192,265115,1,8,0:0:0:0:
256,192,265365,1,0,0:0:0:0:
256,192,265490,1,8,0:0:0:0:
256,192,265740,1,8,0:0:0:0:
256,192,265865,1,0,0:0:0:0:
256,192,265990,1,8,0:0:0:0:
256,192,266115,1,0,0:0:0:0:
256,96,266240,1,12,0:0:0:0:
256,192,266615,1,8,0:0:0:0:
256,192,266740,1,0,0:0:0:0:
256,192,266990,1,8,0:0:0:0:
256,192,267240,1,8,0:0:0:0:
256,192,267365,1,0,0:0:0:0:
256,192,267490,1,8,0:0:0:0:
256,192,267615,1,8,0:0:0:0:
256,192,267740,1,0,0:0:0:0:
256,192,268115,1,0,0:0:0:0:
256,192,268240,1,8,0:0:0:0:
256,192,268365,1,0,0:0:0:0:
256,192,268490,1,8,0:0:0:0:
256,192,268740,1,0,0:0:0:0:
256,192,268865,1,0,0:0:0:0:
256,192,268990,1,8,0:0:0:0:
256,192,269115,1,0,0:0:0:0:
256,192,269240,1,8,0:0:0:0:
256,192,269615,1,0,0:0:0:0:
256,192,269740,1,8,0:0:0:0:
256,192,269990,1,0,0:0:0:0:
256,192,270240,1,0,0:0:0:0:
256,192,270490,1,8,0:0:0:0:
256,192,270740,1,0,0:0:0:0:
256,192,271115,1,8,0:0:0:0:
256,192,271240,1,0,0:0:0:0:
256,192,271490,1,8,0:0:0:0:
256,192,271740,1,8,0:0:0:0:
256,192,271865,1,8,0:0:0:0:
256,192,271990,1,0,0:0:0:0:
256,96,272240,1,12,0:0:0:0:
256,192,272615,1,0,0:0:0:0:
256,192,272740,1,8,0:0:0:0:
256,192,272865,1,0,0:0:0:0:
256,192,272990,1,8,0:0:0:0:
256,192,273240,1,0,0:0:0:0:
256,192,273490,1,8,0:0:0:0:
256,192,273615,1,0,0:0:0:0:
256,192,273740,1,8,0:0:0:0:
256,192,273990,1,0,0:0:0:0:
256,192,274115,1,8,0:0:0:0:
256,192,274240,1,0,0:0:0:0:
256,192,274490,1,8,0:0:0:0:
256,192,274740,1,0,0:0:0:0:
256,192,274865,1,0,0:0:0:0:
256,192,274990,1,8,0:0:0:0:
256,192,275115,1,0,0:0:0:0:
256,192,275240,1,8,0:0:0:0:
256,192,275615,1,8,0:0:0:0:
256,192,275740,1,0,0:0:0:0:
256,192,275990,1,8,0:0:0:0:
256,192,276240,1,8,0:0:0:0:
256,192,276490,1,0,0:0:0:0:
256,192,276740,1,8,0:0:0:0:
256,192,277115,1,8,0:0:0:0:
256,192,277365,1,0,0:0:0:0:
256,192,277490,1,0,0:0:0:0:
256,192,277740,1,8,0:0:0:0:
256,192,277990,1,0,0:0:0:0:
256,192,278240,1,8,0:0:0:0:
256,192,278615,1,8,0:0:0:0:
256,192,278865,1,0,0:0:0:0:
256,192,278990,1,8,0:0:0:0:
256,192,279240,1,8,0:0:0:0:
256,192,279365,1,8,0:0:0:0:
256,192,279490,1,8,0:0:0:0:
256,192,279740,1,0,0:0:0:0:
256,192,280115,1,8,0:0:0:0:
256,192,280365,1,0,0:0:0:0:
256,192,280490,1,0,0:0:0:0:
256,192,280740,1,8,0:0:0:0:
256,192,280990,1,0,0:0:0:0:
256,192,281240,1,8,0:0:0:0:
256,192,281615,1,8,0:0:0:0:
256,192,281740,1,8,0:0:0:0:
256,192,281990,1,0,0:0:0:0:
256,192,282240,1,8,0:0:0:0:
256,192,282365,1,8,0:0:0:0:
256,192,282490,1,0,0:0:0:0:
256,192,282740,1,8,0:0:0:0:
256,192,283115,1,8,0:0:0:0:
256,192,283365,1,0,0:0:0:0:
256,192,283490,1,8,0:0:0:0:
256,192,283740,1,8,0:0:0:0:
256,192,283990,1,0,0:0:0:0:
256,192,284240,1,8,0:0:0:0:
256,192,284490,1,0,0:0:0:0:
256,192,284615,1,8,0:0:0:0:
256,192,284865,1,0,0:0:0:0:
256,192,284990,1,0,0:0:0:0:
256,192,285240,1,8,0:0:0:0:
256,192,285490,1,8,0:0:0:0:
256,96,285740,1,4,0:0:0:0:
256,192,286740,1,0,0:0:0:0:
256,192,286990,1,8,0:0:0:0:
256,192,287240,1,8,0:0:0:0:
256,192,287490,1,0,0:0:0:0:
256,192,287615,1,8,0:0:0:0:
256,192,287865,1,8,0:0:0:0:
256,192,287990,1,0,0:0:0:0:
256,192,288240,1,8,0:0:0:0:
256,192,288490,1,0,0:0:0:0:
256,96,288740,1,4,0:0:0:0:
256,192,289240,1,0,0:0:0:0:
256,192,289490,1,0,0:0:0:0:
256,192,289740,1,8,0:0:0:0:
256,192,289990,1,0,0:0:0:0:
256,192,290240,1,8,0:0:0:0:
256,192,290615,1,8,0:0:0:0:
256,192,290740,1,0,0:0:0:0:
256,192,290990,1,8,0:0:0:0:
256,192,291240,1,0,0:0:0:0:
256,192,291490,1,0,0:0:0:0:
256,192,291740,1,8,0:0:0:0:
256,192,292240,1,0,0:0:0:0:
256,192,292490,1,8,0:0:0:0:
256,192,292740,1,8,0:0:0:0:
256,192,292865,1,0,0:0:0:0:
256,192,292990,1,8,0:0:0:0:
256,192,293240,1,0,0:0:0:0:
256,192,293615,1,0,0:0:0:0:
256,192,293740,1,0,0:0:0:0:
256,192,293990,1,8,0:0:0:0:
256,192,294240,1,8,0:0:0:0:
256,192,294365,1,0,0:0:0:0:
256,192,294490,1,8,0:0:0:0:
256,192,294615,1,8,0:0:0:0:
256,96,294740,1,4,0:0:0:0:
256,192,295240,1,0,0:0:0:0:
256,192,295490,1,8,0:0:0:0:
256,192,295740,1,0,0:0:0:0:
256,192,295990,1,0,0:0:0:0:
256,192,296240,1,8,0:0:0:0:
256,192,296740,1,0,0:0:0:0:
256,192,296865,1,0,0:0:0:0:
256,192,296990,1,8,0:0:0:0:
256,192,297240,1,8,0:0:0:0:
256,192,297490,1,0,0:0:0:0:
256,192,297740,1,8,0:0:0:0:
256,192,298240,1,0,0:0:0:0:
256,192,298365,1,0,0:0:0:0:
256,192,298490,1,8,0:0:0:0:
256,192,298740,1,8,0:0:0:0:
256,192,298865,1,0,0:0:0:0:
256,192,298990,1,8,0:0:0:0:
256,192,299115,1,8,0:0:0:0:
256,96,299240,1,4,0:0:0:0:
256,192,299615,1,8,0:0:0:0:
256,192,299865,1,0,0:0:0:0:
256,192,299990,1,8,0:0:0:0:
256,192,300240,1,0,0:0:0:0:
256,192,300365,1,0,0:0:0:0:
256,192,300615,1,8,0:0:0:0:
256,96,300740,1,4,0:0:0:0:
256,192,301240,1,0,0:0:0:0:
256,192,301490,1,0,0:0:0:0:
256,192,301740,1,8,0:0:0:0:
256,192,301990,1,0,0:0:0:0:
256,192,302240,1,8,0:0:0:0:
256,192,302740,1,0,0:0:0:0:
256,192,302865,1,0,0:0:0:0:
256,192,302990,1,8,0:0:0:0:
256,192,303240,1,0,0:0:0:0:
256,192,303490,1,0,0:0:0:0:
256,192,303740,1,8,0:0:0:0:
256,192,304240,1,0,0:0:0:0:
256,192,304490,1,8,0:0:0:0:
256,192,304740,1,8,0:0:0:0:
256,192,304865,1,8,0:0:0:0:
256,192,304990,1,0,0:0:0:0:
256,192,305240,1,8,0:0:0:0:
256,192,305615,1,0,0:0:0:0:
256,192,305740,1,8,0:0:0:0:
256,192,305990,1,0,0:0:0:0:
256,192,306240,1,8,0:0:0:0:
256,192,306365,1,0,0:0:0:0:
256,192,306490,1,0,0:0:0:0:
256,96,306740,1,4,0:0:0:0:
256,192,307240,1,0,0:0:0:0:
256,192,307490,1,8,0:0:0:0:
256,192,307740,1,0,0:0:0:0:
256,192,307990,1,0,0:0:0:0:
256,192,308240,1,8,0:0:0:0:
256,192,308740,1,0,0:0:0:0:
256,192,308990,1,8,0:0:0:0:
256,192,309240,1,0,0:0:0:0:
256,192,309365,1,0,0:0:0:0:
256,192,309490,1,0,0:0:0:0:
256,192,309740,1,8,0:0:0:0:
256,192,310240,1,0,0:0:0:0:
256,192,310365,1,0,0:0:0:0:
256,192,310490,1,8,0:0:0:0:
256,192,310740,1,8,0:0:0:0:
256,192,310865,1,8,0:0:0:0:
256,192,310990,1,0,0:0:0:0:
256,96,311240,1,12,0:0:0:0:
256,192,311490,1,0,0:0:0:0:
256,192,311615,1,8,0:0:0:0:
256,192,311865,1,0,0:0:0:0:
256,96,311990,1,12,0:0:0:0:
256,192,312240,1,0,0:0:0:0:
256,96,312490,1,12,0:0:0:0:
256,96,312740,1,12,0:0:0:0:
256,192,312990,1,0,0:0:0:0:
256,192,313115,1,0,0:0:0:0:
256,192,313365,1,0,0:0:0:0:
256,96,313490,1,12,0:0:0:0:
256,192,313740,1,0,0:0:0:0:
256,96,313990,1,12,0:0:0:0:
256,96,314240,1,12,0:0:0:0:
256,192,314490,1,8,0:0:0:0:
256,192,314615,1,0,0:0:0:0:
256,192,314865,1,0,0:0:0:0:
256,96,314990,1,12,0:0:0:0:
256,192,315240,1,0,0:0:0:0:
256,96,315490,1,12,0:0:0:0:
256,192,315740,1,0,0:0:0:0:
256,192,315990,1,8,0:0:0:0:
256,192,316115,1,0,0:0:0:0:
256,192,316240,1,8,0:0:0:0:
256,192,316365,1,8,0:0:0:0:
256,192,316490,1,0,0:0:0:0:
256,192,316740,1,0,0:0:0:0:
256,192,316990,1,0,0:0:0:0:
256,192,317240,12,0,319615,0:0:0:0:
256,192,320240,12,0,323365,0:0:0:0:
