osu file format v14

[General]
AudioFilename: audio.mp3
AudioLeadIn: 0
PreviewTime: 224990
Countdown: 0
SampleSet: Soft
StackLeniency: 0.8
Mode: 0
LetterboxInBreaks: 0
WidescreenStoryboard: 1

[Editor]
Bookmarks: 237740
DistanceSpacing: 0.8
BeatDivisor: 4
GridSize: 32
TimelineZoom: 2.1

[Metadata]
Title:Azura Luno
TitleUnicode:Azura Luno
Artist:Aitsuki Nakuru
ArtistUnicode:藍月なくる
Creator:Keqing
Version:Lunar Collab
Source:
Tags:elayue iljaaz mappers' guild mpg FA Featured Artist 5th Fifth Album 3rd Third Solo Nacollection-3- RD-Sounds 凋叶棕 Diao Ye Zong ティアオイエツォン pop jpop j-pop Japanese female vocals
BeatmapID:3009051
BeatmapSetID:1465077

[Difficulty]
HPDrainRate:6
CircleSize:4
OverallDifficulty:8.7
ApproachRate:9.6
SliderMultiplier:1.74
SliderTickRate:1

[Events]
//Background and Video events
0,0,"rdsounds.jpg",0,0
//Break Periods
2,225940,237231
//Storyboard Layer 0 (Background)
//Storyboard Layer 1 (Fail)
//Storyboard Layer 2 (Pass)
//Storyboard Layer 3 (Foreground)
//Storyboard Layer 4 (Overlay)
//Storyboard Sound Samples

[TimingPoints]
740,250,3,2,1,60,1,0
12677,-100,3,2,1,5,0,0
12740,-119.047619047619,3,2,1,60,0,0
14240,-87.719298245614,3,2,1,80,0,0
15490,-156.25,3,2,1,80,0,0
15740,-87.719298245614,3,2,1,80,0,0
21240,-106.382978723404,3,2,1,80,0,0
21490,-156.25,3,2,1,80,0,0
21740,-87.719298245614,3,2,1,80,0,0
29240,-156.25,3,2,1,60,0,0
54740,-119.047619047619,3,2,1,70,0,0
63740,-87.719298245614,3,2,1,70,0,0
66240,-156.25,3,2,1,70,0,0
66740,-87.719298245614,3,2,1,90,0,0
67990,-156.25,3,2,1,90,0,0
68240,-87.719298245614,3,2,1,90,0,0
71740,-74.6268656716418,3,2,1,90,0,0
72490,-156.25,3,2,1,90,0,0
72740,-87.719298245614,3,2,1,90,0,0
73990,-156.25,3,2,1,90,0,0
74240,-87.719298245614,3,2,1,90,0,0
75490,-156.25,3,2,1,90,0,0
75740,-87.719298245614,3,2,1,90,0,0
77990,-69.4444444444444,3,2,1,90,0,0
78615,-60.9756097560976,3,2,1,90,0,0
78740,-87.719298245614,3,2,1,90,0,0
81490,-156.25,3,2,1,90,0,0
81740,-74.6268656716418,3,2,1,90,0,0
81990,-87.719298245614,3,2,1,90,0,0
84490,-156.25,3,2,1,90,0,0
84740,-87.719298245614,3,2,1,90,0,0
86990,-74.6268656716418,3,2,1,90,0,0
87490,-156.25,3,2,1,90,0,0
87740,-87.719298245614,3,2,1,90,0,0
88990,-156.25,3,2,1,90,0,0
89240,-87.719298245614,3,2,1,80,0,0
94990,-156.25,3,2,1,80,0,0
95240,-87.719298245614,3,2,1,80,0,0
97990,-156.25,3,2,1,80,0,0
98240,-87.719298245614,3,2,1,80,0,0
99240,-156.25,3,2,1,80,0,0
99490,-87.719298245614,3,2,1,80,0,0
101990,-185.185185185185,3,2,1,60,0,0
137240,-119.047619047619,3,2,1,70,0,0
146240,-87.719298245614,3,2,1,70,0,0
149240,-87.719298245614,3,2,1,90,0,0
150490,-156.25,3,2,1,90,0,0
150740,-87.719298245614,3,2,1,90,0,0
151990,-156.25,3,2,1,90,0,0
152240,-87.719298245614,3,2,1,90,0,0
154240,-74.6268656716418,3,2,1,90,0,0
154990,-156.25,3,2,1,90,0,0
155240,-87.719298245614,3,2,1,90,0,0
156490,-156.25,3,2,1,90,0,0
156740,-87.719298245614,3,2,1,90,0,0
157990,-156.25,3,2,1,90,0,0
158240,-87.719298245614,3,2,1,90,0,0
160490,-69.4444444444444,3,2,1,90,0,0
161115,-60.9756097560976,3,2,1,90,0,0
161240,-87.719298245614,3,2,1,90,0,0
163990,-156.25,3,2,1,90,0,0
164240,-74.6268656716418,3,2,1,90,0,0
164490,-87.719298245614,3,2,1,90,0,0
166990,-156.25,3,2,1,90,0,0
167240,-87.719298245614,3,2,1,90,0,0
169490,-74.6268656716418,3,2,1,90,0,0
169990,-156.25,3,2,1,90,0,0
170240,-87.719298245614,3,2,1,90,0,0
171490,-156.25,3,2,1,90,0,0
171740,-87.719298245614,3,2,1,90,0,0
173240,-119.047619047619,3,2,1,90,0,0
174740,-96.1538461538461,3,2,1,75,0,0
201740,-119.047619047619,3,2,1,75,0,0
213740,-294.117647058823,3,2,1,75,0,0
225677,-294.117647058823,3,2,1,5,0,0
225740,-294.117647058823,3,2,1,75,0,0
237740,-227.272727272727,3,2,1,60,0,0
252740,-106.382978723404,3,2,1,75,0,0
253740,-87.719298245614,3,2,1,75,0,0
254240,-87.719298245614,3,2,1,90,0,0
255490,-156.25,3,2,1,90,0,0
255740,-87.719298245614,3,2,1,90,0,0
256990,-156.25,3,2,1,90,0,0
257240,-87.719298245614,3,2,1,90,0,0
258490,-119.047619047619,3,2,1,90,0,0
258740,-87.719298245614,3,2,1,90,0,0
259240,-69.4444444444444,3,2,1,90,0,0
259990,-106.382978723404,3,2,1,90,0,0
260240,-87.719298245614,3,2,1,90,0,0
261490,-156.25,3,2,1,90,0,0
261740,-87.719298245614,3,2,1,90,0,0
262240,-156.25,3,2,1,90,0,0
262490,-69.4444444444444,3,2,1,90,0,0
262990,-156.25,3,2,1,90,0,0
263240,-87.719298245614,3,2,1,90,0,0
264490,-135.135135135135,3,2,1,90,0,0
264740,-87.719298245614,3,2,1,90,0,0
265490,-64.9350649350649,3,2,1,90,0,0
266115,-60.9756097560976,3,2,1,90,0,0
266240,-87.719298245614,3,2,1,90,0,0
266740,-135.135135135135,3,2,1,90,0,0
266990,-87.719298245614,3,2,1,90,0,0
268990,-156.25,3,2,1,90,0,0
269240,-69.4444444444444,3,2,1,90,0,0
269490,-87.719298245614,3,2,1,90,0,0
271990,-156.25,3,2,1,90,0,0
272240,-87.719298245614,3,2,1,90,0,0
272740,-96.1538461538461,3,2,1,90,0,0
274490,-74.6268656716418,3,2,1,90,0,0
274990,-156.25,3,2,1,90,0,0
275240,-96.1538461538461,3,2,1,90,0,0
275740,-80.6451612903226,3,2,1,90,0,0
275990,-80.6451612903226,3,2,1,90,0,0
276490,-106.382978723404,3,2,1,90,0,0
276740,-87.719298245614,3,2,1,80,0,0
277990,-156.25,3,2,1,80,0,0
278240,-87.719298245614,3,2,1,80,0,0
279490,-74.6268656716418,3,2,1,80,0,0
279740,-87.719298245614,3,2,1,80,0,0
282490,-156.25,3,2,1,80,0,0
282740,-87.719298245614,3,2,1,80,0,0
285490,-156.25,3,2,1,80,0,0
285740,-87.719298245614,3,2,1,80,0,0
286740,-156.25,3,2,1,80,0,0
286990,-227.272727272727,3,2,1,60,0,0
290177,-227.272727272727,3,2,1,5,0,0
290240,-135.135135135135,3,2,1,60,0,0
299615,-119.047619047619,3,2,1,60,0,0
300740,-106.382978723404,3,2,1,60,0,0
314177,-106.382978723404,3,2,1,5,0,0
314240,-106.382978723404,3,2,1,60,0,0
320990,-106.382978723404,3,2,1,50,0,0
321740,-106.382978723404,3,2,1,40,0,0
322490,-106.382978723404,3,2,1,30,0,0
323240,-106.382978723404,3,2,1,20,0,0
323990,-106.382978723404,3,2,1,10,0,0
324740,-106.382978723404,3,2,1,5,0,0

[Colours]
Combo1 : 255,102,102
Combo2 : 204,187,253
Combo3 : 247,180,254

[HitObjects]
256,192,6740,12,0,12677,0:0:0:0:
512,164,12740,6,0,P|498:129|465:106,1,73.0799977697755,2|0,0:2|0:0,0:0:0:0:
466,30,12990,2,0,P|429:24|392:41,1,73.0799977697755,2|0,0:0|0:0,0:0:0:0:
327,0,13240,2,0,P|304:29|300:69,1,73.0799977697755,2|0,0:0|0:0,0:0:0:0:
435,178,13490,6,0,P|421:212|388:235,1,73.0799977697755,2|0,0:2|0:0,0:0:0:0:
389,312,13740,2,0,P|352:317|315:300,1,73.0799977697755,2|0,0:0|0:0,0:0:0:0:
250,342,13990,2,0,P|227:313|223:272,1,73.0799977697755,2|0,0:0|0:0,0:0:0:0:
25,121,14240,6,0,B|77:133|121:80|121:80|130:77|130:77|93:113|104:169,1,198.359997578613,4|0,1:1|0:0,0:0:0:0:
222,278,14615,1,2,0:3:0:0:
279,224,14740,2,0,P|266:167|220:166,1,99.1799987893067,2|0,0:1|0:0,0:0:0:0:
17,316,14990,2,0,B|58:308|58:308|116:335|116:335|161:324,1,148.76999818396,8|0,1:0|0:0,0:0:0:0:
222,278,15240,1,10,0:0:0:0:
385,384,15365,1,2,0:0:0:0:
452,346,15490,2,0,P|469:315|465:260,1,83.52,2|0,0:0|0:0,0:0:0:0:
461,257,15740,6,0,B|426:248|426:248|418:240|418:240|364:225,1,99.1799987893067,4|0,1:2|0:0,0:0:0:0:
242,38,15990,2,0,B|238:20|222:5|222:5|259:19|258:74,1,99.1799987893067,2|0,0:0|0:0,0:0:0:0:
51,194,16240,2,0,P|11:150|36:113,1,99.1799987893067,2|0,0:0|0:0,0:0:0:0:
256,50,16490,6,0,B|287:106|239:161|247:117|176:170|221:232,1,198.359997578613,8|8,1:0|0:0,0:0:0:0:
277,271,16865,1,2,0:3:0:0:
161,327,16990,5,2,0:2:0:0:
336,217,17115,1,2,0:0:0:0:
452,346,17240,6,0,B|415:334|415:334|404:321|404:321|345:303,1,99.1799987893067,4|0,1:3|0:3,0:0:0:0:
196,145,17490,1,2,0:2:0:0:
256,50,17615,6,0,P|296:86|281:142,1,99.1799987893067,2|0,0:0|0:0,0:0:0:0:
161,327,17865,1,2,0:0:0:0:
21,254,17990,6,0,B|55:228|98:240|109:279|109:279|76:316|97:363,1,198.359997578613,2|8,1:3|0:0,0:0:0:0:
21,254,18365,1,8,0:3:0:0:
196,145,18490,2,0,B|159:154|159:154|153:160|153:160|99:173,1,99.1799987893067,2|0,1:0|0:0,0:0:0:0:
284,369,18740,6,0,B|304:271|434:240|481:315|431:392|357:302,1,297.53999636792,4|0,1:2|0:0,0:0:0:0:
196,145,19240,2,0,L|215:42,1,99.1799987893067,2|0,0:0|0:0,0:0:0:0:
102,172,19490,5,8,0:0:0:0:
280,97,19615,1,0,1:0:0:0:
147,2,19740,5,8,1:3:0:0:
278,178,19865,1,8,0:3:0:0:
399,111,19990,6,0,L|389:69,5,33.0599995964356,2|2|2|2|2|2,0:0|0:0|0:0|0:0|0:0|0:0,0:0:0:0:
444,169,20240,6,0,B|414:117|352:134|352:134|323:181|272:177,1,198.359997578613,4|0,1:1|0:0,0:0:0:0:
117,290,20615,1,2,0:3:0:0:
176,340,20740,2,0,P|211:304|202:257,1,99.1799987893067,2|0,0:1|0:0,0:0:0:0:
14,134,20990,6,0,B|48:145|48:145|58:158|58:158|119:177,1,99.1799987893067,8|0,1:0|0:0,0:0:0:0:
313,300,21240,2,0,B|341:295|355:264|355:264|328:289|282:284,1,122.669998128204,8|0,0:0|0:0,0:0:0:0:
230,327,21490,2,0,L|154:345,1,55.68,4|0,0:3|0:0,0:0:0:0:
337,130,21740,6,0,B|367:83|297:32|218:117|285:186,1,198.359997578613,4|0,1:2|0:0,0:0:0:0:
448,375,22115,1,2,0:3:0:0:
505,326,22240,2,0,P|479:278|426:276,1,99.1799987893067,2|0,0:1|0:0,0:0:0:0:
175,339,22490,2,0,B|106:354|106:354|52:329|80:287,1,148.76999818396,8|0,0:1|0:0,0:0:0:0:
64,221,22740,2,0,B|86:211|104:181|104:181|89:203|93:243,1,99.1799987893067,8|0,0:0|0:0,0:0:0:0:
272,335,22990,2,0,B|294:361|328:364|328:364|278:384|243:337,1,148.76999818396,2|0,0:0|0:0,0:0:0:0:
223,279,23240,6,0,B|189:226|247:168|239:207|305:153|264:98,1,198.359997578613,4|0,1:1|0:0,0:0:0:0:
96,3,23615,1,2,0:3:0:0:
136,75,23740,5,2,0:0:0:0:
221,40,23865,1,2,0:0:0:0:
365,169,23990,6,0,B|406:229|490:200|479:151|449:146,1,148.76999818396,4|0,1:3|0:0,0:0:0:0:
406,101,24240,1,8,0:0:0:0:
188,219,24365,2,0,B|148:206|148:206|141:196|141:196|88:179,1,99.1799987893067,2|0,1:2|0:0,0:0:0:0:
27,159,24615,1,0,0:0:0:0:
194,354,24740,6,0,B|222:310|200:247|200:247|222:303|275:305,1,198.359997578613,4|0,1:2|0:0,0:0:0:0:
188,219,25115,2,0,P|174:180|214:147,1,99.1799987893067,8|0,0:0|0:0,0:0:0:0:
87,262,25365,1,4,0:3:0:0:
227,136,25490,6,0,P|272:168|256:217,1,99.1799987893067,2|0,1:2|1:2,0:0:0:0:
405,350,25740,2,0,B|384:308|337:318|337:318|330:356|290:375,1,148.76999818396,8|0,0:2|0:0,0:0:0:0:
261,303,25990,1,2,1:1:0:0:
397,175,26115,1,2,0:0:0:0:
494,275,26240,6,0,L|445:257,1,49.5899993946533,2|0,1:2|0:0,0:0:0:0:
227,136,26365,2,0,B|274:116|274:116|286:77|286:77|354:46,1,148.76999818396,4|0,1:3|0:0,0:0:0:0:
427,36,26615,6,0,B|425:5|391:-2|391:-2|412:18|419:55,1,99.1799987893067,8|2,0:0|0:2,0:0:0:0:
337,53,26865,1,2,0:1:0:0:
481,186,26990,6,0,P|516:146|493:99,1,99.1799987893067,4|0,1:3|0:0,0:0:0:0:
397,175,27240,1,8,0:0:0:0:
494,275,27365,1,2,0:0:0:0:
338,341,27490,5,0,1:2:0:0:
340,332,27615,1,2,0:0:0:0:
494,275,27740,6,0,B|464:251|425:257|403:291|403:291|401:324|375:349|333:341,1,198.359997578613,4|2,1:0|0:3,0:0:0:0:
160,148,28115,2,0,P|211:150|234:199,1,99.1799987893067,10|0,0:0|0:2,0:0:0:0:
82,311,28365,1,2,0:0:0:0:
24,258,28490,6,0,P|1:205|41:173,1,99.1799987893067,0|0,1:0|1:0,0:0:0:0:
221,268,28740,2,0,P|221:325|130:348,1,148.76999818396,10|0,0:0|0:0,0:0:0:0:
82,311,28990,1,4,1:3:0:0:
233,187,29115,1,2,0:0:0:0:
160,148,29240,6,0,P|147:209|143:274,1,111.36,2|0,0:1|0:0,0:0:0:0:
310,150,29615,2,0,P|321:98|326:40,1,111.36,2|0,0:0|0:3,0:0:0:0:
151,62,29990,6,0,P|179:72|217:79,1,55.68,2|0,0:2|0:0,0:0:0:0:
348,253,30240,2,0,P|319:242|282:236,1,55.68,2|0,0:2|0:0,0:0:0:0:
232,169,30490,5,2,0:0:0:0:
234,162,30615,1,2,0:0:0:0:
399,105,30740,6,0,P|438:109|490:224,1,167.04,4|2,1:3|0:0,0:0:0:0:
494,210,31365,1,2,0:0:0:0:
334,338,31490,2,0,P|359:299|424:296,2,111.36,2|2|0,1:2|0:0|0:2,0:0:0:0:
512,284,32240,6,0,L|286:232,1,222.72,2|0,1:2|0:0,0:0:0:0:
151,62,32990,6,0,P|109:105|136:164,2,111.36,2|0|2,1:2|0:0|0:0,0:0:0:0:
151,62,33740,6,0,P|201:81|262:97,1,111.36,2|0,1:2|0:0,0:0:0:0:
124,169,34115,2,0,P|110:226|90:274,1,111.36,2|0,0:0|0:0,0:0:0:0:
268,380,34490,6,0,P|256:323|354:289,1,167.04,2|0,1:2|0:0,0:0:0:0:
408,241,34990,2,0,P|417:273|416:311,1,55.68,2|0,0:0|0:0,0:0:0:0:
334,352,35240,2,0,P|309:284|320:176,1,167.04,4|2,1:3|0:0,0:0:0:0:
485,59,35865,5,2,0:0:0:0:
497,134,35990,2,0,P|443:130|413:75,1,111.36,2|0,1:2|0:0,0:0:0:0:
291,3,36365,5,0,0:0:0:0:
372,14,36490,2,0,L|309:30,1,55.68,2|0,0:0|0:0,0:0:0:0:
137,121,36740,6,0,B|208:111|176:135|252:124,1,111.36,2|0,1:2|0:0,0:0:0:0:
246,124,37115,2,0,P|258:103|244:62,1,55.68,2|0,0:0|0:0,0:0:0:0:
137,121,37365,1,2,0:0:0:0:
126,195,37490,6,0,P|149:214|190:222,1,55.68,2|0,1:2|0:0,0:0:0:0:
244,230,37740,2,0,P|220:249|173:254,1,55.68,2|0,0:0|0:0,0:0:0:0:
90,357,37990,2,0,P|95:329|119:293,1,55.68,2|0,0:0|0:0,0:0:0:0:
244,230,38240,6,0,P|314:254|334:361,1,167.04,4|2,1:2|0:0,0:0:0:0:
485,384,38865,5,2,0:0:0:0:
512,318,38990,2,0,P|487:305|451:295,1,55.68,0|0,1:2|0:0,0:0:0:0:
239,369,39240,2,0,P|280:368|350:327,1,111.36,2|0,0:0|0:0,0:0:0:0:
341,336,39740,6,0,L|362:216,1,111.36,2|0,1:2|0:0,0:0:0:0:
497,142,40115,2,0,L|486:85,1,55.68,2|0,0:0|0:0,0:0:0:0:
425,43,40365,1,2,0:0:0:0:
291,169,40490,6,0,B|362:150|324:140|411:123,1,111.36,2|2,1:2|0:0,0:0:0:0:
291,169,40990,1,2,0:0:0:0:
110,100,41240,6,0,P|103:53|209:32,1,167.04,2|0,1:2|0:0,0:0:0:0:
300,114,41740,2,0,L|287:186,1,55.68,2|0,0:0|0:0,0:0:0:0:
159,243,41990,2,0,L|168:309,1,55.68,2|0,1:2|0:0,0:0:0:0:
287,384,42240,6,0,B|293:359|293:359|279:311|279:311|291:269,1,111.36,2|0,0:0|0:0,0:0:0:0:
288,276,42740,6,0,P|347:282|361:338,1,111.36,4|0,1:3|0:0,0:0:0:0:
199,211,43115,2,0,P|172:220|158:253,1,55.68,2|0,0:0|0:0,0:0:0:0:
300,114,43365,1,2,0:0:0:0:
338,177,43490,6,0,L|349:250,1,55.68,2|0,1:2|0:0,0:0:0:0:
217,74,43740,2,0,L|202:135,1,55.68,2|0,0:0|0:0,0:0:0:0:
381,21,43990,2,0,P|353:14|323:2,1,55.68,2|0,0:0|0:0,0:0:0:0:
338,177,44240,6,0,P|399:172|468:84,2,167.04,4|0|0,1:3|0:0|1:2,0:0:0:0:
338,177,45490,5,2,0:0:0:0:
203,128,45615,1,2,0:0:0:0:
167,196,45740,6,0,P|114:210|55:231,1,111.36,2|0,1:2|0:0,0:0:0:0:
203,128,46115,2,0,P|207:108|215:61,2,55.68,2|0|2,0:0|0:0|0:0,0:0:0:0:
358,342,46490,6,0,P|345:267|337:166,1,167.04,2|0,1:2|0:0,0:0:0:0:
337,176,46990,2,0,P|368:173|398:164,1,55.68,2|0,0:0|0:0,0:0:0:0:
217,340,47240,6,0,P|174:336|132:270,1,111.36,4|0,1:3|0:0,0:0:0:0:
54,209,47615,2,0,P|62:188|73:149,1,55.68,2|0,0:0|0:0,0:0:0:0:
185,61,47865,1,2,0:0:0:0:
0,102,47990,6,0,P|106:129|216:172,1,222.72,2|0,1:2|0:0,0:0:0:0:
211,169,48740,6,0,P|248:160|307:89,1,111.36,2|0,1:2|0:0,0:0:0:0:
420,223,49115,2,0,P|412:198|405:162,1,55.68,2|0,0:0|0:0,0:0:0:0:
330,285,49365,1,2,0:0:0:0:
264,247,49490,2,0,P|255:305|242:370,2,111.36,2|0|2,1:2|0:0|0:0,0:0:0:0:
485,321,50240,6,0,P|456:276|340:282,1,167.04,2|2,1:2|0:0,0:0:0:0:
351,272,50865,1,2,0:0:0:0:
233,371,50990,2,0,P|208:367|171:353,1,55.68,2|0,1:2|0:0,0:0:0:0:
107,355,51240,2,0,P|135:345|164:331,1,55.68,2|0,0:0|0:0,0:0:0:0:
205,269,51490,2,0,P|196:303|183:330,1,55.68,2|0,0:0|0:0,0:0:0:0:
18,203,51740,6,0,P|35:173|116:159,1,111.36,4|0,1:3|0:0,0:0:0:0:
165,107,52115,2,0,P|192:118|225:127,1,55.68,2|0,0:0|0:0,0:0:0:0:
321,216,52365,1,2,0:0:0:0:
371,159,52490,2,0,P|420:139|485:121,2,111.36,2|2|2,1:2|0:0|0:0,0:0:0:0:
216,317,53240,6,0,P|227:346|234:379,1,55.68,4|0,1:3|0:0,0:0:0:0:
106,280,53490,2,0,P|82:268|52:260,1,55.68,2|0,0:0|0:0,0:0:0:0:
184,211,53740,2,0,P|192:188|200:153,1,55.68,2|0,0:0|0:0,0:0:0:0:
216,317,53990,6,0,P|292:349|383:375,1,167.04,2|0,1:2|0:0,0:0:0:0:
435,330,54490,1,2,0:0:0:0:
435,330,54615,1,2,0:0:0:0:
253,189,54740,6,0,P|218:201|170:212,1,73.0799977697755,6|0,1:1|0:0,0:0:0:0:
310,323,54990,2,0,P|315:287|293:260,1,73.0799977697755,2|0,0:0|0:0,0:0:0:0:
133,122,55240,2,0,P|100:146|114:190,1,73.0799977697755,2|0,0:0|0:0,0:0:0:0:
289,252,55490,6,0,P|200:226|147:335,1,219.239993309326,4|0,0:3|0:0,0:0:0:0:
0,200,55990,1,2,0:3:0:0:
61,235,56115,1,2,0:0:0:0:
101,175,56240,6,0,P|113:108|121:22,2,146.159995539551,2|2|2,1:1|0:0|0:0,0:0:0:0:
289,252,56990,6,0,P|281:222|276:169,1,73.0799977697755,4|0,0:3|0:0,0:0:0:0:
73,346,57240,2,0,B|162:329|128:371|221:353,1,146.159995539551,2|0,0:1|0:0,0:0:0:0:
216,353,57615,1,0,0:0:0:0:
289,252,57740,6,0,P|323:269|366:279,1,73.0799977697755,2|0,1:1|0:0,0:0:0:0:
456,352,57990,2,0,P|441:281|413:189,1,146.159995539551,2|0,0:0|0:0,0:0:0:0:
512,95,58365,1,2,0:0:0:0:
459,34,58490,6,0,P|419:40|408:145,1,146.159995539551,4|2,0:3|0:1,0:0:0:0:
289,252,58865,2,0,P|326:265|365:285,1,73.0799977697755,2|0,0:0|0:0,0:0:0:0:
244,159,59115,1,2,0:0:0:0:
310,104,59240,6,0,P|278:122|240:136,1,73.0799977697755,2|0,1:0|0:0,0:0:0:0:
121,277,59490,2,0,P|73:267|69:175,1,146.159995539551,2|0,0:0|0:0,0:0:0:0:
62,182,59865,1,2,0:0:0:0:
192,321,59990,6,0,P|192:363|164:389,2,73.0799977697755,4|0|0,0:3|0:0|0:0,0:0:0:0:
257,206,60365,2,0,L|241:119,1,73.0799977697755,2|0,0:1|0:0,0:0:0:0:
183,83,60615,1,2,0:0:0:0:
397,208,60740,6,0,B|371:204|349:198|349:198|306:216|306:216|278:208|247:204,1,146.159995539551,4|2,1:3|0:0,0:0:0:0:
191,240,61115,1,0,0:0:0:0:
340,354,61240,6,0,P|345:322|361:281,1,73.0799977697755,2|0,0:0|0:0,0:0:0:0:
146,77,61490,2,0,P|219:81|251:213,1,219.239993309326,6|0,1:2|1:2,0:0:0:0:
191,240,61990,1,2,0:3:0:0:
328,38,62240,6,0,B|377:39|406:2|406:2|420:-3|420:-3|352:62|387:116,1,219.239993309326,4|2,1:2|0:0,0:0:0:0:
481,140,62740,2,0,P|478:103|437:77,1,73.0799977697755,2|0,0:0|0:0,0:0:0:0:
294,138,62990,6,0,L|257:377,1,219.239993309326,4|8,1:3|0:0,0:0:0:0:
260,354,63427,1,8,0:0:0:0:
260,354,63490,1,10,0:0:0:0:
191,240,63615,1,8,0:0:0:0:
343,319,63740,6,0,P|389:321|420:273,1,99.1799987893067,4|0,1:1|0:0,0:0:0:0:
481,242,63990,1,2,0:0:0:0:
247,365,64115,6,0,P|201:367|170:319,1,99.1799987893067,4|0,1:2|0:0,0:0:0:0:
109,288,64365,1,2,0:0:0:0:
365,156,64490,6,0,B|393:173|398:187|398:187|404:167|386:146|369:139,1,99.1799987893067,4|0,1:2|0:0,0:0:0:0:
257,111,64740,2,0,B|278:94|300:96|300:96|272:103|250:138,1,99.1799987893067,10|0,0:2|0:0,0:0:0:0:
329,220,64990,6,0,L|343:324,1,99.1799987893067,4|0,1:3|0:0,0:0:0:0:
247,365,65240,5,8,0:3:0:0:
413,268,65365,1,8,0:3:0:0:
421,351,65490,5,8,0:3:0:0:
315,213,65615,1,8,0:3:0:0:
479,93,65740,5,8,1:3:0:0:
447,180,65865,1,8,1:3:0:0:
494,88,65990,1,8,1:3:0:0:
107,211,66240,6,0,P|83:201|49:193,1,55.68,6|0,1:2|0:0,0:0:0:0:
228,312,66490,2,0,P|238:344|248:368,1,55.68,2|2,0:0|0:0,0:0:0:0:
447,180,66740,6,0,B|447:165|455:148|455:148|410:105|332:135|341:211,1,198.359997578613,4|0,1:1|0:0,0:0:0:0:
287,259,67115,1,2,0:3:0:0:
439,334,67240,6,0,B|486:339|502:293|502:293|479:323|442:323,1,148.76999818396,2|0,0:1|0:0,0:0:0:0:
375,300,67490,2,0,B|340:287|340:287|329:274|329:274|284:258,1,99.1799987893067,4|0,1:3|0:0,0:0:0:0:
149,149,67740,5,0,1:0:0:0:
9,230,67865,1,8,0:3:0:0:
62,289,67990,6,0,L|39:386,1,83.52,0|0,1:0|0:0,0:0:0:0:
141,295,68240,6,0,B|155:246|98:195|107:237|36:184|79:118,1,198.359997578613,4|0,1:2|0:0,0:0:0:0:
130,74,68615,1,2,0:3:0:0:
52,22,68740,6,0,B|35:2|1:1|1:1|29:11|39:31,1,99.1799987893067,2|2,0:1|0:0,0:0:0:0:
149,149,68990,2,0,B|215:125|215:125|228:65|228:65|303:37,1,198.359997578613,8|0,0:2|0:0,0:0:0:0:
364,18,69365,1,0,0:0:0:0:
512,124,69490,6,0,B|463:110|443:151|443:151|465:177|466:215,1,148.76999818396,2|0,1:2|0:0,0:0:0:0:
391,216,69740,6,0,B|343:214|322:240|322:240|273:219|274:160|324:148,1,198.359997578613,4|0,1:2|0:0,0:0:0:0:
391,216,70115,1,2,0:3:0:0:
243,384,70240,6,0,P|209:349|219:303,1,99.1799987893067,2|0,0:1|0:0,0:0:0:0:
399,223,70490,2,0,P|404:270|367:299,1,99.1799987893067,8|0,0:0|0:0,0:0:0:0:
154,257,70740,6,0,P|184:220|233:219,1,99.1799987893067,4|0,1:3|0:0,0:0:0:0:
376,376,70990,2,0,P|328:371|299:332,1,99.1799987893067,2|0,0:0|0:0,0:0:0:0:
185,102,71240,6,0,B|201:88|218:67|218:67|267:59|309:94|309:94|307:119|320:149,1,198.359997578613,4|0,1:2|0:0,0:0:0:0:
232,218,71615,1,2,0:0:0:0:
299,332,71740,6,0,B|192:307|230:400|111:362,1,174.869991728257,2|0,0:0|0:0,0:0:0:0:
113,384,71990,6,0,B|108:357|108:357|125:326,1,58.2899972427522,4|0,1:3|0:0,0:0:0:0:
232,218,72115,1,8,3:0:0:0:
40,134,72240,6,0,B|73:132|73:132|97:156,1,58.2899972427522,8|0,0:0|0:0,0:0:0:0:
232,218,72365,2,0,B|242:247|242:247|227:293,1,58.2899972427522,2|0,0:0|0:0,0:0:0:0:
122,329,72490,6,0,L|141:239,1,83.52,2|0,0:1|0:0,0:0:0:0:
318,144,72740,6,0,B|369:112|409:162|409:162|409:232|490:247,1,198.359997578613,4|0,1:1|0:0,0:0:0:0:
318,144,73115,1,2,0:3:0:0:
498,164,73240,6,0,B|506:140|528:131|528:131|487:132|481:177,1,99.1799987893067,2|0,0:0|0:0,0:0:0:0:
298,46,73490,2,0,B|288:17|256:1|256:1|303:11|319:58,1,148.76999818396,8|0,0:0|0:0,0:0:0:0:
382,101,73740,1,8,0:0:0:0:
512,0,73865,1,0,1:2:0:0:
398,19,73990,6,0,L|381:105,1,83.52,2|0,0:2|0:0,0:0:0:0:
168,214,74240,6,0,B|173:226|173:226|224:243|224:243|260:202|260:202|232:164|245:120,1,198.359997578613,4|0,1:2|0:0,0:0:0:0:
318,144,74615,1,2,0:2:0:0:
434,327,74740,2,0,B|444:300|444:300|439:268|439:268|454:229,1,99.1799987893067,2|0,0:0|0:2,0:0:0:0:
270,327,74990,6,0,B|255:331|255:331|167:304|167:304|104:322|130:374,1,198.359997578613,4|8,1:3|0:0,0:0:0:0:
320,258,75365,1,2,0:3:0:0:
120,150,75490,6,0,B|112:134|93:124|93:124|126:127|141:164,1,83.52,2|0,0:0|0:0,0:0:0:0:
168,214,75740,6,0,P|229:204|238:122,1,148.76999818396,4|0,1:1|0:0,0:0:0:0:
237,118,75990,1,2,0:0:0:0:
108,285,76115,6,0,P|102:344|147:376,1,99.1799987893067,2|0,0:0|0:0,0:0:0:0:
190,324,76365,1,2,0:0:0:0:
71,213,76490,5,4,1:3:0:0:
1,244,76615,1,8,0:3:0:0:
131,145,76740,5,0,1:0:0:0:
246,221,76865,1,8,1:3:0:0:
327,173,76990,6,0,B|376:160|376:160|398:119|398:119|463:104,1,148.76999818396,2|0,0:2|0:0,0:0:0:0:
448,107,77240,6,0,B|484:114|509:175|420:217|376:130|406:147|383:76|311:85,1,247.949996973267,4|0,1:2|0:0,0:0:0:0:
258,26,77615,2,0,P|243:52|236:92,1,49.5899993946533,8|0,0:0|0:0,0:0:0:0:
327,173,77740,1,2,0:0:0:0:
448,107,77865,6,0,P|443:87|430:53,1,49.5899993946533,4|0,0:3|0:0,0:0:0:0:
327,173,77990,2,0,B|296:210|330:255|330:255|382:292|343:362,1,187.920004587891,2|0,1:2|0:0,0:0:0:0:
289,383,78240,6,0,P|271:361|298:318,1,62.6400015292969,8|0,0:0|0:0,0:0:0:0:
448,256,78365,1,0,1:2:0:0:
502,358,78490,6,0,P|473:355|444:324,1,62.6400015292969,2|0,0:0|0:0,0:0:0:0:
327,173,78615,2,0,P|291:183|258:228,1,71.340001088562,4|0,0:3|0:0,0:0:0:0:
85,363,78740,6,0,B|47:417|-26:387|-35:285|99:234|155:322,1,297.53999636792,4|2,1:1|0:3,0:0:0:0:
327,173,79240,2,0,L|348:60,1,99.1799987893067,2|0,0:1|0:0,0:0:0:0:
475,263,79490,6,0,B|500:384|500:384|484:345|440:330,1,198.359997578613,8|8,0:0|0:0,0:0:0:0:
327,173,79865,1,0,1:0:0:0:
495,188,79990,5,4,1:3:0:0:
361,271,80115,1,0,1:0:0:0:
243,100,80240,6,0,B|234:45|182:20|131:42|131:42|145:68|143:97,1,198.359997578613,4|0,1:2|0:0,0:0:0:0:
174,164,80615,1,2,0:3:0:0:
33,107,80740,2,0,B|2:99|2:99|79:82,1,99.1799987893067,2|2,0:0|0:0,0:0:0:0:
236,219,80990,6,0,B|262:198|299:200|299:200|162:160,1,198.359997578613,8|2,0:0|1:0,0:0:0:0:
143,91,81365,1,2,0:0:0:0:
22,266,81490,6,0,B|8:281|-12:283|-12:283|17:290|40:269,1,83.52,2|0,0:0|0:0,0:0:0:0:
81,218,81740,6,0,B|136:206|159:260|159:260|151:330|226:356,1,174.869991728257,4|0,1:1|0:0,0:0:0:0:
188,340,81990,1,2,0:0:0:0:
332,202,82115,1,2,0:3:0:0:
276,145,82240,6,0,P|231:183|240:226,1,99.1799987893067,2|0,0:0|0:0,0:0:0:0:
431,331,82490,2,0,L|406:231,1,99.1799987893067,10|0,0:0|0:0,0:0:0:0:
475,101,82740,6,0,P|510:140|496:192,1,99.1799987893067,2|0,1:0|1:0,0:0:0:0:
313,383,82990,2,0,L|331:272,1,99.1799987893067,4|0,1:3|0:0,0:0:0:0:
276,145,83240,6,0,B|225:119|183:166|183:166|169:236|99:236,1,198.359997578613,4|0,1:2|0:0,0:0:0:0:
68,283,83615,1,2,0:3:0:0:
7,121,83740,2,0,B|43:132|43:132|57:144|57:144|107:159,1,99.1799987893067,2|0,0:0|0:0,0:0:0:0:
0,202,83990,5,8,0:0:0:0:
171,68,84115,1,0,1:0:0:0:
276,145,84240,5,0,1:0:0:0:
328,285,84365,1,0,1:0:0:0:
406,234,84490,6,0,B|437:225|437:225|447:216|447:216|488:202,1,83.52,2|0,0:0|0:0,0:0:0:0:
499,278,84740,6,0,B|448:295|413:221|437:243|410:160|340:188,1,198.359997578613,4|0,1:1|0:0,0:0:0:0:
276,145,85115,1,2,0:3:0:0:
125,376,85240,2,0,B|158:363|158:363|173:343|173:343|219:326,1,99.1799987893067,2|0,0:0|0:0,0:0:0:0:
353,340,85490,6,0,B|332:270|258:268|258:268|288:294|286:338,1,198.359997578613,8|0,0:0|1:0,0:0:0:0:
103,169,85865,1,2,1:2:0:0:
185,221,85990,1,2,0:0:0:0:
103,295,86115,1,2,0:0:0:0:
59,234,86240,6,0,B|29:181|88:123|77:163|130:100|81:39,1,198.359997578613,4|0,1:2|0:0,0:0:0:0:
23,92,86615,1,2,0:3:0:0:
185,221,86740,2,0,P|233:220|255:169,1,99.1799987893067,2|0,0:1|0:0,0:0:0:0:
409,12,86990,6,0,B|374:42|314:33|314:33|359:43|376:81,1,174.869991728257,4|0,1:3|0:0,0:0:0:0:
305,114,87240,1,8,0:0:0:0:
449,229,87365,1,0,1:1:0:0:
499,172,87490,6,0,P|501:135|467:107,1,83.52,2|0,0:0|0:0,0:0:0:0:
366,178,87740,6,0,L|335:391,1,198.359997578613,4|0,1:2|0:0,0:0:0:0:
449,229,88115,1,2,0:3:0:0:
494,296,88240,2,0,B|514:302|531:321|531:321|519:288|487:286,1,99.1799987893067,2|0,0:0|0:0,0:0:0:0:
366,178,88490,6,0,B|309:154|275:211|275:211|269:281|200:296,1,198.359997578613,8|8,0:0|0:3,0:0:0:0:
129,203,88865,1,0,1:2:0:0:
22,322,88990,6,0,B|54:309|54:309|61:301|61:301|108:285,1,83.52,2|0,0:0|0:0,0:0:0:0:
129,203,89240,2,0,B|121:178|121:178|54:159|54:159|-22:196|22:254,1,198.359997578613,4|0,1:0|0:0,0:0:0:0:
253,381,89615,2,0,L|228:276,1,99.1799987893067,8|0,0:0|0:0,0:0:0:0:
375,172,89865,1,4,0:3:0:0:
304,131,89990,6,0,B|280:110|250:121|250:121|277:120|297:137,1,99.1799987893067,0|0,1:0|0:0,0:0:0:0:
451,195,90240,2,0,B|488:204|499:247|499:247|479:213|440:206,1,148.76999818396,8|0,0:0|0:0,0:0:0:0:
375,172,90490,2,0,P|345:219|367:265,1,99.1799987893067,2|0,1:1|0:0,0:0:0:0:
436,337,90740,6,0,B|389:322|362:272|362:272|363:333|325:365,1,198.359997578613,4|0,1:2|0:0,0:0:0:0:
451,195,91115,2,0,B|461:164|461:164|458:135|458:135|472:88,1,99.1799987893067,8|0,0:0|0:0,0:0:0:0:
428,35,91365,1,4,0:3:0:0:
256,122,91490,6,0,B|202:139|202:139|151:108|151:108|186:92,1,148.76999818396,2|0,1:2|0:0,0:0:0:0:
236,42,91740,2,0,B|272:73|272:73|252:132,1,99.1799987893067,8|0,0:0|0:0,0:0:0:0:
358,254,91990,2,0,B|365:219|317:206|317:206|243:232,1,148.76999818396,2|0,1:1|0:0,0:0:0:0:
178,277,92240,6,0,B|156:330|156:330|197:372,1,99.1799987893067,4|0,1:2|0:0,0:0:0:0:
272,302,92490,1,2,0:0:0:0:
144,203,92615,2,0,B|111:196|111:196|82:203|82:203|47:195,1,99.1799987893067,8|0,0:0|0:0,0:0:0:0:
255,121,92865,1,4,0:3:0:0:
203,6,92990,6,0,B|179:93|179:93|190:60|231:44,1,148.76999818396,2|0,1:2|0:0,0:0:0:0:
255,121,93240,2,0,B|298:119|327:152|327:152|404:109|350:50,1,198.359997578613,8|4,0:0|1:3,0:0:0:0:
144,203,93615,1,2,0:0:0:0:
81,116,93740,6,0,B|46:55|-26:76|-26:76|2:107|-1:163,1,198.359997578613,4|0,1:1|0:2,0:0:0:0:
179,92,94115,1,8,0:0:0:0:
255,205,94240,2,0,B|293:222|293:222|303:235|303:235|352:258,1,99.1799987893067,4|0,0:3|0:0,0:0:0:0:
415,218,94490,5,0,1:0:0:0:
235,284,94615,1,0,1:0:0:0:
255,205,94740,5,12,1:3:0:0:
350,323,94865,1,0,1:0:0:0:
415,218,94990,6,0,P|409:179|408:126,1,83.52,2|0,0:0|0:0,0:0:0:0:
347,92,95240,6,0,P|281:93|256:206,1,198.359997578613,4|0,1:0|0:0,0:0:0:0:
91,368,95615,2,0,P|136:362|164:311,1,99.1799987893067,8|0,0:0|0:0,0:0:0:0:
235,284,95865,1,4,0:3:0:0:
93,288,95990,6,0,P|188:315|281:349,1,198.359997578613,2|8,1:1|0:0,0:0:0:0:
157,227,96365,1,8,0:3:0:0:
254,204,96490,5,2,0:0:0:0:
163,319,96615,1,4,0:3:0:0:
26,126,96740,6,0,B|86:95|123:154|123:154|119:220|189:242,1,198.359997578613,4|0,1:2|0:0,0:0:0:0:
281,349,97115,1,8,0:0:0:0:
153,328,97240,6,0,B|127:327|110:343|110:343|119:317|161:321,1,99.1799987893067,2|4,0:0|0:3,0:0:0:0:
343,189,97490,2,0,P|350:233|306:271,1,99.1799987893067,0|0,1:0|0:0,0:0:0:0:
364,384,97740,5,8,0:0:0:0:
235,284,97865,1,0,1:0:0:0:
343,189,97990,6,0,L|442:170,1,83.52,2|0,0:0|0:0,0:0:0:0:
506,265,98240,6,0,B|449:283|418:215|439:227|402:157|333:193,2,198.359997578613,4|2|2,1:0|0:0|0:0,0:0:0:0:
497,193,98990,1,2,0:0:0:0:
225,10,99240,6,0,B|247:43|247:43|236:95,1,83.52,4|0,1:2|0:0,0:0:0:0:
158,143,99490,6,0,B|132:93|132:93|173:45,1,99.1799987893067,2|0,0:0|0:0,0:0:0:0:
242,192,99740,6,0,B|203:192|163:164|163:164|80:203|134:260,1,198.359997578613,4|0,1:0|0:0,0:0:0:0:
312,118,100115,1,8,0:0:0:0:
342,188,100240,2,0,B|354:220|354:220|348:252|348:252|360:285,1,99.1799987893067,2|0,0:0|0:0,0:0:0:0:
158,143,100490,5,0,1:2:0:0:
140,66,100615,1,0,1:0:0:0:
342,188,100740,2,0,L|454:216,1,99.1799987893067,8|0,0:0|0:0,0:0:0:0:
268,328,100990,1,0,1:2:0:0:
268,328,101990,6,0,P|246:286|198:287,1,93.9600022939454,2|0,1:2|0:0,0:0:0:0:
153,340,102490,1,0,0:0:0:0:
10,277,102740,6,0,P|29:229|112:243,1,140.940003440918,2|0,1:2|0:0,0:0:0:0:
107,236,103490,6,0,P|113:198|125:142,1,93.9600022939454,2|0,1:2|0:0,0:0:0:0:
94,74,103990,1,0,0:0:0:0:
247,0,104240,6,0,P|262:67|269:143,1,140.940003440918,2|0,1:2|0:0,0:0:0:0:
268,138,104865,1,0,0:0:0:0:
331,193,104990,2,0,P|367:187|387:128,2,93.9600022939454,2|0|0,1:2|0:0|0:0,0:0:0:0:
331,193,105740,6,0,P|318:268|309:350,1,140.940003440918,2|0,1:2|0:0,0:0:0:0:
310,332,106365,1,0,0:0:0:0:
249,376,106490,6,0,P|226:366|193:359,1,46.9800011469727,2|0,1:2|0:0,0:0:0:0:
153,305,106740,2,0,P|107:321|65:347,1,93.9600022939454,0|0,0:0|0:0,0:0:0:0:
331,193,107240,5,2,1:2:0:0:
335,185,107365,1,2,0:0:0:0:
332,177,107490,1,2,0:0:0:0:
275,125,107615,5,2,0:0:0:0:
272,118,107740,1,2,0:0:0:0:
274,110,107865,1,2,0:0:0:0:
340,66,107990,5,2,1:2:0:0:
344,73,108115,1,2,0:0:0:0:
347,83,108240,1,2,0:0:0:0:
346,96,108365,1,2,0:0:0:0:
329,118,108490,1,2,0:0:0:0:
300,136,108615,1,2,0:0:0:0:
280,177,108740,6,0,P|307:223|405:227,1,140.940003440918,2|2,1:2|0:0,0:0:0:0:
388,235,109365,1,0,0:0:0:0:
316,312,109490,6,0,P|311:294|309:260,1,46.9800011469727,2|0,1:2|0:0,0:0:0:0:
440,139,109740,2,0,P|448:168|452:198,1,46.9800011469727,2|0,0:2|0:0,0:0:0:0:
512,330,109990,2,0,P|492:320|458:309,1,46.9800011469727,2|0,0:0|0:0,0:0:0:0:
280,177,110240,6,0,P|208:190|163:259,1,140.940003440918,2|2,1:2|0:0,0:0:0:0:
167,240,110865,1,2,0:0:0:0:
86,332,110990,2,0,P|42:350|-12:366,2,93.9600022939454,2|0|0,1:2|0:0|0:0,0:0:0:0:
172,245,111740,6,0,P|164:153|148:51,1,187.920004587891,2|0,1:2|0:0,0:0:0:0:
140,55,112490,6,0,P|156:153|163:241,1,187.920004587891,2|2,1:2|0:0,0:0:0:0:
153,317,113115,1,2,0:0:0:0:
225,288,113240,2,0,P|280:300|328:382,1,140.940003440918,2|2,0:0|0:0,0:0:0:0:
326,366,113865,5,2,0:0:0:0:
440,288,113990,2,0,P|449:243|452:184,1,93.9600022939454,2|0,0:0|0:0,0:0:0:0:
400,137,114490,1,0,0:0:0:0:
454,0,114740,6,0,P|498:23|494:111,1,140.940003440918,2|0,0:0|0:0,0:0:0:0:
399,137,115490,6,0,P|348:121|301:117,1,93.9600022939454,2|0,0:0|0:0,0:0:0:0:
137,9,115990,1,2,0:0:0:0:
1,145,116240,6,0,P|33:144|61:92,1,93.9600022939454,2|0,0:0|0:0,0:0:0:0:
137,9,116615,2,0,P|175:9|199:65,1,93.9600022939454,2|0,0:0|0:0,0:0:0:0:
221,144,116990,6,0,P|207:218|197:287,1,140.940003440918,2|0,0:0|0:0,0:0:0:0:
65,381,117490,1,2,0:0:0:0:
65,381,117740,6,0,P|50:328|53:269,1,93.9600022939454,2|0,0:0|0:0,0:0:0:0:
181,190,118115,2,0,P|193:235|196:296,1,93.9600022939454,2|0,0:0|0:0,0:0:0:0:
306,356,118490,5,2,0:0:0:0:
342,323,118615,1,2,0:0:0:0:
344,296,118740,1,2,0:0:0:0:
331,275,118865,1,2,0:0:0:0:
315,263,118990,1,2,0:0:0:0:
310,253,119115,1,2,0:0:0:0:
311,245,119240,6,0,L|336:388,1,140.940003440918,2|2,1:2|0:0,0:0:0:0:
478,172,119865,5,2,0:0:0:0:
478,172,119990,2,0,L|465:236,1,46.9800011469727,2|0,1:2|0:0,0:0:0:0:
348,90,120240,2,0,L|298:69,1,46.9800011469727,2|0,0:0|0:0,0:0:0:0:
440,61,120490,6,0,L|458:7,1,46.9800011469727,2|0,0:0|0:0,0:0:0:0:
244,150,120740,2,0,L|141:183,1,93.9600022939454,2|2,1:2|0:0,0:0:0:0:
304,71,121115,2,0,L|363:96,1,46.9800011469727,2|0,0:0|0:0,0:0:0:0:
468,218,121365,1,2,0:0:0:0:
387,270,121490,6,0,P|376:299|370:333,1,46.9800011469727,2|0,1:2|0:0,0:0:0:0:
468,218,121740,2,0,P|508:267|503:355,1,140.940003440918,2|0,0:0|0:0,0:0:0:0:
334,176,122240,6,0,L|239:148,1,93.9600022939454,2|0,1:2|0:0,0:0:0:0:
118,260,122615,2,0,L|15:287,1,93.9600022939454,2|0,0:0|0:0,0:0:0:0:
27,283,122990,1,2,1:2:0:0:
86,76,123240,6,0,P|125:114|118:160,1,93.9600022939454,2|2,0:0|0:0,0:0:0:0:
278,277,123740,6,0,P|268:235|335:175,1,140.940003440918,2|0,1:2|0:0,0:0:0:0:
395,131,124240,2,0,L|458:154,1,46.9800011469727,2|0,0:0|0:0,0:0:0:0:
477,316,124490,5,2,1:2:0:0:
470,322,124615,1,2,0:2:0:0:
459,323,124740,1,2,0:2:0:0:
443,316,124865,1,2,0:2:0:0:
432,293,124990,1,2,0:2:0:0:
455,266,125115,1,2,0:2:0:0:
477,316,125240,6,0,P|429:329|372:351,1,93.9600022939454,2|0,1:2|0:0,0:0:0:0:
278,277,125615,2,0,P|236:265|183:246,1,93.9600022939454,2|0,0:0|0:0,0:0:0:0:
124,288,125990,1,2,1:2:0:0:
40,366,126240,6,0,P|47:348|52:311,1,46.9800011469727,2|0,0:0|0:0,0:0:0:0:
179,202,126490,2,0,P|185:225|189:259,1,46.9800011469727,2|0,0:0|0:0,0:0:0:0:
24,149,126740,6,0,P|33:115|131:109,1,140.940003440918,2|0,1:2|0:0,0:0:0:0:
124,102,127365,1,0,0:0:0:0:
193,63,127490,2,0,P|239:56|288:43,2,93.9600022939454,2|0|2,1:2|0:0|0:0,0:0:0:0:
135,13,128115,1,2,0:0:0:0:
200,145,128240,6,0,P|213:190|225:253,1,93.9600022939454,2|0,1:2|0:0,0:0:0:0:
277,292,128615,2,0,P|272:321|264:343,1,46.9800011469727,2|0,0:0|0:0,0:0:0:0:
198,370,128865,1,2,0:0:0:0:
277,292,128990,6,0,P|337:288|388:358,1,140.940003440918,2|0,1:2|0:0,0:0:0:0:
458,384,129490,1,2,0:0:0:0:
458,384,129615,1,2,0:0:0:0:
512,281,129740,6,0,P|502:235|497:180,1,93.9600022939454,2|0,1:2|0:0,0:0:0:0:
441,138,130115,2,0,P|446:116|455:88,1,46.9800011469727,2|0,0:0|0:0,0:0:0:0:
512,44,130365,1,2,0:0:0:0:
441,138,130490,6,0,P|400:142|344:52,1,140.940003440918,2|2,1:2|0:0,0:0:0:0:
341,71,131115,5,2,0:0:0:0:
231,138,131240,2,0,P|249:73|260:-14,1,140.940003440918,2|2,1:2|0:0,0:0:0:0:
259,0,131865,5,2,0:0:0:0:
338,157,131990,2,0,P|326:202|319:249,2,93.9600022939454,2|2|2,1:2|0:0|0:0,0:0:0:0:
163,301,132740,6,0,P|115:316|59:329,1,93.9600022939454,2|0,1:2|0:0,0:0:0:0:
8,281,133115,1,2,0:0:0:0:
163,301,133365,5,2,0:0:0:0:
209,357,133490,2,0,P|235:366|266:381,1,46.9800011469727,2|0,1:2|0:0,0:0:0:0:
315,329,133740,2,0,P|376:303|454:295,1,140.940003440918,2|0,0:0|0:0,0:0:0:0:
451,372,134240,6,0,P|411:374|396:313,1,93.9600022939454,2|0,1:2|0:0,0:0:0:0:
305,231,134615,2,0,P|334:212|327:144,1,93.9600022939454,2|0,0:0|0:0,0:0:0:0:
441,28,134990,6,0,P|396:47|337:60,1,93.9600022939454,2|2,1:2|0:0,0:0:0:0:
453,175,135490,1,2,0:0:0:0:
183,280,135740,6,0,P|247:300|328:333,2,140.940003440918,2|0|2,1:2|0:0|0:0,0:0:0:0:
183,280,137240,6,0,P|158:314|158:361,1,73.0799977697755,4|0,0:3|0:0,0:0:0:0:
46,230,137490,2,0,P|84:220|121:194,1,73.0799977697755,2|0,0:0|0:0,0:0:0:0:
53,369,137740,2,0,P|36:336|6:310,1,73.0799977697755,2|0,0:0|0:0,0:0:0:0:
183,280,137990,6,0,L|345:332,1,146.159995539551,2|2,0:0|0:0,0:0:0:0:
450,248,138365,2,0,P|435:283|425:324,1,73.0799977697755,2|0,0:0|0:0,0:0:0:0:
357,169,138615,1,2,0:0:0:0:
403,91,138740,6,0,P|434:120|423:164,1,73.0799977697755,4|0,0:3|0:0,0:0:0:0:
264,276,138990,2,0,P|266:240|294:218,1,73.0799977697755,2|0,0:0|0:0,0:0:0:0:
509,214,139240,6,0,P|485:240|443:247,1,73.0799977697755,2|0,0:0|0:0,0:0:0:0:
251,71,139490,2,0,P|288:75|325:113,1,73.0799977697755,2|0,0:0|0:0,0:0:0:0:
357,169,139740,6,0,L|324:340,1,146.159995539551,2|0,0:0|0:0,0:0:0:0:
369,375,140115,1,2,0:0:0:0:
116,275,140240,6,0,P|126:310|133:355,1,73.0799977697755,6|0,0:0|0:0,0:0:0:0:
214,362,140490,2,0,P|197:295|181:204,1,146.159995539551,2|0,0:0|0:0,0:0:0:0:
123,169,140865,1,2,0:0:0:0:
251,71,140990,6,0,P|272:102|263:141,1,73.0799977697755,2|0,0:0|0:0,0:0:0:0:
183,219,141240,2,0,P|117:194|32:177,1,146.159995539551,2|0,0:0|0:0,0:0:0:0:
0,118,141615,1,2,0:0:0:0:
48,301,141740,6,0,P|80:284|122:274,1,73.0799977697755,4|0,0:3|0:0,0:0:0:0:
266,135,141990,2,0,P|321:154|367:235,1,146.159995539551,2|0,0:0|0:0,0:0:0:0:
500,320,142365,1,2,0:0:0:0:
429,383,142490,6,0,L|408:303,1,73.0799977697755,4|0,0:3|0:0,0:0:0:0:
512,167,142740,1,2,0:0:0:0:
371,61,142865,6,0,L|357:136,1,73.0799977697755,4|0,0:3|0:0,0:0:0:0:
509,243,143115,1,2,0:0:0:0:
410,313,143240,6,0,P|340:319|287:399,1,146.159995539551,4|0,1:2|0:0,0:0:0:0:
155,282,143615,1,2,0:0:0:0:
198,221,143740,2,0,P|189:188|182:136,1,73.0799977697755,2|0,0:0|0:0,0:0:0:0:
42,239,143990,6,0,P|61:310|74:400,1,146.159995539551,4|0,1:3|1:0,0:0:0:0:
159,275,144365,1,0,1:0:0:0:
223,349,144490,2,0,P|257:358|305:380,1,73.0799977697755,2|0,0:0|0:0,0:0:0:0:
506,187,144740,6,0,P|433:210|359:227,1,146.159995539551,6|0,1:2|0:0,0:0:0:0:
436,296,145115,1,2,0:0:0:0:
291,372,145240,6,0,P|302:340|313:299,1,73.0799977697755,2|0,0:0|0:0,0:0:0:0:
160,74,145490,2,0,P|113:92|101:189,1,146.159995539551,4|0,1:3|0:0,0:0:0:0:
63,254,145865,5,8,0:0:0:0:
63,254,145927,1,8,0:0:0:0:
63,254,145990,1,8,0:0:0:0:
168,202,146115,1,8,0:0:0:0:
96,178,146240,6,0,L|-3:154,1,99.1799987893067,4|0,1:3|0:0,0:0:0:0:
101,329,146490,1,2,0:0:0:0:
248,221,146615,6,0,L|281:101,1,99.1799987893067,4|0,1:3|0:0,0:0:0:0:
168,202,146865,1,2,0:0:0:0:
312,302,146990,6,0,P|361:316|414:336,1,99.1799987893067,12|0,0:0|0:0,0:0:0:0:
274,125,147240,2,0,L|247:229,1,99.1799987893067,8|0,0:0|0:0,0:0:0:0:
1,360,147490,2,0,P|-3:297|80:255,1,148.76999818396,4|0,1:3|0:0,0:0:0:0:
76,246,147740,5,8,3:0:0:0:
164,384,147865,1,0,1:0:0:0:
312,302,147990,1,0,1:0:0:0:
169,290,148115,5,8,0:3:0:0:
184,307,148240,1,8,0:3:0:0:
207,300,148365,1,8,0:3:0:0:
210,222,148490,5,4,1:2:0:0:
210,222,148740,6,0,B|171:183|229:119|225:158|289:98|247:48,1,198.359997578613,4|0,1:3|0:0,0:0:0:0:
179,76,149115,1,2,0:0:0:0:
284,202,149240,6,0,B|359:224|381:368|295:318|359:254,1,198.359997578613,4|0,1:0|0:0,0:0:0:0:
508,166,149615,1,2,0:3:0:0:
461,105,149740,2,0,B|454:83|432:68|432:68|469:76|464:113,1,99.1799987893067,2|0,0:1|0:0,0:0:0:0:
508,166,149990,6,0,L|347:133,1,148.76999818396,4|0,1:3|0:3,0:0:0:0:
289,121,150240,1,8,0:0:0:0:
432,236,150365,1,0,1:0:0:0:
334,284,150490,6,0,P|321:328|312:372,1,83.52,2|0,0:2|0:0,0:0:0:0:
395,355,150740,6,0,B|408:304|354:266|362:299|286:251|317:194,1,198.359997578613,6|0,1:2|0:0,0:0:0:0:
362,136,151115,1,2,0:3:0:0:
242,316,151240,5,2,0:1:0:0:
432,236,151365,1,2,0:0:0:0:
242,316,151490,6,0,B|214:299|179:297|179:297|144:249|185:222,1,148.76999818396,8|0,0:0|0:0,0:0:0:0:
184,149,151740,1,8,0:0:0:0:
334,284,151865,1,0,1:2:0:0:
457,112,151990,6,0,P|465:73|480:18,1,83.52,2|0,0:0|0:0,0:0:0:0:
472,21,152240,6,0,P|407:25|367:148,1,198.359997578613,4|0,1:0|0:2,0:0:0:0:
270,245,152615,1,2,0:3:0:0:
100,115,152740,6,0,P|150:116|186:156,1,99.1799987893067,2|0,0:0|0:0,0:0:0:0:
312,361,152990,2,0,P|357:368|396:332,1,99.1799987893067,8|0,0:0|0:0,0:0:0:0:
512,255,153240,6,0,P|476:222|416:227,1,99.1799987893067,0|0,1:0|1:0,0:0:0:0:
158,372,153490,2,0,P|107:371|78:317,1,99.1799987893067,2|0,1:2|0:0,0:0:0:0:
267,136,153740,6,0,P|249:230|230:346,1,198.359997578613,4|0,1:2|0:0,0:0:0:0:
122,188,154115,1,10,0:0:0:0:
18,278,154240,6,0,B|45:243|38:187|38:187|48:242|85:254,1,174.869991728257,2|0,0:0|0:0,0:0:0:0:
122,188,154490,5,4,1:3:0:0:
79,335,154615,1,8,1:3:0:0:
31,165,154740,5,8,1:3:0:0:
157,258,154865,1,8,1:3:0:0:
267,136,154990,6,0,B|303:128|303:128|307:124|307:124|360:111,1,83.52,2|0,0:1|0:0,0:0:0:0:
389,176,155240,6,0,B|331:152|331:152|311:91|311:91|239:64,1,198.359997578613,4|0,1:0|0:0,0:0:0:0:
172,44,155615,1,2,0:3:0:0:
31,164,155740,6,0,B|15:144|-14:141|-14:141|90:120,1,148.76999818396,2|0,0:0|0:0,0:0:0:0:
135,172,155990,2,0,P|165:210|140:273,1,99.1799987893067,8|0,0:0|0:0,0:0:0:0:
220,349,156240,5,0,1:0:0:0:
81,228,156365,1,0,1:0:0:0:
267,136,156490,2,0,B|303:128|303:128|307:124|307:124|360:111,1,83.52,2|0,0:0|0:0,0:0:0:0:
456,77,156740,6,0,B|447:25|391:26|391:26|447:59|446:122,1,198.359997578613,4|0,1:2|0:0,0:0:0:0:
312,7,157115,1,2,0:0:0:0:
237,33,157240,2,0,B|209:40|193:55|193:55|203:27|249:22,1,99.1799987893067,2|0,0:0|0:0,0:0:0:0:
346,114,157490,6,0,B|308:201|393:177|349:277,1,148.76999818396,4|0,1:3|0:0,0:0:0:0:
410,309,157740,1,8,0:0:0:0:
283,228,157865,1,0,1:0:0:0:
108,384,157990,6,0,B|140:374|140:374|144:370|144:370|204:352,1,83.52,2|0,0:0|0:0,0:0:0:0:
237,303,158240,6,0,B|241:273|253:238|253:238|235:192|179:204,1,148.76999818396,6|0,1:1|0:0,0:0:0:0:
177,209,158490,1,2,0:0:0:0:
25,224,158615,6,0,B|21:260|9:291|9:291|36:333|84:309,1,148.76999818396,10|0,0:0|0:0,0:0:0:0:
87,305,158865,1,2,0:0:0:0:
186,357,158990,5,0,1:0:0:0:
102,230,159115,1,0,1:0:0:0:
187,202,159240,5,8,0:0:0:0:
233,79,159365,1,0,1:0:0:0:
92,69,159490,6,0,B|83:102|83:102|155:124,1,99.1799987893067,2|0,0:0|0:0,0:0:0:0:
385,260,159740,6,0,B|363:200|363:200|277:230,1,148.76999818396,4|0,1:2|0:0,0:0:0:0:
270,234,159990,1,2,0:0:0:0:
302,365,160115,6,0,P|314:348|312:310,1,49.5899993946533,8|0,0:0|0:0,0:0:0:0:
187,202,160240,1,2,0:0:0:0:
233,79,160365,6,0,P|246:107|250:145,1,49.5899993946533,10|0,0:0|0:0,0:0:0:0:
87,305,160490,1,8,0:0:0:0:
44,240,160615,1,0,1:0:0:0:
101,185,160740,1,2,0:0:0:0:
218,316,160865,2,0,B|278:339|312:284|294:295|328:239|395:263,1,187.920004587891,12|0,0:2|0:0,0:0:0:0:
457,234,161115,2,0,B|464:273|464:273|441:318,1,71.340001088562,2|0,1:2|0:0,0:0:0:0:
439,374,161240,6,0,L|392:167,1,198.359997578613,4|0,1:0|0:0,0:0:0:0:
444,118,161615,1,2,0:3:0:0:
264,7,161740,2,0,P|221:53|252:91,1,99.1799987893067,2|0,0:0|0:0,0:0:0:0:
160,266,161990,6,0,B|182:241|186:197|186:197|206:234|250:249,1,148.76999818396,2|0,1:2|0:0,0:0:0:0:
218,316,162240,1,8,0:0:0:0:
101,185,162365,1,0,1:0:0:0:
239,245,162490,5,8,1:3:0:0:
125,384,162615,1,8,1:3:0:0:
93,313,162740,6,0,B|206:282|166:391|307:360,1,198.359997578613,4|0,1:2|0:0,0:0:0:0:
457,234,163115,1,2,0:3:0:0:
491,325,163240,5,2,0:1:0:0:
369,233,163365,1,2,0:0:0:0:
444,118,163490,6,0,L|400:316,1,198.359997578613,4|8,1:3|0:0,0:0:0:0:
306,154,163865,1,0,1:0:0:0:
336,0,163990,6,0,L|357:94,1,83.52,2|0,0:0|0:0,0:0:0:0:
444,118,164240,6,0,B|416:83|359:96|359:96|343:143|298:158,1,174.869991728257,4|0,1:0|0:0,0:0:0:0:
298,164,164490,1,2,0:0:0:0:
147,59,164615,1,2,0:3:0:0:
204,7,164740,6,0,P|239:34|233:94,1,99.1799987893067,2|0,0:1|0:0,0:0:0:0:
51,220,164990,2,0,P|36:169|74:131,1,99.1799987893067,8|0,0:0|0:0,0:0:0:0:
298,164,165240,6,0,P|263:202|205:193,1,99.1799987893067,0|0,1:0|0:0,0:0:0:0:
55,29,165490,2,0,P|106:29|143:75,1,99.1799987893067,4|0,1:3|0:0,0:0:0:0:
179,133,165740,6,0,L|136:341,1,198.359997578613,4|0,1:2|0:0,0:0:0:0:
75,367,166115,1,2,0:3:0:0:
230,290,166240,2,0,P|267:328|249:381,1,99.1799987893067,2|0,0:0|0:0,0:0:0:0:
51,220,166490,6,0,P|36:169|74:131,1,99.1799987893067,8|0,0:0|1:2,0:0:0:0:
230,290,166740,1,0,1:0:0:0:
75,367,166865,1,0,1:0:0:0:
298,164,166990,2,0,L|387:193,1,83.52,2|0,0:0|0:0,0:0:0:0:
455,248,167240,6,0,B|412:246|385:204|385:204|425:267|396:320,1,198.359997578613,4|0,1:0|0:0,0:0:0:0:
298,164,167615,1,2,0:3:0:0:
357,111,167740,2,0,B|370:91|396:85|396:85|366:77|340:109,1,99.1799987893067,2|0,0:0|0:0,0:0:0:0:
298,164,167990,6,0,B|266:170|238:185|238:185|183:154|210:109,1,148.76999818396,8|0,0:0|0:0,0:0:0:0:
217,107,168240,1,8,0:0:0:0:
379,187,168365,1,0,1:0:0:0:
257,368,168490,6,0,P|221:335|244:278,1,99.1799987893067,2|0,0:0|0:0,0:0:0:0:
357,111,168740,2,0,P|334:207|325:317,1,198.359997578613,4|0,1:0|0:0,0:0:0:0:
206,116,169115,1,2,0:3:0:0:
145,162,169240,2,0,P|132:119|125:57,1,99.1799987893067,2|0,0:0|0:0,0:0:0:0:
0,237,169490,6,0,P|64:229|109:320,1,174.869991728257,4|0,1:3|0:0,0:0:0:0:
103,329,169740,1,8,0:0:0:0:
247,219,169865,1,0,1:0:0:0:
325,306,169990,6,0,P|366:320|415:343,1,83.52,2|0,0:0|0:0,0:0:0:0:
424,250,170240,6,0,B|432:265|478:268|446:180|310:219|325:314,1,198.359997578613,4|0,1:2|0:0,0:0:0:0:
271,357,170615,1,2,0:3:0:0:
145,162,170740,2,0,B|154:130|154:130|149:105|149:105|165:53,1,99.1799987893067,2|0,0:1|0:0,0:0:0:0:
225,26,170990,5,8,0:0:0:0:
70,129,171115,1,0,1:0:0:0:
39,58,171240,5,0,1:0:0:0:
145,162,171365,1,0,1:0:0:0:
48,272,171490,6,0,P|40:234|26:192,1,83.52,2|0,0:0|0:0,0:0:0:0:
70,129,171740,6,0,B|132:108|166:162|166:162|168:237|230:253,1,198.359997578613,4|0,1:0|0:0,0:0:0:0:
381,61,172115,6,0,B|319:40|285:94|285:94|283:169|221:185,1,198.359997578613,12|0,0:0|0:0,0:0:0:0:
206,70,172490,6,0,P|203:63|206:69,1,49.5899993946533,8|0,0:0|0:0,0:0:0:0:
359,171,172615,6,0,P|362:164|359:170,1,49.5899993946533,0|0,1:2|0:0,0:0:0:0:
199,239,172740,5,8,0:0:0:0:
162,304,172865,1,0,1:2:0:0:
211,366,172990,1,0,1:2:0:0:
359,171,173240,6,0,L|381:79,1,73.0799977697755,4|2,1:2|0:0,0:0:0:0:
432,229,173490,1,2,0:0:0:0:
495,190,173615,2,0,L|515:273,1,73.0799977697755,0|0,1:0|0:0,0:0:0:0:
380,364,173865,1,0,1:0:0:0:
407,299,173990,1,4,1:3:0:0:
359,171,174240,5,8,0:0:0:0:
285,148,174365,1,2,0:0:0:0:
174,271,174490,5,2,1:2:0:0:
249,244,174615,1,2,0:0:0:0:
134,109,174740,6,0,B|103:155|155:209|163:169|201:243|168:279,1,180.959998895508,4|0,1:0|0:0,0:0:0:0:
114,318,175115,1,2,0:3:0:0:
20,216,175240,6,0,B|56:227|56:227|62:234|62:234|108:249,1,90.4799994477539,2|0,1:2|0:0,0:0:0:0:
262,358,175490,2,0,B|320:334|320:334|339:278|339:278|404:249,1,180.959998895508,8|0,0:0|0:0,0:0:0:0:
463,227,175865,1,2,0:0:0:0:
309,76,175990,6,0,P|290:117|292:164,1,90.4799994477539,2|0,1:2|0:0,0:0:0:0:
476,303,176240,2,0,P|505:216|496:115,1,180.959998895508,4|0,1:2|0:0,0:0:0:0:
495,47,176615,6,0,P|447:57|427:105,1,90.4799994477539,0|0,1:0|0:0,0:0:0:0:
291,161,176865,1,0,1:0:0:0:
229,104,176990,6,0,P|206:38|90:37,1,180.959998895508,8|0,0:0|0:0,0:0:0:0:
229,104,177365,1,2,0:0:0:0:
17,222,177490,2,0,P|28:184|38:124,1,90.4799994477539,0|0,1:0|0:0,0:0:0:0:
125,109,177740,6,0,P|101:201|85:298,1,180.959998895508,4|2,1:0|0:0,0:0:0:0:
17,222,178115,1,0,1:0:0:0:
151,326,178240,6,0,P|121:360|54:360,1,90.4799994477539,0|0,1:0|0:0,0:0:0:0:
208,237,178490,2,0,P|272:250|305:372,1,180.959998895508,8|0,0:0|1:0,0:0:0:0:
208,237,178865,1,0,1:0:0:0:
336,153,178990,2,0,P|320:200|308:256,1,90.4799994477539,0|0,1:0|0:0,0:0:0:0:
90,40,179240,6,0,B|121:-17|186:7|186:7|181:55|217:90,1,180.959998895508,12|0,0:0|0:0,0:0:0:0:
310,239,179615,1,8,0:0:0:0:
336,153,179740,5,0,1:0:0:0:
205,232,179865,1,0,1:0:0:0:
336,153,179990,2,0,L|429:131,1,90.4799994477539,8|0,0:0|0:0,0:0:0:0:
275,23,180240,5,8,0:0:0:0:
444,133,180365,1,0,1:0:0:0:
310,239,180490,5,8,1:3:0:0:
444,133,180615,1,0,1:0:0:0:
397,56,180740,6,0,P|412:149|445:248,1,180.959998895508,4|0,1:0|0:0,0:0:0:0:
287,382,181115,1,2,0:0:0:0:
336,325,181240,2,0,P|326:284|306:232,1,90.4799994477539,0|0,1:0|0:0,0:0:0:0:
136,132,181490,6,0,P|80:157|85:269,1,180.959998895508,8|0,0:0|0:0,0:0:0:0:
103,336,181865,1,2,0:0:0:0:
255,162,181990,2,0,P|243:120|233:62,1,90.4799994477539,2|0,1:2|0:0,0:0:0:0:
350,178,182240,6,0,P|261:198|162:233,1,180.959998895508,4|0,1:2|0:0,0:0:0:0:
336,83,182615,2,0,P|380:73|423:59,1,90.4799994477539,2|0,1:2|0:0,0:0:0:0:
294,0,182865,1,0,1:0:0:0:
458,170,182990,6,0,P|394:178|376:295,1,180.959998895508,8|0,0:0|0:0,0:0:0:0:
421,329,183365,1,2,0:0:0:0:
262,384,183490,2,0,L|277:276,1,90.4799994477539,4|0,1:3|0:0,0:0:0:0:
130,109,183740,6,0,B|100:147|100:147|112:206,1,90.4799994477539,4|0,1:2|0:0,0:0:0:0:
176,227,183990,2,0,B|199:192|199:192|191:143,1,90.4799994477539,2|0,0:0|0:0,0:0:0:0:
31,244,184240,6,0,B|61:277|61:277|115:267,1,90.4799994477539,2|0,1:2|0:0,0:0:0:0:
274,93,184490,2,0,B|244:60|244:60|190:70,1,90.4799994477539,10|0,0:2|0:0,0:0:0:0:
290,227,184740,6,0,B|350:252|350:252|364:305|364:305|436:335,1,180.959998895508,0|0,1:0|1:0,0:0:0:0:
488,357,185115,1,2,0:0:0:0:
406,217,185240,6,0,P|343:219|291:330,1,180.959998895508,12|8,0:0|1:3,0:0:0:0:
406,217,185615,1,8,0:0:0:0:
274,93,185740,5,0,1:0:0:0:
346,127,185865,1,0,1:0:0:0:
145,215,185990,5,0,1:0:0:0:
170,140,186115,1,8,0:0:0:0:
290,227,186240,5,0,1:0:0:0:
197,63,186365,1,8,0:0:0:0:
267,112,186490,5,2,1:2:0:0:
145,215,186615,1,0,1:0:0:0:
262,384,186740,6,0,B|243:345|287:297|283:330|337:273|287:219,1,180.959998895508,4|0,1:0|0:0,0:0:0:0:
170,140,187115,1,2,0:0:0:0:
83,256,187240,6,0,B|57:265|45:280|45:280|50:253|82:248,1,90.4799994477539,2|0,1:1|0:0,0:0:0:0:
267,112,187490,2,0,L|443:173,1,180.959998895508,8|0,0:0|0:0,0:0:0:0:
479,237,187865,1,2,0:0:0:0:
385,114,187990,2,0,P|376:72|419:32,1,90.4799994477539,0|0,1:1|0:0,0:0:0:0:
512,171,188240,6,0,P|441:226|335:221,1,180.959998895508,4|0,1:2|0:0,0:0:0:0:
418,36,188615,2,0,P|459:57|462:101,2,90.4799994477539,0|0|0,1:0|0:0|1:0,0:0:0:0:
292,157,188990,6,0,P|275:201|264:260,1,90.4799994477539,8|0,0:0|0:0,0:0:0:0:
448,368,189240,2,0,P|468:304|479:225,1,135.719999171631,2|0,0:0|0:0,0:0:0:0:
482,226,189490,1,0,1:0:0:0:
226,346,189740,6,0,P|179:357|132:377,1,90.4799994477539,4|0,1:2|0:0,0:0:0:0:
199,177,189990,2,0,P|232:212|272:242,1,90.4799994477539,2|0,0:2|0:0,0:0:0:0:
68,292,190240,2,0,P|81:245|88:195,1,90.4799994477539,2|0,1:2|0:0,0:0:0:0:
200,91,190490,6,0,P|177:181|161:292,1,180.959998895508,8|2,0:0|0:0,0:0:0:0:
23,148,190865,1,2,0:0:0:0:
113,38,190990,2,0,P|107:82|90:140,1,90.4799994477539,2|0,1:2|0:0,0:0:0:0:
295,329,191240,6,0,P|253:260|151:279,1,180.959998895508,14|0,0:0|0:0,0:0:0:0:
362,112,191615,1,8,0:0:0:0:
314,57,191740,2,0,P|280:94|298:151,1,90.4799994477539,2|0,0:0|1:0,0:0:0:0:
467,281,191990,6,0,L|430:129,1,135.719999171631,8|0,0:0|0:0,0:0:0:0:
440,136,192240,1,8,0:0:0:0:
265,233,192365,1,0,1:0:0:0:
398,339,192490,5,10,0:0:0:0:
283,131,192615,1,0,1:0:0:0:
382,25,192740,6,0,P|363:108|349:225,1,180.959998895508,4|0,1:1|0:0,0:0:0:0:
213,379,193115,2,0,P|204:337|257:292,1,90.4799994477539,2|0,0:0|0:0,0:0:0:0:
265,233,193365,1,2,1:2:0:0:
120,104,193490,6,0,P|173:113|202:194,1,135.719999171631,10|0,0:0|0:0,0:0:0:0:
265,233,193740,1,2,0:0:0:0:
120,104,193990,6,0,P|107:65|100:13,1,90.4799994477539,2|0,1:2|0:0,0:0:0:0:
265,233,194240,2,0,P|182:253|93:290,1,180.959998895508,2|0,1:2|0:0,0:0:0:0:
0,146,194615,2,0,P|41:155|65:201,1,90.4799994477539,0|0,1:0|0:0,0:0:0:0:
135,226,194865,1,0,1:0:0:0:
62,384,194990,6,0,P|41:329|107:287,1,135.719999171631,8|0,0:0|0:0,0:0:0:0:
135,226,195240,1,8,0:3:0:0:
293,351,195365,1,0,1:0:0:0:
359,297,195490,6,0,B|405:283|405:283|425:249|425:249|491:229,1,135.719999171631,0|0,1:0|0:0,0:0:0:0:
471,235,195740,6,0,P|502:272|493:326,1,90.4799994477539,4|0,1:0|0:0,0:0:0:0:
318,161,195990,1,2,0:2:0:0:
365,99,196115,6,0,P|379:59|437:37,1,90.4799994477539,2|0,1:2|0:0,0:0:0:0:
356,292,196365,1,2,0:0:0:0:
284,263,196490,6,0,P|241:261|211:218,1,90.4799994477539,2|0,1:2|0:0,0:0:0:0:
471,235,196740,2,0,P|502:273|493:326,1,90.4799994477539,8|0,0:0|0:0,0:0:0:0:
365,99,196990,2,0,P|379:59|437:37,1,90.4799994477539,2|0,1:2|0:0,0:0:0:0:
284,263,197240,5,12,0:1:0:0:
284,263,197490,5,8,0:0:0:0:
138,194,197615,1,8,0:0:0:0:
53,327,197740,1,0,1:0:0:0:
53,327,197990,5,0,1:0:0:0:
31,251,198115,1,8,0:0:0:0:
221,322,198240,5,2,0:0:0:0:
157,370,198365,2,0,P|145:333|136:276,1,90.4799994477539,8|0,0:0|0:0,0:0:0:0:
279,81,198615,5,0,1:0:0:0:
187,26,198740,2,0,P|198:118|224:212,1,180.959998895508,4|0,1:0|1:0,0:0:0:0:
339,334,199115,6,0,P|371:301|359:243,1,90.4799994477539,8|0,0:0|0:0,0:0:0:0:
412,191,199365,1,0,1:0:0:0:
221,322,199490,1,0,1:0:0:0:
21,0,199740,6,0,P|54:38|108:43,1,90.4799994477539,12|0,0:0|0:0,0:0:0:0:
220,203,199990,2,0,P|261:192|290:138,1,90.4799994477539,0|0,1:0|0:0,0:0:0:0:
79,372,200240,6,0,P|38:310|82:209,1,180.959998895508,4|0,1:0|1:0,0:0:0:0:
187,26,200615,2,0,L|159:135,1,90.4799994477539,8|0,0:0|1:0,0:0:0:0:
97,141,200865,1,0,1:0:0:0:
201,323,200990,5,8,1:3:0:0:
258,267,201115,1,8,1:3:0:0:
220,203,201240,1,8,1:3:0:0:
166,256,201365,1,8,1:3:0:0:
281,347,201490,6,0,P|327:349|395:284,1,135.719999171631,12|0,0:0|0:0,0:0:0:0:
391,293,201740,6,0,P|377:229|366:144,1,146.159995539551,4|0,1:2|0:0,0:0:0:0:
313,96,202115,1,2,0:0:0:0:
376,0,202240,2,0,P|385:38|386:78,1,73.0799977697755,2|0,1:2|0:0,0:0:0:0:
269,221,202490,2,0,P|258:184|257:147,1,73.0799977697755,8|0,0:0|0:0,0:0:0:0:
129,34,202740,2,0,P|143:71|150:125,1,73.0799977697755,2|0,0:0|0:0,0:0:0:0:
6,248,202990,1,4,1:3:0:0:
6,248,203240,6,0,P|34:230|76:220,1,73.0799977697755,0|0,1:0|0:0,0:0:0:0:
138,186,203490,1,2,0:0:0:0:
199,303,203615,6,0,L|282:330,1,73.0799977697755,0|0,1:0|0:0,0:0:0:0:
318,384,203865,1,0,1:0:0:0:
444,255,203990,5,8,0:0:0:0:
371,287,204115,1,2,0:0:0:0:
450,288,204240,5,2,0:0:0:0:
361,254,204365,1,2,0:0:0:0:
457,181,204490,5,2,1:2:0:0:
409,355,204615,1,0,1:0:0:0:
457,181,204740,6,0,B|443:104|397:153|384:52,1,146.159995539551,4|0,1:2|0:0,0:0:0:0:
463,62,205115,1,2,0:0:0:0:
306,188,205240,2,0,P|270:197|221:216,1,73.0799977697755,2|0,1:2|0:0,0:0:0:0:
73,90,205490,6,0,P|129:88|174:173,1,146.159995539551,8|2,0:0|0:0,0:0:0:0:
236,209,205865,1,2,0:0:0:0:
135,344,205990,2,0,P|126:313|122:261,1,73.0799977697755,2|0,1:2|0:0,0:0:0:0:
285,146,206240,6,0,P|316:211|319:294,1,146.159995539551,2|2,1:2|0:0,0:0:0:0:
370,340,206615,1,2,0:0:0:0:
236,209,206740,2,0,P|199:196|153:186,1,73.0799977697755,2|0,1:2|0:0,0:0:0:0:
379,138,206990,6,0,P|415:152|462:162,1,73.0799977697755,10|0,0:0|0:0,0:0:0:0:
298,0,207240,2,0,P|269:28|277:76,1,73.0799977697755,2|0,0:0|0:0,0:0:0:0:
460,148,207490,6,0,P|456:108|417:87,1,73.0799977697755,2|0,1:2|0:0,0:0:0:0:
236,209,207740,6,0,P|215:284|197:373,1,146.159995539551,4|0,1:2|0:0,0:0:0:0:
320,284,208115,1,2,0:0:0:0:
383,325,208240,2,0,P|392:293|398:246,1,73.0799977697755,0|0,1:0|0:0,0:0:0:0:
177,75,208490,6,0,P|120:79|87:154,1,146.159995539551,8|0,0:0|0:0,0:0:0:0:
267,58,208865,1,2,0:0:0:0:
311,122,208990,2,0,P|347:131|394:149,1,73.0799977697755,0|0,1:0|0:0,0:0:0:0:
236,209,209240,2,0,P|166:187|92:173,1,146.159995539551,2|0,1:2|0:0,0:0:0:0:
230,129,209615,1,0,1:0:0:0:
320,284,209740,2,0,P|306:322|298:357,1,73.0799977697755,2|0,0:0|0:0,0:0:0:0:
506,250,209990,6,0,P|527:205|473:129,1,146.159995539551,8|2,0:0|0:0,0:0:0:0:
425,79,210365,1,2,0:0:0:0:
230,129,210490,2,0,P|267:141|300:158,1,73.0799977697755,0|0,1:0|0:0,0:0:0:0:
374,347,210740,6,0,P|308:321|219:293,1,146.159995539551,2|0,1:0|0:0,0:0:0:0:
177,255,211115,1,2,0:0:0:0:
28,379,211240,6,0,P|66:371|83:340,1,73.0799977697755,0|0,1:0|0:0,0:0:0:0:
177,255,211490,2,0,L|145:100,2,146.159995539551,8|8|0,0:0|0:0|1:0,0:0:0:0:
374,347,212240,6,0,P|356:281|340:193,1,146.159995539551,14|0,0:0|0:0,0:0:0:0:
147,111,212615,2,0,L|177:255,1,146.159995539551,12|8,0:0|0:0,0:0:0:0:
329,69,212990,1,8,0:0:0:0:
226,129,213115,1,0,1:0:0:0:
339,216,213240,1,0,1:0:0:0:
304,149,213365,1,0,1:0:0:0:
304,149,213490,1,8,0:0:0:0:
109,331,213740,6,0,L|40:348,1,59.160000361084,4|0,1:3|0:0,0:0:0:0:
177,255,214115,1,0,1:0:0:0:
177,255,214490,6,0,L|168:216,1,29.580000180542,0|0,1:0|0:0,0:0:0:0:
288,288,214740,2,0,L|301:338,1,44.370000270813,4|0,1:3|0:0,0:0:0:0:
299,330,214990,1,0,1:0:0:0:
353,225,215240,5,0,1:0:0:0:
228,384,215365,2,0,L|213:321,1,59.160000361084,4|0,1:3|1:0,0:0:0:0:
353,225,215865,5,4,0:3:0:0:
410,274,215990,2,0,L|449:285,1,29.580000180542,0|0,1:0|0:0,0:0:0:0:
318,153,216240,2,0,L|289:144,1,29.580000180542,0|0,1:0|0:0,0:0:0:0:
458,105,216490,6,0,L|450:147,1,29.580000180542,2|0,1:2|0:0,0:0:0:0:
324,293,216740,2,0,L|338:226,1,59.160000361084,4|0,1:3|1:0,0:0:0:0:
336,235,217115,1,0,1:0:0:0:
128,42,217490,6,0,L|88:30,1,29.580000180542,0|0,1:0|0:0,0:0:0:0:
167,118,217740,2,0,L|146:184,1,59.160000361084,4|0,1:3|1:0,0:0:0:0:
87,217,218240,5,0,1:0:0:0:
248,133,218365,2,0,L|268:68,1,59.160000361084,4|0,1:3|1:0,0:0:0:0:
265,76,218865,5,4,0:3:0:0:
426,262,218990,2,0,L|392:252,1,29.580000180542,0|0,1:0|0:0,0:0:0:0:
140,378,219240,2,0,L|207:359,1,59.160000361084,4|2,1:3|1:0,0:0:0:0:
196,361,219740,6,0,L|175:270,1,88.740000541626,4|2,1:0|1:2,0:0:0:0:
176,274,220365,5,2,0:0:0:0:
268,81,220490,2,0,L|285:144,1,59.160000361084,4|4,1:2|0:3,0:0:0:0:
283,138,220990,1,0,1:0:0:0:
144,29,221240,6,0,L|55:1,1,88.740000541626,4|2,1:0|1:2,0:0:0:0:
144,29,221740,1,0,1:0:0:0:
2,130,221865,1,0,1:0:0:0:
64,170,221990,2,0,L|129:153,1,59.160000361084,2|2,1:0|1:2,0:0:0:0:
121,155,222490,1,2,1:2:0:0:
339,311,222740,5,4,1:0:0:0:
256,192,222802,12,0,225677,0:0:0:0:
256,192,225740,5,2,0:0:0:0:
62,168,237740,6,0,P|133:163|182:230,1,153.120004672852,2|0,0:0|0:0,0:0:0:0:
181,223,238490,2,0,P|218:235|256:250,2,76.5600023364259,2|0|0,0:0|0:0|0:0,0:0:0:0:
310,182,239240,2,0,P|296:126|286:69,1,114.840003504639,2|0,0:0|0:0,0:0:0:0:
356,249,239740,5,2,0:0:0:0:
436,235,239865,1,2,0:0:0:0:
417,162,239990,2,0,P|432:87|456:7,1,153.120004672852,2|0,0:0|0:0,0:0:0:0:
490,366,240740,6,0,P|458:320|402:315,1,114.840003504639,2|0,0:0|0:0,0:0:0:0:
333,357,241240,1,2,0:0:0:0:
179,325,241490,2,0,P|168:284|156:250,2,76.5600023364259,2|2|2,0:0|0:0|0:0,0:0:0:0:
267,223,242240,6,0,P|280:163|295:110,1,114.840003504639,2|0,0:0|0:0,0:0:0:0:
237,47,242740,1,2,0:0:0:0:
65,30,242990,2,0,P|98:94|171:98,1,153.120004672852,2|0,0:0|0:0,0:0:0:0:
358,60,243740,6,0,B|457:78|383:116|495:143,1,153.120004672852,2|0,0:0|0:0,0:0:0:0:
481,139,244490,2,0,P|486:103|496:64,1,76.5600023364259,2|0,0:0|0:0,0:0:0:0:
411,213,244990,1,2,0:0:0:0:
512,367,245240,6,0,P|481:321|424:317,1,114.840003504639,2|0,0:0|0:0,0:0:0:0:
364,363,245740,1,2,0:0:0:0:
251,234,245990,6,0,P|224:280|119:284,1,153.120004672852,2|0,0:0|0:0,0:0:0:0:
37,198,246740,6,0,P|47:232|55:272,1,76.5600023364259,2|0,0:0|0:0,0:0:0:0:
198,380,247115,2,0,P|205:342|216:305,1,76.5600023364259,2|0,0:0|0:0,0:0:0:0:
334,197,247490,2,0,P|333:128|307:46,1,153.120004672852,2|0,0:0|0:0,0:0:0:0:
306,331,248240,5,2,0:0:0:0:
256,192,248302,12,0,252614,0:0:0:0:
334,65,252740,6,0,B|303:72|303:72|292:83|292:83|256:94,1,81.7799987521363,0|0,1:3|0:0,0:0:0:0:
18,51,252990,5,8,1:3:0:0:
154,137,253115,1,8,1:3:0:0:
377,0,253240,5,0,1:3:0:0:
259,92,253365,1,0,1:3:0:0:
493,268,253490,5,0,1:3:0:0:
493,268,253740,6,0,B|356:231|356:231|342:261|313:284,1,198.359997578613,4|0,1:3|0:0,0:0:0:0:
407,327,254115,1,2,0:0:0:0:
252,223,254240,6,0,B|228:278|296:329|287:284|354:338|324:385,1,198.359997578613,4|0,1:1|0:0,0:0:0:0:
207,143,254615,1,2,0:3:0:0:
283,100,254740,2,0,B|263:89|273:70|263:58|263:58|297:74|285:109,1,99.1799987893067,2|0,0:1|0:0,0:0:0:0:
207,143,254990,6,0,P|233:74|251:1,1,148.76999818396,4|0,1:3|0:0,0:0:0:0:
65,80,255240,1,8,0:2:0:0:
121,163,255365,1,8,0:3:0:0:
16,257,255490,6,0,P|9:230|0:204,1,55.68,0|0,1:0|0:0,0:0:0:0:
203,284,255740,6,0,B|206:346|128:376|83:333|83:333|91:316|91:301,1,198.359997578613,4|0,1:2|0:0,0:0:0:0:
279,228,256115,1,2,0:3:0:0:
271,384,256240,5,2,0:1:0:0:
452,260,256365,1,2,0:0:0:0:
279,228,256490,6,0,B|342:247|342:247|377:295|336:322,1,148.76999818396,8|0,0:2|0:0,0:0:0:0:
346,330,256740,1,8,0:0:0:0:
198,194,256865,1,0,0:0:0:0:
271,64,256990,6,0,B|282:100|282:100|291:109|291:109|301:141,1,83.52,2|0,1:2|0:0,0:0:0:0:
511,79,257240,2,0,B|458:51|420:91|420:91|425:164|339:182,1,198.359997578613,4|0,1:1|0:0,0:0:0:0:
271,64,257615,5,2,0:3:0:0:
198,194,257740,2,0,P|152:212|106:234,1,99.1799987893067,2|0,0:1|0:0,0:0:0:0:
53,68,257990,6,0,P|100:75|127:115,1,99.1799987893067,8|0,0:0|0:0,0:0:0:0:
74,324,258240,2,0,P|40:368|-20:363,1,99.1799987893067,4|0,1:3|0:0,0:0:0:0:
262,254,258490,2,0,P|295:267|329:281,1,73.0799977697755,2|0,0:0|0:0,0:0:0:0:
294,376,258740,6,0,B|275:313|359:282|345:313|405:287|403:234,1,198.359997578613,4|0,1:2|0:0,0:0:0:0:
449,337,259115,1,2,0:0:0:0:
404,140,259240,2,0,B|380:127|380:127|447:108|447:108|509:142|473:212,1,187.920004587891,2|0,0:0|0:0,0:0:0:0:
329,280,259490,5,4,1:3:0:0:
189,182,259615,1,8,3:0:0:0:
135,245,259740,5,8,0:0:0:0:
314,179,259865,1,8,0:3:0:0:
144,107,259990,6,0,B|145:66|174:51|174:51|156:77|161:103,1,122.669998128204,2|0,0:1|0:0,0:0:0:0:
127,237,260240,6,0,B|84:225|54:246|54:246|11:215|25:157|75:156,1,198.359997578613,4|0,1:1|0:0,0:0:0:0:
135,245,260615,1,2,0:3:0:0:
8,359,260740,6,0,B|35:326|84:338|84:338|100:385|146:388,1,148.76999818396,2|0,0:0|0:0,0:0:0:0:
193,329,260990,2,0,B|236:320|236:320|249:306|249:306|309:296,1,99.1799987893067,8|0,0:0|0:0,0:0:0:0:
469,384,261240,5,8,0:0:0:0:
380,325,261365,1,0,1:2:0:0:
451,170,261490,2,0,P|424:182|420:246,1,83.52,2|0,0:2|0:0,0:0:0:0:
488,271,261740,6,0,B|497:219|440:185|451:217|372:174|398:115,1,198.359997578613,4|0,1:2|0:0,0:0:0:0:
462,62,262115,1,2,0:2:0:0:
395,108,262240,2,0,P|357:95|301:74,1,83.52,2|0,0:0|0:2,0:0:0:0:
99,86,262490,6,0,B|83:23|145:-14|196:9|196:9|194:29|200:52,1,187.920004587891,4|0,1:3|0:0,0:0:0:0:
157,143,262740,1,8,0:0:0:0:
275,12,262865,1,2,0:3:0:0:
157,143,262990,6,0,B|167:175|167:175|171:179|171:179|189:239,1,83.52,2|0,0:0|0:0,0:0:0:0:
76,380,263240,6,0,P|9:364|2:290,1,148.76999818396,4|0,1:1|0:0,0:0:0:0:
10,283,263490,1,2,0:0:0:0:
161,340,263615,6,0,B|205:340|231:359|231:359|270:338|259:290,1,148.76999818396,2|0,0:0|0:0,0:0:0:0:
151,329,263865,1,2,0:0:0:0:
363,375,263990,5,4,1:3:0:0:
465,307,264115,1,8,0:3:0:0:
334,248,264240,5,0,1:0:0:0:
252,167,264365,1,8,1:3:0:0:
454,75,264490,6,0,B|458:103|428:114|428:114|444:98|451:61,1,96.5700023576661,2|0,0:2|0:0,0:0:0:0:
372,19,264740,2,0,P|391:87|413:185,1,148.76999818396,12|0,3:2|0:0,0:0:0:0:
421,239,264990,1,0,0:0:0:0:
301,86,265115,6,0,B|284:80|284:80|277:83|277:83|254:74,1,49.5899993946533,8|0,0:0|0:0,0:0:0:0:
68,36,265240,1,2,0:0:0:0:
205,174,265365,6,0,B|188:180|188:180|181:177|181:177|158:186,1,49.5899993946533,4|0,0:3|0:0,0:0:0:0:
57,255,265490,6,0,B|30:204|96:158|84:195|160:150|129:92,1,200.969996013474,2|0,1:2|0:0,0:0:0:0:
68,36,265740,5,8,0:0:0:0:
0,112,265865,1,0,1:2:0:0:
205,174,265990,5,2,0:0:0:0:
272,297,266115,1,8,0:0:0:0:
43,382,266240,6,0,B|108:354|108:354|124:305|124:305|210:270,1,198.359997578613,4|0,1:1|0:0,0:0:0:0:
272,297,266615,1,2,0:3:0:0:
380,173,266740,2,0,B|381:149|350:136|350:136|369:156|373:178,1,96.5700023576661,2|0,0:1|0:0,0:0:0:0:
330,241,266990,6,0,B|361:261|399:260|399:260|430:298|390:332,1,148.76999818396,8|0,0:0|0:0,0:0:0:0:
272,180,267240,1,8,0:0:0:0:
338,47,267365,1,0,1:0:0:0:
204,0,267490,5,4,1:3:0:0:
248,88,267615,1,0,1:0:0:0:
82,227,267740,6,0,B|61:240|61:240|-4:217|-4:217|-39:146|27:121,1,198.359997578613,4|0,1:2|0:0,0:0:0:0:
107,145,268115,1,2,0:3:0:0:
70,316,268240,5,2,0:0:0:0:
14,126,268365,1,2,0:0:0:0:
147,273,268490,6,0,B|187:269|214:250|214:250|263:267|248:324,1,148.76999818396,8|0,0:0|0:0,0:0:0:0:
200,370,268740,1,2,1:0:0:0:
316,247,268865,1,2,0:0:0:0:
427,320,268990,6,0,B|467:308|467:308|471:302|471:302|504:292,1,83.52,2|0,0:0|0:0,0:0:0:0:
405,239,269240,6,0,B|402:289|462:315|448:284|532:315|513:378,1,187.920004587891,4|0,1:1|0:0,0:0:0:0:
428,150,269490,1,2,0:0:0:0:
358,92,269615,1,2,0:3:0:0:
475,25,269740,6,0,P|513:60|507:115,1,99.1799987893067,2|0,0:0|0:0,0:0:0:0:
308,164,269990,2,0,P|317:116|358:91,1,99.1799987893067,10|0,0:0|0:0,0:0:0:0:
229,203,270240,6,0,P|182:205|151:164,1,99.1799987893067,2|0,1:0|1:0,0:0:0:0:
166,4,270490,2,0,P|207:28|211:83,1,99.1799987893067,4|0,1:3|0:0,0:0:0:0:
0,235,270740,6,0,B|32:204|76:216|99:250|99:250|66:284|66:347,1,198.359997578613,4|0,1:2|0:0,0:0:0:0:
151,167,271115,1,2,0:3:0:0:
139,382,271240,2,0,B|170:359|206:358|206:358|226:321|211:296|186:277,1,148.76999818396,2|0,0:0|0:0,0:0:0:0:
286,366,271490,5,8,0:0:0:0:
392,317,271615,1,0,1:0:0:0:
477,372,271740,5,0,1:0:0:0:
353,235,271865,1,0,1:0:0:0:
442,63,271990,6,0,B|475:52|475:52|484:33|484:33|524:21,1,83.52,2|0,0:0|0:0,0:0:0:0:
479,137,272240,6,0,B|479:169|448:180|448:180|368:155|368:155|346:132|371:102,1,198.359997578613,4|0,1:1|0:0,0:0:0:0:
359,25,272615,1,2,0:3:0:0:
276,153,272740,2,0,B|243:163|243:163|232:180|232:180|174:202,1,90.4799994477539,2|0,0:0|0:0,0:0:0:0:
155,20,272990,2,0,P|203:21|226:63,1,90.4799994477539,8|0,0:0|0:0,0:0:0:0:
47,250,273240,5,0,1:0:0:0:
94,95,273365,1,2,1:2:0:0:
9,45,273490,5,2,0:0:0:0:
110,182,273615,1,2,0:0:0:0:
56,351,273740,6,0,B|112:370|150:303|111:316|149:246|221:275,1,180.959998895508,4|0,1:2|0:0,0:0:0:0:
323,377,274115,5,2,0:3:0:0:
273,195,274240,2,0,B|267:170|285:141|285:141|249:162|256:213,1,135.719999171631,2|0,0:1|0:0,0:0:0:0:
313,272,274490,6,0,B|334:321|390:312|390:312|402:261|455:254,1,174.869991728257,4|0,1:3|0:0,0:0:0:0:
507,304,274740,1,8,0:0:0:0:
313,272,274865,1,0,1:1:0:0:
427,168,274990,6,0,B|436:136|436:136|442:129|442:129|455:82,1,83.52,2|0,0:0|0:0,0:0:0:0:
360,3,275240,2,0,B|356:38|404:53|404:53|513:27,1,180.959998895508,4|0,1:2|0:0,0:0:0:0:
344,119,275615,1,2,0:3:0:0:
227,23,275740,6,0,B|186:58|192:105|192:105|183:59|146:47,1,161.819993580139,2|0,0:0|0:0,0:0:0:0:
22,103,275990,2,0,B|75:88|111:117|111:117|101:156|133:194,1,161.819993580139,8|0,0:0|0:0,0:0:0:0:
198,216,276240,1,8,0:3:0:0:
22,103,276365,5,0,1:2:0:0:
73,250,276490,2,0,B|54:278|53:308|53:308|18:326|-5:290,1,122.669998128204,2|0,0:0|0:0,0:0:0:0:
162,334,276740,6,0,B|140:321|140:321|207:302|207:302|270:329|245:398,1,198.359997578613,4|0,1:0|0:0,0:0:0:0:
394,280,277115,2,0,B|360:269|360:269|334:273|334:273|290:259,1,99.1799987893067,8|0,0:0|0:0,0:0:0:0:
438,349,277365,1,4,0:3:0:0:
494,232,277490,2,0,P|490:184|449:158,1,99.1799987893067,0|0,1:0|0:0,0:0:0:0:
313,125,277740,2,0,B|303:146|278:160|278:160|382:135,1,148.76999818396,8|0,0:0|0:0,0:0:0:0:
486,77,277990,6,0,B|509:80|519:54|519:54|497:66|482:67,1,83.52,2|0,1:1|0:0,0:0:0:0:
404,40,278240,6,0,B|408:26|420:11|420:11|371:-34|293:-4|282:67,1,198.359997578613,4|0,1:2|0:0,0:0:0:0:
130,81,278615,2,0,P|152:39|200:35,1,99.1799987893067,8|0,0:0|0:0,0:0:0:0:
313,125,278865,1,4,0:3:0:0:
147,264,278990,2,0,P|98:253|83:201,1,99.1799987893067,2|0,1:2|0:0,0:0:0:0:
231,331,279240,6,0,B|274:339|274:339|290:359|290:359|344:370,1,99.1799987893067,8|0,0:0|0:0,0:0:0:0:
512,316,279490,2,0,B|472:280|425:312|425:312|435:363|390:392,1,174.869991728257,2|0,1:1|0:0,0:0:0:0:
245,181,279740,6,0,P|287:214|289:259,1,99.1799987893067,4|0,1:2|0:0,0:0:0:0:
164,382,279990,1,2,0:0:0:0:
0,212,280115,6,0,P|5:164|45:136,1,99.1799987893067,8|0,0:0|0:0,0:0:0:0:
197,92,280365,1,4,0:3:0:0:
23,45,280490,6,0,B|63:44|91:67|91:67|143:57|133:-9,1,148.76999818396,2|0,1:2|0:0,0:0:0:0:
197,92,280740,2,0,B|214:67|214:67|281:57|281:57|344:95|312:137,1,198.359997578613,8|4,0:0|1:3,0:0:0:0:
357,202,281115,1,2,0:0:0:0:
499,73,281240,6,0,B|509:60|523:51|523:51|509:-2|430:-19|394:39,1,198.359997578613,4|0,1:1|0:2,0:0:0:0:
508,158,281615,1,8,0:0:0:0:
388,280,281740,2,0,P|352:250|359:197,1,99.1799987893067,4|0,0:3|0:0,0:0:0:0:
393,40,281990,5,0,1:0:0:0:
435,210,282115,1,0,1:0:0:0:
355,201,282240,5,12,1:3:0:0:
499,73,282365,1,0,1:0:0:0:
260,214,282490,6,0,P|222:199|174:183,1,83.52,2|0,1:2|0:0,0:0:0:0:
175,194,282740,6,0,P|113:178|110:60,1,198.359997578613,4|0,1:0|0:0,0:0:0:0:
204,277,283115,2,0,P|178:323|131:330,1,99.1799987893067,8|0,0:0|0:0,0:0:0:0:
71,273,283365,1,4,0:3:0:0:
250,372,283490,6,0,B|381:344|381:344|385:312|407:283,1,198.359997578613,2|8,1:1|0:0,0:0:0:0:
481,256,283865,1,8,0:3:0:0:
285,176,283990,5,2,0:0:0:0:
332,245,284115,1,4,0:3:0:0:
462,176,284240,2,0,P|446:122|408:105,1,99.1799987893067,4|0,1:2|0:0,0:0:0:0:
194,181,284490,5,0,0:0:0:0:
231,88,284615,1,8,0:0:0:0:
101,149,284740,6,0,B|62:134|62:134|52:119|52:119|11:105,1,99.1799987893067,2|4,0:0|0:3,0:0:0:0:
185,17,284990,2,0,P|229:45|222:104,1,99.1799987893067,0|0,1:0|0:0,0:0:0:0:
194,181,285240,5,8,0:0:0:0:
88,50,285365,1,0,1:0:0:0:
37,257,285490,6,0,P|82:247|136:235,1,83.52,2|0,1:2|0:0,0:0:0:0:
273,337,285740,6,0,B|303:281|232:233|243:275|168:233|195:177,2,198.359997578613,4|2|2,1:0|0:0|0:0,0:0:0:0:
118,238,286490,1,2,0:0:0:0:
273,337,286740,5,2,1:1:0:0:
193,180,286990,6,0,L|206:117,1,57.4200017523194,2|0,0:0|0:0,0:0:0:0:
222,51,287240,1,12,1:1:0:0:
256,192,287302,12,0,290177,0:0:0:0:
100,271,290240,6,0,P|71:227|-12:238,2,128.760003143555,2|0|2,1:2|0:0|0:0,0:0:0:0:
184,383,290865,1,0,1:0:0:0:
232,316,290990,6,0,P|297:298|368:268,2,128.760003143555,2|8|0,1:2|0:0|0:0,0:0:0:0:
177,133,291740,6,0,B|215:117|240:142|240:142|240:177|275:202,1,128.760003143555,2|0,1:2|0:0,0:0:0:0:
164,209,292240,1,2,0:0:0:0:
309,111,292490,6,8,B|356:95|356:95|384:105|384:105|450:85,2,128.760003143555,10|8|10,1:2|0:0|0:0,0:0:0:0:
265,194,293115,1,0,0:0:0:0:
452,316,293240,2,0,P|429:258|369:252,1,128.760003143555,2|0,1:2|0:0,0:0:0:0:
314,314,293615,1,0,1:0:0:0:
250,272,293740,2,0,P|220:286|182:298,1,64.3800015717774,2|0,1:2|0:0,0:0:0:0:
87,367,293990,6,0,B|112:281|112:281|95:262|79:238,2,128.760003143555,10|8|0,1:2|0:0|1:0,0:0:0:0:
10,231,294615,1,0,1:0:0:0:
66,56,294740,6,0,P|17:93|26:154,2,128.760003143555,6|0|2,1:2|0:0|0:0,0:0:0:0:
195,121,295490,2,0,P|229:108|261:100,1,64.3800015717774,10|0,0:0|0:0,0:0:0:0:
313,166,295740,2,0,P|254:183|177:212,1,128.760003143555,8|0,0:0|1:0,0:0:0:0:
399,28,296240,6,0,P|464:41|487:106,2,128.760003143555,2|2|2,1:2|0:0|0:0,0:0:0:0:
361,215,296865,1,0,1:0:0:0:
430,174,296990,6,8,P|450:237|463:315,2,128.760003143555,10|8|0,0:2|0:0|1:0,0:0:0:0:
259,268,297615,1,0,1:0:0:0:
190,206,297740,2,0,P|127:201|82:245,1,128.760003143555,2|0,1:2|0:0,0:0:0:0:
177,378,298115,1,0,1:0:0:0:
244,330,298240,2,0,P|251:297|263:250,1,64.3800015717774,2|0,0:0|1:0,0:0:0:0:
354,138,298490,6,0,P|338:69|332:3,1,128.760003143555,10|0,0:2|0:0,0:0:0:0:
477,16,298865,1,0,1:0:0:0:
496,85,298990,1,2,1:2:0:0:
427,114,299115,1,0,1:0:0:0:
253,51,299240,6,0,P|189:63|127:81,1,128.760003143555,10|0,0:0|0:3,0:0:0:0:
101,238,299615,5,8,0:0:0:0:
172,216,299740,2,0,P|180:182|189:145,1,73.0799977697755,0|0,1:0|0:0,0:0:0:0:
0,243,299990,2,0,P|11:277|17:313,1,73.0799977697755,0|0,1:0|0:0,0:0:0:0:
169,358,300240,1,8,0:0:0:0:
242,323,300365,2,0,B|290:335|290:335|301:354|301:354|347:366,1,109.619996654663,8|0,0:0|0:0,0:0:0:0:
337,364,300615,1,0,1:0:0:0:
469,270,300740,6,0,P|447:211|416:109,2,163.559997504273,14|0|2,1:2|0:0|0:0,0:0:0:0:
512,170,301365,1,0,1:0:0:0:
347,81,301490,2,0,B|297:68|275:124|301:112|277:171|218:155,2,163.559997504273,6|8|0,1:2|0:0|1:0,0:0:0:0:
155,84,302240,6,0,P|185:166|202:241,2,163.559997504273,2|0|2,1:2|0:0|0:0,0:0:0:0:
36,41,302865,1,0,1:0:0:0:
72,107,302990,2,0,P|61:151|44:204,1,81.7799987521363,10|0,0:2|0:0,0:0:0:0:
219,26,303240,2,0,P|285:14|343:85,1,163.559997504273,8|0,0:0|1:0,0:0:0:0:
333,221,303740,6,0,P|355:294|450:298,2,163.559997504273,2|0|2,1:2|0:0|0:0,0:0:0:0:
481,100,304365,1,0,0:0:0:0:
505,172,304490,2,0,P|468:182|426:194,1,81.7799987521363,10|0,0:2|0:0,0:0:0:0:
284,320,304740,2,0,P|244:298|235:263,1,81.7799987521363,10|0,0:2|0:0,0:0:0:0:
284,165,304990,2,0,P|323:186|333:222,1,81.7799987521363,2|0,1:2|0:0,0:0:0:0:
133,293,305240,6,0,P|112:239|61:141,1,163.559997504273,2|0,1:2|0:0,0:0:0:0:
183,3,305615,1,8,0:0:0:0:
232,72,305740,2,0,P|215:119|201:178,1,81.7799987521363,2|0,1:2|1:0,0:0:0:0:
63,145,305990,2,0,P|87:114|137:112,1,81.7799987521363,10|0,0:2|0:0,0:0:0:0:
284,165,306240,1,0,1:0:0:0:
406,90,306365,1,0,1:0:0:0:
467,145,306490,2,0,P|480:185|489:223,1,81.7799987521363,2|0,1:2|0:0,0:0:0:0:
346,328,306740,6,0,P|358:247|368:155,2,163.559997504273,6|0|0,1:2|0:0|1:0,0:0:0:0:
222,351,307365,1,0,1:0:0:0:
240,246,307490,2,0,P|194:250|170:291,1,81.7799987521363,10|0,1:2|0:0,0:0:0:0:
65,338,307740,2,0,P|79:300|95:252,1,81.7799987521363,10|0,0:2|0:0,0:0:0:0:
236,164,307990,2,0,P|222:126|206:78,1,81.7799987521363,2|0,1:2|0:0,0:0:0:0:
0,0,308240,6,0,P|47:64|141:55,1,163.559997504273,2|0,1:2|0:0,0:0:0:0:
248,2,308615,1,0,0:0:0:0:
319,40,308740,2,0,P|337:105|350:146,1,81.7799987521363,2|0,1:2|0:0,0:0:0:0:
484,190,308990,2,0,P|463:223|424:231,1,81.7799987521363,10|0,0:2|0:0,0:0:0:0:
420,19,309240,2,0,P|459:26|481:60,1,81.7799987521363,10|0,0:2|0:0,0:0:0:0:
337,202,309490,2,0,P|323:250|302:304,1,81.7799987521363,2|0,1:2|0:0,0:0:0:0:
281,364,309740,5,2,1:2:0:0:
158,258,310490,5,2,1:2:0:0:
241,113,311240,5,2,1:2:0:0:
256,192,311302,12,0,314177,0:0:0:0:
45,168,314240,6,0,P|89:231|195:232,1,163.559997504273,2|0,1:2|0:0,0:0:0:0:
365,271,314615,2,0,P|352:228|338:184,1,81.7799987521363,0|0,1:0|0:0,0:0:0:0:
330,336,314865,1,0,1:0:0:0:
170,242,314990,2,0,P|190:159|202:77,2,163.559997504273,2|0|10,0:0|1:0|0:0,0:0:0:0:
315,40,315740,6,0,B|380:57|380:57|402:89|402:89|479:108,1,163.559997504273,0|0,1:0|1:0,0:0:0:0:
201,81,316115,2,0,P|192:41|178:2,1,81.7799987521363,8|0,0:0|0:0,0:0:0:0:
272,137,316365,1,0,1:0:0:0:
170,242,316490,2,0,P|82:231|36:150,2,163.559997504273,0|0|0,1:0|1:0|1:0,0:0:0:0:
380,342,317240,1,2,0:0:0:0:
256,192,317302,12,2,320240,0:0:0:0:
256,192,320365,12,0,324740,0:0:0:0:
