osu file format v14

[General]
AudioFilename: audio.mp3
AudioLeadIn: 0
PreviewTime: 215969
Countdown: 0
SampleSet: Soft
StackLeniency: 0.3
Mode: 0
LetterboxInBreaks: 0
WidescreenStoryboard: 1

[Editor]
Bookmarks: 6172,17005,20422,34644,48866,59533,64866,93311,96866,111088,125311,135977,141311,169755,173311,186977,201755,215977,244422,247977,262644,263950
DistanceSpacing: 1.6
BeatDivisor: 4
GridSize: 32
TimelineZoom: 2.5

[Metadata]
Title:Lilith
TitleUnicode:Lilith
Artist:Aitsuki Nakuru & Kabocha
ArtistUnicode:藍月なくる & かぼちゃ
Creator:Celine
Version:Sunazuka Akira's Lethal Extra
Source:
Tags:japanese jazz pop osu! fa featured artist nacollection-3- nacollection 3 0ppinosu ancul felter mnyui muya gelidium sunazuka akira miura
BeatmapID:3103657
BeatmapSetID:1261931

[Difficulty]
HPDrainRate:5
CircleSize:4
OverallDifficulty:8.8
ApproachRate:9.4
SliderMultiplier:1.85
SliderTickRate:0.5

[Events]
//Background and Video events
0,0,"yande.re_564086_dress_rurudo_rurudot_wings (1).jpg",0,0
//Break Periods
//Storyboard Layer 0 (Background)
//Storyboard Layer 1 (Fail)
//Storyboard Layer 2 (Pass)
//Storyboard Layer 3 (Foreground)
//Storyboard Layer 4 (Overlay)
//Storyboard Sound Samples

[TimingPoints]
-50,222.222222222223,4,2,1,70,1,0
394,-200,4,2,1,70,0,0
616,-125,4,2,1,70,0,0
838,-68.9655172413793,4,2,2,70,0,0
894,-68.9655172413793,4,2,2,70,0,0
1172,-68.9655172413793,4,2,1,70,0,0
1283,-100,4,2,1,70,0,0
1505,-83.3333333333333,4,2,1,70,0,0
1838,-83.3333333333333,4,2,1,75,0,0
1950,-125,4,2,1,70,0,0
2172,-68.9655172413793,4,2,1,70,0,0
2616,-117.647058823529,4,2,13,75,0,0
2838,-117.647058823529,4,2,13,5,0,0
2912,-117.647058823529,4,2,1,73,0,0
3060,-117.647058823529,4,2,1,5,0,0
3209,-117.647058823529,4,2,15,69,0,0
3431,-117.647058823529,4,2,15,5,0,0
3505,-117.647058823529,4,2,1,67,0,0
3801,-117.647058823529,4,2,1,63,0,0
5616,-100,4,2,1,70,0,0
5727,-142.857142857143,4,2,1,70,0,0
5950,-125,4,2,1,75,0,0
6172,-50,4,2,9,85,0,0
6338,-50,4,2,9,5,0,0
6394,-76.9230769230769,4,2,1,75,0,0
6950,-100,4,2,1,75,0,0
7727,-76.9230769230769,4,2,1,75,0,0
7950,-100,4,2,1,75,0,0
8172,-76.9230769230769,4,2,1,75,0,0
8505,-76.9230769230769,4,2,1,82,0,0
8616,-76.9230769230769,4,2,1,75,0,0
9061,-50,4,2,1,80,0,0
9227,-50,4,2,1,5,0,0
9283,-50,4,2,1,80,0,0
9394,-86.9565217391304,4,2,1,80,0,0
9449,-86.9565217391304,4,2,1,5,0,0
9505,-86.9565217391304,4,2,1,70,0,0
9727,-50,4,2,2,85,0,0
9893,-50,4,2,2,5,0,0
9950,-76.9230769230769,4,2,1,75,0,0
11061,-100,4,2,1,75,0,0
11283,-76.9230769230769,4,2,1,75,0,0
11505,-43.4782608695652,4,2,1,85,0,0
11727,-66.6666666666667,4,2,1,75,0,0
11838,-66.6666666666667,4,2,1,5,0,0
11950,-43.4782608695652,4,2,1,85,0,0
12116,-43.4782608695652,4,2,1,5,0,0
12172,-66.6666666666667,4,2,1,75,0,0
12394,-66.6666666666667,4,2,1,90,0,0
12560,-66.6666666666667,4,2,1,5,0,0
12616,-66.6666666666667,4,2,1,85,0,0
13061,-200,4,2,5,85,0,0
13283,-50,4,2,10,85,0,0
13449,-50,4,2,10,5,0,0
13505,-76.9230769230769,4,2,1,75,0,0
14061,-100,4,2,1,75,0,0
14838,-76.9230769230769,4,2,1,75,0,0
15061,-100,4,2,1,75,0,0
15283,-76.9230769230769,4,2,1,75,0,0
16172,-50,4,2,1,75,0,0
16338,-50,4,2,1,5,0,0
16394,-50,4,2,1,80,0,0
16505,-86.9565217391304,4,2,1,80,0,0
16560,-86.9565217391304,4,2,1,5,0,0
16616,-86.9565217391304,4,2,1,70,0,0
16838,-50,4,2,5,85,0,0
17004,-50,4,2,5,5,0,0
17061,-76.9230769230769,4,2,1,75,0,0
18172,-76.9230769230769,4,2,1,85,0,0
18616,-76.9230769230769,4,2,1,65,0,0
18782,-76.9230769230769,4,2,1,5,0,0
18838,-133.333333333333,4,2,1,65,0,0
18949,-133.333333333333,4,2,1,5,0,0
19061,-76.9230769230769,4,2,1,65,0,0
19227,-76.9230769230769,4,2,1,5,0,0
19283,-133.333333333333,4,2,1,65,0,0
19505,-76.9230769230769,4,2,1,65,0,0
19838,-133.333333333333,4,2,1,65,0,0
19949,-133.333333333333,4,2,1,55,0,0
20394,-166.666666666667,4,2,1,55,0,0
20727,-166.666666666667,4,2,1,5,0,0
20838,-166.666666666667,4,2,3,55,0,0
21616,-166.666666666667,4,2,3,5,0,0
21727,-166.666666666667,4,2,3,80,0,0
21950,-166.666666666667,4,2,3,55,0,0
23505,-166.666666666667,4,2,3,80,0,0
23727,-166.666666666667,4,2,3,55,0,0
24283,-166.666666666667,4,2,3,5,0,0
24394,-166.666666666667,4,2,3,55,0,0
25283,-125,4,2,3,80,0,0
25449,-125,4,2,3,5,0,0
25505,-125,4,2,3,55,0,0
25727,-166.666666666667,4,2,3,55,0,0
26060,-166.666666666667,4,2,3,5,0,0
26171,-166.666666666667,4,2,3,55,0,0
26949,-166.666666666667,4,2,3,5,0,0
27060,-166.666666666667,4,2,3,80,0,0
27505,-166.666666666667,4,2,3,55,0,0
27838,-166.666666666667,4,2,3,5,0,0
27950,-166.666666666667,4,2,3,55,0,0
28727,-166.666666666667,4,2,3,5,0,0
28838,-166.666666666667,4,2,3,80,0,0
29061,-166.666666666667,4,2,3,55,0,0
30616,-166.666666666667,4,2,3,80,0,0
30838,-166.666666666667,4,2,3,55,0,0
31394,-166.666666666667,4,2,3,5,0,0
31505,-166.666666666667,4,2,3,55,0,0
32394,-125,4,2,3,80,0,0
32616,-125,4,2,3,55,0,0
32838,-166.666666666667,4,2,3,45,0,0
33171,-166.666666666667,4,2,3,5,0,0
33282,-166.666666666667,4,2,3,45,0,0
33727,-166.666666666667,4,2,90,45,0,0
34060,-166.666666666667,4,2,90,5,0,0
34171,-166.666666666667,4,2,90,45,0,0
34616,-100,4,2,91,80,0,0
34838,-100,4,2,2,75,0,0
35505,-76.9230769230769,4,2,2,75,0,0
35672,-76.9230769230769,4,2,2,5,0,0
35727,-76.9230769230769,4,2,2,75,0,0
36283,-100,4,2,2,75,0,0
36505,-100,4,2,2,75,0,0
36616,-100,4,2,2,75,0,0
36949,-100,4,2,2,5,0,0
37061,-100,4,2,2,75,0,0
39061,-76.9230769230769,4,2,2,75,0,0
39227,-76.9230769230769,4,2,2,5,0,0
39283,-76.9230769230769,4,2,2,75,0,0
39950,-125,4,2,2,75,0,0
40283,-125,4,2,2,5,0,0
40394,-100,4,2,2,75,0,0
42061,-100,4,2,2,5,0,0
42172,-100,4,2,2,75,0,0
42505,-100,4,2,2,5,0,0
42616,-76.9230769230769,4,2,2,75,0,0
42838,-76.9230769230769,4,2,2,5,0,0
42949,-76.9230769230769,4,2,2,75,0,0
43505,-100,4,2,2,75,0,0
43616,-100,4,2,2,5,0,0
43727,-100,4,2,2,75,0,0
44061,-100,4,2,2,5,0,0
44172,-100,4,2,2,75,0,0
46172,-76.9230769230769,4,2,2,75,0,0
46338,-76.9230769230769,4,2,2,5,0,0
46394,-76.9230769230769,4,2,2,75,0,0
46616,-100,4,2,2,75,0,0
47061,-68.9655172413793,4,2,2,75,0,0
48838,-62.5,4,2,1,75,0,0
49061,-83.3333333333333,4,2,1,75,0,0
49616,-62.5,4,2,1,75,0,0
49950,-83.3333333333333,4,2,1,75,0,0
50616,-71.4285714285714,4,2,1,75,0,0
50727,-71.4285714285714,4,2,1,5,0,0
50838,-83.3333333333333,4,2,1,75,0,0
51061,-71.4285714285714,4,2,1,75,0,0
51172,-71.4285714285714,4,2,1,75,0,0
51283,-83.3333333333333,4,2,1,75,0,0
51505,-74.0740740740741,4,2,1,75,0,0
51616,-74.0740740740741,4,2,1,5,0,0
51727,-74.0740740740741,4,2,1,75,0,0
52172,-62.5,4,2,1,75,0,0
52283,-62.5,4,2,1,5,0,0
52394,-62.5,4,2,1,75,0,0
52616,-83.3333333333333,4,2,1,75,0,0
53172,-62.5,4,2,1,75,0,0
53394,-62.5,4,2,1,5,0,0
53505,-83.3333333333333,4,2,1,75,0,0
53616,-83.3333333333333,4,2,1,5,0,0
53727,-83.3333333333333,4,2,1,75,0,0
54172,-71.4285714285714,4,2,1,75,0,0
54283,-71.4285714285714,4,2,1,5,0,0
54394,-83.3333333333333,4,2,1,75,0,0
54616,-71.4285714285714,4,2,1,75,0,0
54727,-71.4285714285714,4,2,1,75,0,0
54838,-83.3333333333333,4,2,1,75,0,0
55061,-74.0740740740741,4,2,1,75,0,0
55227,-74.0740740740741,4,2,1,5,0,0
55283,-74.0740740740741,4,2,1,75,0,0
55727,-62.5,4,2,1,75,0,0
55838,-62.5,4,2,1,5,0,0
55950,-62.5,4,2,1,75,0,0
56172,-83.3333333333333,4,2,1,75,0,0
56505,-83.3333333333333,4,2,1,5,0,0
56616,-83.3333333333333,4,2,1,75,0,0
56727,-62.5,4,2,1,75,0,0
56950,-62.5,4,2,1,5,0,0
57061,-83.3333333333333,4,2,1,75,0,0
57727,-71.4285714285714,4,2,1,75,0,0
58838,-83.3333333333333,4,2,1,75,0,0
59838,-142.857142857143,4,2,1,75,0,0
60005,-142.857142857143,4,2,1,5,0,0
60061,-142.857142857143,4,2,1,75,0,0
60894,-142.857142857143,4,2,1,5,0,0
60950,-142.857142857143,4,2,1,75,0,0
61783,-142.857142857143,4,2,1,5,0,0
61838,-142.857142857143,4,2,1,75,0,0
62838,-153.846153846154,4,2,1,75,0,0
63949,-153.846153846154,4,2,1,5,0,0
64283,-153.846153846154,4,2,1,75,0,0
64838,-54.054054054054,4,2,9,85,0,0
65004,-54.054054054054,4,2,9,5,0,0
65061,-60.6060606060606,4,2,7,85,0,0
65227,-60.6060606060606,4,2,7,5,0,0
65283,-76.9230769230769,4,2,7,85,0,0
65616,-60.6060606060606,4,2,7,85,0,0
66061,-60.6060606060606,4,2,7,85,0,0
66172,-60.6060606060606,4,2,7,85,0,0
66394,-76.9230769230769,4,2,7,85,0,0
66616,-54.054054054054,4,2,7,85,0,0
66727,-54.054054054054,4,2,7,5,0,0
66838,-54.054054054054,4,2,7,85,0,0
67172,-71.4285714285714,4,2,7,85,0,0
67560,-71.4285714285714,4,2,7,5,0,0
67616,-71.4285714285714,4,2,7,85,0,0
67727,-54.054054054054,4,2,7,85,0,0
67893,-54.054054054054,4,2,7,5,0,0
67950,-54.054054054054,4,2,7,85,0,0
68172,-71.4285714285714,4,2,7,85,0,0
68283,-71.4285714285714,4,2,7,5,0,0
68394,-54.054054054054,4,2,1,85,0,0
68505,-54.054054054054,4,2,1,5,0,0
68560,-54.054054054054,4,2,1,85,0,0
68616,-71.4285714285714,4,2,1,85,0,0
68950,-71.4285714285714,4,2,1,5,0,0
69060,-71.4285714285714,4,2,1,85,0,0
69283,-54.054054054054,4,2,1,85,0,0
69449,-54.054054054054,4,2,1,5,0,0
69505,-62.5,4,2,1,85,0,0
69532,-62.5,4,2,1,5,0,0
69616,-62.5,4,2,1,85,0,0
70838,-62.5,4,2,4,85,0,0
70950,-62.5,4,2,7,85,0,0
71172,-62.5,4,2,5,85,0,0
71283,-62.5,4,2,7,85,0,0
71950,-54.054054054054,4,2,9,85,0,0
72061,-54.054054054054,4,2,9,5,0,0
72172,-54.054054054054,4,2,7,85,0,0
72394,-60.6060606060606,4,2,7,85,0,0
72560,-60.6060606060606,4,2,7,5,0,0
72616,-76.9230769230769,4,2,7,85,0,0
72838,-60.6060606060606,4,2,7,85,0,0
73004,-60.6060606060606,4,2,7,5,0,0
73061,-76.9230769230769,4,2,7,85,0,0
73727,-48.780487804878,4,2,7,85,0,0
73893,-48.780487804878,4,2,7,5,0,0
73950,-48.780487804878,4,2,7,85,0,0
74172,-60.6060606060606,4,2,7,85,0,0
74338,-60.6060606060606,4,2,7,5,0,0
74394,-76.9230769230769,4,2,7,85,0,0
74616,-48.780487804878,4,2,7,85,0,0
74782,-48.780487804878,4,2,7,5,0,0
74838,-48.780487804878,4,2,7,85,0,0
75283,-100,4,2,7,85,0,0
75505,-50,4,2,1,85,0,0
76116,-50,4,2,1,5,0,0
76172,-50,4,2,1,85,0,0
76394,-58.8235294117647,4,2,1,65,0,0
76505,-58.8235294117647,4,2,1,70,0,0
76616,-58.8235294117647,4,2,1,75,0,0
76727,-58.8235294117647,4,2,1,80,0,0
76838,-58.8235294117647,4,2,1,85,0,0
77116,-58.8235294117647,4,2,1,5,0,0
77172,-58.8235294117647,4,2,1,85,0,0
77227,-58.8235294117647,4,2,1,5,0,0
77283,-50,4,2,2,90,0,0
77616,-50,4,2,7,90,0,0
77838,-50,4,2,7,5,0,0
77950,-50,4,2,7,90,0,0
78172,-50,4,2,7,100,0,0
79061,-54.054054054054,4,2,9,85,0,0
79227,-54.054054054054,4,2,9,5,0,0
79283,-60.6060606060606,4,2,7,85,0,0
79449,-60.6060606060606,4,2,7,5,0,0
79505,-76.9230769230769,4,2,7,85,0,0
79838,-60.6060606060606,4,2,7,85,0,0
80283,-60.6060606060606,4,2,7,85,0,0
80394,-60.6060606060606,4,2,7,85,0,0
80616,-76.9230769230769,4,2,7,85,0,0
80838,-54.054054054054,4,2,7,85,0,0
80950,-54.054054054054,4,2,7,5,0,0
81004,-54.054054054054,4,2,7,85,0,0
81394,-71.4285714285714,4,2,7,85,0,0
81950,-54.054054054054,4,2,7,85,0,0
82116,-54.054054054054,4,2,7,5,0,0
82172,-54.054054054054,4,2,7,85,0,0
82394,-71.4285714285714,4,2,7,85,0,0
82616,-54.054054054054,4,2,7,85,0,0
82838,-71.4285714285714,4,2,7,85,0,0
82949,-71.4285714285714,4,2,7,5,0,0
83061,-71.4285714285714,4,2,7,85,0,0
83505,-54.054054054054,4,2,7,85,0,0
83671,-54.054054054054,4,2,7,5,0,0
83727,-62.5,4,2,7,85,0,0
85505,-62.5,4,2,5,85,0,0
85727,-62.5,4,2,7,85,0,0
86172,-54.054054054054,4,2,9,85,0,0
86283,-54.054054054054,4,2,9,5,0,0
86394,-54.054054054054,4,2,7,85,0,0
86616,-60.6060606060606,4,2,7,85,0,0
86782,-60.6060606060606,4,2,7,5,0,0
86838,-76.9230769230769,4,2,7,85,0,0
87061,-60.6060606060606,4,2,7,85,0,0
87227,-60.6060606060606,4,2,7,5,0,0
87283,-76.9230769230769,4,2,7,85,0,0
87950,-48.780487804878,4,2,7,85,0,0
88116,-48.780487804878,4,2,7,5,0,0
88172,-48.780487804878,4,2,7,85,0,0
88394,-60.6060606060606,4,2,7,85,0,0
88561,-60.6060606060606,4,2,7,5,0,0
88616,-60.6060606060606,4,2,7,85,0,0
88838,-48.780487804878,4,2,7,85,0,0
89004,-48.780487804878,4,2,7,5,0,0
89061,-48.780487804878,4,2,7,85,0,0
89505,-100,4,2,7,85,0,0
89727,-50,4,2,1,85,0,0
90338,-50,4,2,1,5,0,0
90394,-50,4,2,1,85,0,0
90616,-58.8235294117647,4,2,1,85,0,0
90950,-58.8235294117647,4,2,1,5,0,0
91061,-58.8235294117647,4,2,1,85,0,0
91338,-58.8235294117647,4,2,1,5,0,0
91394,-58.8235294117647,4,2,1,85,0,0
91505,-50,4,2,2,85,0,0
91561,-50,4,2,2,85,0,0
91727,-50,4,2,7,5,0,0
91838,-50,4,2,7,85,0,0
92060,-50,4,2,7,5,0,0
92172,-50,4,2,7,85,0,0
92394,-50,4,2,7,100,0,0
92505,-50,4,2,7,85,0,0
93283,-60.6060606060606,4,2,5,75,0,0
93505,-76.9230769230769,4,2,7,75,0,0
93727,-60.6060606060606,4,2,7,75,0,0
93950,-76.9230769230769,4,2,7,75,0,0
94172,-60.6060606060606,4,2,7,75,0,0
94394,-76.9230769230769,4,2,7,75,0,0
94616,-76.9230769230769,4,2,7,85,0,0
95061,-76.9230769230769,4,2,7,95,0,0
95950,-76.9230769230769,4,2,98,40,0,0
96838,-50,4,2,10,85,0,0
97004,-50,4,2,10,5,0,0
97061,-76.9230769230769,4,2,1,75,0,0
97616,-100,4,2,1,75,0,0
98394,-76.9230769230769,4,2,1,75,0,0
98616,-100,4,2,1,75,0,0
98782,-100,4,2,1,5,0,0
98838,-76.9230769230769,4,2,1,75,0,0
99172,-76.9230769230769,4,2,1,82,0,0
99283,-76.9230769230769,4,2,1,75,0,0
99394,-76.9230769230769,4,2,1,50,0,0
99505,-76.9230769230769,4,2,1,75,0,0
99727,-50,4,2,1,80,0,0
99893,-50,4,2,1,5,0,0
99950,-50,4,2,1,80,0,0
100061,-86.9565217391304,4,2,1,80,0,0
100116,-86.9565217391304,4,2,1,5,0,0
100172,-86.9565217391304,4,2,1,70,0,0
100394,-50,4,2,1,85,0,0
100560,-50,4,2,1,5,0,0
100616,-76.9230769230769,4,2,1,75,0,0
101061,-100,4,2,1,75,0,0
101950,-76.9230769230769,4,2,1,75,0,0
102172,-43.4782608695652,4,2,1,85,0,0
102338,-43.4782608695652,4,2,1,5,0,0
102394,-66.6666666666667,4,2,1,75,0,0
102616,-43.4782608695652,4,2,1,85,0,0
102782,-43.4782608695652,4,2,1,5,0,0
102838,-66.6666666666667,4,2,1,75,0,0
103061,-66.6666666666667,4,2,1,90,0,0
103227,-66.6666666666667,4,2,1,5,0,0
103283,-66.6666666666667,4,2,1,85,0,0
103727,-200,4,2,5,85,0,0
103950,-50,4,2,10,85,0,0
104116,-50,4,2,10,5,0,0
104172,-76.9230769230769,4,2,1,75,0,0
104727,-100,4,2,1,75,0,0
105505,-76.9230769230769,4,2,1,75,0,0
105727,-100,4,2,1,75,0,0
105893,-100,4,2,1,5,0,0
105950,-76.9230769230769,4,2,1,75,0,0
106283,-76.9230769230769,4,2,1,82,0,0
106394,-76.9230769230769,4,2,1,75,0,0
106505,-76.9230769230769,4,2,1,50,0,0
106616,-76.9230769230769,4,2,1,75,0,0
106838,-50,4,2,1,80,0,0
107004,-50,4,2,1,5,0,0
107061,-50,4,2,1,80,0,0
107172,-86.9565217391304,4,2,1,80,0,0
107226,-86.9565217391304,4,2,1,5,0,0
107283,-86.9565217391304,4,2,1,70,0,0
107505,-50,4,2,1,85,0,0
107671,-50,4,2,1,5,0,0
107727,-76.9230769230769,4,2,1,75,0,0
108283,-100,4,2,1,75,0,0
108838,-100,4,2,1,85,0,0
109283,-76.9230769230769,4,2,1,65,0,0
109449,-76.9230769230769,4,2,1,5,0,0
109505,-133.333333333333,4,2,1,65,0,0
109616,-133.333333333333,4,2,1,5,0,0
109727,-76.9230769230769,4,2,1,65,0,0
109893,-76.9230769230769,4,2,1,5,0,0
109950,-133.333333333333,4,2,1,65,0,0
110172,-76.9230769230769,4,2,1,65,0,0
110449,-76.9230769230769,4,2,1,5,0,0
110505,-133.333333333333,4,2,1,65,0,0
111061,-83.3333333333334,4,2,2,75,0,0
111283,-100,4,2,2,75,0,0
111950,-76.9230769230769,4,2,2,75,0,0
112116,-76.9230769230769,4,2,2,5,0,0
112172,-76.9230769230769,4,2,2,75,0,0
112505,-100,4,2,2,75,0,0
112949,-100,4,2,2,5,0,0
113061,-100,4,2,2,75,0,0
113394,-100,4,2,2,5,0,0
113505,-100,4,2,2,75,0,0
114616,-83.3333333333334,4,2,2,75,0,0
114838,-100,4,2,2,75,0,0
115505,-76.9230769230769,4,2,2,75,0,0
115672,-76.9230769230769,4,2,2,5,0,0
115727,-76.9230769230769,4,2,2,75,0,0
116283,-76.9230769230769,4,2,2,75,0,0
116394,-125,4,2,2,75,0,0
116727,-125,4,2,2,75,0,0
116838,-100,4,2,2,75,0,0
117172,-100,4,2,2,75,0,0
117283,-100,4,2,2,75,0,0
118172,-83.3333333333334,4,2,2,75,0,0
118394,-100,4,2,2,75,0,0
118505,-100,4,2,2,5,0,0
118616,-100,4,2,2,75,0,0
118949,-100,4,2,2,5,0,0
119061,-76.9230769230769,4,2,2,75,0,0
119283,-76.9230769230769,4,2,2,5,0,0
119394,-76.9230769230769,4,2,2,75,0,0
119727,-100,4,2,2,75,0,0
120061,-100,4,2,2,5,0,0
120172,-100,4,2,2,75,0,0
120505,-100,4,2,2,5,0,0
120616,-100,4,2,2,75,0,0
121005,-100,4,2,2,5,0,0
121060,-100,4,2,2,75,0,0
121727,-83.3333333333334,4,2,2,75,0,0
121950,-100,4,2,2,75,0,0
122616,-76.9230769230769,4,2,2,75,0,0
122783,-76.9230769230769,4,2,2,5,0,0
122838,-76.9230769230769,4,2,2,75,0,0
123061,-100,4,2,2,75,0,0
123505,-68.9655172413793,4,2,2,75,0,0
125283,-62.5,4,2,1,75,0,0
125505,-83.3333333333333,4,2,1,75,0,0
126061,-62.5,4,2,1,75,0,0
126394,-83.3333333333333,4,2,1,75,0,0
127061,-71.4285714285714,4,2,1,75,0,0
127283,-83.3333333333333,4,2,1,75,0,0
127505,-71.4285714285714,4,2,1,75,0,0
127727,-83.3333333333333,4,2,1,75,0,0
127950,-74.0740740740741,4,2,1,75,0,0
128061,-74.0740740740741,4,2,1,5,0,0
128172,-74.0740740740741,4,2,1,75,0,0
128283,-74.0740740740741,4,2,1,75,0,0
128394,-74.0740740740741,4,2,1,80,0,0
128449,-74.0740740740741,4,2,1,5,0,0
128505,-74.0740740740741,4,2,1,80,0,0
128616,-62.5,4,2,1,70,0,0
128838,-62.5,4,2,1,85,0,0
129505,-71.4285714285714,4,2,1,85,0,0
129616,-71.4285714285714,4,2,1,5,0,0
129727,-71.4285714285714,4,2,1,75,0,0
129950,-83.3333333333333,4,2,1,75,0,0
130616,-71.4285714285714,4,2,1,75,0,0
130838,-83.3333333333333,4,2,1,75,0,0
130894,-83.3333333333333,4,2,1,5,0,0
130949,-83.3333333333333,4,2,1,75,0,0
131061,-71.4285714285714,4,2,1,75,0,0
131227,-71.4285714285714,4,2,1,5,0,0
131283,-83.3333333333333,4,2,1,75,0,0
131505,-74.0740740740741,4,2,1,75,0,0
131950,-74.0740740740741,4,2,1,80,0,0
132004,-74.0740740740741,4,2,1,5,0,0
132061,-74.0740740740741,4,2,1,80,0,0
132172,-62.5,4,2,1,70,0,0
132283,-62.5,4,2,1,5,0,0
132394,-62.5,4,2,1,75,0,0
133061,-71.4285714285714,4,2,1,75,0,0
133505,-83.3333333333333,4,2,1,75,0,0
134172,-71.4285714285714,4,2,1,75,0,0
134394,-71.4285714285714,4,2,1,75,0,0
134616,-71.4285714285714,4,2,1,75,0,0
134782,-71.4285714285714,4,2,1,5,0,0
134838,-71.4285714285714,4,2,1,75,0,0
135283,-83.3333333333333,4,2,1,75,0,0
135950,-83.3333333333333,4,2,4,75,0,0
136283,-100,4,2,4,75,0,0
136449,-100,4,2,4,5,0,0
136505,-100,4,2,4,75,0,0
137338,-100,4,2,4,5,0,0
137394,-100,4,2,4,75,0,0
138061,-100,4,2,4,75,0,0
138227,-100,4,2,4,5,0,0
138283,-100,4,2,4,75,0,0
139061,-100,4,2,1,75,0,0
139283,-153.846153846154,4,2,1,75,0,0
140394,-153.846153846154,4,2,1,5,0,0
140727,-153.846153846154,4,2,1,75,0,0
141283,-54.054054054054,4,2,9,85,0,0
141449,-54.054054054054,4,2,9,5,0,0
141505,-60.6060606060606,4,2,7,85,0,0
141671,-60.6060606060606,4,2,7,5,0,0
141727,-76.9230769230769,4,2,7,85,0,0
142061,-60.6060606060606,4,2,7,85,0,0
142505,-60.6060606060606,4,2,7,85,0,0
142616,-60.6060606060606,4,2,7,85,0,0
142838,-76.9230769230769,4,2,7,85,0,0
143061,-54.054054054054,4,2,7,85,0,0
143172,-54.054054054054,4,2,7,5,0,0
143227,-54.054054054054,4,2,7,85,0,0
143616,-71.4285714285714,4,2,7,85,0,0
144004,-71.4285714285714,4,2,7,5,0,0
144061,-71.4285714285714,4,2,7,85,0,0
144172,-54.054054054054,4,2,7,85,0,0
144338,-54.054054054054,4,2,7,5,0,0
144394,-54.054054054054,4,2,7,85,0,0
144616,-71.4285714285714,4,2,7,85,0,0
144838,-54.054054054054,4,2,1,85,0,0
145061,-71.4285714285714,4,2,1,85,0,0
145172,-71.4285714285714,4,2,1,5,0,0
145283,-71.4285714285714,4,2,1,85,0,0
145727,-54.054054054054,4,2,1,85,0,0
145893,-54.054054054054,4,2,1,5,0,0
145950,-62.5,4,2,1,85,0,0
145977,-62.5,4,2,1,5,0,0
146061,-62.5,4,2,1,85,0,0
147283,-62.5,4,2,4,85,0,0
147394,-62.5,4,2,7,85,0,0
147616,-62.5,4,2,5,85,0,0
147727,-62.5,4,2,7,85,0,0
148394,-54.054054054054,4,2,9,85,0,0
148505,-54.054054054054,4,2,9,5,0,0
148616,-54.054054054054,4,2,7,85,0,0
148838,-60.6060606060606,4,2,7,85,0,0
149004,-60.6060606060606,4,2,7,5,0,0
149061,-76.9230769230769,4,2,7,85,0,0
149283,-60.6060606060606,4,2,7,85,0,0
149449,-60.6060606060606,4,2,7,5,0,0
149505,-76.9230769230769,4,2,7,85,0,0
150172,-48.780487804878,4,2,7,85,0,0
150338,-48.780487804878,4,2,7,5,0,0
150394,-48.780487804878,4,2,7,85,0,0
150616,-60.6060606060606,4,2,7,85,0,0
150783,-60.6060606060606,4,2,7,5,0,0
150838,-76.9230769230769,4,2,7,85,0,0
151061,-48.780487804878,4,2,7,85,0,0
151227,-48.780487804878,4,2,7,5,0,0
151283,-48.780487804878,4,2,7,85,0,0
151727,-100,4,2,7,85,0,0
151838,-100,4,2,7,5,0,0
151950,-50,4,2,1,85,0,0
152561,-50,4,2,1,5,0,0
152616,-50,4,2,1,85,0,0
152838,-58.8235294117647,4,2,1,65,0,0
152950,-58.8235294117647,4,2,1,70,0,0
153061,-58.8235294117647,4,2,1,75,0,0
153172,-58.8235294117647,4,2,1,80,0,0
153283,-58.8235294117647,4,2,1,85,0,0
153560,-58.8235294117647,4,2,1,5,0,0
153616,-58.8235294117647,4,2,1,85,0,0
153671,-58.8235294117647,4,2,1,5,0,0
153727,-50,4,2,7,85,0,0
154061,-50,4,2,7,90,0,0
154283,-50,4,2,7,5,0,0
154394,-50,4,2,7,90,0,0
154616,-50,4,2,7,100,0,0
155505,-54.054054054054,4,2,9,85,0,0
155671,-54.054054054054,4,2,9,5,0,0
155727,-60.6060606060606,4,2,7,85,0,0
155893,-60.6060606060606,4,2,7,5,0,0
155950,-76.9230769230769,4,2,7,85,0,0
156283,-60.6060606060606,4,2,7,85,0,0
156727,-60.6060606060606,4,2,7,85,0,0
156838,-60.6060606060606,4,2,7,85,0,0
157061,-76.9230769230769,4,2,7,85,0,0
157283,-54.054054054054,4,2,7,85,0,0
157394,-54.054054054054,4,2,7,5,0,0
157449,-54.054054054054,4,2,7,85,0,0
157505,-71.4285714285714,4,2,7,85,0,0
157616,-71.4285714285714,4,2,7,5,0,0
157727,-71.4285714285714,4,2,7,85,0,0
158172,-71.4285714285714,4,2,7,5,0,0
158283,-71.4285714285714,4,2,7,85,0,0
158394,-54.054054054054,4,2,7,85,0,0
158560,-54.054054054054,4,2,7,5,0,0
158616,-54.054054054054,4,2,7,85,0,0
158838,-71.4285714285714,4,2,7,85,0,0
159061,-54.054054054054,4,2,1,85,0,0
159172,-54.054054054054,4,2,1,5,0,0
159227,-54.054054054054,4,2,1,85,0,0
159283,-71.4285714285714,4,2,1,85,0,0
159616,-71.4285714285714,4,2,1,5,0,0
159727,-71.4285714285714,4,2,1,85,0,0
159950,-54.054054054054,4,2,1,85,0,0
160116,-54.054054054054,4,2,1,5,0,0
160172,-62.5,4,2,1,85,0,0
161950,-62.5,4,2,5,85,0,0
162172,-62.5,4,2,7,85,0,0
162616,-54.054054054054,4,2,9,85,0,0
162727,-54.054054054054,4,2,9,5,0,0
162838,-54.054054054054,4,2,7,85,0,0
163061,-60.6060606060606,4,2,7,85,0,0
163227,-60.6060606060606,4,2,7,5,0,0
163283,-76.9230769230769,4,2,7,85,0,0
163505,-60.6060606060606,4,2,7,85,0,0
163671,-60.6060606060606,4,2,7,5,0,0
163727,-76.9230769230769,4,2,7,85,0,0
164394,-48.780487804878,4,2,7,85,0,0
164560,-48.780487804878,4,2,7,5,0,0
164616,-48.780487804878,4,2,7,85,0,0
164838,-60.6060606060606,4,2,7,85,0,0
165005,-60.6060606060606,4,2,7,5,0,0
165061,-60.6060606060606,4,2,7,85,0,0
165283,-48.780487804878,4,2,7,85,0,0
165449,-48.780487804878,4,2,7,5,0,0
165505,-48.780487804878,4,2,7,85,0,0
165950,-100,4,2,7,85,0,0
166061,-100,4,2,7,5,0,0
166172,-50,4,2,1,85,0,0
166783,-50,4,2,1,5,0,0
166838,-50,4,2,1,85,0,0
167061,-58.8235294117647,4,2,1,85,0,0
167394,-58.8235294117647,4,2,1,5,0,0
167505,-58.8235294117647,4,2,1,85,0,0
167783,-58.8235294117647,4,2,1,5,0,0
167838,-58.8235294117647,4,2,1,85,0,0
167950,-50,4,2,2,85,0,0
168172,-50,4,2,7,5,0,0
168283,-50,4,2,7,85,0,0
168838,-50,4,2,7,100,0,0
168950,-50,4,2,7,85,0,0
169727,-60.6060606060606,4,2,5,75,0,0
169783,-60.6060606060606,4,2,5,75,0,0
169950,-76.9230769230769,4,2,7,75,0,0
170172,-60.6060606060606,4,2,7,75,0,0
170394,-76.9230769230769,4,2,7,75,0,0
170616,-60.6060606060606,4,2,7,75,0,0
170838,-76.9230769230769,4,2,7,75,0,0
171061,-76.9230769230769,4,2,4,85,0,0
171505,-76.9230769230769,4,2,7,95,0,0
172394,-76.9230769230769,4,2,98,50,0,0
173283,-166.666666666667,4,2,1,65,0,0
173727,-166.666666666667,4,2,3,65,0,0
173950,-166.666666666667,4,2,3,50,0,0
179616,-166.666666666667,4,2,1,50,0,0
180172,-166.666666666667,4,2,5,50,0,0
180838,-166.666666666667,4,2,3,50,0,0
184838,-100,4,2,3,50,0,0
185061,-100,4,2,1,65,0,0
185727,-250,4,2,1,65,0,0
186950,-83.3333333333333,4,2,1,65,0,0
187172,-83.3333333333333,4,2,1,5,0,0
187283,-83.3333333333333,4,2,1,65,0,0
187505,-64.5161290322581,4,2,1,65,0,0
187727,-83.3333333333333,4,2,1,65,0,0
188616,-64.5161290322581,4,2,1,65,0,0
189283,-74.0740740740741,4,2,1,65,0,0
189505,-74.0740740740741,4,2,1,65,0,0
189616,-74.0740740740741,4,2,1,65,0,0
189838,-74.0740740740741,4,2,1,5,0,0
189950,-83.3333333333333,4,2,1,65,0,0
191061,-64.5161290322581,4,2,1,65,0,0
191283,-83.3333333333333,4,2,1,65,0,0
192394,-64.5161290322581,4,2,1,65,0,0
192950,-74.0740740740741,4,2,1,65,0,0
193061,-74.0740740740741,4,2,1,65,0,0
193172,-74.0740740740741,4,2,1,65,0,0
193394,-74.0740740740741,4,2,1,5,0,0
193505,-74.0740740740741,4,2,1,65,0,0
193727,-83.3333333333333,4,2,1,65,0,0
194616,-74.0740740740741,4,2,1,65,0,0
198172,-83.3333333333333,4,2,1,65,0,0
199950,-64.5161290322581,4,2,1,65,0,0
201727,-64.5161290322581,4,2,4,65,0,0
201950,-64.5161290322581,4,2,4,45,0,0
202505,-64.5161290322581,4,2,1,45,0,0
215950,-54.054054054054,4,2,9,85,0,0
216116,-54.054054054054,4,2,9,5,0,0
216172,-60.6060606060606,4,2,7,85,0,0
216338,-60.6060606060606,4,2,7,5,0,0
216394,-76.9230769230769,4,2,7,85,0,0
216727,-60.6060606060606,4,2,7,85,0,0
217172,-60.6060606060606,4,2,7,85,0,0
217283,-60.6060606060606,4,2,7,85,0,0
217505,-76.9230769230769,4,2,7,85,0,0
217727,-54.054054054054,4,2,7,85,0,0
217838,-54.054054054054,4,2,7,5,0,0
217893,-54.054054054054,4,2,7,85,0,0
218283,-71.4285714285714,4,2,7,85,0,0
218671,-71.4285714285714,4,2,7,5,0,0
218727,-71.4285714285714,4,2,7,85,0,0
218838,-54.054054054054,4,2,7,85,0,0
219004,-54.054054054054,4,2,7,5,0,0
219061,-54.054054054054,4,2,7,85,0,0
219283,-71.4285714285714,4,2,7,85,0,0
219505,-54.054054054054,4,2,1,85,0,0
219616,-54.054054054054,4,2,1,5,0,0
219671,-54.054054054054,4,2,1,85,0,0
219727,-71.4285714285714,4,2,1,85,0,0
220061,-71.4285714285714,4,2,1,5,0,0
220172,-71.4285714285714,4,2,1,85,0,0
220394,-54.054054054054,4,2,1,85,0,0
220560,-54.054054054054,4,2,1,5,0,0
220616,-62.5,4,2,1,85,0,0
220643,-62.5,4,2,1,5,0,0
220727,-62.5,4,2,1,85,0,0
221950,-62.5,4,2,7,85,0,0
223061,-54.054054054054,4,2,9,85,0,0
223172,-54.054054054054,4,2,9,5,0,0
223283,-54.054054054054,4,2,7,85,0,0
223505,-60.6060606060606,4,2,7,85,0,0
223671,-60.6060606060606,4,2,7,5,0,0
223727,-76.9230769230769,4,2,7,85,0,0
223950,-60.6060606060606,4,2,7,85,0,0
224116,-60.6060606060606,4,2,7,5,0,0
224172,-76.9230769230769,4,2,7,85,0,0
224838,-48.780487804878,4,2,7,85,0,0
225004,-48.780487804878,4,2,7,5,0,0
225061,-48.780487804878,4,2,7,85,0,0
225283,-60.6060606060606,4,2,7,85,0,0
225450,-60.6060606060606,4,2,7,5,0,0
225505,-76.9230769230769,4,2,7,85,0,0
225727,-48.780487804878,4,2,7,85,0,0
225893,-48.780487804878,4,2,7,5,0,0
225950,-48.780487804878,4,2,7,85,0,0
226394,-100,4,2,7,85,0,0
226505,-100,4,2,7,5,0,0
226616,-50,4,2,1,85,0,0
227227,-50,4,2,1,5,0,0
227283,-50,4,2,1,85,0,0
227505,-58.8235294117647,4,2,1,85,0,0
227838,-58.8235294117647,4,2,1,5,0,0
227950,-58.8235294117647,4,2,1,85,0,0
228227,-58.8235294117647,4,2,1,5,0,0
228283,-58.8235294117647,4,2,1,85,0,0
228338,-58.8235294117647,4,2,1,5,0,0
228394,-50,4,2,2,90,0,0
228727,-50,4,2,7,90,0,0
229394,-50,4,2,7,100,0,0
229838,-50,4,2,7,90,0,0
229950,-50,4,2,7,80,0,0
230005,-50,4,2,7,75,0,0
230061,-50,4,2,7,70,0,0
230172,-54.054054054054,4,2,9,85,0,0
230338,-54.054054054054,4,2,9,5,0,0
230394,-60.6060606060606,4,2,7,85,0,0
230560,-60.6060606060606,4,2,7,5,0,0
230616,-76.9230769230769,4,2,7,85,0,0
230950,-60.6060606060606,4,2,7,85,0,0
231394,-60.6060606060606,4,2,7,85,0,0
231505,-60.6060606060606,4,2,7,85,0,0
231727,-76.9230769230769,4,2,7,85,0,0
231950,-54.054054054054,4,2,7,85,0,0
232061,-54.054054054054,4,2,7,5,0,0
232172,-54.054054054054,4,2,7,85,0,0
232505,-71.4285714285714,4,2,7,85,0,0
233061,-54.054054054054,4,2,7,85,0,0
233227,-54.054054054054,4,2,7,5,0,0
233283,-54.054054054054,4,2,7,85,0,0
233505,-71.4285714285714,4,2,7,85,0,0
233727,-54.054054054054,4,2,1,85,0,0
233838,-54.054054054054,4,2,1,5,0,0
233893,-54.054054054054,4,2,1,85,0,0
233950,-71.4285714285714,4,2,1,85,0,0
234283,-71.4285714285714,4,2,1,5,0,0
234394,-71.4285714285714,4,2,1,85,0,0
234616,-54.054054054054,4,2,1,85,0,0
234782,-54.054054054054,4,2,1,5,0,0
234838,-62.5,4,2,1,85,0,0
236616,-62.5,4,2,5,85,0,0
236838,-62.5,4,2,7,85,0,0
237283,-54.054054054054,4,2,7,85,0,0
237394,-54.054054054054,4,2,7,5,0,0
237505,-54.054054054054,4,2,7,85,0,0
237727,-60.6060606060606,4,2,7,85,0,0
237950,-76.9230769230769,4,2,7,85,0,0
238172,-60.6060606060606,4,2,7,85,0,0
238394,-76.9230769230769,4,2,7,85,0,0
239061,-48.780487804878,4,2,7,85,0,0
239227,-48.780487804878,4,2,7,5,0,0
239283,-48.780487804878,4,2,7,85,0,0
239505,-60.6060606060606,4,2,7,85,0,0
239672,-60.6060606060606,4,2,7,5,0,0
239727,-60.6060606060606,4,2,7,85,0,0
239950,-48.780487804878,4,2,7,85,0,0
240116,-48.780487804878,4,2,7,5,0,0
240172,-48.780487804878,4,2,7,85,0,0
240616,-100,4,2,7,85,0,0
240727,-100,4,2,7,5,0,0
240838,-50,4,2,1,85,0,0
241338,-50,4,2,1,5,0,0
241394,-50,4,2,1,85,0,0
241727,-58.8235294117647,4,2,1,85,0,0
242616,-50,4,2,2,85,0,0
242673,-50,4,2,2,85,0,0
242838,-50,4,2,7,85,0,0
243505,-50,4,2,7,100,0,0
243616,-50,4,2,7,85,0,0
244394,-60.6060606060606,4,2,5,85,0,0
244616,-76.9230769230769,4,2,7,75,0,0
244838,-60.6060606060606,4,2,7,75,0,0
245061,-76.9230769230769,4,2,7,75,0,0
245283,-60.6060606060606,4,2,7,75,0,0
245505,-76.9230769230769,4,2,7,75,0,0
245727,-76.9230769230769,4,2,7,85,0,0
246172,-76.9230769230769,4,2,7,95,0,0
247061,-76.9230769230769,4,2,98,60,0,0
247950,-50,4,2,10,85,0,0
248116,-50,4,2,10,5,0,0
248172,-76.9230769230769,4,2,1,75,0,0
248727,-100,4,2,1,75,0,0
249505,-76.9230769230769,4,2,1,75,0,0
249727,-100,4,2,1,75,0,0
249893,-100,4,2,1,5,0,0
249950,-76.9230769230769,4,2,1,75,0,0
250283,-76.9230769230769,4,2,1,82,0,0
250394,-76.9230769230769,4,2,1,75,0,0
250505,-76.9230769230769,4,2,1,50,0,0
250616,-76.9230769230769,4,2,1,75,0,0
250838,-50,4,2,1,80,0,0
251004,-50,4,2,1,5,0,0
251061,-50,4,2,1,80,0,0
251172,-86.9565217391304,4,2,1,80,0,0
251227,-86.9565217391304,4,2,1,5,0,0
251283,-86.9565217391304,4,2,1,70,0,0
251505,-50,4,2,2,85,0,0
251671,-50,4,2,2,5,0,0
251727,-76.9230769230769,4,2,1,75,0,0
252838,-100,4,2,1,75,0,0
253061,-76.9230769230769,4,2,1,75,0,0
253283,-43.4782608695652,4,2,1,85,0,0
253449,-43.4782608695652,4,2,1,5,0,0
253505,-66.6666666666667,4,2,1,75,0,0
253616,-66.6666666666667,4,2,1,5,0,0
253727,-43.4782608695652,4,2,1,85,0,0
253893,-43.4782608695652,4,2,1,5,0,0
253950,-66.6666666666667,4,2,1,75,0,0
254172,-66.6666666666667,4,2,1,90,0,0
254338,-66.6666666666667,4,2,1,5,0,0
254394,-66.6666666666667,4,2,1,85,0,0
254838,-200,4,2,5,85,0,0
255061,-50,4,2,10,85,0,0
255227,-50,4,2,10,5,0,0
255283,-76.9230769230769,4,2,1,75,0,0
255838,-100,4,2,1,75,0,0
256616,-76.9230769230769,4,2,1,75,0,0
256838,-100,4,2,1,75,0,0
257004,-100,4,2,1,5,0,0
257061,-76.9230769230769,4,2,1,75,0,0
257394,-76.9230769230769,4,2,1,82,0,0
257505,-76.9230769230769,4,2,1,75,0,0
257616,-76.9230769230769,4,2,1,50,0,0
257727,-76.9230769230769,4,2,1,75,0,0
257950,-50,4,2,1,80,0,0
258116,-50,4,2,1,5,0,0
258172,-50,4,2,1,80,0,0
258283,-86.9565217391304,4,2,1,80,0,0
258337,-86.9565217391304,4,2,1,5,0,0
258394,-86.9565217391304,4,2,1,80,0,0
258616,-50,4,2,1,70,0,0
258782,-50,4,2,1,5,0,0
258838,-76.9230769230769,4,2,1,75,0,0
259394,-100,4,2,1,75,0,0
259950,-100,4,2,1,85,0,0
260394,-76.9230769230769,4,2,1,65,0,0
260560,-76.9230769230769,4,2,1,5,0,0
260616,-133.333333333333,4,2,1,65,0,0
260727,-133.333333333333,4,2,1,5,0,0
260838,-76.9230769230769,4,2,1,65,0,0
261004,-76.9230769230769,4,2,1,5,0,0
261061,-133.333333333333,4,2,1,65,0,0
261283,-76.9230769230769,4,2,1,65,0,0
261560,-76.9230769230769,4,2,1,5,0,0
261616,-76.9230769230769,4,2,1,65,0,0
262116,-133.333333333333,4,2,1,65,0,0
262616,-400,4,2,98,65,0,0
263616,-400,4,2,98,5,0,0
263727,-400,4,2,1,45,0,0
264005,-400,4,2,1,50,0,0
264783,-400,4,2,1,60,0,0
265061,-400,4,2,1,55,0,0
265561,-400,4,2,1,60,0,0
266098,-400,4,2,1,65,0,0
266172,-133.333333333333,4,2,1,5,0,0

[Colours]
Combo1 : 255,147,255
Combo2 : 255,128,128
Combo3 : 163,70,255
Combo4 : 128,128,255

[HitObjects]
32,253,394,6,0,L|29:221,1,23.125,8|8,2:0|2:0,0:0:0:0:
68,384,505,5,8,2:0:0:0:
137,357,616,2,0,L|144:255,1,74,8|0,2:0|0:0,0:0:0:0:
69,75,838,6,0,B|47:119|48:184|107:205|155:195|155:195|134:99,1,268.25,4|0,3:1|0:0,0:0:0:0:
141,43,1172,1,8,2:0:0:0:
210,17,1283,2,0,B|185:-7|153:8|153:8|131:56,1,92.5,8|0,2:0|0:0,0:0:0:0:
142,283,1505,6,0,B|180:233|259:251|260:309|250:297|260:341|304:362|345:336,1,222,4|0,3:0|0:0,0:0:0:0:
389,364,1838,1,8,2:0:0:0:
327,346,1950,6,0,P|361:343|390:309,1,74,8|0,2:0|0:0,0:0:0:0:
498,319,2172,6,0,B|528:321|517:283|467:278|443:353|465:379,1,134.125,0|8,3:0|2:1,0:0:0:0:
326,167,2394,2,0,B|286:155|256:191|257:263|345:269|385:234,1,201.1875,8|0,3:1|0:0,0:0:0:0:
512,19,2616,6,0,B|509:45|509:45|385:85,1,157.250000000001,14|0,3:0|0:0,0:0:0:0:
368,85,2912,2,0,B|379:33|379:33|365:-1|302:7,1,104.833333333334,14|0,3:0|0:0,0:0:0:0:
251,172,3209,6,0,B|254:198|254:198|378:238,1,157.250000000001,14|0,3:0|0:0,0:0:0:0:
397,236,3505,2,0,B|412:214|412:214|416:182|395:156|362:158,1,104.833333333334,10|0,2:0|0:0,0:0:0:0:
27,176,3801,6,0,B|62:242|169:244|201:179|210:106|194:132|181:89|241:36|323:74|323:74|248:85|212:135|239:195|306:278|368:145|295:96|230:146|239:189,1,681.416679663658,10|0,2:0|0:0,0:0:0:0:
13,270,5616,5,8,2:0:0:0:
15,282,5672,1,8,2:0:0:0:
45,276,5727,6,0,L|38:317,1,32.375,8|0,2:1|0:0,0:0:0:0:
27,384,5838,1,8,2:0:0:0:
159,301,5950,6,0,L|152:258,1,37,8|0,2:1|0:0,0:0:0:0:
19,53,6172,6,0,B|62:-6|149:15|150:74|142:71|162:123|235:130|269:77,1,277.5,4|0,3:2|0:0,0:0:0:0:
265,40,6394,2,0,B|250:51|253:73|253:73|291:71|306:36|284:-6,1,120.25,8|0,2:0|0:0,0:0:0:0:
196,3,6616,5,0,3:0:0:0:
139,59,6727,1,0,0:0:0:0:
126,137,6838,1,8,2:0:0:0:
138,164,6950,2,0,P|173:194|219:187,1,92.5,0|0,0:0|3:0,0:0:0:0:
292,176,7172,5,0,0:0:0:0:
355,159,7283,2,0,B|326:195|326:195|351:242,1,92.5,8|0,2:0|0:0,0:0:0:0:
277,262,7505,6,0,B|295:265|295:265|296:267|296:267|298:266|298:266|428:283,1,138.75,8|0,3:2|0:0,0:0:0:0:
475,232,7727,2,0,B|511:279|511:279|477:340,1,120.25,8|0,2:0|0:0,0:0:0:0:
304,354,7950,6,0,P|275:385|224:373,1,92.5,0|0,3:0|0:0,0:0:0:0:
199,384,8172,6,0,B|196:353|196:353|194:351|194:351|196:351|196:351|184:262,1,120.25,8|0,2:0|0:0,0:0:0:0:
184,254,8394,5,8,3:2:0:0:
183,148,8505,1,0,0:0:0:0:
133,137,8616,1,8,2:0:0:0:
86,189,8727,1,0,0:0:0:0:
99,262,8838,2,0,P|150:299|214:292,1,120.25,0|0,3:0|0:0,0:0:0:0:
483,315,9061,6,0,B|444:325|444:325|403:332|396:295|396:295|389:260|389:260|392:258|392:258|381:201|381:201|372:165|411:159|411:159|439:153,1,277.5,10|0,2:0|0:0,0:0:0:0:
480,212,9283,1,0,3:0:0:0:
462,228,9394,6,0,B|451:175|451:175|452:170|452:170|444:123,1,106.375,10|0,2:0|0:0,0:0:0:0:
435,52,9616,1,0,0:0:0:0:
493,107,9727,6,0,B|508:137|508:137|467:198|379:179|338:100|366:35,1,277.5,4|0,3:1|0:0,0:0:0:0:
354,21,9950,2,0,B|318:16|298:45|313:46|287:85|248:78,1,120.25,8|0,2:0|0:0,0:0:0:0:
153,18,10172,5,0,3:0:0:0:
89,2,10283,1,0,0:0:0:0:
45,66,10394,1,8,2:0:0:0:
80,132,10505,1,0,0:0:0:0:
50,146,10616,5,0,3:0:0:0:
123,170,10727,1,0,0:0:0:0:
143,247,10838,1,8,2:0:0:0:
84,302,10950,1,0,0:0:0:0:
14,321,11061,6,0,P|83:323|134:388,1,138.75,8|0,3:2|0:0,0:0:0:0:
153,375,11283,2,0,B|166:393|209:382|209:382|232:347|218:320,1,120.25,8|0,2:0|0:0,0:0:0:0:
373,172,11505,6,0,B|359:159|359:159|285:176|285:176|253:250|306:311|377:296|394:262|354:273|415:239|451:261,1,319.125,2|0,3:2|0:0,0:0:0:0:
437,257,11727,6,0,B|482:263|497:311|480:353|480:353|443:331,1,138.75,10|0,2:0|0:0,0:0:0:0:
435,110,11950,6,0,B|439:128|439:128|450:163|489:164|518:142|509:105|509:105|485:34|485:34|445:25|431:62|435:68|443:63|427:98|393:88,1,319.125,2|0,3:2|0:0,0:0:0:0:
380,90,12172,6,0,B|338:95|312:54|318:18|318:18|351:-5,1,138.75,10|0,2:0|0:0,0:0:0:0:
283,155,12394,6,0,L|256:383,1,208.125,10|0,2:0|0:0,0:0:0:0:
232,375,12616,6,0,P|189:358|183:268,1,138.75,10|8,2:0|2:1,0:0:0:0:
437,257,12838,6,0,P|377:249|347:332,1,138.75,8|10,2:1|2:0,0:0:0:0:
56,381,13061,6,0,L|49:337,1,23.125,6|0,2:1|0:0,0:0:0:0:
20,28,13283,6,0,B|13:97|67:133|122:118|103:118|142:66|217:119|206:196,1,277.5,4|0,3:0|0:0,0:0:0:0:
179,163,13505,2,0,B|188:107|188:107|192:105|192:105|201:39,1,120.25,8|0,2:0|0:0,0:0:0:0:
266,0,13727,5,0,3:0:0:0:
297,48,13838,1,0,0:0:0:0:
363,70,13950,1,8,2:0:0:0:
393,62,14061,2,0,P|436:54|464:5,1,92.5,0|0,0:0|3:0,0:0:0:0:
470,130,14283,5,0,0:0:0:0:
483,150,14394,2,0,P|474:195|428:213,1,92.5,8|0,2:0|0:0,0:0:0:0:
360,251,14616,6,0,B|402:229|435:253|447:291|447:291|425:320,1,138.75,8|0,3:2|0:0,0:0:0:0:
337,384,14838,2,0,P|326:326|275:300,1,120.25,8|0,2:0|0:0,0:0:0:0:
46,307,15061,6,0,P|46:348|95:365,1,92.5,0|0,3:0|0:0,0:0:0:0:
121,383,15283,6,0,B|135:304|135:304|138:303|138:303|136:300|136:300|146:244,1,120.25,8|0,2:0|0:0,0:0:0:0:
304,165,15505,5,8,3:2:0:0:
220,221,15616,1,0,0:0:0:0:
164,196,15727,1,8,2:0:0:0:
154,149,15838,1,0,0:0:0:0:
118,138,15950,2,0,B|-9:160,1,120.25,0|0,3:0|0:0,0:0:0:0:
288,53,16172,6,0,B|286:40|286:40|277:6|243:-4|213:18|215:48|215:48|225:91|225:91|224:98|224:98|230:123|230:123|233:140|269:160|293:129,1,277.5,10|0,2:0|0:0,0:0:0:0:
410,147,16394,5,0,3:1:0:0:
340,174,16505,2,0,B|291:165|291:165|286:170|286:170|222:158,1,106.375,10|0,2:0|3:1,0:0:0:0:
161,153,16727,1,0,2:0:0:0:
114,57,16838,6,0,L|397:21,1,277.5,6|0,3:2|0:0,0:0:0:0:
463,41,17061,2,0,B|457:24|471:2|471:2|431:14|430:50|462:83,1,120.25,8|0,2:0|0:0,0:0:0:0:
499,243,17283,5,0,3:0:0:0:
450,250,17394,1,0,0:0:0:0:
427,300,17505,1,8,2:0:0:0:
447,367,17616,1,0,0:0:0:0:
427,355,17727,5,0,3:0:0:0:
381,299,17838,1,0,0:0:0:0:
309,297,17950,1,8,2:0:0:0:
269,362,18061,1,0,0:0:0:0:
282,384,18172,5,0,3:0:0:0:
221,334,18283,1,8,2:1:0:0:
130,363,18394,1,8,2:0:0:0:
8,227,18616,6,0,P|22:278|148:315,1,180.375,2|0,2:0|0:0,0:0:0:0:
152,312,18838,2,0,L|139:243,1,69.3750000000002,2|0,2:0|0:0,0:0:0:0:
195,120,19061,6,0,P|233:41|318:25,1,180.375,2|0,2:0|0:0,0:0:0:0:
339,29,19283,2,0,B|342:37|342:37|339:40|339:40|326:98,1,69.3750000000002,2|0,2:0|0:0,0:0:0:0:
370,209,19505,6,0,B|323:149|229:158|217:258|234:243|251:310|173:343|123:294,1,300.625,2|0,2:0|0:0,0:0:0:0:
94,257,19838,6,0,P|110:291|160:314,1,69.3750000000002,2|0,2:0|0:0,0:0:0:0:
481,33,20394,6,0,L|465:201,1,166.5,0|0,2:0|0:0,0:0:0:0:
464,220,20838,1,8,2:0:0:0:
371,383,21283,6,0,P|334:326|236:335,1,166.5,0|0,2:0|0:0,0:0:0:0:
230,338,21727,1,8,2:0:0:0:
125,373,21950,6,0,L|67:361,1,55.4999999999999,0|0,2:0|0:0,0:0:0:0:
30,384,22172,6,0,P|94:359|101:267,1,166.5,0|0,2:0|0:0,0:0:0:0:
93,252,22616,1,8,2:0:0:0:
112,9,22838,5,0,2:0:0:0:
93,24,23061,6,0,P|122:77|231:98,1,166.5,0|0,0:0|2:0,0:0:0:0:
237,93,23505,1,8,2:0:0:0:
392,207,23727,6,0,L|451:189,1,55.4999999999999,0|0,2:0|2:0,0:0:0:0:
464,220,23950,6,0,L|448:52,1,166.5,0|0,2:0|0:0,0:0:0:0:
446,38,24394,1,8,2:0:0:0:
444,23,24838,1,0,2:0:0:0:
25,333,25283,6,0,P|115:274|167:275,1,148,10|0,2:0|0:0,0:0:0:0:
172,275,25727,6,0,B|223:300|289:271|305:207|261:178|210:172|204:221,1,222,0|10,0:0|2:0,0:0:0:0:
119,187,26616,2,0,B|115:130|68:92|-6:105|-12:154|8:210|56:186,1,222,0|10,0:0|2:0,0:0:0:0:
471,317,27505,6,0,P|436:366|338:358,1,166.5,0|0,2:0|0:0,0:0:0:0:
330,342,27950,1,8,2:0:0:0:
251,27,28394,6,0,P|277:97|371:102,1,166.5,0|0,2:0|0:0,0:0:0:0:
380,101,28838,1,8,2:0:0:0:
84,162,29061,6,0,P|97:184|92:221,1,55.4999999999999,0|0,2:0|0:0,0:0:0:0:
14,215,29283,6,0,L|179:236,1,166.5,0|0,2:0|0:0,0:0:0:0:
199,239,29727,1,8,2:0:0:0:
464,92,29950,5,0,2:0:0:0:
483,67,30172,6,0,L|317:88,1,166.5,0|0,0:0|2:0,0:0:0:0:
298,91,30616,1,8,2:0:0:0:
115,19,30838,6,0,L|50:31,1,55.4999999999999,0|0,0:0|2:0,0:0:0:0:
35,33,31061,6,0,P|70:82|168:74,1,166.5,0|0,2:0|0:0,0:0:0:0:
176,58,31505,1,8,2:0:0:0:
184,39,31950,1,0,2:0:0:0:
483,319,32394,6,0,B|434:293|406:337|421:333|391:375|350:365,1,148,10|0,2:0|0:0,0:0:0:0:
232,304,32838,6,0,B|220:371|283:408|342:396|357:343|342:306|296:312,1,222
429,234,33727,2,0,B|376:277|313:241|294:184|332:145|372:139|390:182,1,222,2|0,2:0|0:0,0:0:0:0:
31,27,34616,6,0,L|47:124,1,92.5,4|0,2:0|0:0,0:0:0:0:
117,96,34838,2,0,L|133:193,1,92.5,2|0,2:0|0:0,0:0:0:0:
22,333,35061,6,0,P|45:372|95:379,1,92.5,10|0,2:3|0:0,0:0:0:0:
121,312,35283,2,0,P|143:273|187:263,1,92.5,2|0,2:0|0:0,0:0:0:0:
217,327,35505,6,0,P|243:221|237:313,1,360.75,2|0,3:2|0:0,0:0:0:0:
327,328,35950,5,2,2:3:0:0:
341,363,36061,1,8,2:0:0:0:
382,379,36172,1,10,2:0:0:0:
482,320,36283,6,0,P|437:323|401:278,1,92.5,8|2,3:0|3:2,0:0:0:0:
471,245,36505,1,0,0:0:0:0:
465,231,36616,2,0,L|438:131,1,92.5,2|0,2:0|0:0,0:0:0:0:
408,21,36838,6,0,P|401:67|344:81,1,92.5,10|0,2:3|0:0,0:0:0:0:
290,55,37061,1,2,2:0:0:0:
284,194,37172,6,0,P|277:148|220:134,1,92.5,0|2,0:0|3:2,0:0:0:0:
164,149,37394,1,0,0:0:0:0:
141,166,37505,5,8,2:0:0:0:
99,173,37616,1,0,0:0:0:0:
57,143,37727,1,10,2:3:0:0:
52,89,37838,1,8,2:0:0:0:
81,67,37950,1,2,2:3:0:0:
125,71,38061,1,0,0:0:0:0:
190,125,38172,6,0,L|205:33,1,92.5,0|0,3:2|0:0,0:0:0:0:
118,91,38394,2,0,L|133:0,1,92.5,2|0,2:0|0:0,0:0:0:0:
0,197,38616,6,0,P|11:238|68:257,1,92.5,10|0,2:3|0:0,0:0:0:0:
83,332,38838,2,0,P|119:313|135:264,1,92.5,0|0,3:0|0:0,0:0:0:0:
234,287,39061,6,0,B|245:265|233:222|196:204|196:204|268:182|313:209|321:265|302:303|302:303|266:301|244:339,1,360.75,0|0,3:2|0:0,0:0:0:0:
182,382,39505,5,10,2:3:0:0:
132,383,39616,1,8,2:0:0:0:
88,346,39727,1,8,2:0:0:0:
99,276,39838,1,0,0:0:0:0:
154,164,39950,6,0,B|173:114|173:114|110:79|86:128|103:143|53:173|24:155,1,222,0|0,3:2|0:0,0:0:0:0:
16,199,40394,2,0,B|30:197|30:197|33:195|33:195|34:196|34:196|204:170,1,185,10|0,2:3|2:0,0:0:0:0:
273,162,40727,1,0,0:0:0:0:
421,221,40838,6,0,B|402:240|426:262|433:247|459:279|441:350|369:346|349:303|357:271,1,185,0|8,3:2|2:0,0:0:0:0:
270,90,41283,5,10,2:3:0:0:
290,162,41394,1,8,2:0:0:0:
251,148,41505,1,10,2:3:0:0:
320,129,41616,1,0,0:0:0:0:
374,38,41727,6,0,P|406:67|405:129,1,92.5,6|0,2:1|0:0,0:0:0:0:
491,174,41950,2,0,P|447:183|419:231,1,92.5,0|0,2:0|0:0,0:0:0:0:
473,368,42172,6,0,P|431:380|396:349,1,92.5,8|0,2:3|0:0,0:0:0:0:
337,299,42394,2,0,P|294:286|259:317,1,92.5,0|0,2:0|0:0,0:0:0:0:
260,384,42616,6,0,P|197:345|309:363,1,360.75,2|0,3:2|0:0,0:0:0:0:
157,322,43061,5,10,2:3:0:0:
143,357,43172,1,8,2:0:0:0:
102,373,43283,1,8,2:0:0:0:
36,340,43394,1,8,3:0:0:0:
34,288,43505,6,0,P|59:248|110:248,1,92.5,0|0,3:0|0:0,0:0:0:0:
141,175,43727,2,0,P|181:200|181:251,1,92.5,2|0,2:0|0:0,0:0:0:0:
284,381,43950,6,0,L|270:280,1,92.5,10|0,2:3|0:0,0:0:0:0:
260,214,44172,1,2,2:0:0:0:
368,301,44283,6,0,L|354:200,1,92.5,0|2,0:0|3:2,0:0:0:0:
344,134,44505,1,0,0:0:0:0:
260,214,44616,5,10,2:0:0:0:
193,246,44727,1,0,0:0:0:0:
134,207,44838,2,0,P|105:173|114:124,1,92.5,10|8,2:3|2:0,0:0:0:0:
88,12,45061,2,0,P|131:19|156:62,1,92.5,2|0,2:3|0:0,0:0:0:0:
242,64,45283,6,0,P|241:107|204:140,1,92.5,2|0,3:2|0:0,0:0:0:0:
112,118,45505,2,0,L|11:104,1,92.5,2|0,2:0|0:0,0:0:0:0:
10,237,45727,6,0,P|17:278|64:296,1,92.5,10|0,2:3|0:0,0:0:0:0:
110,363,45950,2,0,P|141:331|209:329,1,92.5,0|0,3:0|0:0,0:0:0:0:
297,370,46172,6,0,B|306:380|306:380|366:363|366:363|386:332|362:290|320:278|280:308|297:311|282:352|244:342,1,240.5,2|2,3:2|2:0,0:0:0:0:
259,337,46505,1,0,0:0:0:0:
151,244,46616,2,0,L|278:220,1,92.5,10|8,2:3|2:0,0:0:0:0:
318,217,46838,1,10,2:3:0:0:
352,226,46950,1,0,0:0:0:0:
434,148,47061,6,0,B|442:177|396:190|351:252|416:306|483:289|504:238|485:186|465:211|450:190|472:151,1,268.25,2|2,3:2|2:0,0:0:0:0:
395,55,47505,5,2,2:3:0:0:
395,55,47727,1,4,2:0:0:0:
436,0,47950,5,2,3:2:0:0:
459,72,48061,1,8,2:0:0:0:
399,118,48172,1,8,2:0:0:0:
335,77,48283,1,8,2:0:0:0:
351,3,48394,5,8,2:3:0:0:
307,90,48505,1,8,2:3:0:0:
252,33,48616,1,8,3:0:0:0:
177,39,48727,1,8,3:0:0:0:
14,128,48838,6,0,B|58:84|126:128|101:172|101:163|85:206|139:246|195:203,1,222,4|0,3:0|0:0,0:0:0:0:
202,201,49061,2,0,B|190:219|190:219|172:197|184:170|217:169|209:183|230:167|221:149,1,111,10|0,2:0|0:0,0:0:0:0:
403,182,49283,5,0,3:0:0:0:
327,200,49394,2,0,P|380:213|414:265,1,111,0|10,0:0|2:0,0:0:0:0:
511,64,49616,6,0,B|498:113|498:113|416:136|416:136|443:39|443:39|427:14|427:14|392:141,1,370
385,113,49950,2,0,B|356:127|331:114|340:107|308:87|277:106,1,111,10|0,2:0|0:0,0:0:0:0:
160,85,50172,5,8,3:2:0:0:
267,376,50394,1,10,2:0:0:0:
230,295,50616,6,0,L|38:318,1,194.25,2|0,3:2|0:0,0:0:0:0:
42,300,50838,2,0,L|48:245,1,55.5,10|0,2:0|0:0,0:0:0:0:
319,230,51061,6,0,B|415:243|415:243|420:246|420:246|511:257,1,194.25,0|0,3:0|0:0,0:0:0:0:
507,239,51283,2,0,B|505:215|505:215|506:210|506:210|504:182,1,55.5,10|0,2:0|0:0,0:0:0:0:
369,371,51505,6,0,P|365:323|375:361,1,187.3125,2|0,3:2|0:0,0:0:0:0:
344,352,51727,1,10,2:0:0:0:
369,178,51838,6,0,P|412:198|374:188,1,187.3125,2|0,2:0|0:0,0:0:0:0:
398,170,52061,1,10,2:0:0:0:
328,58,52172,6,0,B|309:81|276:77|276:77|238:69|209:145|302:160|309:79|302:35|276:18,1,222,10|0,2:0|0:0,0:0:0:0:
171,35,52394,6,0,B|207:32|207:32|211:30|211:30|211:31|211:31|408:15,1,222,4|0,3:0|0:0,0:0:0:0:
457,52,52616,2,0,B|473:54|480:30|480:30|451:18|414:39|406:78,1,111,10|0,2:0|0:0,0:0:0:0:
244,139,52838,5,0,3:0:0:0:
266,208,52950,2,0,P|224:167|157:170,1,111,0|10,0:0|2:0,0:0:0:0:
182,245,53172,6,0,B|160:249|152:275|152:275|139:328|56:360|8:306|2:255|25:206|75:201|75:201|90:263,1,370
91,244,53505,2,0,B|84:197|84:197|87:193|87:193|79:123,1,111,10|0,2:0|0:0,0:0:0:0:
71,58,53727,5,10,3:2:0:0:
163,384,53950,1,10,2:0:0:0:
316,377,54172,6,0,P|330:281|420:278,1,194.25,2|0,3:2|0:0,0:0:0:0:
422,286,54394,2,0,L|380:344,1,55.5,10|0,2:0|0:0,0:0:0:0:
269,211,54616,6,0,P|255:115|165:112,1,194.25,0|0,3:0|0:0,0:0:0:0:
163,120,54838,2,0,B|167:126|167:126|171:126|171:126|204:174,1,55.5,10|0,2:0|0:0,0:0:0:0:
495,172,55061,6,0,B|450:126|485:106|468:85|468:85|447:101|471:133|410:157,1,187.3125,0|0,3:0|0:0,0:0:0:0:
465,107,55283,1,10,2:0:0:0:
244,88,55394,6,0,B|289:42|254:22|271:0|271:0|292:17|268:49|329:73,1,187.3125,0|0,2:0|0:0,0:0:0:0:
274,23,55616,1,10,2:0:0:0:
243,225,55727,6,0,B|229:259|261:289|258:260|286:308|250:361|192:363|164:300|196:263|194:275|206:269|182:235,1,222,10|0,2:0|0:0,0:0:0:0:
92,189,55950,6,0,B|96:189|96:189|100:187|100:187|102:190|102:190|326:214,1,222,6|0,3:0|0:0,0:0:0:0:
320,180,56172,2,0,B|316:216|355:241|348:224|383:228|381:277,1,111,10|0,2:0|0:0,0:0:0:0:
494,304,56394,6,0,P|483:357|430:374,1,111,0|0,3:0|0:0,0:0:0:0:
354,335,56616,1,10,2:0:0:0:
243,225,56727,6,0,B|131:188|131:188|123:185|126:197|126:197|170:313|170:313|208:291|258:303|273:358,1,370
259,352,57061,2,0,P|225:321|164:336,1,111,10|0,2:0|0:0,0:0:0:0:
86,382,57283,5,8,3:2:0:0:
141,113,57505,1,10,2:0:0:0:
427,129,57727,6,0,L|233:110,1,194.249994071961,2|0,3:2|0:0,0:0:0:0:
145,101,57950,1,10,2:0:0:0:
48,243,58172,6,0,B|135:233|135:233|142:234|142:234|259:221,1,194.25,0|0,3:0|0:0,0:0:0:0:
240,223,58394,1,10,2:0:0:0:
498,173,58616,6,0,B|508:204|471:259|394:216|406:151|440:119,1,194.25,2|0,3:2|0:0,0:0:0:0:
436,108,58838,2,0,B|411:94|381:118|393:120|363:147|329:134,1,111,10|0,2:0|0:0,0:0:0:0:
68,141,59061,5,2,3:2:0:0:
105,35,59172,1,8,2:0:0:0:
178,116,59283,1,2,2:0:0:0:
117,98,59505,5,8,2:0:0:0:
155,331,59616,1,8,2:0:0:0:
93,227,59727,1,0,2:0:0:0:
72,243,59838,2,0,L|233:274,1,161.875,8|0,2:0|0:0,0:0:0:0:
330,231,60172,5,8,2:0:0:0:
330,231,60394,5,8,2:0:0:0:
284,384,60505,1,8,2:0:0:0:
445,296,60616,1,0,2:0:0:0:
465,317,60727,2,0,P|392:312|363:390,1,161.875,8|0,2:0|0:0,0:0:0:0:
284,373,61061,5,8,2:0:0:0:
284,373,61283,5,8,2:0:0:0:
220,183,61394,1,8,2:0:0:0:
330,231,61505,1,0,2:0:0:0:
314,218,61616,2,0,B|288:123|288:123|279:89|308:59,1,161.875,8|0,2:0|0:0,0:0:0:0:
371,113,61950,5,8,2:0:0:0:
0,296,62172,5,0,3:0:0:0:
62,252,62283,1,8,2:0:0:0:
136,262,62394,1,8,2:0:0:0:
195,313,62505,1,8,2:0:0:0:
242,377,62616,1,8,2:1:0:0:
314,356,62727,1,8,2:1:0:0:
295,287,62838,6,0,P|284:249|322:321,1,601.249999999999,8|0,2:0|0:0,0:0:0:0:
118,35,64283,5,8,2:1:0:0:
119,48,64338,1,8,2:1:0:0:
121,62,64394,1,8,2:0:0:0:
196,14,64505,1,8,3:1:0:0:
40,67,64616,1,8,2:0:0:0:
130,137,64727,1,8,3:1:0:0:
69,214,64838,6,0,P|64:196|81:229,1,256.6875,4|0,3:2|0:0,0:0:0:0:
10,363,65061,6,0,L|261:329,1,228.9375,10|0,2:0|0:0,0:0:0:0:
385,378,65283,2,0,B|369:323|369:323|372:318|372:318|357:262,1,120.25,0|0,3:2|0:0,0:0:0:0:
274,272,65505,5,8,2:0:0:0:
246,301,65616,2,0,B|198:235|103:272|115:338|132:320|128:380|43:399|-2:340,1,305.25,2|0,2:0|0:0,0:0:0:0:
192,348,65950,5,10,2:1:0:0:
385,378,66061,2,0,B|364:306|364:306|368:300|368:300|348:228,1,152.625,0|0,1:2|3:2,0:0:0:0:
155,182,66283,5,10,2:1:0:0:
229,205,66394,2,0,B|252:179|252:179|237:129|237:129|192:126,1,120.25,8|0,3:1|2:0,0:0:0:0:
27,89,66616,6,0,B|33:90|33:90|38:88|38:88|42:91|42:91|282:123,1,256.6875,2|0,3:1|0:0,0:0:0:0:
381,140,66838,5,10,2:0:0:0:
411,68,66950,1,2,2:0:0:0:
352,19,67061,5,2,3:2:0:0:
340,19,67172,2,0,P|308:73|241:59,1,129.5,2|8,2:0|2:0,0:0:0:0:
35,54,67394,2,0,P|104:65|110:173,1,194.25,2|0,2:0|0:0,0:0:0:0:
90,287,67616,5,2,2:0:0:0:
14,281,67727,2,0,B|26:207|99:169|165:234|159:262|131:237|166:300|221:303|250:277,1,256.6875,10|0,2:1|0:0,0:0:0:0:
338,249,67950,5,0,3:2:0:0:
398,293,68061,1,10,2:1:0:0:
365,318,68172,2,0,B|373:317|373:317|376:319|376:319|380:317|380:317|518:294,1,129.5,10|0,2:0|2:0,0:0:0:0:
404,24,68394,6,0,B|410:46|410:46|478:66|478:66|500:155|500:155|461:183|461:183|439:174,1,256.6875,4|0,3:2|0:0,0:0:0:0:
431,166,68616,6,0,B|427:150|427:150|423:150|423:150|426:146|426:146|400:43,1,129.5,8|0,2:0|0:0,0:0:0:0:
424,290,68838,6,0,B|347:310|381:364|352:386|352:386|330:358|377:316|321:266,1,259,0|8,3:2|2:0,0:0:0:0:
378,173,69172,5,0,2:0:0:0:
387,172,69283,2,0,B|390:191|390:191|391:208|422:231|450:204|444:178|444:178|433:118|433:118|400:107|387:123|391:137|379:149|353:148,1,256.6875,2|0,3:1|0:0,0:0:0:0:
137,172,69505,6,0,L|291:189,1,148,8|0,2:0|0:0,0:0:0:0:
199,348,69727,6,0,P|187:283|109:281,1,148,0|0,3:2|0:0,0:0:0:0:
122,352,69950,5,8,2:0:0:0:
32,99,70172,5,10,3:1:0:0:
108,124,70283,1,0,2:0:0:0:
169,72,70394,1,8,2:0:0:0:
93,46,70505,5,8,2:1:0:0:
39,102,70616,1,0,3:2:0:0:
51,174,70727,1,0,2:0:0:0:
37,324,70838,5,10,2:0:0:0:
91,266,70950,1,8,2:1:0:0:
166,289,71061,1,0,3:2:0:0:
244,278,71172,5,10,2:0:0:0:
175,304,71283,1,8,2:0:0:0:
164,376,71394,1,0,3:2:0:0:
179,210,71505,5,8,3:0:0:0:
177,202,71561,1,0,0:0:0:0:
175,194,71616,1,0,3:0:0:0:
99,84,71727,5,8,2:0:0:0:
191,104,71838,1,8,2:0:0:0:
208,86,71950,6,0,B|200:17|284:2|284:2|344:67|300:119,1,256.6875,6|0,3:2|0:0,0:0:0:0:
239,157,72172,1,10,2:0:0:0:
273,367,72394,6,0,B|317:396|374:369|371:318|364:341|358:284|413:260|458:292,1,228.9375,0|0,3:2|0:0,0:0:0:0:
461,297,72616,2,0,L|433:360,1,60.125,8|0,2:0|0:0,0:0:0:0:
512,116,72838,6,0,B|525:136|525:136|482:190|411:168|379:128|391:74,1,228.9375,0|0,3:0|0:0,0:0:0:0:
401,69,73061,2,0,B|413:56|438:63|428:65|450:69|465:62,1,60.125,10|0,2:1|0:0,0:0:0:0:
399,246,73283,5,2,3:2:0:0:
383,250,73394,1,10,2:1:0:0:
356,345,73505,5,10,3:2:0:0:
333,337,73616,1,2,3:2:0:0:
200,328,73727,6,0,B|195:360|195:360|125:385|125:385|134:294|134:294|196:263|192:325|239:316|256:278,1,284.4375,2|0,3:1|0:0,0:0:0:0:
214,305,73950,1,8,2:0:0:0:
334,384,74172,6,0,L|306:137,1,228.9375,0|0,3:2|0:0,0:0:0:0:
118,125,74394,2,0,P|132:153|162:164,1,60.125,0|0,2:0|0:0,0:0:0:0:
357,144,74616,6,0,B|369:110|333:57|331:106|296:69|304:7|304:7|282:157,1,284.4375,2|0,3:1|0:0,0:0:0:0:
285,132,74838,1,8,2:1:0:0:
311,223,75061,5,0,3:2:0:0:
311,223,75172,1,8,2:1:0:0:
311,223,75283,2,0,B|354:222|354:222|301:235,1,92.5,8|8,2:0|2:1,0:0:0:0:
133,275,75505,6,0,B|225:318|295:278|281:206|281:206|235:178|175:207|165:288|160:363|160:363|14:418|-60:272|32:97|32:97|90:154|90:154|79:196|79:196|81:198|81:198|77:199|77:199|59:267,1,1017.5,4|0,3:2|0:0,0:0:0:0:
69,227,76172,1,8,2:0:0:0:
374,185,76394,6,0,B|357:162|371:130|395:145|397:93|397:93|421:203|421:203|434:246|434:246|440:306|499:329|583:273|529:137|432:192|389:251|385:291,1,550.375,2|2,2:0|2:0,0:0:0:0:
393,265,76838,1,2,3:2:0:0:
200,22,77061,6,0,P|176:54|181:97,1,78.625,8|0,2:0|0:0,0:0:0:0:
251,100,77172,2,0,P|253:138|229:169,1,78.625,0|0,1:0|0:0,0:0:0:0:
126,199,77283,6,0,B|158:156|220:148|254:185|216:168|249:250|355:223|360:157|350:188|355:138|405:107|468:136,1,370,14|0,2:1|2:0,0:0:0:0:
463,151,77616,6,0,B|431:194|368:201|334:164|372:181|339:99|233:126|228:192|238:161|233:211|183:242|120:213,1,370,10|0,2:0|0:0,0:0:0:0:
21,181,77950,5,0,3:1:0:0:
2,259,78061,1,8,2:0:0:0:
62,308,78172,1,0,3:0:0:0:
132,217,78283,5,8,2:0:0:0:
183,153,78394,1,0,3:2:0:0:
266,155,78505,1,8,2:0:0:0:
325,288,78616,5,8,3:1:0:0:
385,336,78727,1,8,3:1:0:0:
459,314,78838,1,8,2:1:0:0:
456,305,78894,1,8,2:1:0:0:
454,296,78950,1,8,2:1:0:0:
390,122,79061,6,0,B|379:248|379:248|376:253|376:253|366:381,1,256.6875,4|0,3:2|0:0,0:0:0:0:
148,355,79283,6,0,B|189:383|249:365|240:310|232:326|231:273|290:250|329:291,1,228.9375,10|0,2:0|0:0,0:0:0:0:
440,266,79505,2,0,B|403:277|375:244|388:240|363:207|319:213,1,120.25,0|0,3:2|0:0,0:0:0:0:
264,153,79727,5,8,2:0:0:0:
274,165,79838,2,0,B|313:225|399:198|391:144|389:157|373:72|469:39|527:113,1,305.25,2|0,2:0|0:0,0:0:0:0:
466,154,80172,5,10,2:1:0:0:
440,266,80283,2,0,B|399:278|368:241|382:237|360:195|306:207,1,152.625,0|0,1:2|3:2,0:0:0:0:
103,165,80505,5,10,2:1:0:0:
29,148,80616,2,0,B|4:170|4:170|22:225|22:225|56:222,1,120.25,8|0,3:1|2:0,0:0:0:0:
181,172,80838,6,0,B|169:267|89:245|101:226|23:239|6:318|44:361,1,256.6875,2|0,3:1|0:0,0:0:0:0:
109,361,81061,5,8,2:0:0:0:
183,380,81172,1,0,2:0:0:0:
255,303,81283,5,2,3:2:0:0:
182,305,81394,2,0,P|196:363|276:362,1,129.5,2|0,2:0|2:0,0:0:0:0:
340,27,81616,2,0,P|340:90|215:114,1,194.25,2|0,2:0|0:0,0:0:0:0:
150,185,81838,5,0,2:0:0:0:
143,195,81950,2,0,B|272:183|272:183|277:180|277:180|404:166,1,256.6875,10|0,2:1|0:0,0:0:0:0:
512,154,82172,5,0,3:2:0:0:
477,221,82283,1,10,2:1:0:0:
464,214,82394,2,0,B|428:226|429:277|459:300|459:300|508:283,1,129.5,10|0,2:0|2:0,0:0:0:0:
304,41,82616,6,0,B|474:22|474:22|350:55,1,256.6875,2|0,3:1|0:0,0:0:0:0:
327,94,82838,6,0,B|307:65|271:64|271:64|310:89|294:129,1,129.5,8|0,2:0|0:0,0:0:0:0:
311,330,83061,6,0,B|316:340|316:340|319:340|319:340|317:343|317:343|329:363|329:363|263:414|198:365|177:330|186:262,1,259,0|8,3:2|2:0,0:0:0:0:
175,66,83394,5,0,2:0:0:0:
223,132,83505,2,0,B|159:87|204:42|180:16|180:16|153:39|189:91|108:116,1,256.6875,2|0,3:1|0:0,0:0:0:0:
162,181,83727,6,0,L|146:334,1,148,8|0,2:0|0:0,0:0:0:0:
249,21,83950,6,0,L|102:34,1,148,0|0,3:2|0:0,0:0:0:0:
81,35,84172,5,8,2:2:0:0:
466,30,84394,5,10,3:1:0:0:
387,46,84505,1,0,2:0:0:0:
440,101,84616,1,8,2:0:0:0:
386,35,84727,5,8,2:1:0:0:
339,100,84838,1,0,3:2:0:0:
379,162,84950,1,0,0:0:0:0:
510,224,85061,5,8,2:0:0:0:
436,213,85172,1,8,2:1:0:0:
386,272,85283,1,0,3:2:0:0:
207,268,85394,5,8,2:0:0:0:
276,299,85505,1,8,2:0:0:0:
304,372,85616,1,0,3:2:0:0:
297,207,85727,5,2,3:1:0:0:
299,199,85783,1,0,0:0:0:0:
301,191,85838,1,0,3:0:0:0:
385,35,85950,5,8,2:0:0:0:
269,79,86061,1,8,2:0:0:0:
273,54,86172,6,0,B|267:31|267:31|261:12|232:2|216:23|222:44|222:44|237:111|237:111|242:129|211:166|181:146|176:136|176:136|171:120,1,256.6875,6|0,3:2|0:0,0:0:0:0:
152,60,86394,1,10,2:0:0:0:
5,318,86616,6,0,B|43:275|108:289|115:342|107:330|124:385|164:395|199:381,1,228.9375,0|0,3:2|0:0,0:0:0:0:
271,358,86838,2,0,B|259:312|217:317|217:317|249:327|259:364,1,120.25,8|0,2:0|1:2,0:0:0:0:
45,34,87061,6,0,B|5:164|5:164|71:150|71:150|75:150|75:150|81:147|81:147|116:138,1,228.9375,0|0,3:0|0:0,0:0:0:0:
133,136,87283,2,0,B|112:97|112:97|147:67|186:102,1,120.25,10|0,2:0|1:2,0:0:0:0:
364,111,87505,5,2,3:2:0:0:
389,105,87616,1,10,2:1:0:0:
334,210,87727,5,10,3:2:0:0:
358,226,87838,1,2,3:2:0:0:
408,316,87950,6,0,B|414:352|414:352|455:387|481:342|481:342|469:278|469:278|406:258|415:320|359:309,1,284.4375,2|0,3:1|0:0,0:0:0:0:
367,307,88172,1,8,2:0:0:0:
3,284,88394,6,0,B|39:352|39:352|195:385,1,228.9375,0|0,3:2|0:0,0:0:0:0:
202,384,88616,1,8,2:0:0:0:
439,134,88838,6,0,B|442:117|442:117|446:110|446:110|444:113|444:113|448:77|448:77|383:49|328:98|347:168|372:180|372:180|396:204|390:232,1,284.4375,2|0,3:1|0:0,0:0:0:0:
394,215,89061,1,8,2:1:0:0:
64,194,89283,5,0,3:2:0:0:
64,194,89394,1,8,2:1:0:0:
64,194,89505,2,0,B|29:211|29:211|94:196,1,92.5,8|0,2:0|2:0,0:0:0:0:
439,134,89727,6,0,B|514:164|563:59|448:-13|318:25|308:175|371:231|371:231|409:319|362:415|244:409|208:350|221:286|263:276|296:294|296:294|208:176|73:267|110:406,1,1017.5,4|0,3:2|0:0,0:0:0:0:
105,335,90394,1,8,2:0:0:0:
56,74,90616,6,0,B|91:-12|207:12|215:96|215:96|214:103|214:103|225:173|302:197|353:137|353:137|352:131|352:131|367:94|408:78|445:112|445:112|435:131|440:149,1,550.375,2|0,3:1|0:0,0:0:0:0:
439,125,91061,1,0,3:0:0:0:
289,81,91283,6,0,B|223:88|223:88|219:91|219:91|124:103,1,157.25,8|0,2:0|1:0,0:0:0:0:
165,318,91505,6,0,B|151:379|100:381|100:381|100:288|4:291|4:291|59:282|38:227|109:240,1,370,14|8,2:1|2:1,0:0:0:0:
123,128,91838,6,0,B|181:161|129:189|166:231|166:231|94:167|34:239|34:239|-2:204|25:149,1,370,10|0,2:1|0:0,0:0:0:0:
130,20,92172,5,10,3:1:0:0:
186,75,92283,1,8,2:0:0:0:
260,56,92394,1,2,3:2:0:0:
387,11,92505,5,8,2:0:0:0:
465,2,92616,1,0,3:2:0:0:
512,66,92727,1,8,2:0:0:0:
433,260,92838,5,8,2:1:0:0:
356,256,92950,1,8,2:1:0:0:
330,328,93061,1,8,2:1:0:0:
331,337,93116,1,8,2:1:0:0:
332,346,93172,1,8,2:1:0:0:
467,155,93283,6,0,L|209:170,1,228.9375,4|0,3:2|0:0,0:0:0:0:
201,114,93505,2,0,B|206:126|206:126|240:133|240:133|251:152,1,60.125,8|0,2:0|0:0,0:0:0:0:
0,351,93727,6,0,L|257:366,1,228.9375,0|0,3:0|0:0,0:0:0:0:
259,305,93950,2,0,B|254:317|254:317|220:324|220:324|209:343,1,60.125,8|0,2:0|0:0,0:0:0:0:
467,155,94172,6,0,B|438:331|438:331|432:367|391:373,1,228.9375,0|0,3:0|0:0,0:0:0:0:
390,367,94394,2,0,B|371:362|357:343|362:323|362:323|367:300,1,60.125,8|0,2:0|0:0,0:0:0:0:
498,29,94616,5,0,3:2:0:0:
423,12,94727,1,0,2:1:0:0:
434,62,94838,2,0,B|425:63|425:63|423:60|423:60|423:63|423:63|303:79,1,120.25,8|0,2:0|2:1,0:0:0:0:
224,33,95061,5,14,2:0:0:0:
135,265,95209,1,10,2:0:0:0:
381,227,95357,1,10,2:0:0:0:
225,58,95505,5,10,2:0:0:0:
153,243,95653,1,10,2:0:0:0:
350,213,95801,1,0,0:0:0:0:
223,17,95950,5,10,3:0:0:0:
12,357,96838,6,0,B|60:400|122:359|127:308|118:320|109:251|171:207|232:260,1,277.5,4|0,3:0|0:0,0:0:0:0:
289,257,97061,2,0,B|311:288|282:318|282:318|228:329,1,120.25,10|0,2:0|0:0,0:0:0:0:
68,239,97283,5,0,3:2:0:0:
48,311,97394,1,2,2:0:0:0:
97,365,97505,1,10,2:0:0:0:
149,379,97616,2,0,P|191:376|225:331,1,92.5,2|0,2:0|3:0,0:0:0:0:
334,323,97838,5,2,2:0:0:0:
326,333,97950,2,0,P|374:344|398:380,1,92.5,8|2,2:0|2:0,0:0:0:0:
476,371,98172,6,0,B|465:307|465:307|467:301|467:301|453:226,1,138.75,8|0,3:2|0:0,0:0:0:0:
480,172,98394,2,0,P|426:180|387:128,1,120.25,8|0,2:0|0:0,0:0:0:0:
299,40,98616,6,0,B|369:29|369:29|374:32|374:32|441:21,1,138.75,2|0,3:2|0:0,0:0:0:0:
453,33,98838,6,0,B|443:35|443:35|439:37|439:37|435:36|435:36|261:62,1,180.375,10|0,2:0|0:0,0:0:0:0:
115,6,99061,5,8,3:2:0:0:
48,69,99172,1,2,2:0:0:0:
58,129,99283,1,10,2:0:0:0:
128,162,99394,1,2,2:0:0:0:
203,146,99505,2,0,P|264:142|296:193,1,120.25,0|0,3:0|0:0,0:0:0:0:
403,329,99727,6,0,B|405:345|405:345|409:361|404:380|378:386|378:386|346:392|337:372|334:351|334:351|325:294|325:294|320:275|322:248|341:245|341:245|370:242,1,277.5,2|0,2:1|0:0,0:0:0:0:
451,261,99950,1,0,3:0:0:0:
448,244,100061,6,0,B|446:234|446:234|449:231|449:231|446:229|446:229|427:120,1,106.375,2|2,2:1|3:2,0:0:0:0:
409,20,100283,1,0,0:0:0:0:
440,91,100394,6,0,B|446:77|446:77|450:74|450:74|448:73|448:73|463:38|463:38|382:-4|323:89|377:133|377:133|397:150|389:170,1,277.5,6|0,3:2|0:0,0:0:0:0:
318,98,100616,2,0,B|256:111|256:111|251:110|251:110|200:120,1,120.25,10|0,2:0|0:0,0:0:0:0:
79,19,100838,5,0,3:2:0:0:
31,71,100950,1,2,2:0:0:0:
41,108,101061,2,0,L|134:88,1,92.5,10|2,2:0|2:0,0:0:0:0:
211,27,101283,5,0,3:0:0:0:
256,52,101394,1,2,2:0:0:0:
279,121,101505,1,10,2:0:0:0:
236,186,101616,1,2,2:0:0:0:
96,266,101727,6,0,P|113:315|201:330,1,138.75,10|0,3:2|0:0,0:0:0:0:
264,310,101950,2,0,B|256:326|276:347|276:347|269:377|240:396|208:376,1,120.25,8|0,2:0|0:0,0:0:0:0:
108,86,102172,6,0,B|100:54|100:54|96:34|128:-10|170:24|172:44|172:44|188:127|188:127|151:144|129:122|138:120|111:100|70:142,1,319.125,2|0,3:1|0:0,0:0:0:0:
68,110,102394,6,0,B|52:114|52:114|31:118|1:164|51:188|64:185|64:185|90:178,1,138.75,10|0,2:0|0:0,0:0:0:0:
88,325,102616,6,0,B|79:367|79:367|6:386|6:386|25:284|25:284|71:267|60:315|118:295,1,319.125,2|0,3:1|0:0,0:0:0:0:
144,318,102838,6,0,B|155:315|155:315|169:311|174:296|170:278|170:278|162:236|162:236|160:228|164:213|172:208|172:208|189:203,1,138.75,10|0,2:0|0:0,0:0:0:0:
411,374,103061,6,0,L|384:146,1,208.125,2|0,2:1|0:0,0:0:0:0:
273,131,103283,6,0,P|337:141|354:204,1,138.75,8|10,2:0|2:0,0:0:0:0:
336,362,103505,6,0,P|356:306|432:304,1,138.75,8|10,2:1|2:0,0:0:0:0:
462,47,103727,6,0,L|439:50,1,23.125,4|0,2:1|0:0,0:0:0:0:
185,67,103950,6,0,B|131:-22|19:24|25:116|25:116|63:131|67:168,1,277.5,4|0,3:0|0:0,0:0:0:0:
61,151,104172,2,0,B|131:137|131:137|162:131|176:162,1,120.25,10|0,2:0|0:0,0:0:0:0:
283,134,104394,5,2,3:2:0:0:
242,184,104505,1,2,2:0:0:0:
258,257,104616,1,10,2:0:0:0:
292,289,104727,2,0,B|191:269,1,92.5,2|0,2:0|3:0,0:0:0:0:
100,256,104950,5,2,2:0:0:0:
50,283,105061,1,10,2:0:0:0:
51,359,105172,1,2,2:0:0:0:
89,376,105283,2,0,P|115:341|168:344,1,92.5,10|0,3:2|0:0,0:0:0:0:
318,382,105505,6,0,B|316:371|316:371|318:366|318:366|315:364|315:364|291:246,1,120.25,8|0,2:0|0:0,0:0:0:0:
241,67,105727,6,0,P|267:115|344:118,1,138.75,2|0,3:2|0:0,0:0:0:0:
392,56,105950,6,0,B|403:25|449:25|449:25|426:47|441:76,1,120.25,10|0,2:0|0:0,0:0:0:0:
417,160,106172,5,8,3:2:0:0:
246,201,106283,1,2,2:0:0:0:
193,164,106394,1,8,2:0:0:0:
131,195,106505,1,2,2:0:0:0:
103,212,106616,2,0,B|130:76,1,120.25,0|0,3:0|0:0,0:0:0:0:
35,377,106838,6,0,B|15:374|15:374|-10:371|-43:320|7:297|23:296|23:296|172:321,1,277.5,2|0,2:1|0:0,0:0:0:0:
287,354,107061,5,0,3:0:0:0:
215,379,107172,2,0,B|205:331|205:331|207:324|207:324|194:263,1,106.375,2|2,2:1|2:0,0:0:0:0:
185,200,107394,1,0,0:0:0:0:
56,295,107505,6,0,L|334:244,1,277.5,6|0,3:2|0:0,0:0:0:0:
402,236,107727,2,0,B|399:217|372:212|372:212|362:252|395:274|430:258,1,120.25,10|0,2:0|0:0,0:0:0:0:
487,219,107950,5,0,3:0:0:0:
497,163,108061,1,2,2:0:0:0:
445,115,108172,1,10,2:0:0:0:
431,120,108283,2,0,L|328:100,1,92.5,2|0,2:0|3:0,0:0:0:0:
261,119,108505,5,2,2:0:0:0:
186,123,108616,1,10,2:0:0:0:
163,67,108727,1,2,3:2:0:0:
196,5,108838,5,2,3:2:0:0:
143,58,108950,1,8,2:1:0:0:
70,34,109061,1,8,2:0:0:0:
44,247,109283,6,0,P|36:336|110:368,1,180.375,2|0,3:2|0:0,0:0:0:0:
117,355,109505,2,0,P|122:317|95:291,1,69.3750000000002,2|0,2:0|0:0,0:0:0:0:
372,131,109727,6,0,P|423:57|500:80,1,180.375,2|0,3:2|0:0,0:0:0:0:
497,95,109950,2,0,P|476:127|439:129,1,69.3750000000002,2|0,2:0|0:0,0:0:0:0:
254,382,110172,6,0,L|234:67,1,300.625,2|0,3:2|0:0,0:0:0:0:
214,68,110505,6,0,P|224:107|250:122,1,69.3750000000002,2|0,3:2|3:0,0:0:0:0:
306,77,110838,1,0,0:0:0:0:
506,258,111061,6,0,P|419:258|363:335,1,166.5,6|0,2:0|0:0,0:0:0:0:
366,325,111283,2,0,P|393:373|436:360,1,92.5,6|0,2:0|0:0,0:0:0:0:
200,308,111505,6,0,P|151:323|125:374,1,92.5,2|0,2:3|0:0,0:0:0:0:
71,302,111727,2,0,P|39:342|47:399,1,92.5,6|0,2:0|0:0,0:0:0:0:
229,199,111950,6,0,B|122:201|187:144|96:113|59:157|59:157|73:198|73:198|78:201|78:201|90:234|90:234|56:276|8:253,1,360.75,0|0,3:0|0:0,0:0:0:0:
134,59,112394,5,10,2:3:0:0:
214,119,112505,2,0,B|208:75|208:75|209:72|209:72|203:22,1,92.5,10|10,2:0|2:0,0:0:0:0:
203,13,112727,1,10,3:0:0:0:
326,16,112838,6,0,P|363:50|420:47,1,92.5,0|0,3:0|0:0,0:0:0:0:
488,0,113061,2,0,B|482:44|482:44|483:47|483:47|477:91,1,92.5,6|0,2:0|0:0,0:0:0:0:
402,192,113283,6,0,P|370:215|356:266,1,92.5,10|0,2:3|0:0,0:0:0:0:
512,339,113505,2,0,P|475:373|418:370,1,92.5,6|0,2:0|0:0,0:0:0:0:
362,360,113727,1,0,3:0:0:0:
512,204,113950,6,0,B|421:193,1,92.5,10|0,2:0|0:0,0:0:0:0:
345,183,114172,1,10,2:3:0:0:
325,180,114283,1,10,2:0:0:0:
263,133,114394,1,2,2:3:0:0:
243,137,114505,1,0,0:0:0:0:
216,52,114616,6,0,L|242:239,1,166.5,0|0,3:0|0:0,0:0:0:0:
266,281,114838,2,0,B|270:276|270:276|274:275|274:275|275:271|275:271|277:266|277:266|245:248|220:273|227:303,1,92.5,6|0,2:0|0:0,0:0:0:0:
42,336,115061,6,0,P|86:339|111:377,1,92.5,10|0,2:3|0:0,0:0:0:0:
138,277,115283,2,0,L|121:161,1,92.5,6|0,2:0|0:0,0:0:0:0:
23,45,115505,6,0,B|79:-6|157:25|169:105|138:81|111:120|192:173|267:155|260:99|231:126|302:92|336:154,1,360.75,0|0,3:0|0:0,0:0:0:0:
426,144,115950,5,2,2:3:0:0:
470,118,116061,1,0,2:0:0:0:
482,61,116172,1,10,2:3:0:0:
430,10,116283,1,0,0:0:0:0:
270,11,116394,6,0,B|260:82|260:82|257:87|257:87|244:177,1,148,0|0,3:0|2:0,0:0:0:0:
246,170,116727,1,0,0:0:0:0:
176,233,116838,2,0,B|253:235|214:181|281:189|281:189|250:216|275:247,1,185,2|0,2:3|2:0,0:0:0:0:
346,229,117172,1,0,0:0:0:0:
451,336,117283,6,0,B|348:309|387:387|275:373,1,185,0|2,3:0|2:3,0:0:0:0:
68,282,117727,5,2,2:3:0:0:
40,359,117838,1,10,2:0:0:0:
119,345,117950,1,10,2:3:0:0:
75,327,118061,1,0,0:0:0:0:
201,384,118172,6,0,B|190:314|190:314|187:309|187:309|174:220,1,166.5,6|0,2:1|0:0,0:0:0:0:
144,154,118394,2,0,B|156:144|154:109|154:109|162:144|192:149,1,92.5,0|0,2:0|0:0,0:0:0:0:
329,196,118616,6,0,P|324:229|264:239,1,92.5,10|0,2:3|0:0,0:0:0:0:
174,220,118838,2,0,B|155:106,1,92.5,0|0,2:0|0:0,0:0:0:0:
280,22,119061,6,0,B|220:-13|172:26|173:81|183:63|158:109|96:106|98:86|75:62|54:99,1,240.5,0|6,3:0|2:0,0:0:0:0:
116,15,119394,1,0,0:0:0:0:
119,345,119616,5,10,2:0:0:0:
4,286,119727,2,0,L|106:273,1,92.5,10|10,2:0|3:0,0:0:0:0:
352,319,119950,6,0,P|316:337|303:392,1,92.5,0|0,3:0|0:0,0:0:0:0:
213,286,120172,2,0,P|200:324|229:372,1,92.5,6|0,2:0|0:0,0:0:0:0:
454,355,120394,6,0,B|453:345|453:345|457:342|457:342|453:340|453:340|430:158,1,185,10|6,2:3|2:0,0:0:0:0:
421,102,120727,1,0,0:0:0:0:
482,89,120838,2,0,B|425:102|404:54|411:64|419:22|364:-7|326:24,1,185,0|10,3:0|2:0,0:0:0:0:
128,159,121283,5,10,2:3:0:0:
147,163,121394,1,10,2:0:0:0:
221,139,121505,1,10,2:3:0:0:
240,135,121616,1,0,0:0:0:0:
182,87,121727,6,0,L|156:274,1,166.5,0|0,3:0|0:0,0:0:0:0:
145,336,121950,2,0,B|149:302|175:295|175:295|215:285,1,92.5,6|0,2:0|0:0,0:0:0:0:
395,326,122172,6,0,P|383:369|341:384,1,92.5,10|0,2:3|0:0,0:0:0:0:
323,311,122394,2,0,L|339:195,1,92.5,6|0,2:0|0:0,0:0:0:0:
334,80,122616,6,0,B|357:77|389:97|389:97|402:-4|283:-36|229:49|243:127|307:146,1,360.75,0|0,3:0|0:0,0:0:0:0:
334,80,123061,2,0,L|218:96,1,92.5,10|10,2:3|2:0,0:0:0:0:
169,104,123283,1,10,2:3:0:0:
146,106,123394,1,0,0:0:0:0:
43,41,123505,6,0,B|82:25|129:61|116:124|60:137|27:114|27:114|63:123|62:177|36:180,1,268.25,0|0,3:0|2:0,0:0:0:0:
214,349,123950,5,2,2:3:0:0:
214,349,124172,1,6,2:0:0:0:
136,382,124394,5,0,3:0:0:0:
142,306,124505,1,2,2:3:0:0:
210,266,124616,1,0,3:0:0:0:
286,299,124727,1,8,2:0:0:0:
374,286,124838,5,0,3:1:0:0:
435,223,124950,1,8,3:1:0:0:
396,144,125061,1,8,2:1:0:0:
432,231,125172,1,0,3:0:0:0:
508,322,125283,6,0,B|508:375|446:403|410:376|417:357|346:333|318:380|324:403,1,222,6|0,3:1|0:0,0:0:0:0:
294,384,125505,2,0,B|309:384|309:384|314:344|285:310|246:322,1,111,8|0,2:0|0:0,0:0:0:0:
117,293,125727,5,0,3:0:0:0:
142,306,125838,2,0,L|133:191,1,111,0|8,0:0|2:0,0:0:0:0:
46,79,126061,6,0,B|38:120|38:120|88:92|88:92|60:23|60:23|165:45|165:45|169:55|169:55|159:68,1,296
171,69,126394,2,0,B|171:96|171:96|189:105|189:105|282:81,1,111,8|0,0:0|0:0,0:0:0:0:
282,10,126616,5,8,3:2:0:0:
218,247,126838,1,8,0:0:0:0:
54,192,127061,6,0,B|56:206|56:206|52:215|52:215|40:386,1,194.25,2|0,3:2|0:0,0:0:0:0:
108,339,127283,2,0,B|88:317|60:318|60:318|87:316|105:281,1,111,8|0,2:0|0:0,0:0:0:0:
219,238,127505,6,0,B|233:236|233:236|242:240|242:240|413:252,1,194.25,0|0,3:0|0:0,0:0:0:0:
368,186,127727,2,0,B|344:206|345:234|345:234|343:207|308:189,1,111,8|0,2:0|0:0,0:0:0:0:
232,151,127950,6,0,P|228:103|238:141,1,187.3125,0|0,3:0|0:0,0:0:0:0:
207,132,128172,1,10,2:0:0:0:
282,350,128283,6,0,P|248:315|280:338,1,187.3125
250,351,128505,1,10,2:0:0:0:
334,33,128616,6,0,B|328:19|328:19|322:-1|336:-24|368:-11|373:8|373:8|383:45|383:45|366:59|371:85,1,148,8|0,2:1|2:0,0:0:0:0:
462,79,128838,6,0,B|434:149|351:155|297:114|297:114|323:49|372:60|372:60|269:0|262:127|132:42|132:42|156:65|145:93,1,592,6|0,3:2|3:0,0:0:0:0:
141,88,129505,6,0,L|297:66,1,129.5,8|0,2:0|0:0,0:0:0:0:
387,178,129727,6,0,B|386:164|402:142|402:142|342:112|296:148|307:209|331:230,1,194.25,2|0,3:2|0:0,0:0:0:0:
336,234,129950,2,0,L|211:216,1,111,8|0,2:0|0:0,0:0:0:0:
15,199,130172,5,8,3:2:0:0:
120,375,130394,1,8,2:0:0:0:
85,10,130616,6,0,L|112:229,1,194.25,2|0,3:2|0:0,0:0:0:0:
130,193,130838,2,0,B|159:194|177:171|163:170|186:137|228:148,1,111,8|2,2:0|2:0,0:0:0:0:
463,183,131061,6,0,L|436:402,1,194.25,0|0,3:0|0:0,0:0:0:0:
408,367,131283,2,0,B|411:355|411:355|416:353|416:353|414:349|414:349|417:341|417:341|377:330|350:372|367:397,1,111,10|0,2:0|0:0,0:0:0:0:
309,296,131505,6,0,B|260:311|260:311|223:284|223:284|242:242|242:242|287:228,1,187.3125,0|0,3:2|0:0,0:0:0:0:
307,261,131727,1,10,2:0:0:0:
437,154,131838,6,0,B|485:169|485:169|522:142|522:142|503:100|503:100|459:86,1,187.3125
439,119,132061,1,10,2:0:0:0:
293,148,132172,6,0,B|280:150|280:150|275:153|275:153|267:153|267:153|137:180,1,148,2|0,2:0|0:0,0:0:0:0:
98,239,132394,6,0,B|94:265|112:288|112:288|42:261|78:177|78:177|191:154|191:154|220:151|243:110|213:70|180:76|180:76|114:89|114:89|85:95|55:68|67:24|88:17,1,592,6|0,3:2|3:0,0:0:0:0:
101,5,133061,6,0,L|84:141,1,129.5,8|0,2:0|0:0,0:0:0:0:
8,349,133283,6,0,B|28:297|95:283|123:323|116:324|120:349|165:336|181:300,1,194.25,0|0,3:0|0:0,0:0:0:0:
216,384,133505,2,0,B|214:373|214:373|215:366|215:366|213:368|213:368|202:274,1,111,8|0,2:0|0:0,0:0:0:0:
183,77,133727,5,8,2:0:0:0:
73,381,133950,1,8,3:2:0:0:
512,194,134172,6,0,L|319:217,1,194.25,2|0,3:2|0:0,0:0:0:0:
319,217,134394,1,10,2:0:0:0:
0,121,134616,6,0,B|82:134|82:134|84:140|84:140|192:157,1,194.25,0|0,2:0|0:0,0:0:0:0:
188,157,134838,1,10,2:0:0:0:
512,49,135061,6,0,B|486:112|421:98|428:80|361:74|343:145,1,194.25,0|0,3:2|0:0,0:0:0:0:
324,41,135283,2,0,B|332:93|332:93|336:94|336:94|347:163,1,111,10|0,2:0|0:0,0:0:0:0:
383,365,135505,5,0,3:2:0:0:
295,384,135616,1,8,2:0:0:0:
229,323,135727,1,0,0:0:0:0:
424,168,135950,5,12,2:0:0:0:
444,16,136061,1,8,2:0:0:0:
422,183,136172,1,0,2:0:0:0:
421,196,136283,2,0,B|394:233|394:233|243:208|243:208|207:238,1,231.25,8|0,2:0|0:0,0:0:0:0:
76,194,136616,5,8,2:0:0:0:
76,194,136838,5,8,2:0:0:0:
56,42,136950,1,8,2:0:0:0:
78,209,137061,1,0,2:0:0:0:
80,221,137172,2,0,B|102:347|102:347|105:370|133:382|149:363|145:337|145:337|141:314|166:300,1,231.25,8|0,2:0|0:0,0:0:0:0:
223,372,137505,5,8,2:0:0:0:
424,166,137727,5,8,2:0:0:0:
512,347,137838,1,8,2:0:0:0:
443,308,137950,1,0,2:0:0:0:
432,310,138061,2,0,B|449:306|449:306|472:300|484:262|457:231|423:238|423:238|298:262,1,231.25,12|0,2:0|0:0,0:0:0:0:
221,276,138394,5,8,2:0:0:0:
199,31,138616,5,8,2:0:0:0:
242,98,138727,1,8,2:0:0:0:
200,163,138838,1,8,2:0:0:0:
123,154,138950,1,8,2:0:0:0:
80,221,139061,1,8,2:1:0:0:
122,286,139172,1,8,2:1:0:0:
213,323,139283,6,0,P|224:285|186:357,1,601.249999999999,8|0,2:0|0:0,0:0:0:0:
394,35,140727,5,8,2:1:0:0:
393,48,140783,1,8,2:1:0:0:
391,62,140838,1,8,2:0:0:0:
316,14,140950,1,8,3:0:0:0:
472,67,141061,1,8,2:0:0:0:
382,137,141172,1,8,3:0:0:0:
52,18,141283,6,0,B|4:96|83:170|167:78|30:4|151:75|181:113|106:184,1,256.6875,4|0,3:2|0:0,0:0:0:0:
39,211,141505,6,0,B|48:207|48:207|58:207|58:207|276:167,1,228.9375,10|0,2:0|0:0,0:0:0:0:
320,175,141727,2,0,B|300:160|307:132|307:132|278:169|311:200,1,120.25,0|0,3:2|0:0,0:0:0:0:
512,243,141950,5,8,2:0:0:0:
454,326,142061,2,0,B|465:303|465:303|474:299|468:298|468:298|490:250|490:250|399:225|349:315|373:393|448:397,1,305.25,2|0,2:0|0:0,0:0:0:0:
512,373,142394,5,10,2:1:0:0:
370,322,142505,2,0,B|307:330|307:330|305:333|305:333|205:344,1,152.625,0|0,2:0|3:2,0:0:0:0:
71,258,142727,5,10,2:1:0:0:
47,339,142838,2,0,B|50:351|50:351|58:375|88:388|122:366|118:340|118:340|114:316,1,120.25,8|0,3:1|2:0,0:0:0:0:
89,154,143061,6,0,B|52:153|33:45|33:45|49:155|6:175,1,256.6875,2|0,3:1|0:0,0:0:0:0:
70,249,143283,5,8,2:0:0:0:
128,222,143394,1,0,2:0:0:0:
204,276,143505,5,2,3:2:0:0:
212,288,143616,2,0,P|237:341|313:336,1,129.5,2|8,2:0|2:0,0:0:0:0:
328,174,143838,2,0,P|360:105|469:112,1,194.25,2|0,2:0|0:0,0:0:0:0:
512,174,144061,5,0,2:0:0:0:
495,57,144172,2,0,B|490:101|490:101|493:102|493:102|489:102|489:102|469:264|469:264|470:271|470:271|463:321,1,256.6875,10|0,2:1|0:0,0:0:0:0:
381,235,144394,5,0,3:2:0:0:
306,258,144505,1,10,2:1:0:0:
311,212,144616,2,0,B|303:211|303:211|300:213|300:213|296:211|296:211|168:189,1,129.5,10|0,2:0|2:0,0:0:0:0:
115,309,144838,6,0,B|100:270|42:252|-9:302|1:361|1:361|40:340|70:366,1,256.6875,4|0,3:2|0:0,0:0:0:0:
99,354,145061,6,0,B|89:293|89:293|91:289|91:289|78:212,1,129.5,8|0,2:0|0:0,0:0:0:0:
87,81,145283,6,0,B|112:15|111:15|111:15|29:6|-8:76|25:116|25:116|44:132|37:150,1,259,0|8,3:2|2:0,0:0:0:0:
111,334,145616,5,0,2:0:0:0:
108,345,145727,2,0,B|105:371|105:371|54:384|54:384|23:310|23:310|101:268|77:336|137:309,1,256.6875,2|0,3:1|0:0,0:0:0:0:
374,330,145950,6,0,B|226:355,1,148,8|0,2:0|0:0,0:0:0:0:
142,160,146172,6,0,B|154:195|154:195|282:223,1,148,0|0,3:2|0:0,0:0:0:0:
377,239,146394,5,8,2:0:0:0:
354,168,146616,5,10,3:1:0:0:
368,245,146727,1,0,2:0:0:0:
438,273,146838,1,8,2:0:0:0:
320,313,146950,5,8,2:1:0:0:
358,245,147061,1,0,3:2:0:0:
323,178,147172,1,0,2:0:0:0:
184,30,147283,5,10,2:0:0:0:
222,98,147394,1,8,2:1:0:0:
298,89,147505,1,0,3:2:0:0:
375,22,147616,5,10,2:0:0:0:
450,5,147727,1,8,2:0:0:0:
496,66,147838,1,0,3:2:0:0:
452,158,147950,5,8,3:0:0:0:
425,83,148061,1,0,3:0:0:0:
455,168,148172,1,8,2:0:0:0:
458,178,148227,1,8,2:1:0:0:
461,188,148283,1,8,2:0:0:0:
418,265,148394,6,0,B|468:287|468:287|471:302|471:302|474:305|474:305|472:308|472:308|478:368|478:368|413:387|413:387|393:336,1,256.6875,6|0,3:2|0:0,0:0:0:0:
398,257,148616,1,10,2:0:0:0:
2,147,148838,6,0,B|33:214|114:199|83:188|148:130|200:188|189:247,1,228.9375,0|0,3:2|0:0,0:0:0:0:
206,192,149061,2,0,B|187:155|187:155|200:131,1,60.125,8|0,2:0|0:0,0:0:0:0:
313,359,149283,6,0,B|280:376|240:351|267:323|238:289|196:304|196:304|233:333|223:373|192:397,1,228.9375,0|0,3:0|0:0,0:0:0:0:
197,377,149505,2,0,B|183:374|183:374|179:376|179:376|178:373|178:373|126:361,1,60.125,10|0,2:1|0:0,0:0:0:0:
27,273,149727,5,2,3:2:0:0:
47,265,149838,1,10,2:1:0:0:
90,149,149950,5,10,3:1:0:0:
112,155,150061,1,2,3:2:0:0:
345,156,150172,6,0,B|353:178|353:178|360:198|400:216|427:179|418:154|418:154|400:100|400:100|315:86|382:154|280:121,1,284.4375,2|0,3:1|0:0,0:0:0:0:
312,129,150394,1,8,2:0:0:0:
316,1,150616,6,0,L|290:228,1,228.9375,0|0,3:2|0:0,0:0:0:0:
298,245,150838,2,0,B|273:263|273:263|245:254,1,60.125,0|0,2:0|0:0,0:0:0:0:
0,69,151061,6,0,B|0:109|39:149|111:127|111:86|159:61|227:118|210:169,1,284.4375,2|0,3:1|0:0,0:0:0:0:
197,171,151283,1,8,2:1:0:0:
4,365,151505,5,0,3:2:0:0:
4,365,151616,1,8,2:1:0:0:
4,365,151727,2,0,L|106:356,1,92.5,8|0,2:0|2:0,0:0:0:0:
397,84,151950,6,0,B|379:55|313:28|313:28|336:94|276:152|276:152|325:121|377:174|377:174|322:98|231:-52|-8:53|38:340|239:299|239:299|191:289|180:236,1,1017.5,4|0,3:2|0:0,0:0:0:0:
198,275,152616,1,8,2:0:0:0:
438,219,152838,6,0,B|486:233|507:165|507:165|458:333|458:333|450:383|532:410|561:344|569:302|477:258|406:308,1,550.375,2|2,2:0|2:0,0:0:0:0:
408,306,153283,1,2,3:2:0:0:
109,262,153505,6,0,L|96:183,1,78.625,8|0,2:0|0:0,0:0:0:0:
174,178,153616,2,0,L|186:99,1,78.625,0|0,1:0|0:0,0:0:0:0:
113,91,153727,6,0,B|115:-23|291:-14|260:88|244:76|267:173|388:162|401:85,1,370,14|0,2:1|2:0,0:0:0:0:
456,123,154061,6,0,B|468:-6|272:-9|309:120|325:108|302:205|181:194|168:117,1,370,10|0,2:1|0:0,0:0:0:0:
28,136,154394,5,0,3:0:0:0:
28,220,154505,1,8,2:0:0:0:
109,262,154616,1,0,3:0:0:0:
296,212,154727,5,8,2:0:0:0:
341,277,154838,1,0,3:0:0:0:
292,337,154950,1,8,2:0:0:0:
171,326,155061,5,8,3:2:0:0:
111,374,155172,1,8,3:2:0:0:
37,352,155283,1,8,2:1:0:0:
40,343,155338,1,8,2:1:0:0:
42,334,155394,1,8,2:1:0:0:
176,133,155505,6,0,B|178:152|178:152|182:153|182:153|178:157|178:157|200:392,1,256.6875,4|0,3:2|0:0,0:0:0:0:
292,337,155727,6,0,B|305:309|338:316|338:316|335:239|254:196|202:260,1,228.9375,10|0,2:0|0:0,0:0:0:0:
91,261,155950,2,0,B|53:238|53:238|65:192|94:179|121:195,1,120.25,0|0,3:2|0:0,0:0:0:0:
240,86,156172,5,8,2:0:0:0:
251,78,156283,2,0,B|265:108|265:108|201:150|127:137|101:43|133:5|133:5|126:36|150:65,1,305.25,2|0,2:0|0:0,0:0:0:0:
218,243,156616,5,10,2:1:0:0:
91,261,156727,2,0,B|82:243|62:247|62:247|64:199|114:172|147:212,1,152.625,0|0,2:0|3:2,0:0:0:0:
410,159,156950,5,10,2:1:0:0:
484,142,157061,2,0,B|509:164|509:164|491:219|491:219|457:216,1,120.25,8|0,3:1|2:0,0:0:0:0:
362,254,157283,6,0,B|448:231|448:231|403:328|403:328|466:311,1,256.6875,2|0,3:1|0:0,0:0:0:0:
486,349,157505,6,0,B|479:347|479:347|470:351|470:351|473:347|473:347|324:325,1,129.5,8|0,2:0|2:0,0:0:0:0:
269,319,157727,1,2,3:2:0:0:
213,379,157838,1,2,2:0:0:0:
80,360,157950,1,0,2:0:0:0:
53,382,158061,6,0,B|61:322|121:311|119:318|178:310|177:247,1,194.25,2|0,2:0|0:0,0:0:0:0:
276,180,158283,5,2,2:0:0:0:
260,172,158394,2,0,B|132:187|132:187|127:190|127:190|0:204,1,256.6875,10|0,2:1|0:0,0:0:0:0:
59,50,158616,5,0,3:2:0:0:
129,25,158727,1,10,2:1:0:0:
142,18,158838,2,0,B|178:30|177:81|147:104|147:104|98:87,1,129.5,10|0,2:0|2:0,0:0:0:0:
187,250,159061,6,0,B|133:207|133:207|148:249|148:249|147:250|147:250|149:251|149:251|175:332|175:332|244:307,1,256.6875,4|0,3:2|0:0,0:0:0:0:
323,309,159283,6,0,B|321:328|291:338|291:338|255:348|255:348|228:355|224:388,1,129.5,8|0,2:0|0:0,0:0:0:0:
231,78,159505,6,0,B|226:68|226:68|223:68|223:68|225:65|225:65|213:45|213:45|279:-6|344:43|365:78|356:146,1,259,0|8,3:2|2:0,0:0:0:0:
413,301,159838,5,0,2:0:0:0:
473,253,159950,2,0,B|399:276|435:328|408:351|408:351|384:325|429:280|365:235,1,256.6875,2|0,3:1|0:0,0:0:0:0:
428,190,160172,6,0,L|444:37,1,148,8|0,2:0|0:0,0:0:0:0:
486,363,160394,6,0,L|339:376,1,148,0|0,3:2|0:0,0:0:0:0:
314,378,160616,5,8,2:2:0:0:
78,162,160838,5,10,3:1:0:0:
103,236,160950,1,0,2:0:0:0:
51,296,161061,1,8,2:0:0:0:
180,267,161172,5,8,2:1:0:0:
245,314,161283,1,0,3:2:0:0:
215,382,161394,1,0,0:0:0:0:
183,259,161505,5,8,2:0:0:0:
235,200,161616,1,8,2:1:0:0:
313,209,161727,1,0,3:2:0:0:
357,123,161838,5,8,2:0:0:0:
342,47,161950,1,8,2:0:0:0:
266,36,162061,1,0,3:2:0:0:
150,137,162172,5,2,3:1:0:0:
71,150,162283,1,0,3:0:0:0:
25,85,162394,1,8,2:0:0:0:
33,81,162450,1,8,2:1:0:0:
41,78,162505,1,8,2:0:0:0:
207,90,162616,6,0,B|177:24|177:24|254:4|292:67|264:113|264:113|265:116|265:116|263:117|263:117|247:139|269:163,1,256.6875,4|0,3:2|0:0,0:0:0:0:
235,200,162838,1,8,2:0:0:0:
0,363,163061,6,0,B|42:395|104:367|96:308|87:336|88:285|150:258|192:309,1,228.9375,0|0,3:2|0:0,0:0:0:0:
248,324,163283,2,0,B|233:365|233:365|231:364|231:364|233:366|233:366|231:376|231:376|268:401|314:353,1,120.25,8|0,2:0|1:2,0:0:0:0:
512,273,163505,6,0,B|471:306|405:281|400:231|410:249|415:189|361:170|313:206,1,228.9375,0|0,3:0|0:0,0:0:0:0:
256,202,163727,2,0,B|243:213|252:257|296:262|296:262|277:252|271:237,1,120.25,10|0,2:0|1:2,0:0:0:0:
503,166,163950,5,2,3:2:0:0:
486,174,164061,1,10,2:1:0:0:
402,262,164172,5,10,3:1:0:0:
381,254,164227,1,0,0:0:0:0:
131,104,164394,6,0,B|128:87|128:87|124:80|124:80|126:83|126:83|122:47|122:47|187:19|242:68|223:138|198:150|198:150|174:174|180:202,1,284.4375,2|0,3:1|0:0,0:0:0:0:
176,187,164616,1,8,2:0:0:0:
18,302,164838,6,0,B|33:360|33:360|147:382|147:382|185:337,1,228.9375,0|0,3:2|0:0,0:0:0:0:
175,333,165061,1,8,2:0:0:0:
226,83,165283,6,0,B|244:81|244:81|247:79|247:79|250:81|250:81|510:63,1,284.4375,2|0,3:1|0:0,0:0:0:0:
512,53,165505,1,8,2:1:0:0:
32,146,165727,5,0,3:2:0:0:
32,146,165838,1,8,2:1:0:0:
32,146,165950,2,0,B|20:132|20:132|59:117|77:147|67:180,1,92.5,8|0,2:0|2:1,0:0:0:0:
289,375,166172,6,0,B|225:375|176:309|210:233|282:203|334:258|334:258|397:335|518:335|552:251|555:143|450:100|388:148|388:148|343:183|252:117|324:32|324:32|220:-6|219:117,1,1017.5,4|0,3:2|0:0,0:0:0:0:
229,55,166838,1,8,2:0:0:0:
35,231,167061,6,0,B|-16:259|-28:346|57:398|125:375|162:315|136:241|136:241|119:186|168:147|235:152|257:213|233:255,1,550.375,2|0,3:1|0:0,0:0:0:0:
233,254,167505,1,0,3:0:0:0:
133,353,167727,6,0,B|204:361|204:361|208:364|208:364|288:374,1,157.25,8|0,2:0|1:0,0:0:0:0:
298,154,167950,6,0,B|414:108|484:242|484:242|407:224|407:224|406:226|406:226|406:223|406:223|331:209,1,370,14|8,2:1|2:1,0:0:0:0:
495,313,168283,6,0,B|378:358|308:224|308:224|385:242|385:242|386:240|386:240|386:243|386:243|461:257,1,370,10|0,2:1|0:0,0:0:0:0:
315,8,168616,5,10,2:1:0:0:
274,74,168727,1,8,2:0:0:0:
198,59,168838,1,2,2:0:0:0:
74,58,168950,5,8,2:0:0:0:
11,110,169061,1,0,1:2:0:0:
40,178,169172,1,8,2:0:0:0:
32,324,169283,5,8,2:1:0:0:
96,281,169394,1,8,2:1:0:0:
152,336,169505,1,8,2:1:0:0:
162,337,169561,1,8,2:1:0:0:
172,339,169616,1,8,2:1:0:0:
485,298,169727,6,0,B|461:349|461:349|277:374,1,228.9375,4|0,3:2|0:0,0:0:0:0:
287,365,169950,2,0,B|283:343|283:343|277:323|245:322,1,60.125,8|0,2:0|0:0,0:0:0:0:
11,110,170172,6,0,B|34:161|34:161|218:186,1,228.9375,0|0,3:0|0:0,0:0:0:0:
223,187,170394,2,0,B|230:171|230:171|221:142|221:142|239:120,1,60.125,8|0,2:0|0:0,0:0:0:0:
462,111,170616,6,0,B|451:60|451:60|447:28|408:5|367:37|379:75|379:75|396:158,1,228.9375,0|0,3:0|0:0,0:0:0:0:
390,135,170838,2,0,B|396:154|396:154|425:170|425:170|428:186,1,60.125,8|0,2:0|0:0,0:0:0:0:
485,298,171061,5,4,3:2:0:0:
430,339,171172,1,0,2:1:0:0:
440,270,171283,2,0,B|428:268|428:268|426:263|426:263|425:267|425:267|279:245,1,120.25,8|0,2:0|2:1,0:0:0:0:
118,215,171505,5,14,2:0:0:0:
325,165,171653,1,10,2:0:0:0:
138,223,171801,1,10,2:0:0:0:
251,59,171950,5,10,2:0:0:0:
208,315,172098,1,10,2:0:0:0:
255,72,172246,1,10,2:0:0:0:
231,187,172394,5,10,3:0:0:0:
493,30,173283,6,0,P|475:75|416:93,1,111,6|0,3:0|0:0,0:0:0:0:
256,29,173727,1,8,2:0:0:0:
256,29,173950,2,0,L|261:62,1,27.7499999999999
25,204,174172,6,0,P|100:227|91:307,1,166.5
27,79,174616,1,8,2:0:0:0:
36,72,174838,2,0,L|27:126,1,55.4999999999999
65,382,175061,6,0,P|85:328|141:311,1,111,2|0,3:2|0:0,0:0:0:0:
376,236,175505,1,8,2:0:0:0:
376,236,175727,2,0,L|371:269,1,27.7499999999999
453,380,175950,6,0,B|362:387|395:321|286:328,1,166.5
136,384,176394,1,8,2:0:0:0:
156,376,176616,2,0,L|147:321,1,55.4999999999999
159,30,176838,6,0,P|176:73|242:82,1,111,2|0,3:2|0:0,0:0:0:0:
387,18,177283,1,8,2:0:0:0:
387,18,177505,2,0,L|354:23,1,27.7499999999999
325,162,177727,6,0,L|299:330,1,166.5
441,227,178172,1,8,2:0:0:0:
454,235,178394,2,0,L|399:244,1,55.4999999999999
104,307,178616,6,0,P|157:328|147:385,1,111,2|0,3:2|0:0,0:0:0:0:
28,215,179061,1,8,2:0:0:0:
28,215,179283,2,0,L|61:220,1,27.7499999999999
325,162,179505,5,0,0:0:0:0:
253,182,179616,1,10,2:0:0:0:
156,123,179727,5,0,0:0:0:0:
154,106,179950,1,10,2:0:0:0:
168,122,180061,1,10,2:0:0:0:
145,127,180172,1,12,2:1:0:0:
23,358,180394,6,0,L|142:377,1,111,2|0,3:2|0:0,0:0:0:0:
300,259,180838,1,10,2:0:0:0:
300,259,181061,2,0,P|309:276|308:296,1,27.7499999999999
79,290,181283,6,0,B|70:238|70:238|71:233|71:233|63:179,1,111
35,27,181727,1,10,2:0:0:0:
25,35,181950,2,0,P|42:63|75:67,1,55.4999999999999
409,32,182172,6,0,L|289:50,1,111,2|0,3:2|0:0,0:0:0:0:
112,12,182616,1,10,2:0:0:0:
112,12,182838,2,0,P|103:29|104:49,1,27.7499999999999
232,121,183061,6,0,B|230:136|230:136|233:135|233:135|230:137|230:137|217:227,1,111
199,384,183505,1,10,2:0:0:0:
225,380,183727,2,0,P|212:355|187:345,1,55.4999999999999
0,219,183950,6,0,L|119:238,1,111,2|0,3:2|0:0,0:0:0:0:
336,172,184394,1,10,2:0:0:0:
336,172,184616,2,0,P|345:189|344:209,1,27.7499999999999
466,328,184838,6,0,B|384:322|412:379|335:373,1,138.75
340,373,185061,1,10,2:0:0:0:
260,160,185283,1,8,2:1:0:0:
219,225,185394,1,10,2:0:0:0:
272,281,185505,1,10,2:0:0:0:
461,50,185727,6,0,L|475:137,1,74,2|2,2:0|2:0,0:0:0:0:
373,20,186172,2,0,L|387:107,1,74,2|2,2:0|2:0,0:0:0:0:
289,3,186616,6,0,L|303:90,1,74,2|0,2:0|0:0,0:0:0:0:
276,154,186950,6,0,B|304:137|315:90|261:38|160:61|202:161|198:146|231:173|227:230|158:251|108:231|120:176,1,333,2|10,2:0|2:0,0:0:0:0:
50,152,187394,1,10,2:0:0:0:
112,339,187505,6,0,B|111:298|56:311|56:311|102:329|90:375,1,143.375,6|0,2:0|0:0,0:0:0:0:
23,384,187727,2,0,B|136:363|136:363|142:359|142:359|249:339,2,222,0|0|0,2:0|2:0|2:0,0:0:0:0:
307,380,188394,1,0,2:0:0:0:
307,380,188616,6,0,B|336:362|336:362|343:277|343:277|369:263,1,143.375,10|0,1:2|2:0,0:0:0:0:
329,226,188838,2,0,B|382:242|382:242|416:250|454:221|432:173|411:169|411:169|253:121,1,286.75,0|10,2:0|1:2,0:0:0:0:
37,182,189283,6,0,B|100:154|76:74|76:74|87:154|161:147,1,249.75,2|10,2:0|1:2,0:0:0:0:
113,218,189616,1,2,2:0:0:0:
88,134,189727,2,0,B|75:81|75:81|77:77|77:77|60:4,1,124.875,2|0,2:0|0:0,0:0:0:0:
248,360,189950,6,0,B|281:354|295:322|288:285|288:285|337:328|286:339|324:386|357:384,2,222,10|0|10,1:2|3:0|1:2,0:0:0:0:
56,315,190616,1,0,3:0:0:0:
84,323,190727,2,0,B|93:322|93:322|98:324|98:324|99:321|99:321|196:304,1,111,10|2,2:0|3:2,0:0:0:0:
440,177,191061,6,0,B|487:190|487:190|506:105|432:105,1,143.375,6|0,2:0|0:0,0:0:0:0:
375,53,191283,2,0,B|376:68|376:68|375:70|375:70|378:71|378:71|420:279,2,222,0|0|0,2:0|2:0|2:0,0:0:0:0:
438,362,191950,1,0,2:0:0:0:
440,177,192172,5,10,1:2:0:0:
368,202,192283,1,0,2:0:0:0:
292,191,192394,2,0,B|258:184|258:184|244:185|238:197|238:197|214:235|214:235|209:251|228:267|228:267|320:284|320:284|342:274|329:262|329:262|299:257,1,286.75,0|10,3:0|1:2,0:0:0:0:
29,17,192838,5,2,2:0:0:0:
29,17,192950,2,0,B|41:77|41:77|39:81|39:81|52:142,1,124.875,0|10,0:0|1:2,0:0:0:0:
118,86,193172,5,2,2:0:0:0:
118,86,193283,2,0,B|130:146|130:146|128:150|128:150|141:211,1,124.875,2|0,2:0|0:0,0:0:0:0:
16,384,193505,6,0,P|38:328|98:333,1,124.875,10|0,1:2|2:0,0:0:0:0:
252,382,193727,2,0,B|265:322,1,55.5,10|0,3:2|0:0,0:0:0:0:
257,36,193950,5,10,2:0:0:0:
221,52,194061,1,10,2:0:0:0:
196,116,194172,1,2,3:2:0:0:
227,176,194283,1,10,2:0:0:0:
294,198,194394,1,0,1:0:0:0:
350,141,194505,1,0,2:0:0:0:
494,69,194616,6,0,B|362:51,1,124.875,6|0,2:0|0:0,0:0:0:0:
269,79,194838,2,0,B|270:62|244:50|244:50|291:27|319:67|291:107,1,124.875,10|0,2:0|1:0,0:0:0:0:
374,234,195061,6,0,B|333:282|333:282|366:348,1,124.875,2|0,3:2|0:0,0:0:0:0:
418,384,195283,2,0,B|358:376|358:376|353:373|353:373|296:364,1,124.875,10|0,1:2|1:0,0:0:0:0:
40,339,195505,6,0,B|42:365|85:378|85:378|124:344|107:316,1,124.875,2|0,3:2|0:0,0:0:0:0:
32,258,195727,2,0,P|70:210|102:249,1,124.875,10|0,1:2|1:0,0:0:0:0:
54,35,195950,6,0,B|71:65|46:113|46:113|64:89|81:92,1,124.875,2|0,3:2|0:0,0:0:0:0:
146,15,196172,2,0,P|193:43|159:86,1,124.875,10|0,1:2|1:0,0:0:0:0:
259,319,196394,6,0,B|293:324|306:298|292:295|336:236|389:280,1,124.875,2|0,3:2|0:0,0:0:0:0:
360,337,196616,2,0,B|348:275|348:275|351:272|351:272|339:214,1,124.875,10|0,1:2|1:2,0:0:0:0:
512,123,196838,6,0,B|478:128|465:102|479:99|435:40|382:84,1,124.875,2|0,3:2|0:0,0:0:0:0:
331,129,197061,2,0,B|373:120|373:120|394:116|418:72|378:45|361:48|361:48|295:62|295:62|301:8|215:-26|164:13|148:91|192:144|257:128|257:128|262:169,1,499.5,10|10,1:2|2:0,0:0:0:0:
304,384,197727,5,0,3:0:0:0:
286,332,197838,1,10,2:0:0:0:
222,296,197950,1,0,1:0:0:0:
155,335,198061,1,0,2:0:0:0:
72,268,198172,6,0,B|53:377,1,111,6|0,2:0|0:0,0:0:0:0:
155,347,198394,1,8,1:2:0:0:
161,73,198616,6,0,B|179:182,1,111,2|0,3:2|0:0,0:0:0:0:
78,152,198838,1,8,1:2:0:0:
461,241,199061,6,0,B|480:350,1,111,2|0,3:2|0:0,0:0:0:0:
378,320,199283,1,8,1:2:0:0:
341,35,199505,6,0,B|323:144,1,111,2|0,3:2|0:0,0:0:0:0:
424,114,199727,1,10,1:2:0:0:
276,308,199950,6,0,B|256:309|264:267|264:267|184:283|184:283|207:229|129:97|-57:172|-35:307|8:404|140:371|140:371|380:318,1,860.249999999999,0|0,3:0|2:0,0:0:0:0:
459,157,200838,5,10,3:1:0:0:
496,225,200950,5,10,2:1:0:0:
450,287,201061,5,10,2:0:0:0:
337,251,201172,5,10,2:0:0:0:
294,188,201283,5,0,3:0:0:0:
216,198,201394,5,10,2:0:0:0:
185,268,201505,5,0,0:0:0:0:
272,342,201727,5,6,2:0:0:0:
337,251,201950,5,0,0:0:0:0:
410,271,202172,1,0,0:0:0:0:
465,215,202505,1,2,2:0:0:0:
391,106,202838,5,2,2:0:0:0:
459,137,203061,1,2,2:0:0:0:
465,215,203283,1,2,2:0:0:0:
256,192,203505,5,2,2:0:0:0:
256,207,203727,5,2,2:0:0:0:
256,222,203838,1,0,0:0:0:0:
256,237,203950,1,2,2:0:0:0:
256,252,204061,1,0,0:0:0:0:
256,120,204283,5,2,2:0:0:0:
142,163,204505,1,2,2:0:0:0:
69,136,204727,1,0,0:0:0:0:
71,60,204838,1,2,2:0:0:0:
256,222,205061,5,0,0:0:0:0:
256,296,205172,1,2,2:0:0:0:
256,311,205227,1,2,2:0:0:0:
256,326,205283,1,2,2:0:0:0:
257,359,205727,5,2,2:0:0:0:
174,308,206061,1,2,2:0:0:0:
98,316,206394,1,2,2:0:0:0:
98,316,206616,1,2,2:0:0:0:
257,371,206838,1,2,2:0:0:0:
257,354,207061,5,2,2:0:0:0:
486,316,207283,1,0,0:0:0:0:
485,331,207394,1,2,2:0:0:0:
485,343,207505,1,0,2:0:0:0:
313,263,207727,1,2,2:0:0:0:
312,278,207838,1,0,0:0:0:0:
312,290,207950,1,2,2:0:0:0:
486,316,208172,5,2,2:0:0:0:
478,329,208283,1,0,0:0:0:0:
463,335,208394,1,2,2:0:0:0:
388,309,208616,5,2,2:0:0:0:
257,371,208838,5,2,2:0:0:0:
304,24,209283,5,2,2:0:0:0:
347,90,209616,1,0,0:0:0:0:
425,86,209950,1,2,2:0:0:0:
390,165,210172,5,2,2:0:0:0:
348,98,210394,1,2,2:0:0:0:
319,277,210616,1,2,2:0:0:0:
437,253,210783,5,0,0:0:0:0:
496,316,211061,1,2,2:0:0:0:
484,312,211172,1,0,0:0:0:0:
319,277,211394,1,2,2:0:0:0:
319,277,211727,5,2,2:0:0:0:
344,382,211950,1,2,2:0:0:0:
391,325,212172,1,2,2:0:0:0:
31,248,212394,5,2,2:0:0:0:
488,170,213283,1,2,2:0:0:0:
445,96,213950,5,0,0:0:0:0:
366,112,214172,1,0,0:0:0:0:
334,41,214505,1,0,0:0:0:0:
164,10,214838,5,0,0:0:0:0:
11,49,215061,1,2,2:0:0:0:
87,24,215394,5,8,2:1:0:0:
88,34,215450,1,8,2:1:0:0:
89,44,215505,1,8,2:0:0:0:
21,125,215616,5,8,2:1:0:0:
99,123,215727,1,8,2:0:0:0:
140,190,215838,1,8,2:1:0:0:
59,384,215950,6,0,P|20:309|116:360,1,256.6875,4|0,3:2|0:0,0:0:0:0:
284,334,216172,6,0,B|323:284|390:304|396:354|375:343|394:382|432:398|474:370,1,228.9375,10|0,2:0|0:0,0:0:0:0:
473,262,216394,2,0,B|438:237|394:247|391:297|401:273|382:319|345:299,1,120.25,0|0,3:2|0:0,0:0:0:0:
207,255,216616,5,8,2:0:0:0:
259,174,216727,2,0,B|281:160|286:141|286:141|304:79|304:79|308:64|340:40|368:69|369:87|369:87|364:155|364:155|363:177|380:199,1,305.25,2|0,2:0|0:0,0:0:0:0:
312,235,217061,5,10,2:1:0:0:
173,190,217172,2,0,B|99:198|99:198|94:193|94:193|23:200,1,152.625,0|0,1:2|3:2,0:0:0:0:
115,47,217394,5,10,2:1:0:0:
177,0,217505,2,0,B|211:7|211:7|218:58|218:58|185:78,1,120.25,8|0,3:1|2:0,0:0:0:0:
25,74,217727,6,0,B|261:99|261:99|262:100|262:100|262:98|262:98|277:100,1,256.6875,2|0,3:1|0:0,0:0:0:0:
406,116,217950,5,8,2:0:0:0:
464,166,218061,1,0,2:0:0:0:
458,240,218172,5,2,3:2:0:0:
446,239,218283,2,0,P|394:245|372:313,1,129.5,2|0,2:0|2:0,0:0:0:0:
197,363,218505,2,0,P|134:379|89:273,1,194.25,2|0,2:0|0:0,0:0:0:0:
173,190,218727,5,2,2:0:0:0:
68,171,218838,2,0,B|129:181|129:181|150:244|150:244|218:257|218:257|241:232|241:232|271:236,1,256.6875,10|0,2:1|0:0,0:0:0:0:
334,180,219061,5,0,3:2:0:0:
343,102,219172,1,10,2:1:0:0:
279,135,219283,2,0,B|287:134|287:134|290:136|290:136|294:134|294:134|432:111,1,129.5,10|0,2:0|2:0,0:0:0:0:
485,233,219505,6,0,B|441:278|499:300|464:351|464:351|417:315|466:274|401:243,1,256.6875,4|0,3:2|0:0,0:0:0:0:
417,190,219727,6,0,B|427:177|427:177|426:130|426:130|443:175|443:175|465:186,1,129.5,8|0,2:0|0:0,0:0:0:0:
414,323,219950,6,0,L|151:293,1,259,0|8,3:2|2:0,0:0:0:0:
63,170,220283,5,0,2:0:0:0:
54,169,220394,2,0,B|51:188|51:188|50:205|19:228|-9:201|-3:175|-3:175|8:115|8:115|41:104|54:120|50:134|62:146|88:145,1,256.6875,2|0,3:1|0:0,0:0:0:0:
304,169,220616,6,0,L|150:186,1,148,8|0,2:0|0:0,0:0:0:0:
77,289,220838,6,0,P|91:352|168:370,1,148,0|0,3:2|0:0,0:0:0:0:
156,293,221061,5,8,2:0:0:0:
154,9,221283,5,10,3:1:0:0:
219,51,221394,1,0,2:0:0:0:
201,127,221505,1,8,2:0:0:0:
83,145,221616,5,8,2:1:0:0:
140,91,221727,1,0,3:2:0:0:
209,123,221838,1,0,2:0:0:0:
297,267,221950,5,14,2:0:0:0:
343,322,222061,1,8,2:1:0:0:
417,305,222172,1,0,3:2:0:0:
491,278,222283,5,14,2:0:0:0:
424,312,222394,1,8,2:0:0:0:
423,384,222505,1,0,3:2:0:0:
369,242,222616,5,8,3:0:0:0:
371,234,222672,1,0,0:0:0:0:
373,226,222727,1,0,3:0:0:0:
422,27,222838,5,8,2:0:0:0:
266,67,222950,1,8,2:0:0:0:
325,115,223061,6,0,B|353:91|332:-8|332:-8|353:92|401:101,1,256.6875,4|0,3:2|0:0,0:0:0:0:
373,170,223283,1,8,2:0:0:0:
148,339,223505,6,0,B|170:295|170:295|227:279|242:329|242:329|246:329|246:329|244:329|244:329|258:382|306:381,1,228.9375,0|0,3:2|0:0,0:0:0:0:
318,376,223727,2,0,L|348:310,1,60.125,8|0,2:0|0:0,0:0:0:0:
116,10,223950,6,0,B|86:32|97:67|97:67|119:145|119:145|138:203|108:234,1,228.9375,0|0,3:0|0:0,0:0:0:0:
92,220,224172,2,0,B|71:221|58:212|68:209|48:197|24:208,1,60.125,10|0,2:1|0:0,0:0:0:0:
42,357,224394,5,2,3:2:0:0:
63,351,224505,1,10,2:1:0:0:
195,260,224616,5,10,3:2:0:0:
216,264,224727,1,2,3:2:0:0:
416,325,224838,6,0,B|428:290|391:236|389:286|354:249|362:186|362:186|340:338,1,284.4375,2|0,3:1|0:0,0:0:0:0:
342,321,225061,1,8,2:0:0:0:
438,384,225283,6,0,B|450:277|450:277|453:275|453:275|468:136,1,228.9375,0|0,3:2|0:0,0:0:0:0:
446,94,225505,2,0,P|435:125|397:137,1,60.125,8|0,2:0|0:0,0:0:0:0:
42,96,225727,6,0,B|34:12|158:-25|165:64|146:59|198:108|257:90|270:40,1,284.4375,2|0,3:1|0:0,0:0:0:0:
268,46,225950,1,8,2:1:0:0:
64,226,226172,5,0,3:2:0:0:
64,226,226283,1,8,2:1:0:0:
64,226,226394,2,0,B|21:225|21:225|74:238,1,92.5,8|8,2:0|2:1,0:0:0:0:
455,232,226616,6,0,B|460:208|486:193|486:193|442:118|356:125|339:206|339:206|329:206|329:206|347:202|386:299|384:398|191:462|163:295|163:295|221:277|212:184|118:120|23:287|136:309|166:294|166:294|231:271|261:323,1,1017.5,4|0,3:2|0:0,0:0:0:0:
245,303,227283,1,8,2:0:0:0:
87,97,227505,6,0,B|13:98|1:27|1:27|48:58|63:130|46:189|46:189|140:88|235:170|235:170|212:140|220:108,1,550.375,2|0,3:1|0:0,0:0:0:0:
218,130,227950,1,0,3:0:0:0:
95,15,228172,6,0,B|104:13|104:13|104:10|104:10|108:13|108:13|173:-2,1,78.625,8|0,2:0|0:0,0:0:0:0:
225,44,228283,2,0,B|234:45|234:45|235:43|235:43|237:47|237:47|297:60,1,78.625,0|0,1:0|0:0,0:0:0:0:
415,95,228394,6,0,B|356:98|295:227|295:227|355:97|314:52,1,370,14|0,2:1|2:0,0:0:0:0:
496,350,228727,6,0,B|435:341|397:203|397:203|434:341|386:386,1,370,10|0,2:1|0:0,0:0:0:0:
305,307,229061,5,10,2:1:0:0:
233,276,229172,1,8,2:0:0:0:
187,340,229283,1,6,2:1:0:0:
72,380,229394,5,8,2:0:0:0:
4,353,229505,1,0,1:2:0:0:
13,276,229616,1,8,2:0:0:0:
24,138,229727,5,2,2:0:0:0:
73,198,229838,1,2,2:0:0:0:
142,169,229950,1,2,2:0:0:0:
154,165,230005,1,2,2:0:0:0:
166,161,230061,1,2,2:0:0:0:
102,6,230172,6,0,B|113:132|113:132|116:137|116:137|126:265,1,256.6875,4|0,3:2|0:0,0:0:0:0:
292,227,230394,6,0,B|251:255|191:237|200:182|208:198|209:145|150:122|111:163,1,228.9375,10|0,2:0|0:0,0:0:0:0:
0,138,230616,2,0,B|37:149|65:116|52:112|77:79|121:85,1,120.25,0|0,3:2|0:0,0:0:0:0:
246,69,230838,5,8,2:0:0:0:
266,76,230950,2,0,B|260:63|260:63|255:60|255:60|254:53|254:53|240:24|240:24|304:-1|364:50|343:118|343:118|365:64|402:60,1,305.25,2|0,2:0|0:0,0:0:0:0:
448,17,231283,5,10,2:1:0:0:
486,124,231394,2,0,B|488:130|488:130|491:132|491:132|491:135|491:135|498:149|498:149|467:161|439:137|449:104|449:104|438:130|421:132,1,152.625,0|0,1:2|3:2,0:0:0:0:
292,219,231616,5,10,2:1:0:0:
216,200,231727,2,0,B|191:222|191:222|209:277|209:277|243:274,1,120.25,8|0,3:1|2:0,0:0:0:0:
371,316,231950,6,0,B|360:314|360:314|356:311|356:311|350:313|350:313|98:285,1,256.6875,2|0,3:1|0:0,0:0:0:0:
42,278,232172,5,8,2:0:0:0:
371,316,232394,5,2,3:2:0:0:
424,380,232505,2,0,P|459:325|433:267,1,129.5,2|0,2:0|2:0,0:0:0:0:
294,216,232727,2,0,P|379:212|402:116,1,194.25,2|0,2:0|0:0,0:0:0:0:
400,40,232950,5,0,2:0:0:0:
469,103,233061,2,0,B|349:89|349:89|344:91|344:91|194:71,1,256.6875,10|0,2:1|0:0,0:0:0:0:
125,52,233283,5,0,3:2:0:0:
55,27,233394,1,10,2:1:0:0:
42,20,233505,2,0,B|6:32|7:83|37:106|37:106|86:89,1,129.5,10|0,2:0|2:0,0:0:0:0:
14,257,233727,6,0,B|182:232|182:232|68:267,1,256.6875,4|0,3:2|0:0,0:0:0:0:
0,276,233950,6,0,B|-18:303|10:334|10:334|78:323,1,129.5,8|0,2:0|0:0,0:0:0:0:
362,213,234172,6,0,B|328:154|385:70|468:83|468:83|461:113|461:113|463:115|463:115|458:116|458:116|450:153,1,259,2|8,3:2|2:0,0:0:0:0:
324,338,234505,5,0,2:0:0:0:
378,287,234616,2,0,B|309:317|308:388|308:388|343:328|309:259,1,256.6875,2|0,3:2|0:0,0:0:0:0:
271,199,234838,6,0,L|418:187,1,148,8|0,2:0|0:0,0:0:0:0:
512,357,235061,6,0,B|502:358|502:358|500:353|500:353|501:358|501:358|364:368,1,148,0|0,3:2|0:0,0:0:0:0:
353,370,235283,5,10,2:0:0:0:
27,37,235505,5,10,3:1:0:0:
106,53,235616,1,0,2:0:0:0:
53,108,235727,1,8,2:0:0:0:
50,120,235838,5,8,2:1:0:0:
122,151,235950,1,0,3:2:0:0:
139,227,236061,1,0,0:0:0:0:
21,372,236172,5,8,2:0:0:0:
67,310,236283,1,8,2:1:0:0:
144,315,236394,1,0,3:2:0:0:
232,348,236505,5,8,2:0:0:0:
291,295,236616,1,12,2:0:0:0:
257,224,236727,1,0,3:2:0:0:
218,121,236838,5,2,3:1:0:0:
246,46,236950,1,0,3:0:0:0:
320,37,237061,1,8,2:0:0:0:
331,40,237116,1,8,2:1:0:0:
342,43,237172,1,8,2:0:0:0:
358,113,237283,6,0,B|344:67|344:67|362:20|408:45|408:45|432:119|432:119|464:139|475:109|475:109|468:89,1,256.6875,6|0,3:2|0:0,0:0:0:0:
494,43,237505,1,8,2:0:0:0:
444,277,237727,6,0,B|501:377|501:377|454:367|454:367|449:367|449:367|446:363|446:363|374:344,1,228.9375,2|0,3:2|0:0,0:0:0:0:
378,335,237950,2,0,B|346:316|303:354|328:355|295:382|249:373,1,120.25,10|2,2:0|1:2,0:0:0:0:
0,227,238172,6,0,B|34:181|109:199|117:252|106:247|139:301|212:264,1,228.9375,0|0,3:0|0:0,0:0:0:0:
177,201,238394,2,0,B|170:188|170:188|165:187|165:187|166:182|166:182|156:165|156:165|177:142|220:152|228:175,1,120.25,10|0,2:0|1:2,0:0:0:0:
165,359,238616,5,0,3:2:0:0:
189,365,238727,1,10,2:1:0:0:
336,270,238838,5,8,3:2:0:0:
359,265,238950,1,2,3:2:0:0:
416,152,239061,6,0,B|419:174|419:174|424:198|391:237|349:212|344:187|344:187|330:114|330:114|328:90|354:58|390:75|393:89,1,284.4375,2|0,3:1|0:0,0:0:0:0:
381,77,239283,1,8,2:0:0:0:
488,332,239505,6,0,B|349:307|423:402|245:370,1,228.9375,0|0,3:2|0:0,0:0:0:0:
271,374,239727,1,8,2:0:0:0:
48,306,239950,6,0,B|38:291|38:291|35:291|35:291|36:289|36:289|12:245|12:245|64:207|126:241|110:299|90:322|90:322|70:352|83:375,1,284.4375,2|0,3:1|0:0,0:0:0:0:
78,359,240172,1,8,2:1:0:0:
31,67,240394,5,0,3:2:0:0:
31,67,240505,1,8,2:1:0:0:
31,67,240616,2,0,B|8:88|8:88|51:93|70:47,1,92.5,8|0,2:0|2:1,0:0:0:0:
474,223,240838,6,0,B|431:267|352:223|352:223|269:186|232:263|232:263|139:267|48:184|76:-3|238:34|238:34|149:89|197:176|197:176|219:42|324:82,1,1017.5,4|0,3:2|0:0,0:0:0:0:
300,74,241505,1,2,2:0:0:0:
391,290,241727,6,0,B|350:230|350:230|254:244|254:244|231:366|231:366|124:387|124:387|71:298|71:298|-21:314,1,550.375,2|0,3:2|0:0,0:0:0:0:
27,305,242172,1,0,2:0:0:0:
283,7,242394,6,0,P|277:46|311:79,1,78.625,8|0,2:0|0:0,0:0:0:0:
371,38,242505,2,0,P|390:67|381:107,1,78.625,0|0,1:0|0:0,0:0:0:0:
259,157,242616,6,0,B|438:125|438:125|499:114|522:181|498:219|454:233|421:202,1,370,14|8,2:1|2:1,0:0:0:0:
339,176,242950,6,0,B|159:207|159:207|98:218|75:151|99:113|143:99|176:130,1,370,10|0,2:1|0:0,0:0:0:0:
109,240,243283,5,0,3:0:0:0:
69,310,243394,1,8,2:0:0:0:
119,372,243505,1,0,3:0:0:0:
215,363,243616,5,8,2:0:0:0:
253,298,243727,1,0,3:0:0:0:
329,298,243838,1,8,2:0:0:0:
410,348,243950,5,2,2:0:0:0:
481,365,244061,1,2,2:0:0:0:
496,294,244172,1,2,2:0:0:0:
493,283,244227,1,2,2:0:0:0:
490,272,244283,1,2,2:0:0:0:
485,96,244394,6,0,B|478:96|478:96|473:92|473:92|469:94|469:94|249:76,1,228.9375,6|0,3:2|0:0,0:0:0:0:
220,62,244616,2,0,B|212:79|212:79|235:85|243:109,1,60.125,8|0,2:0|0:0,0:0:0:0:
9,289,244838,6,0,B|16:288|16:288|21:284|21:284|25:286|25:286|245:269,1,228.9375,0|0,3:0|0:0,0:0:0:0:
275,264,245061,2,0,B|283:281|283:281|260:287|252:311,1,60.125,8|0,2:0|0:0,0:0:0:0:
396,383,245283,6,0,B|346:351|365:261|403:295|449:231|408:182,1,228.9375,0|0,3:0|0:0,0:0:0:0:
398,171,245505,2,0,B|375:177|375:177|372:175|372:175|373:178|373:178|327:192,1,60.125,8|0,2:0|0:0,0:0:0:0:
211,145,245727,5,4,3:2:0:0:
142,109,245838,1,0,2:1:0:0:
140,160,245950,2,0,B|131:158|131:158|129:155|129:155|129:158|129:158|9:142,1,120.25,8|0,2:0|2:1,0:0:0:0:
266,62,246172,5,14,2:0:0:0:
196,247,246320,1,10,2:0:0:0:
301,359,246468,1,10,2:0:0:0:
201,256,246616,5,10,2:0:0:0:
325,377,246764,1,10,2:0:0:0:
479,301,246912,1,10,2:0:0:0:
344,186,247061,5,10,3:0:0:0:
19,53,247950,6,0,B|62:-6|149:15|150:74|142:71|162:123|235:130|269:77,1,277.5,4|0,3:0|0:0,0:0:0:0:
264,88,248172,2,0,B|264:63|239:52|239:52|249:27|286:23|315:52,1,120.25,10|0,2:0|0:0,0:0:0:0:
439,63,248394,5,0,3:2:0:0:
488,108,248505,1,2,2:0:0:0:
477,179,248616,1,10,2:0:0:0:
478,191,248727,2,0,P|432:193|419:244,1,92.5,2|0,2:0|2:0,0:0:0:0:
480,314,248950,5,2,2:0:0:0:
511,336,249061,2,0,L|414:356,1,92.5,8|2,2:0|2:0,0:0:0:0:
271,379,249283,6,0,B|282:309|282:309|286:307|286:307|295:243,1,138.75,8|0,3:2|0:0,0:0:0:0:
291,175,249505,2,0,B|307:176|307:176|313:164|313:164|289:135|251:146|244:190,1,120.25,8|0,2:0|0:0,0:0:0:0:
75,166,249727,6,0,B|41:201|68:231|68:231|104:221|128:252,1,138.75,2|0,3:2|0:0,0:0:0:0:
78,298,249950,6,0,B|179:281|179:281|178:284|178:284|182:280|182:280|191:279,1,120.25,10|0,2:0|0:0,0:0:0:0:
371,252,250172,5,8,3:2:0:0:
420,354,250283,1,2,2:0:0:0:
464,373,250394,1,10,2:0:0:0:
512,331,250505,1,2,2:0:0:0:
501,302,250616,2,0,B|480:177,1,120.25,0|0,3:0|0:0,0:0:0:0:
363,82,250838,6,0,B|352:57|352:57|348:55|348:55|349:53|349:53|335:16|335:16|421:-8|460:61|443:112|396:150,1,277.5,2|0,2:1|0:0,0:0:0:0:
298,122,251061,1,0,3:0:0:0:
304,142,251172,6,0,L|187:128,1,106.375,2|2,2:1|3:2,0:0:0:0:
100,119,251394,1,0,0:0:0:0:
216,54,251505,6,0,B|201:57|201:57|162:63|171:99|171:99|182:156|182:156|179:158|179:158|186:193|186:193|193:230|234:223|234:223|273:213,1,277.5,6|0,3:1|0:0,0:0:0:0:
294,219,251727,2,0,B|230:233|230:233|227:236|227:236|165:249,1,120.25,10|0,2:0|0:0,0:0:0:0:
34,215,251950,5,0,3:2:0:0:
0,279,252061,1,2,2:0:0:0:
26,341,252172,1,10,2:0:0:0:
99,362,252283,1,2,2:0:0:0:
177,382,252394,5,0,3:0:0:0:
196,325,252505,1,2,2:0:0:0:
253,297,252616,1,10,2:0:0:0:
323,321,252727,1,2,2:0:0:0:
315,375,252838,6,0,L|463:351,1,138.75,10|0,3:2|0:0,0:0:0:0:
475,369,253061,2,0,B|490:301|490:301|497:270|470:246,1,120.25,8|0,2:0|0:0,0:0:0:0:
330,109,253283,6,0,B|326:127|326:127|315:162|276:163|247:141|256:104|256:104|280:33|280:33|320:24|334:61|330:67|322:62|338:97|372:87,1,319.125,2|0,3:1|0:0,0:0:0:0:
385,89,253505,6,0,B|427:94|453:53|447:17|447:17|414:-6,1,138.75,10|0,2:0|0:0,0:0:0:0:
396,276,253727,6,0,B|370:196|371:196|371:196|456:223|456:223|472:295|472:295|430:274|390:322,1,319.125,2|0,3:1|0:0,0:0:0:0:
341,343,253950,6,0,B|350:345|350:345|353:349|353:349|356:347|356:347|486:371,1,138.75,10|0,2:0|0:0,0:0:0:0:
203,172,254172,6,0,L|176:400,1,208.125,2|0,2:1|0:0,0:0:0:0:
157,375,254394,6,0,P|103:371|95:298,1,138.75,8|10,2:0|2:0,0:0:0:0:
272,213,254616,6,0,P|287:145|240:104,1,138.75,8|10,2:1|2:0,0:0:0:0:
35,35,254838,6,0,L|38:57,1,23.125,4|0,2:1|0:0,0:0:0:0:
208,38,255061,6,0,B|310:-6|238:117|467:76|349:-9|471:0,1,277.5,4|0,3:0|0:0,0:0:0:0:
499,57,255283,2,0,B|503:47|503:47|506:44|506:44|505:39|505:39|507:26|507:26|465:28|450:76|492:104,1,120.25,10|0,2:0|0:0,0:0:0:0:
478,220,255505,5,2,3:2:0:0:
468,275,255616,1,2,2:0:0:0:
405,306,255727,1,10,2:0:0:0:
391,296,255838,2,0,L|286:276,1,92.5,2|0,2:0|3:0,0:0:0:0:
188,238,256061,5,2,2:0:0:0:
122,234,256172,1,10,2:0:0:0:
85,297,256283,1,2,2:0:0:0:
96,312,256394,2,0,P|143:330|154:377,1,92.5,10|0,3:2|0:0,0:0:0:0:
302,382,256616,6,0,B|294:338|294:338|295:333|295:333|282:258,1,120.25,8|0,2:0|0:0,0:0:0:0:
263,69,256838,6,0,P|237:117|160:120,1,138.75,2|0,3:2|0:0,0:0:0:0:
98,74,257061,6,0,B|87:43|41:43|41:43|64:65|49:94,1,120.25,10|0,2:0|0:0,0:0:0:0:
27,242,257283,5,8,3:2:0:0:
137,214,257394,1,2,2:0:0:0:
188,272,257505,1,8,2:0:0:0:
262,250,257616,1,2,2:0:0:0:
281,263,257727,2,0,B|408:285,1,120.25,0|0,3:0|0:0,0:0:0:0:
450,101,257950,6,0,B|453:126|453:126|454:144|448:156|421:159|421:159|339:166|339:166|313:172|291:153|289:136|289:136|286:112|286:112|284:110|284:110|286:111|286:111|282:84,1,277.5,2|0,2:1|0:0,0:0:0:0:
275,18,258172,5,0,3:0:0:0:
348,83,258283,2,0,B|335:84|335:84|335:80|335:80|333:84|333:84|246:91,1,106.375,2|2,2:1|2:0,0:0:0:0:
172,95,258505,1,0,0:0:0:0:
74,76,258616,6,0,B|54:33|54:33|88:8|139:15|149:73|149:73|158:119|121:140|121:140|119:142|119:142|116:141|116:141|89:147,1,277.5,6|0,3:2|0:0,0:0:0:0:
30,178,258838,2,0,B|44:179|44:179|44:174|44:174|46:179|46:179|142:186,1,120.25,10|0,2:0|0:0,0:0:0:0:
351,195,259061,5,0,3:0:0:0:
393,215,259172,1,2,2:0:0:0:
399,283,259283,1,10,2:0:0:0:
323,279,259394,2,0,B|284:282|284:282|279:285|279:285|216:291,1,92.5,2|0,2:0|3:0,0:0:0:0:
77,260,259616,5,2,2:0:0:0:
27,321,259727,1,10,2:0:0:0:
70,384,259838,1,2,3:2:0:0:
157,319,259950,5,2,3:2:0:0:
212,377,260061,1,8,2:1:0:0:
289,359,260172,1,8,2:0:0:0:
472,56,260394,6,0,P|443:132|340:137,1,180.375,2|0,3:2|0:0,0:0:0:0:
349,132,260616,2,0,B|345:114|345:114|341:113|341:113|344:113|344:113|333:58,1,69.3750000000002,2|0,2:0|0:0,0:0:0:0:
17,149,260838,6,0,P|102:158|135:237,1,180.375,2|0,3:2|0:0,0:0:0:0:
158,222,261061,2,0,B|165:196|165:196|168:193|168:193|178:148,1,69.3750000000002,2|0,2:0|0:0,0:0:0:0:
240,62,261283,6,0,L|289:363,1,300.625,2|0,3:2|0:0,0:0:0:0:
291,373,261616,1,2,3:2:0:0:
212,346,261727,1,0,3:0:0:0:
145,379,261838,1,8,2:1:0:0:
133,375,261894,1,8,2:1:0:0:
121,371,261950,1,8,2:0:0:0:
389,359,262116,6,0,L|434:353,1,34.6875000000001
32,61,262616,6,0,P|136:45|223:102,1,208.125,14|0,3:0|0:0,0:0:0:0:
285,46,263727,5,2,2:0:0:0:
285,46,263783,1,2,2:0:0:0:
336,109,264005,1,2,2:0:0:0:
394,59,264172,1,2,0:0:0:0:
401,73,264468,1,2,0:0:0:0:
447,137,264783,1,2,2:0:0:0:
512,106,265061,1,2,2:0:0:0:
386,383,265561,1,2,0:0:0:0:
346,247,266098,1,2,0:0:0:0:
256,192,266172,12,0,275283,0:0:0:0:
