osu file format v14

[General]
AudioFilename: audio.mp3
AudioLeadIn: 0
PreviewTime: 215969
Countdown: 0
SampleSet: Soft
StackLeniency: 0.4
Mode: 0
LetterboxInBreaks: 0
WidescreenStoryboard: 1

[Editor]
DistanceSpacing: 1.6
BeatDivisor: 4
GridSize: 32
TimelineZoom: 3.899999

[Metadata]
Title:Lilith
TitleUnicode:Lilith
Artist:Aitsuki Nakuru & Kabocha
ArtistUnicode:藍月なくる & かぼちゃ
Creator:Celine
Version:Muya's Extra
Source:
Tags:japanese jazz pop osu! fa featured artist nacollection-3- nacollection 3 0ppinosu ancul felter mnyui muya gelidium sunazuka akira miura
BeatmapID:3103656
BeatmapSetID:1261931

[Difficulty]
HPDrainRate:5
CircleSize:4
OverallDifficulty:9
ApproachRate:9.4
SliderMultiplier:2
SliderTickRate:0.5

[Events]
//Background and Video events
0,0,"yande.re_564086_dress_rurudo_rurudot_wings (1).jpg",0,0
//Break Periods
//Storyboard Layer 0 (Background)
//Storyboard Layer 1 (Fail)
//Storyboard Layer 2 (Pass)
//Storyboard Layer 3 (Foreground)
//Storyboard Layer 4 (Overlay)
//Storyboard Sound Samples

[TimingPoints]
-50,222.222222222223,4,2,1,70,1,0
838,-66.6666666666667,4,2,2,70,0,0
894,-66.6666666666667,4,2,2,70,0,0
1135,-133.333333333333,4,2,2,5,0,0
1172,-66.6666666666667,4,2,1,70,0,0
1505,-80,4,2,1,70,0,0
1801,-133.333333333333,4,2,1,5,0,0
1838,-80,4,2,1,75,0,0
1950,-80,4,2,1,70,0,0
2320,-133.333333333333,4,2,1,5,0,0
2394,-80,4,2,1,70,0,0
2542,-133.333333333333,4,2,1,5,0,0
2616,-66.6666666666667,4,2,13,75,0,0
2838,-133.333333333333,4,2,13,5,0,0
2912,-80,4,2,1,73,0,0
3135,-133.333333333333,4,2,1,5,0,0
3209,-86.9565217391304,4,2,15,69,0,0
3431,-133.333333333333,4,2,15,5,0,0
3505,-133.333333333333,4,2,1,67,0,0
3801,-200,4,2,1,63,0,0
4838,-133.333333333333,4,2,1,5,0,0
5616,-100,4,2,1,70,0,0
5950,-100,4,2,1,75,0,0
6172,-66.6666666666667,4,2,9,85,0,0
6338,-133.333333333333,4,2,9,5,0,0
6394,-100,4,2,1,75,0,0
8116,-133.333333333333,4,2,1,5,0,0
8172,-100,4,2,1,75,0,0
8505,-100,4,2,1,82,0,0
8616,-100,4,2,1,75,0,0
9005,-133.333333333333,4,2,1,5,0,0
9061,-66.6666666666667,4,2,1,80,0,0
9505,-66.6666666666667,4,2,1,70,0,0
9727,-66.6666666666667,4,2,2,85,0,0
9894,-133.333333333333,4,2,2,5,0,0
9950,-100,4,2,1,75,0,0
11505,-100,4,2,1,85,0,0
11727,-100,4,2,1,75,0,0
11950,-100,4,2,1,85,0,0
12172,-100,4,2,1,75,0,0
12394,-100,4,2,1,90,0,0
12616,-100,4,2,1,85,0,0
13061,-100,4,2,5,85,0,0
13283,-66.6666666666667,4,2,10,85,0,0
13450,-133.333333333333,4,2,10,5,0,0
13505,-100,4,2,1,75,0,0
15227,-133.333333333333,4,2,1,5,0,0
15283,-100,4,2,1,75,0,0
16116,-133.333333333333,4,2,1,5,0,0
16172,-66.6666666666667,4,2,1,75,0,0
16394,-66.6666666666667,4,2,1,80,0,0
16616,-66.6666666666667,4,2,1,70,0,0
16838,-66.6666666666667,4,2,5,85,0,0
17005,-133.333333333333,4,2,5,5,0,0
17061,-100,4,2,1,75,0,0
18172,-100,4,2,1,85,0,0
18616,-100,4,2,1,65,0,0
20838,-50,4,2,3,55,0,0
21727,-45.4545454545455,4,2,3,80,0,0
22616,-41.6666666666667,4,2,3,55,0,0
23505,-38.4615384615385,4,2,3,80,0,0
24394,-35.7142857142857,4,2,3,55,0,0
25283,-100,4,2,3,80,0,0
25505,-100,4,2,3,55,0,0
27060,-100,4,2,3,80,0,0
27950,-50,4,2,3,55,0,0
28838,-45.4545454545455,4,2,3,80,0,0
29727,-41.6666666666667,4,2,3,55,0,0
30616,-38.4615384615385,4,2,3,80,0,0
31505,-35.7142857142857,4,2,3,55,0,0
32394,-100,4,2,3,80,0,0
32616,-100,4,2,3,55,0,0
32838,-100,4,2,3,45,0,0
33726,-100,4,2,90,45,0,0
34171,-100,4,2,90,45,0,0
34616,-55.5555555555556,4,2,91,80,0,0
34838,-125,4,2,2,75,0,0
47005,-133.333333333333,4,2,2,5,0,0
47061,-125,4,2,2,75,0,0
48838,-111.111111111111,4,2,1,75,0,0
59616,-100,4,2,1,75,0,0
60505,-90.9090909090909,4,2,1,75,0,0
61394,-83.3333333333333,4,2,1,75,0,0
62172,-76.9230769230769,4,2,1,75,0,0
62227,-76.9230769230769,4,2,1,75,0,0
62283,-76.9230769230769,4,2,1,75,0,0
64283,-111.111111111111,4,2,1,75,0,0
64838,-66.6666666666667,4,2,9,85,0,1
65005,-133.333333333333,4,2,9,5,0,1
65061,-100,4,2,7,85,0,1
67672,-133.333333333333,4,2,7,5,0,1
67727,-100,4,2,7,85,0,1
68394,-100,4,2,1,85,0,1
68561,-133.333333333333,4,2,1,5,0,1
68616,-100,4,2,1,85,0,1
69450,-133.333333333333,4,2,1,5,0,1
69505,-100,4,2,1,85,0,1
70838,-100,4,2,4,85,0,1
70950,-100,4,2,7,85,0,1
71172,-100,4,2,5,85,0,1
71283,-100,4,2,7,85,0,1
71950,-66.6666666666667,4,2,9,85,0,1
72116,-133.333333333333,4,2,9,5,0,1
72172,-100,4,2,7,85,0,1
73005,-133.333333333333,4,2,7,5,0,1
73061,-100,4,2,7,85,0,1
73894,-133.333333333333,4,2,7,5,0,1
73950,-100,4,2,7,85,0,1
75505,-100,4,2,1,85,0,1
75672,-133.333333333333,4,2,1,5,0,1
75727,-100,4,2,1,85,0,1
76394,-100,4,2,1,65,0,1
76505,-100,4,2,1,70,0,1
76561,-133.333333333333,4,2,1,5,0,1
76616,-100,4,2,1,75,0,1
76727,-100,4,2,1,80,0,1
76838,-100,4,2,1,85,0,1
77283,-66.6666666666667,4,2,2,90,0,1
77616,-66.6666666666667,4,2,7,90,0,1
78172,-100,4,2,7,100,0,1
78227,-100,4,2,7,100,0,1
78616,-100,4,2,7,100,0,1
79061,-66.6666666666667,4,2,9,85,0,1
79227,-133.333333333333,4,2,9,5,0,1
79283,-100,4,2,7,85,0,1
80116,-133.333333333333,4,2,7,5,0,1
80172,-100,4,2,7,85,0,1
81894,-133.333333333333,4,2,7,5,0,1
81950,-100,4,2,7,85,0,1
82783,-133.333333333333,4,2,7,5,0,1
82838,-100,4,2,7,85,0,1
83672,-133.333333333333,4,2,7,5,0,1
83727,-100,4,2,7,85,0,1
85505,-100,4,2,5,85,0,1
85727,-100,4,2,7,85,0,1
86172,-66.6666666666667,4,2,9,85,0,1
86338,-133.333333333333,4,2,9,5,0,1
86394,-100,4,2,7,85,0,1
87227,-133.333333333333,4,2,7,5,0,1
87283,-100,4,2,7,85,0,1
88116,-133.333333333333,4,2,7,5,0,1
88172,-100,4,2,7,85,0,1
89005,-133.333333333333,4,2,7,5,0,1
89061,-100,4,2,7,85,0,1
89727,-100,4,2,1,85,0,1
89894,-133.333333333333,4,2,1,5,0,1
89950,-100,4,2,1,85,0,1
90783,-133.333333333333,4,2,1,5,0,1
90838,-100,4,2,1,85,0,1
91505,-66.6666666666667,4,2,2,85,0,1
91561,-66.6666666666667,4,2,2,85,0,1
91727,-66.6666666666667,4,2,7,85,0,1
92394,-100,4,2,7,100,0,1
92450,-100,4,2,7,85,0,1
93283,-100,4,2,5,75,0,1
93505,-100,4,2,7,75,0,1
94616,-100,4,2,7,85,0,1
95061,-66.6666666666667,4,2,7,95,0,1
95172,-133.333333333333,4,2,7,5,0,1
95209,-66.6666666666667,4,2,7,95,0,1
95320,-133.333333333333,4,2,7,5,0,1
95357,-66.6666666666667,4,2,7,95,0,1
95468,-133.333333333333,4,2,7,5,0,1
95505,-66.6666666666667,4,2,7,95,0,1
95616,-133.333333333333,4,2,7,5,0,1
95653,-66.6666666666667,4,2,7,95,0,1
95764,-133.333333333333,4,2,7,5,0,1
95801,-66.6666666666667,4,2,7,95,0,1
95912,-133.333333333333,4,2,7,5,0,1
95950,-66.6666666666667,4,2,98,40,0,0
96172,-66.6666666666667,4,2,98,70,0,0
96783,-133.333333333333,4,2,98,5,0,0
96838,-66.6666666666667,4,2,10,85,0,0
97005,-133.333333333333,4,2,10,5,0,0
97061,-100,4,2,1,75,0,0
98783,-133.333333333333,4,2,1,5,0,0
98838,-100,4,2,1,75,0,0
99172,-100,4,2,1,82,0,0
99283,-100,4,2,1,75,0,0
99394,-100,4,2,1,50,0,0
99505,-100,4,2,1,75,0,0
99672,-133.333333333333,4,2,1,5,0,0
99727,-66.6666666666667,4,2,1,80,0,0
100172,-66.6666666666667,4,2,1,70,0,0
100394,-66.6666666666667,4,2,1,85,0,0
100561,-133.333333333333,4,2,1,5,0,0
100616,-100,4,2,1,75,0,0
102172,-100,4,2,1,85,0,0
102394,-100,4,2,1,75,0,0
102616,-100,4,2,1,85,0,0
102838,-100,4,2,1,75,0,0
103061,-100,4,2,1,90,0,0
103283,-100,4,2,1,85,0,0
103727,-100,4,2,5,85,0,0
103950,-66.6666666666667,4,2,10,85,0,0
104116,-133.333333333333,4,2,10,5,0,0
104172,-100,4,2,1,75,0,0
105894,-133.333333333333,4,2,1,5,0,0
105950,-100,4,2,1,75,0,0
106283,-100,4,2,1,82,0,0
106394,-100,4,2,1,75,0,0
106505,-100,4,2,1,50,0,0
106615,-100,4,2,1,75,0,0
106801,-133.333333333333,4,2,1,5,0,0
106838,-66.6666666666667,4,2,1,80,0,0
107283,-66.6666666666667,4,2,1,70,0,0
107505,-66.6666666666667,4,2,1,85,0,0
107672,-133.333333333333,4,2,1,5,0,0
107727,-100,4,2,1,75,0,0
108838,-100,4,2,1,85,0,0
109283,-100,4,2,1,65,0,0
111061,-125,4,2,2,75,0,0
111505,-40,4,2,2,75,0,0
111727,-125,4,2,2,75,0,0
112394,-25,4,2,2,75,0,0
112616,-125,4,2,2,75,0,0
113283,-25,4,2,2,75,0,0
113727,-125,4,2,2,75,0,0
114172,-25,4,2,2,75,0,0
114283,-125,4,2,2,75,0,0
115061,-40,4,2,2,75,0,0
115283,-125,4,2,2,75,0,0
115950,-40,4,2,2,75,0,0
116061,-125,4,2,2,75,0,0
116838,-40,4,2,2,75,0,0
117061,-125,4,2,2,75,0,0
117727,-40,4,2,2,75,0,0
117950,-125,4,2,2,75,0,0
118616,-40,4,2,2,75,0,0
118838,-125,4,2,2,75,0,0
119505,-28.5714285714286,4,2,2,75,0,0
119950,-125,4,2,2,75,0,0
120394,-40,4,2,2,75,0,0
120616,-100,4,2,2,75,0,0
121283,-25,4,2,2,75,0,0
121505,-125,4,2,2,75,0,0
122172,-25,4,2,2,75,0,0
122394,-125,4,2,2,75,0,0
123061,-25,4,2,2,75,0,0
123505,-125,4,2,2,75,0,0
123950,-40,4,2,2,75,0,0
124172,-125,4,2,2,75,0,0
124838,-40,4,2,2,75,0,0
125283,-111.111111111111,4,2,1,75,0,0
128394,-111.111111111111,4,2,1,80,0,0
128616,-111.111111111111,4,2,1,70,0,0
128838,-111.111111111111,4,2,1,85,0,0
129727,-111.111111111111,4,2,1,75,0,0
131949,-111.111111111111,4,2,1,80,0,0
132172,-111.111111111111,4,2,1,70,0,0
132394,-111.111111111111,4,2,1,75,0,0
135950,-111.111111111111,4,2,4,75,0,0
136061,-100,4,2,4,75,0,0
136950,-90.9090909090909,4,2,4,75,0,0
137838,-83.3333333333333,4,2,4,75,0,0
138616,-76.9230769230769,4,2,4,75,0,0
139061,-76.9230769230769,4,2,1,75,0,0
140727,-111.111111111111,4,2,1,75,0,0
141283,-66.6666666666667,4,2,9,85,0,1
141450,-133.333333333333,4,2,9,5,0,1
141505,-100,4,2,7,85,0,1
142338,-133.333333333333,4,2,7,5,0,1
142394,-100,4,2,7,85,0,1
144116,-133.333333333333,4,2,7,5,0,1
144172,-100,4,2,7,85,0,1
144838,-100,4,2,1,85,0,1
145005,-133.333333333333,4,2,1,5,0,1
145061,-100,4,2,1,85,0,1
145894,-133.333333333333,4,2,1,5,0,1
145950,-100,4,2,1,85,0,1
147283,-100,4,2,4,85,0,1
147394,-100,4,2,7,85,0,1
147616,-100,4,2,5,85,0,1
147727,-100,4,2,7,85,0,1
148394,-66.6666666666667,4,2,9,85,0,1
148561,-133.333333333333,4,2,9,5,0,1
148616,-100,4,2,7,85,0,1
149450,-133.333333333333,4,2,7,5,0,1
149505,-100,4,2,7,85,0,1
150338,-133.333333333333,4,2,7,5,0,1
150394,-100,4,2,7,85,0,1
151950,-100,4,2,1,85,0,1
152116,-133.333333333333,4,2,1,5,0,1
152172,-100,4,2,1,85,0,1
152838,-100,4,2,1,65,0,1
152950,-100,4,2,1,70,0,1
153005,-133.333333333333,4,2,1,5,0,1
153061,-100,4,2,1,75,0,1
153172,-100,4,2,1,80,0,1
153283,-100,4,2,1,85,0,1
153727,-66.6666666666667,4,2,7,85,0,1
154061,-66.6666666666667,4,2,7,90,0,1
154616,-100,4,2,7,100,0,1
154672,-100,4,2,7,100,0,1
155283,-100,4,2,7,100,0,1
155505,-66.6666666666667,4,2,9,85,0,1
155672,-133.333333333333,4,2,9,5,0,1
155727,-100,4,2,7,85,0,1
156561,-133.333333333333,4,2,7,5,0,1
156616,-100,4,2,7,85,0,1
158338,-133.333333333333,4,2,7,5,0,1
158394,-100,4,2,7,85,0,1
159061,-100,4,2,1,85,0,1
159227,-133.333333333333,4,2,1,5,0,1
159283,-100,4,2,1,85,0,1
160116,-133.333333333333,4,2,1,5,0,1
160172,-100,4,2,1,85,0,1
161949,-100,4,2,5,85,0,1
162172,-100,4,2,7,85,0,1
162616,-66.6666666666667,4,2,9,85,0,1
162783,-133.333333333333,4,2,9,5,0,1
162838,-100,4,2,7,85,0,1
163672,-133.333333333333,4,2,7,5,0,1
163727,-100,4,2,7,85,0,1
164561,-133.333333333333,4,2,7,5,0,1
164616,-100,4,2,7,85,0,1
165450,-133.333333333333,4,2,7,5,0,1
165505,-100,4,2,7,85,0,1
166172,-100,4,2,1,85,0,1
166338,-133.333333333333,4,2,1,5,0,1
166394,-100,4,2,1,85,0,1
167227,-133.333333333333,4,2,1,5,0,1
167283,-100,4,2,1,85,0,1
167950,-66.6666666666667,4,2,2,85,0,1
168172,-66.6666666666667,4,2,7,85,0,1
168283,-66.6666666666667,4,2,7,85,0,1
168838,-100,4,2,7,100,0,1
168895,-100,4,2,7,100,0,1
168949,-100,4,2,7,85,0,1
169727,-100,4,2,5,75,0,1
169783,-100,4,2,5,75,0,1
169894,-133.333333333333,4,2,5,5,0,1
169950,-100,4,2,7,75,0,1
170783,-133.333333333333,4,2,7,5,0,1
170838,-100,4,2,7,75,0,1
171061,-100,4,2,4,85,0,1
171505,-66.6666666666667,4,2,7,95,0,1
171616,-133.333333333333,4,2,7,5,0,1
171653,-66.6666666666667,4,2,7,95,0,1
171764,-133.333333333333,4,2,7,5,0,1
171801,-66.6666666666667,4,2,7,95,0,1
171912,-133.333333333333,4,2,7,5,0,1
171950,-66.6666666666667,4,2,7,95,0,1
172061,-133.333333333333,4,2,7,5,0,1
172098,-66.6666666666667,4,2,7,95,0,1
172209,-133.333333333333,4,2,7,5,0,1
172246,-66.6666666666667,4,2,7,95,0,1
172357,-133.333333333333,4,2,7,5,0,1
172394,-66.6666666666667,4,2,98,50,0,0
172616,-66.6666666666667,4,2,98,70,0,0
173227,-133.333333333333,4,2,98,5,0,0
173283,-125,4,2,1,65,0,0
173727,-50,4,2,3,65,0,0
173950,-50,4,2,3,50,0,0
174172,-125,4,2,3,50,0,0
174616,-50,4,2,3,50,0,0
174838,-125,4,2,3,50,0,0
175505,-50,4,2,3,50,0,0
175950,-125,4,2,3,50,0,0
176394,-50,4,2,3,50,0,0
176616,-125,4,2,3,50,0,0
177283,-50,4,2,3,50,0,0
177727,-125,4,2,3,50,0,0
178172,-50,4,2,3,50,0,0
178394,-125,4,2,3,50,0,0
179061,-50,4,2,3,50,0,0
179616,-50,4,2,1,50,0,0
180172,-50,4,2,5,50,0,0
180394,-125,4,2,5,50,0,0
180838,-50,4,2,3,50,0,0
181283,-125,4,2,3,50,0,0
181727,-50,4,2,3,50,0,0
181950,-125,4,2,3,50,0,0
182616,-50,4,2,3,50,0,0
183061,-125,4,2,3,50,0,0
183505,-50,4,2,3,50,0,0
183727,-125,4,2,3,50,0,0
184394,-50,4,2,3,50,0,0
184838,-125,4,2,3,50,0,0
185061,-125,4,2,1,65,0,0
185283,-50,4,2,1,65,0,0
185727,-200,4,2,1,65,0,0
185894,-133.333333333333,4,2,1,5,0,0
185950,-200,4,2,1,65,0,0
186950,-83.3333333333333,4,2,1,65,0,0
187505,-111.111111111111,4,2,1,65,0,0
194838,-101.010101010101,4,2,1,65,0,0
195061,-92.5925925925926,4,2,1,65,0,0
195283,-85.4700854700855,4,2,1,65,0,0
195505,-79.3650793650794,4,2,1,65,0,0
195727,-74.0740740740741,4,2,1,65,0,0
195950,-68.9655172413793,4,2,1,65,0,0
196172,-64.9350649350649,4,2,1,65,0,0
196394,-61.3496932515337,4,2,1,65,0,0
196616,-58.1395348837209,4,2,1,65,0,0
196838,-55.2486187845304,4,2,1,65,0,0
197061,-52.6315789473684,4,2,1,65,0,0
197727,-58.1395348837209,4,2,1,65,0,0
197950,-64.9350649350649,4,2,1,65,0,0
198172,-111.111111111111,4,2,1,65,0,0
198616,-92.5925925925926,4,2,1,65,0,0
199061,-79.3650793650794,4,2,1,65,0,0
199505,-69.4444444444444,4,2,1,65,0,0
199950,-61.7283950617284,4,2,1,65,0,0
201727,-61.7283950617284,4,2,4,65,0,0
201950,-61.7283950617284,4,2,4,45,0,0
202505,-61.7283950617284,4,2,1,45,0,0
205172,-200,4,2,1,45,0,0
215394,-111.111111111111,4,2,1,45,0,0
215950,-66.6666666666667,4,2,9,85,0,1
216116,-133.333333333333,4,2,9,5,0,1
216172,-100,4,2,7,85,0,1
217005,-133.333333333333,4,2,7,5,0,1
217061,-100,4,2,7,85,0,1
218783,-133.333333333333,4,2,7,5,0,1
218838,-100,4,2,7,85,0,1
219505,-100,4,2,1,85,0,1
219672,-133.333333333333,4,2,1,5,0,1
219727,-100,4,2,1,85,0,1
220561,-133.333333333333,4,2,1,5,0,1
220616,-100,4,2,1,85,0,1
221950,-100,4,2,7,85,0,1
223061,-66.6666666666667,4,2,9,85,0,1
223227,-133.333333333333,4,2,9,5,0,1
223283,-100,4,2,7,85,0,1
224116,-133.333333333333,4,2,7,5,0,1
224172,-100,4,2,7,85,0,1
225005,-133.333333333333,4,2,7,5,0,1
225061,-100,4,2,7,85,0,1
226616,-100,4,2,1,85,0,1
226783,-133.333333333333,4,2,1,5,0,1
226838,-100,4,2,1,85,0,1
227672,-133.333333333333,4,2,1,5,0,1
227727,-100,4,2,1,85,0,1
228394,-66.6666666666667,4,2,2,90,0,1
228727,-66.6666666666667,4,2,7,90,0,1
229283,-100,4,2,7,90,0,1
229394,-100,4,2,7,100,0,1
229783,-100,4,2,7,95,0,1
229838,-100,4,2,7,90,0,1
229950,-100,4,2,7,80,0,1
230005,-100,4,2,7,75,0,1
230061,-100,4,2,7,70,0,1
230172,-66.6666666666667,4,2,9,85,0,1
230338,-133.333333333333,4,2,9,5,0,1
230394,-100,4,2,7,85,0,1
231227,-133.333333333333,4,2,7,5,0,1
231283,-100,4,2,7,85,0,1
233005,-133.333333333333,4,2,7,5,0,1
233061,-100,4,2,7,85,0,1
233727,-100,4,2,1,85,0,1
233894,-133.333333333333,4,2,1,5,0,1
233950,-100,4,2,1,85,0,1
234783,-133.333333333333,4,2,1,5,0,1
234838,-100,4,2,1,85,0,1
236616,-100,4,2,5,85,0,1
236838,-100,4,2,7,85,0,1
237283,-66.6666666666667,4,2,7,85,0,1
237450,-133.333333333333,4,2,7,5,0,1
237505,-100,4,2,7,85,0,1
238338,-133.333333333333,4,2,7,5,0,1
238394,-100,4,2,7,85,0,1
240116,-133.333333333333,4,2,7,5,0,1
240172,-100,4,2,7,85,0,1
240838,-100,4,2,1,85,0,1
241005,-133.333333333333,4,2,1,5,0,1
241061,-100,4,2,1,85,0,1
241894,-133.333333333333,4,2,1,5,0,1
241950,-100,4,2,1,85,0,1
242616,-66.6666666666667,4,2,2,85,0,1
242673,-66.6666666666667,4,2,2,85,0,1
242838,-66.6666666666667,4,2,7,85,0,1
243505,-100,4,2,7,100,0,1
243562,-100,4,2,7,100,0,1
243616,-100,4,2,7,85,0,1
244394,-100,4,2,5,85,0,1
244561,-133.333333333333,4,2,5,5,0,1
244616,-100,4,2,7,75,0,1
245727,-100,4,2,7,85,0,1
246172,-66.6666666666667,4,2,7,95,0,1
246283,-133.333333333333,4,2,7,5,0,1
246320,-66.6666666666667,4,2,7,95,0,1
246431,-133.333333333333,4,2,7,5,0,1
246468,-66.6666666666667,4,2,7,95,0,1
246579,-133.333333333333,4,2,7,5,0,1
246616,-66.6666666666667,4,2,7,95,0,1
246727,-133.333333333333,4,2,7,5,0,1
246764,-66.6666666666667,4,2,7,95,0,1
246875,-133.333333333333,4,2,7,5,0,1
246912,-66.6666666666667,4,2,7,95,0,1
247024,-133.333333333333,4,2,7,5,0,1
247061,-66.6666666666667,4,2,98,60,0,0
247283,-66.6666666666667,4,2,98,70,0,0
247894,-133.333333333333,4,2,98,5,0,0
247950,-66.6666666666667,4,2,10,85,0,0
248116,-133.333333333333,4,2,10,5,0,0
248172,-100,4,2,1,75,0,0
249894,-133.333333333333,4,2,1,5,0,0
249950,-100,4,2,1,75,0,0
250283,-100,4,2,1,82,0,0
250394,-100,4,2,1,75,0,0
250505,-100,4,2,1,50,0,0
250616,-100,4,2,1,75,0,0
250783,-133.333333333333,4,2,1,5,0,0
250838,-66.6666666666667,4,2,1,80,0,0
251283,-66.6666666666667,4,2,1,70,0,0
251505,-66.6666666666667,4,2,2,85,0,0
251672,-133.333333333333,4,2,2,5,0,0
251727,-100,4,2,1,75,0,0
253283,-100,4,2,1,85,0,0
253505,-100,4,2,1,75,0,0
253727,-100,4,2,1,85,0,0
253950,-100,4,2,1,75,0,0
254172,-100,4,2,1,90,0,0
254394,-100,4,2,1,85,0,0
254838,-100,4,2,5,85,0,0
255061,-66.6666666666667,4,2,10,85,0,0
255227,-133.333333333333,4,2,10,5,0,0
255283,-100,4,2,1,75,0,0
257005,-133.333333333333,4,2,1,5,0,0
257061,-100,4,2,1,75,0,0
257394,-100,4,2,1,82,0,0
257505,-100,4,2,1,75,0,0
257616,-100,4,2,1,50,0,0
257727,-100,4,2,1,75,0,0
257894,-133.333333333333,4,2,1,5,0,0
257950,-66.6666666666667,4,2,1,80,0,0
258616,-66.6666666666667,4,2,1,70,0,0
258783,-133.333333333333,4,2,1,5,0,0
258838,-100,4,2,1,75,0,0
259950,-100,4,2,1,85,0,0
260394,-100,4,2,1,65,0,0
262616,-100,4,2,98,65,0,0
262672,-133.333333333333,4,2,98,5,0,0
263727,-133.333333333333,4,2,1,5,0,0

[Colours]
Combo1 : 255,147,255
Combo2 : 255,128,128
Combo3 : 163,70,255
Combo4 : 128,128,255

[HitObjects]
256,112,394,6,0,L|247:56,2,50,8|8|8,2:0|2:0|2:0,0:0:0:0:
272,256,616,1,8,2:0:0:0:
476,284,838,6,0,B|472:312|504:332|533:320|552:252|508:192|448:200|408:244|408:244|412:248|412:248|384:296|316:316|276:268,1,400,4|0,3:1|0:0,0:0:0:0:
272,256,1172,1,8,2:0:0:0:
392,368,1283,1,8,2:0:0:0:
152,252,1505,6,0,B|128:224|140:172|184:148|184:148|240:144|264:112|264:48|264:48|240:72|192:68,1,333.333333333333,4|0,3:0|0:0,0:0:0:0:
192,56,1838,1,8,2:0:0:0:
212,216,1950,1,8,2:0:0:0:
116,88,2172,6,0,B|80:60|28:72|28:72|52:104|96:100,1,166.666666666667,0|0,3:0|0:0,0:0:0:0:
92,100,2394,2,0,B|46:93|7:130|7:130|44:145|80:120,1,166.666666666667,8|0,3:1|0:0,0:0:0:0:
193,142,2616,6,0,B|253:142|285:202|273:242|249:278|217:278|217:278|193:282|169:250|169:250|181:218|201:210,1,300,14|0,3:0|0:0,0:0:0:0:
189,216,2912,6,0,B|236:204|280:216|304:256|304:256|336:296|380:304|408:292,1,250,14|0,3:0|0:0,0:0:0:0:
408,291,3209,6,0,B|405:243|441:219|441:219|405:243|369:231|369:231|405:247|408:291,1,230.000004386902,14|0,3:0|0:0,0:0:0:0:
484,280,3505,6,0,P|516:216|452:148,1,175.00000667572,10|0,2:0|0:0,0:0:0:0:
453,148,3801,6,0,B|372:132|324:160|284:220|284:220|288:224|288:224|252:288|204:304|152:280|152:280|156:276|156:276|116:248|60:272|60:272,1,466.666666666667,10|0,2:0|0:0,0:0:0:0:
67,270,5616,6,0,L|17:259,2,50,8|8|8,2:0|2:0|2:1,0:0:0:0:
201,207,5838,1,8,2:0:0:0:
153,283,5950,1,8,2:1:0:0:
16,32,6172,6,0,B|-8:64|-8:64|176:28,1,225,4|0,3:2|0:0,0:0:0:0:
188,16,6394,6,0,P|220:40|220:104,1,100,8|0,2:0|0:0,0:0:0:0:
92,144,6616,1,0,3:0:0:0:
140,212,6727,2,0,L|132:316,1,100,0|8,0:0|2:0,0:0:0:0:
312,384,6950,6,0,P|384:345|356:244,1,200
224,232,7283,1,8,2:0:0:0:
319,309,7394,1,0,0:0:0:0:
376,176,7505,6,0,P|328:180|292:220,1,100,8|0,3:2|0:0,0:0:0:0:
329,323,7727,2,0,P|371:344|417:328,1,100,8|0,2:0|0:0,0:0:0:0:
496,236,7950,6,0,B|460:192|404:204|404:204|380:248,1,150,0|0,3:0|0:0,0:0:0:0:
372,264,8172,2,0,B|348:243|348:243|340:175,1,100,8|0,2:0|0:0,0:0:0:0:
380,104,8394,1,8,3:2:0:0:
220,25,8505,2,0,P|227:73|266:103,1,100,0|8,0:0|2:0,0:0:0:0:
446,40,8727,6,0,B|411:3|348:23|348:23|324:59|248:67|208:11,1,250
204,0,9061,6,0,B|172:-16|172:-16|188:112,1,150,10|0,2:0|0:0,0:0:0:0:
304,128,9283,1,0,3:0:0:0:
204,0,9394,6,0,B|172:-16|172:-16|188:112,1,150,10|0,2:0|0:0,0:0:0:0:
304,128,9616,1,0,0:0:0:0:
380,100,9727,6,0,B|400:144|376:196|332:212|332:212|284:248|312:304,1,225,4|0,3:1|0:0,0:0:0:0:
324,300,9950,6,0,P|368:268|368:224,1,100,8|0,2:0|0:0,0:0:0:0:
240,176,10172,1,0,3:0:0:0:
190,113,10283,2,0,P|190:65|214:9,1,100,0|8,0:0|2:0,0:0:0:0:
304,128,10505,6,0,P|320:208|220:260,1,200
100,220,10838,1,8,2:0:0:0:
240,176,10950,1,0,0:0:0:0:
280,284,11061,6,0,P|231:284|196:250,1,100,8|0,3:2|0:0,0:0:0:0:
120,152,11283,2,0,P|71:152|36:186,1,100,8|0,2:0|0:0,0:0:0:0:
80,372,11505,6,0,P|128:328|132:288,1,100,2|0,3:2|0:0,0:0:0:0:
133,296,11727,2,0,P|147:359|179:383,1,100,10|0,2:0|0:0,0:0:0:0:
356,310,11950,6,0,P|356:261|325:223,1,100,2|0,3:2|0:0,0:0:0:0:
325,224,12172,2,0,P|368:248|417:241,1,100,10|0,2:0|0:0,0:0:0:0:
228,256,12394,6,0,B|208:212|236:160|236:160|196:204|140:188,1,200,10|10,2:0|2:0,0:0:0:0:
76,152,12727,1,8,2:1:0:0:
168,112,12838,1,8,2:1:0:0:
156,280,12950,2,0,P|124:280|72:236,2,100,10|6|0,2:0|2:1|0:0,0:0:0:0:
324,224,13283,6,0,B|360:176|360:176|336:88|336:88|324:84|324:84|312:24,1,225,4|0,3:0|0:0,0:0:0:0:
324,8,13505,6,0,P|384:20|412:80,1,100,8|0,2:0|0:0,0:0:0:0:
276,160,13727,1,0,3:0:0:0:
220,100,13838,2,0,L|116:88,1,100,0|8,0:0|2:0,0:0:0:0:
0,192,14061,6,0,B|40:220|92:212|116:164|116:164|132:212|168:216,1,200
104,276,14394,1,8,2:0:0:0:
48,128,14505,1,0,0:0:0:0:
220,180,14616,6,0,P|224:244|192:280,1,100,8|0,3:2|0:0,0:0:0:0:
24,208,14838,2,0,P|80:208|112:176,1,100,8|0,2:0|0:0,0:0:0:0:
268,80,15061,6,0,P|308:88|336:192,1,150,0|0,3:0|0:0,0:0:0:0:
324,192,15283,2,0,B|300:208|300:208|292:280,1,100,8|0,2:0|0:0,0:0:0:0:
424,336,15505,1,8,3:2:0:0:
476,272,15616,2,0,P|442:238|395:248,1,100,0|8,0:0|2:0,0:0:0:0:
248,344,15838,6,0,B|212:320|196:260|244:216|244:216|256:212|256:212|308:200|328:144|312:104,1,250
300,136,16172,6,0,B|212:92|212:92|244:144,1,150,10|0,2:0|2:0,0:0:0:0:
292,278,16394,1,0,3:1:0:0:
300,136,16505,6,0,B|212:92|212:92|244:144,1,150,10|0,2:0|3:1,0:0:0:0:
292,278,16727,1,0,2:0:0:0:
408,40,16838,6,0,B|346:11|308:59|308:59|303:69|303:69|265:117|204:88,1,225,6|0,3:2|0:0,0:0:0:0:
199,103,17061,6,0,P|194:66|246:21,1,100,8|0,2:0|0:0,0:0:0:0:
408,40,17283,1,0,3:0:0:0:
367,107,17394,2,0,L|355:207,1,100,0|8,0:0|2:0,0:0:0:0:
275,323,17616,6,0,B|298:294|282:252|282:252|315:299|370:310|423:268,1,200
355,206,17950,1,8,2:0:0:0:
283,239,18061,1,0,0:0:0:0:
415,287,18172,2,0,P|455:235|451:195,2,100,0|8|8,3:0|2:1|2:0,0:0:0:0:
512,128,18616,5,2,2:0:0:0:
512,128,18838,1,2,2:0:0:0:
324,44,19061,1,2,2:0:0:0:
384,160,19283,1,2,2:0:0:0:
324,44,19505,1,2,2:0:0:0:
512,128,19838,1,2,2:0:0:0:
80,44,20838,6,0,P|87:61|87:42,1,50,8|0,2:0|0:0,0:0:0:0:
80,44,21727,2,0,P|87:63|88:42,1,55.0000016784668,8|0,2:0|0:0,0:0:0:0:
80,44,22616,2,0,P|87:64|88:42,1,59.9999981689454,8|0,2:0|0:0,0:0:0:0:
80,44,23505,2,0,P|87:65|88:41,1,64.9999970245363,8|0,2:0|0:0,0:0:0:0:
80,44,24394,2,0,P|88:67|88:42,1,69.9999978637696,8|0,2:0|0:0,0:0:0:0:
80,44,25283,6,0,P|120:60|128:112,1,100,10|0,2:0|0:0,0:0:0:0:
244,188,25505,2,0,P|210:214|161:195,1,100
40,256,25727,6,0,B|20:225|37:187|75:180|75:180|24:168|-16:232|8:304|80:300|64:280|108:240|176:272|184:328|160:352,3,400,0|10|0|10,0:0|2:0|0:0|2:0,0:0:0:0:
368,144,27950,6,0,P|386:156|399:137,1,50,8|0,2:0|0:0,0:0:0:0:
399,135,28838,2,0,P|392:124|368:144,1,55.0000016784668,8|0,2:0|0:0,0:0:0:0:
368,144,29727,2,0,P|372:156|399:138,1,59.9999981689454,8|0,2:0|0:0,0:0:0:0:
399,135,30616,2,0,P|383:117|368:144,1,64.9999970245363,8|0,2:0|0:0,0:0:0:0:
368,144,31505,2,0,P|373:161|399:138,1,69.9999978637696,8|0,2:0|0:0,0:0:0:0:
400,136,32394,6,0,P|364:140|368:200,1,100,10|0,2:0|0:0,0:0:0:0:
488,264,32616,2,0,P|493:218|448:205,1,100
415,311,32838,6,0,B|363:271|375:191|431:151|431:151|443:151|443:151|487:123|503:63|472:24|472:24|435:27|419:55,3,400,0|0|2|0,0:0|0:0|2:0|0:0,0:0:0:0:
424,47,34616,6,0,B|444:23|472:23|472:23|501:66|481:114|461:134|461:134|428:128|401:150|393:170,1,240,4|0,2:0|0:0,0:0:0:0:
392,240,34838,6,0,P|444:228|452:184,1,80,2|0,2:0|0:0,0:0:0:0:
492,140,35061,6,0,P|440:124|388:164,1,106.666666666667,10|0,2:3|0:0,0:0:0:0:
324,196,35283,2,0,P|276:188|248:160,1,80,2|0,2:0|0:0,0:0:0:0:
184,120,35505,5,2,3:2:0:0:
376,48,35653,1,0,0:0:0:0:
372,68,35727,2,0,P|341:105|302:115,1,80,2|0,2:0|0:0,0:0:0:0:
128,69,35950,5,2,2:3:0:0:
52,48,36061,1,8,2:0:0:0:
112,144,36172,2,0,P|156:140|193:101,1,80,10|8,2:0|3:0,0:0:0:0:
308,36,36394,6,0,P|332:88|288:136,1,106.666666666667,2|0,3:2|0:0,0:0:0:0:
240,172,36616,2,0,P|220:208|216:256,1,80,2|0,2:0|0:0,0:0:0:0:
345,303,36838,2,0,P|321:271|311:233,1,80,10|0,2:3|0:0,0:0:0:0:
144,192,37061,1,2,2:0:0:0:
163,114,37172,2,0,P|195:90|234:80,1,80,0|2,0:0|3:2,0:0:0:0:
396,168,37431,5,0,0:0:0:0:
376,174,37505,2,0,P|337:163|305:140,1,80,8|0,2:0|0:0,0:0:0:0:
233,80,37727,2,0,P|194:90|163:114,1,80,10|8,2:3|2:0,0:0:0:0:
184,240,37950,1,2,2:3:0:0:
232,168,38061,1,0,0:0:0:0:
128,48,38172,6,0,P|84:100|96:148,1,106.666666666667,0|0,3:2|0:0,0:0:0:0:
124,264,38394,2,0,P|148:224|136:176,1,80,2|0,2:0|0:0,0:0:0:0:
16,132,38616,6,0,P|39:196|86:209,1,106.666666666667,10|0,2:3|0:0,0:0:0:0:
104,340,38838,2,0,P|149:340|185:306,1,80,0|0,3:0|0:0,0:0:0:0:
232,168,39061,6,0,B|268:172|288:140|288:140|288:192|340:212,1,160,0|2,3:2|2:0,0:0:0:0:
439,119,39394,2,0,P|401:114|366:134,1,80,0|10,0:0|2:3,0:0:0:0:
392,272,39616,1,8,2:0:0:0:
468,252,39727,2,0,P|453:215|419:195,1,80,8|0,2:0|0:0,0:0:0:0:
284,100,39950,6,0,P|248:148|188:136,1,106.666666666667,0|0,3:2|0:0,0:0:0:0:
144,88,40172,2,0,L|48:72,1,80,0|0,2:0|0:0,0:0:0:0:
24,204,40394,6,0,P|64:212|96:152,1,106.666666666667,10|0,2:3|0:0,0:0:0:0:
88,168,40616,2,0,P|96:232|116:248,1,80,0|0,2:0|0:0,0:0:0:0:
296,168,40838,6,0,P|244:129|188:141,1,106.666666666667,0|0,3:2|0:0,0:0:0:0:
188,144,41061,1,8,2:0:0:0:
228,212,41172,2,0,L|218:291,1,80,8|10,2:0|2:3,0:0:0:0:
152,340,41394,1,8,2:0:0:0:
234,221,41505,2,0,L|243:141,1,80,10|0,2:3|0:0,0:0:0:0:
116,0,41727,6,0,P|68:-4|28:44,1,106.666666666667,6|0,2:1|0:0,0:0:0:0:
88,88,41950,2,0,P|102:122|110:165,1,80,0|0,2:0|0:0,0:0:0:0:
56,264,42172,6,0,P|24:220|40:164,1,106.666666666667,8|0,2:3|0:0,0:0:0:0:
110,164,42394,2,0,P|133:134|165:105,1,80,0|0,2:0|0:0,0:0:0:0:
288,176,42616,6,0,B|260:152|200:152|180:208|180:208|196:240|232:240,1,160,2|2,3:2|2:0,0:0:0:0:
288,264,42950,2,0,P|324:288|340:320,1,80,0|10,0:0|2:3,0:0:0:0:
288,384,43172,1,8,2:0:0:0:
360,292,43283,2,0,P|330:265|291:257,1,80,8|8,2:0|3:0,0:0:0:0:
208,308,43505,6,0,P|175:334|115:324,1,106.666666666667,0|0,3:0|0:0,0:0:0:0:
116,244,43727,2,0,P|136:224|184:232,1,80,2|0,2:0|0:0,0:0:0:0:
32,288,43950,6,0,B|16:284|-4:268|-8:248|-8:248|8:268|36:280,1,106.666666666667,10|0,2:3|0:0,0:0:0:0:
48,284,44172,1,2,2:0:0:0:
128,348,44283,2,0,P|192:352|272:264,1,186.666666666667
264,248,44616,5,10,2:0:0:0:
216,324,44727,1,0,0:0:0:0:
183,231,44838,5,10,2:3:0:0:
312,316,44950,2,0,P|351:313|382:289,1,80,8|2,2:0|2:3,0:0:0:0:
404,212,45172,1,0,0:0:0:0:
428,84,45283,6,0,P|376:64|331:102,1,106.666666666667,2|0,3:2|0:0,0:0:0:0:
264,68,45505,2,0,P|261:109|281:143,1,80,2|0,2:0|0:0,0:0:0:0:
504,232,45727,6,0,P|496:172|440:164,1,106.666666666667,10|0,2:3|0:0,0:0:0:0:
404,212,45950,2,0,L|380:296,1,80,0|0,3:0|0:0,0:0:0:0:
312,376,46172,6,0,P|280:320|280:224,1,160,2|2,3:2|2:0,0:0:0:0:
333,168,46505,1,0,0:0:0:0:
324,84,46616,6,0,B|300:72|288:56|288:56|256:64|224:56|224:56|212:72|188:84|188:84|228:76|228:76|256:84|284:76|284:76|324:84,1,280,10|0,2:3|0:0,0:0:0:0:
308,108,47061,2,0,P|256:120|204:108,1,106.666666666667,2|0,3:2|0:0,0:0:0:0:
152,24,47283,2,0,P|120:56|120:100,1,80,2|0,2:0|0:0,0:0:0:0:
116,244,47505,6,0,L|132:164,1,80,2|0,2:3|0:0,0:0:0:0:
296,100,47727,2,0,L|312:180,1,80,4|0,2:0|2:0,0:0:0:0:
244,312,47950,5,2,3:2:0:0:
312,292,48061,1,8,2:0:0:0:
380,312,48172,1,8,2:0:0:0:
432,364,48283,1,8,2:0:0:0:
497,330,48394,1,8,2:3:0:0:
485,257,48505,1,8,2:3:0:0:
412,246,48616,2,0,P|385:272|380:312,1,80,8|8,3:0|3:0,0:0:0:0:
440,368,48838,6,0,P|500:336|480:236,2,180,4|10|0,3:0|2:0|3:0,0:0:0:0:
372,308,49394,2,0,L|280:316,1,90.0000000000001,0|10,0:0|2:0,0:0:0:0:
132,368,49616,6,0,P|184:300|196:208,1,180
72,56,49950,2,0,P|24:76|20:144,1,90.0000000000001,10|0,2:0|0:0,0:0:0:0:
84,176,50172,2,0,P|95:219|102:264,1,90.0000000000001,8|0,3:2|0:0,0:0:0:0:
256,132,50394,2,0,P|267:88|274:43,1,90.0000000000001,10|0,2:0|0:0,0:0:0:0:
192,8,50616,6,0,P|244:40|364:-36,1,180,2|10,3:2|2:0,0:0:0:0:
420,52,50950,2,0,P|466:52|510:68,2,90.0000000000001,0|0|0,0:0|3:0|0:0,0:0:0:0:
340,96,51283,2,0,L|352:192,1,90.0000000000001,10|0,2:0|0:0,0:0:0:0:
464,296,51505,6,0,P|480:192|416:144,2,180,2|10|0,3:2|2:0|3:0,0:0:0:0:
360,272,52061,1,10,2:0:0:0:
288,352,52172,2,0,P|240:356|200:332,1,90.0000000000001,10|0,2:0|0:0,0:0:0:0:
124,200,52394,6,0,B|180:172|220:220|220:220|220:256|260:280,2,180,4|10|0,3:0|2:0|3:0,0:0:0:0:
72,272,52950,2,0,P|104:288|164:272,1,90.0000000000001,0|10,0:0|2:0,0:0:0:0:
300,207,53172,6,0,P|356:175|476:167,1,180
280,111,53505,2,0,P|235:104|199:78,1,90.0000000000001,10|0,2:0|0:0,0:0:0:0:
336,23,53727,2,0,B|368:55|368:55|360:103,1,90.0000000000001,10|0,3:2|0:0,0:0:0:0:
215,175,53950,2,0,P|195:216|184:260,1,90.0000000000001,10|0,2:0|0:0,0:0:0:0:
412,296,54172,6,0,P|368:232|276:248,1,180,2|10,3:2|2:0,0:0:0:0:
244,332,54505,1,2,2:0:0:0:
120,312,54616,6,0,B|92:276|92:276|104:232,1,90.0000000000001,0|0,3:0|0:0,0:0:0:0:
215,175,54838,2,0,P|243:123|247:75,1,90.0000000000001,10|0,2:0|0:0,0:0:0:0:
119,28,55061,6,0,P|35:48|59:128,2,180,0|10|0,3:0|2:0|3:0,0:0:0:0:
247,92,55616,1,10,2:0:0:0:
159,108,55727,2,0,B|136:132|136:132|132:192,1,90.0000000000001,10|0,2:0|0:0,0:0:0:0:
192,328,55950,6,0,B|128:346|128:346|98:326|98:326|17:345,2,180,6|10|0,3:0|2:0|3:0,0:0:0:0:
252,260,56505,2,0,P|244:212|220:180,1,90.0000000000001,0|10,0:0|2:0,0:0:0:0:
116,152,56727,1,0,0:0:0:0:
180,88,56838,2,0,L|196:-8,1,90.0000000000001,2|0,3:2|0:0,0:0:0:0:
48,40,57061,6,0,B|20:72|20:72|32:120,1,90.0000000000001,10|0,2:0|0:0,0:0:0:0:
152,240,57283,2,0,L|144:356,1,90.0000000000001,8|0,3:2|0:0,0:0:0:0:
248,160,57505,2,0,P|242:117|210:88,1,90.0000000000001,10|0,2:0|0:0,0:0:0:0:
8,216,57727,6,0,B|79:201|79:201|100:167|100:167|167:153,1,180,2|10,3:2|2:0,0:0:0:0:
304,256,58061,2,0,P|266:287|216:284,1,90.0000000000001,0|0,0:0|3:0,0:0:0:0:
152,240,58283,1,0,0:0:0:0:
284,168,58394,6,0,B|320:156|320:156|372:196,1,90.0000000000001,10|0,2:0|0:0,0:0:0:0:
444,152,58616,2,0,P|455:109|459:64,1,90.0000000000001,2|0,3:2|0:0,0:0:0:0:
304,256,58838,2,0,P|315:299|319:344,1,90.0000000000001,10|0,2:0|0:0,0:0:0:0:
504,320,59061,1,2,3:2:0:0:
384,280,59172,1,8,2:0:0:0:
424,360,59283,1,2,2:0:0:0:
360,0,59505,5,8,2:0:0:0:
488,56,59616,2,0,B|496:104|496:104|464:152,1,100,8|0,2:0|2:0,0:0:0:0:
368,168,59838,2,0,P|296:128|176:120,1,200,8|0,2:0|0:0,0:0:0:0:
180,119,60172,1,8,2:0:0:0:
0,280,60394,5,8,2:0:0:0:
116,380,60505,2,0,P|168:372|212:336,1,110,8|0,2:0|2:0,0:0:0:0:
256,232,60727,2,0,B|240:145|240:145|203:119|203:119|188:32,1,220,8|0,2:0|0:0,0:0:0:0:
188,33,61061,1,8,2:0:0:0:
456,84,61283,5,8,2:0:0:0:
512,192,61394,2,0,B|480:224|480:224|400:216,1,120,8|0,2:0|2:0,0:0:0:0:
280,72,61616,2,0,P|152:56|120:152,1,240,8|0,2:0|0:0,0:0:0:0:
117,141,61950,1,8,2:0:0:0:
320,320,62061,5,0,0:0:0:0:
320,320,62116,1,0,0:0:0:0:
320,320,62172,2,0,P|384:348|472:360,2,130,0|8|8,3:0|2:0|2:0,0:0:0:0:
160,256,62505,2,0,P|100:284|8:296,2,130,8|8|8,2:0|2:1|2:1,0:0:0:0:
296,96,62838,6,0,B|343:74|319:26|319:26|239:10|191:98|255:162|255:162|307:226|291:334|193:377|193:377|200:284|161:221|161:221|232:308|408:288|420:188|420:188|288:160|341:221|237:229|189:169|197:117,1,1300,8|0,2:0|0:0,0:0:0:0:
196,126,64283,6,0,P|207:89|239:58,2,45,8|8|8,2:1|2:1|2:0,0:0:0:0:
120,228,64505,2,0,P|148:252|168:324,1,90.0000000000001,8|8,3:1|2:0,0:0:0:0:
132,384,64727,1,8,3:1:0:0:
56,312,64838,6,0,B|86:270|140:291|140:291|174:326|243:326|259:266,1,225,4|0,3:2|0:0,0:0:0:0:
248,264,65061,6,0,B|280:236|280:236|336:244,1,100,10|0,2:0|0:0,0:0:0:0:
448,196,65283,2,0,P|489:238|496:300,1,100,0|0,3:2|0:0,0:0:0:0:
392,364,65505,6,0,B|383:322|383:322|418:277,1,100,8|2,2:0|2:0,0:0:0:0:
496,136,65727,2,0,P|428:116|372:196,1,150,0|0,2:0|0:0,0:0:0:0:
356,172,65950,6,0,P|304:168|248:144,1,100,10|0,2:1|1:2,0:0:0:0:
192,72,66172,1,0,3:2:0:0:
64,224,66283,2,0,P|110:206|160:203,1,100,10|8,2:1|3:1,0:0:0:0:
244,255,66505,1,0,2:0:0:0:
316,88,66616,6,0,B|348:112|348:112|356:176,1,100,2|0,3:1|0:0,0:0:0:0:
244,255,66838,2,0,P|216:304|208:352,2,100,10|2|2,2:0|2:0|3:2,0:0:0:0:
160,203,67172,2,0,P|152:152|132:104,1,100,2|8,2:0|2:0,0:0:0:0:
48,56,67394,5,2,2:0:0:0:
200,16,67505,2,0,P|216:64|144:112,1,150,0|0,2:0|0:0,0:0:0:0:
124,104,67727,2,0,B|92:128|92:128|80:188,1,100,10|0,2:1|2:0,0:0:0:0:
80,186,67950,1,0,3:2:0:0:
184,288,68061,2,0,L|284:272,1,100,10|10,2:1|2:0,0:0:0:0:
282,273,68283,1,0,2:0:0:0:
340,104,68394,6,0,P|396:80|440:152,1,150,4|0,3:2|0:0,0:0:0:0:
424,152,68616,2,0,B|400:168|400:168|384:240,1,100,8|0,2:0|0:0,0:0:0:0:
296,192,68838,5,0,3:2:0:0:
376,336,68950,2,0,P|420:332|460:292,1,100,0|8,0:0|2:0,0:0:0:0:
492,200,69172,1,0,2:0:0:0:
384,237,69283,6,0,P|322:277|248:264,1,150,2|0,3:1|0:0,0:0:0:0:
236,252,69505,2,0,B|208:272|208:272|212:344,1,100,8|0,2:0|0:0,0:0:0:0:
128,144,69727,2,0,B|156:124|156:124|152:56,1,100,0|0,3:2|0:0,0:0:0:0:
65,194,69950,2,0,P|103:225|152:220,1,100,8|0,2:0|2:0,0:0:0:0:
284,92,70172,5,10,3:1:0:0:
376,132,70283,2,0,B|400:156|400:156|392:228,1,100,0|8,2:0|2:0,0:0:0:0:
300,196,70505,5,8,2:1:0:0:
392,221,70616,2,0,B|400:156|400:156|376:132,1,100,0|0,3:2|2:0,0:0:0:0:
208,156,70838,5,10,2:0:0:0:
376,132,70950,2,0,B|400:156|400:156|392:228,1,100,8|0,2:1|3:2,0:0:0:0:
272,348,71172,6,0,P|246:305|239:255,1,100,10|8,2:0|2:0,0:0:0:0:
284,92,71394,1,0,3:2:0:0:
208,156,71505,5,8,3:0:0:0:
300,196,71616,1,0,3:0:0:0:
376,132,71727,2,0,L|380:72,2,50,8|8|8,2:0|2:1|2:0,0:0:0:0:
484,236,71950,6,0,B|444:204|392:224|373:272|373:272|344:312|292:300,1,225,6|0,3:2|0:0,0:0:0:0:
280,288,72172,6,0,L|180:272,1,100,10|0,2:0|0:0,0:0:0:0:
24,312,72394,5,0,3:2:0:0:
54,173,72505,2,0,P|98:165|146:201,1,100,0|8,0:0|2:0,0:0:0:0:
83,242,72727,1,0,1:2:0:0:
210,145,72838,6,0,P|227:216|180:271,1,150,0|0,3:0|0:0,0:0:0:0:
168,281,73061,2,0,P|139:246|146:187,1,100,10|0,2:1|1:2,0:0:0:0:
142,194,73283,1,2,3:2:0:0:
196,64,73394,5,10,2:1:0:0:
40,108,73505,2,0,B|16:140|16:140|32:204,1,100,10|2,3:2|3:2,0:0:0:0:
168,280,73727,6,0,P|238:263|293:310,1,150,2|0,3:1|0:0,0:0:0:0:
312,300,73950,2,0,B|344:264|344:264|336:212,1,100,8|0,2:0|0:0,0:0:0:0:
210,145,74172,1,0,3:2:0:0:
240,240,74283,2,0,B|217:347,1,100,8|0,0:0|2:0,0:0:0:0:
148,216,74505,5,0,2:0:0:0:
308,132,74616,2,0,P|356:126|397:153,1,100,2|0,3:1|0:0,0:0:0:0:
508,244,74838,2,0,P|488:289|444:310,1,100,8|0,2:1|1:2,0:0:0:0:
336,213,75061,5,0,3:2:0:0:
312,312,75172,1,8,2:1:0:0:
432,232,75283,2,0,L|444:96,1,100,8|8,2:0|2:1,0:0:0:0:
400,12,75505,6,0,P|335:42|336:113,1,150,4|0,3:2|0:0,0:0:0:0:
352,128,75727,2,0,P|408:128|456:112,1,100,8|0,2:0|0:0,0:0:0:0:
504,264,75950,2,0,P|436:232|312:244,1,200,0|8,3:0|2:0,0:0:0:0:
216,316,76283,2,0,P|216:296|220:316,1,50
188,384,76394,6,0,P|139:330|152:256,1,150,2|2,2:0|2:0,0:0:0:0:
160,240,76616,2,0,P|184:200|188:140,1,100,2|2,2:0|2:0,0:0:0:0:
72,84,76838,6,0,B|59:132|59:132|91:172,1,100,2|0,3:2|0:0,0:0:0:0:
220,308,77061,2,0,P|268:276|344:260,1,100,8|0,2:0|1:0,0:0:0:0:
472,128,77283,6,0,B|512:160|512:160|376:144|376:144|384:136|384:136|248:120,1,300,14|0,2:1|2:0,0:0:0:0:
90,171,77616,1,10,2:0:0:0:
192,16,77727,2,0,B|152:-8|152:-8|176:96,1,150
224,360,77950,2,0,B|254:186,1,150,0|8,3:1|2:0,0:0:0:0:
360,52,78172,6,0,B|392:84|392:84|384:140,1,100,0|8,3:0|2:0,0:0:0:0:
328,244,78394,2,0,B|344:348,1,100,0|8,3:2|2:0,0:0:0:0:
184,176,78616,6,0,P|220:140|274:144,1,100,8|8,3:1|3:1,0:0:0:0:
428,216,78838,2,0,L|424:268,2,50,8|8|8,2:1|2:1|2:1,0:0:0:0:
492,48,79061,6,0,B|448:20|380:60|395:125|395:125|404:131|404:131|448:152|475:98,1,225,4|0,3:2|0:0,0:0:0:0:
464,116,79283,6,0,P|424:104|372:152,1,100,10|0,2:0|0:0,0:0:0:0:
284,248,79505,2,0,P|300:296|312:352,1,100,0|0,3:2|0:0,0:0:0:0:
456,192,79727,6,0,P|436:155|365:152,1,100,8|2,2:0|2:0,0:0:0:0:
216,188,79950,2,0,P|204:254|271:264,1,150,0|0,2:0|0:0,0:0:0:0:
284,248,80172,6,0,P|326:230|384:220,1,100,10|0,2:1|1:2,0:0:0:0:
444,300,80394,1,0,3:2:0:0:
228,352,80505,2,0,P|178:344|133:324,1,100,10|8,2:1|3:1,0:0:0:0:
84,236,80727,1,0,2:0:0:0:
216,188,80838,6,0,B|196:156|196:156|128:148,1,100,2|0,3:1|0:0,0:0:0:0:
79,63,81061,2,0,P|30:68|1:107,2,100,8|0|2,2:0|2:0|3:2,0:0:0:0:
237,52,81394,2,0,P|207:13|159:7,1,100,2|0,2:0|2:0,0:0:0:0:
134,148,81616,5,2,2:0:0:0:
156,244,81727,2,0,P|84:236|46:175,1,150,0|0,3:0|0:0,0:0:0:0:
64,172,81950,2,0,P|112:188|144:224,1,100,10|0,2:1|2:0,0:0:0:0:
144,224,82172,1,0,3:2:0:0:
296,176,82283,2,0,P|303:125|333:88,1,100,10|10,2:1|2:0,0:0:0:0:
333,88,82505,1,0,2:0:0:0:
192,48,82616,6,0,B|160:32|160:32|192:144,1,150,2|0,3:1|0:0,0:0:0:0:
208,152,82838,2,0,B|240:264,1,100,8|0,2:0|0:0,0:0:0:0:
140,280,83061,5,0,3:2:0:0:
276,320,83172,2,0,P|311:285|317:237,1,100,0|8,0:0|2:0,0:0:0:0:
336,136,83394,1,0,2:0:0:0:
424,36,83505,6,0,B|448:60|448:60|328:28,1,150,2|0,3:1|0:0,0:0:0:0:
320,40,83727,2,0,B|304:64|304:64|320:136,1,100,8|0,2:0|0:0,0:0:0:0:
432,248,83950,2,0,B|448:224|448:224|432:152,1,100,0|0,3:2|0:0,0:0:0:0:
336,224,84172,2,0,P|288:220|248:188,1,100,8|0,2:2|2:0,0:0:0:0:
40,108,84394,5,10,3:1:0:0:
168,32,84505,2,0,B|160:136,1,100,0|8,2:0|2:0,0:0:0:0:
44,124,84727,5,8,2:1:0:0:
160,131,84838,2,0,B|152:235,1,100,0|0,3:2|0:0,0:0:0:0:
48,140,85061,5,8,2:0:0:0:
152,230,85172,2,0,B|144:334,1,100,8|0,2:1|3:2,0:0:0:0:
160,131,85394,6,0,B|168:32,1,100,8|8,2:0|2:0,0:0:0:0:
168,31,85616,5,0,3:2:0:0:
248,195,85727,1,2,3:1:0:0:
36,92,85838,5,0,3:0:0:0:
64,208,85950,2,0,L|78:266,2,50,8|8|8,2:0|2:1|2:0,0:0:0:0:
92,32,86172,6,0,B|140:56|140:56|154:136|154:136|148:132|148:132|172:272,1,225,6|0,3:2|0:0,0:0:0:0:
152,230,86394,6,0,B|144:334,1,100,10|0,2:0|0:0,0:0:0:0:
232,384,86616,5,0,3:2:0:0:
360,320,86727,2,0,P|360:272|336:224,1,100,0|8,2:0|2:0,0:0:0:0:
256,168,86950,1,0,1:2:0:0:
345,21,87061,6,0,P|405:9|425:81,1,150,0|0,3:0|0:0,0:0:0:0:
413,97,87283,2,0,L|305:117,1,100,10|0,2:0|1:2,0:0:0:0:
213,97,87505,1,2,3:2:0:0:
357,25,87616,1,10,2:1:0:0:
345,185,87727,2,0,P|293:193|249:157,1,100,10|2,3:2|3:2,0:0:0:0:
92,72,87950,6,0,P|68:140|132:168,1,150,2|0,3:1|0:0,0:0:0:0:
140,156,88172,2,0,B|176:172|176:172|188:232,1,100,8|0,2:0|0:0,0:0:0:0:
356,208,88394,1,0,3:2:0:0:
284,280,88505,2,0,L|276:380,1,100,0|8,2:0|2:0,0:0:0:0:
256,168,88727,5,0,2:0:0:0:
392,144,88838,2,0,P|428:192|392:272,1,150,2|0,3:1|0:0,0:0:0:0:
380,280,89061,2,0,L|280:272,1,100,8|0,2:1|2:0,0:0:0:0:
314,115,89283,5,0,3:2:0:0:
276,264,89394,1,8,2:1:0:0:
356,208,89505,2,0,L|456:216,1,100,8|0,2:0|2:0,0:0:0:0:
512,92,89727,6,0,P|466:36|395:45,1,150,4|0,3:2|0:0,0:0:0:0:
380,32,89950,2,0,B|348:48|348:48|340:120,1,100,8|0,2:0|0:0,0:0:0:0:
372,288,90172,2,0,B|385:213|385:213|426:183|426:183|440:109,1,200,0|8,3:0|2:0,0:0:0:0:
236,84,90505,2,0,P|236:108|243:132,1,50
255,148,90616,6,0,P|187:124|131:192,1,150,2|0,3:1|0:0,0:0:0:0:
115,164,90838,2,0,B|87:124|87:124|99:68,1,100,8|0,2:0|0:0,0:0:0:0:
323,21,91061,2,0,B|351:61|351:61|339:117,1,100,0|0,3:0|0:0,0:0:0:0:
203,204,91283,2,0,B|195:312,1,100,8|0,2:0|1:0,0:0:0:0:
280,360,91505,6,0,B|316:312|316:312|292:208|292:208|280:200|280:200|252:60,1,300,14|8,2:1|2:1,0:0:0:0:
364,0,91838,1,10,2:1:0:0:
468,152,91950,2,0,B|492:184|492:184|356:152,1,150
196,304,92172,2,0,L|44:344,1,150,10|8,3:1|2:0,0:0:0:0:
88,176,92394,6,0,P|130:151|178:161,1,100,2|8,3:2|2:0,0:0:0:0:
272,260,92616,2,0,L|280:364,1,100,0|8,3:2|2:0,0:0:0:0:
400,128,92838,6,0,B|368:104|368:104|304:112,1,100,8|8,2:1|2:1,0:0:0:0:
140,232,93061,2,0,L|132:312,2,50,8|8|8,2:1|2:1|2:1,0:0:0:0:
56,92,93283,6,0,P|20:144|88:188,1,150,4|0,3:2|0:0,0:0:0:0:
88,176,93505,2,0,B|108:160|108:160|184:152,1,100,8|0,2:0|0:0,0:0:0:0:
428,152,93727,6,0,L|432:36,1,100,0|0,3:0|0:0,0:0:0:0:
340,284,93950,2,0,L|344:400,1,100,8|0,2:0|0:0,0:0:0:0:
452,236,94172,6,0,P|424:168|356:180,1,150,0|0,3:0|0:0,0:0:0:0:
344,192,94394,2,0,L|244:200,1,100,8|0,2:0|0:0,0:0:0:0:
188,284,94616,5,0,3:2:0:0:
268,344,94727,1,0,2:1:0:0:
128,324,94838,2,0,P|116:288|140:232,1,100,8|0,2:0|2:1,0:0:0:0:
216,104,95061,6,0,P|136:96|80:184,1,150,14|0,2:0|0:0,0:0:0:0:
88,160,95209,2,0,P|134:94|86:2,1,150,10|0,2:0|0:0,0:0:0:0:
104,21,95357,2,0,P|136:94|240:98,1,150,10|0,2:0|0:0,0:0:0:0:
296,144,95505,6,0,P|360:120|448:128,1,150,10|0,2:0|0:0,0:0:0:0:
460,132,95653,2,0,P|448:199|397:271,1,150,10|0,2:0|0:0,0:0:0:0:
388,280,95801,2,0,P|335:236|298:156,1,150
256,80,95950,6,0,B|176:88|96:208|112:340|204:384|204:384|260:328|204:296|204:296|68:336|68:336|36:308|56:264|56:264|216:216|216:216|240:180|196:148|196:148|0:204,1,1125,10|0,3:0|0:0,0:0:0:0:
24,184,96838,6,0,B|-8:164|-24:120|-8:76|24:52|24:52|80:56|88:108,1,225,4|0,3:0|0:0,0:0:0:0:
96,72,97061,6,0,P|128:96|136:168,1,100,10|0,2:0|0:0,0:0:0:0:
208,296,97283,1,0,3:2:0:0:
280,256,97394,2,0,L|288:144,1,100,2|10,2:0|2:0,0:0:0:0:
344,48,97616,6,0,B|360:2|390:-3|390:-3|368:40|372:84|422:110,1,200,2|2,2:0|2:0,0:0:0:0:
512,137,97950,1,8,2:0:0:0:
396,112,98061,1,2,2:0:0:0:
464,40,98172,6,0,P|504:96|492:140,1,100,8|0,3:2|0:0,0:0:0:0:
400,272,98394,2,0,L|392:376,1,100,8|0,2:0|0:0,0:0:0:0:
512,256,98616,6,0,P|464:200|488:120,1,150,2|0,3:2|0:0,0:0:0:0:
500,123,98838,2,0,P|471:185|427:197,1,100,10|0,2:0|0:0,0:0:0:0:
368,180,99061,1,8,3:2:0:0:
248,112,99172,2,0,P|216:160|234:210,1,100,2|10,2:0|2:0,0:0:0:0:
316,264,99394,6,0,B|332:244|336:192|288:160|288:160|248:120|256:56|304:32,1,250,2|0,2:0|0:0,0:0:0:0:
304,24,99727,6,0,B|352:48|352:48|340:144,1,150,2|0,2:1|0:0,0:0:0:0:
248,228,99950,1,0,3:0:0:0:
304,24,100061,6,0,B|352:48|352:48|340:144,1,150,2|2,2:1|3:2,0:0:0:0:
248,228,100283,1,0,0:0:0:0:
364,316,100394,6,0,P|468:300|436:212,1,225,6|0,3:2|0:0,0:0:0:0:
424,228,100616,6,0,B|396:248|396:248|328:240,1,100,10|0,2:0|0:0,0:0:0:0:
260,120,100838,1,0,3:2:0:0:
184,152,100950,2,0,P|153:190|155:239,1,100,2|10,2:0|2:0,0:0:0:0:
276,380,101172,6,0,B|240:356|244:308|244:308|216:360|164:368|116:340,1,200,2|2,2:0|2:0,0:0:0:0:
72,256,101505,1,10,2:0:0:0:
132,340,101616,1,2,2:0:0:0:
232,216,101727,6,0,P|192:184|128:192,1,100,10|0,3:2|0:0,0:0:0:0:
71,64,101950,2,0,P|26:81|0:123,1,100,8|0,2:0|0:0,0:0:0:0:
72,256,102172,6,0,P|79:306|40:358,1,100,2|0,3:1|0:0,0:0:0:0:
57,347,102394,2,0,P|49:296|88:244,1,100,10|0,2:0|0:0,0:0:0:0:
161,173,102616,2,0,P|200:141|264:148,1,100,2|0,3:1|0:0,0:0:0:0:
248,140,102838,2,0,P|208:172|144:164,1,100,10|0,2:0|0:0,0:0:0:0:
46,136,103061,6,0,B|-7:131|-25:75|-25:75|35:82|45:136,1,200,2|8,2:1|2:0,0:0:0:0:
180,100,103394,2,0,B|204:116|204:116|196:196,1,100,10|8,2:0|2:1,0:0:0:0:
244,296,103616,2,0,P|198:325|152:320,2,100,10|4|0,2:0|2:1|0:0,0:0:0:0:
320,160,103950,6,0,B|362:188|354:236|354:236|370:188|426:172|466:196,1,225,4|0,3:0|0:0,0:0:0:0:
464,216,104172,6,0,P|432:240|368:240,1,100,10|0,2:0|0:0,0:0:0:0:
276,224,104394,1,2,3:2:0:0:
388,112,104505,2,0,B|368:84|368:84|300:80,1,100,2|10,2:0|2:0,0:0:0:0:
144,72,104727,6,0,B|156:24|156:24|204:8|244:52|228:112|180:136,1,200,2|2,2:0|2:0,0:0:0:0:
84,200,105061,1,10,2:0:0:0:
76,300,105172,1,2,2:0:0:0:
3,183,105283,2,0,P|25:139|70:120,1,100,10|0,3:2|0:0,0:0:0:0:
180,240,105505,2,0,L|200:352,1,100,8|0,2:0|0:0,0:0:0:0:
364,240,105727,6,0,P|428:288|396:336,1,150,2|0,3:2|0:0,0:0:0:0:
388,352,105950,2,0,P|340:352|292:320,1,100,10|0,2:0|0:0,0:0:0:0:
264,252,106172,1,8,3:2:0:0:
112,280,106283,2,0,P|96:328|96:392,1,100,2|8,2:0|2:0,0:0:0:0:
56,220,106505,6,0,B|64:180|128:156|168:212|168:212|176:268|240:292|288:252,1,266.666666666667,2|0,2:0|0:0,0:0:0:0:
264,252,106838,6,0,B|288:208|288:208|392:192,1,150,2|0,2:1|0:0,0:0:0:0:
496,240,107061,1,0,3:0:0:0:
264,252,107172,6,0,B|288:208|288:208|392:192,1,150,2|2,2:1|2:0,0:0:0:0:
496,240,107394,1,0,0:0:0:0:
512,32,107505,6,0,B|488:76|488:76|384:92|384:92|368:84|368:84|280:96,1,225,6|0,3:2|0:0,0:0:0:0:
304,76,107727,6,0,P|260:100|256:172,1,100,10|0,2:0|0:0,0:0:0:0:
386,192,107950,1,0,3:0:0:0:
344,284,108061,2,0,P|352:336|356:392,1,100,2|10,2:0|2:0,0:0:0:0:
176,264,108283,6,0,P|152:180|252:172,1,200,2|2,2:0|2:0,0:0:0:0:
268,252,108616,1,10,2:0:0:0:
236,180,108727,1,2,3:2:0:0:
184,280,108838,2,0,B|178:302|178:302|104:328,2,100,2|8|8,3:2|2:1|2:0,0:0:0:0:
0,128,109283,5,2,3:2:0:0:
0,128,109505,1,2,2:0:0:0:
188,44,109727,1,2,3:2:0:0:
128,160,109950,1,2,2:0:0:0:
188,44,110172,1,2,3:2:0:0:
0,128,110505,1,2,3:2:0:0:
76,104,110616,1,0,3:0:0:0:
56,180,110838,1,0,0:0:0:0:
116,276,111061,6,0,P|164:280|200:236,1,106.666666666667,6|0,2:0|0:0,0:0:0:0:
208,220,111283,2,0,L|288:204,1,80,6|0,2:0|0:0,0:0:0:0:
376,124,111505,6,0,P|396:132|372:136,1,62.5,2|0,2:3|0:0,0:0:0:0:
348,52,111653,1,0,0:0:0:0:
328,60,111727,2,0,P|300:96|296:144,1,80,6|0,2:0|0:0,0:0:0:0:
376,224,111950,6,0,P|408:268|408:328,1,106.666666666667,0|0,3:0|0:0,0:0:0:0:
396,332,112172,1,6,2:0:0:0:
324,292,112283,1,0,0:0:0:0:
240,352,112394,6,0,B|226:352|226:352|248:363|248:363|248:340|248:340|226:352|226:352|240:352,1,100,10|0,2:3|0:0,0:0:0:0:
160,384,112505,1,10,2:0:0:0:
116,312,112616,2,0,P|113:272|132:238,1,80,10|10,2:0|3:0,0:0:0:0:
120,80,112838,6,0,P|100:128|140:152,1,106.666666666667,0|0,3:0|0:0,0:0:0:0:
160,156,113061,2,0,P|192:184|212:220,1,80,6|0,2:0|0:0,0:0:0:0:
324,292,113283,6,0,B|340:274|339:289|339:289|334:300|322:307|322:307|311:298|309:286|309:286|310:271|324:292,1,100,10|0,2:3|0:0,0:0:0:0:
284,176,113431,1,0,0:0:0:0:
292,156,113505,1,6,2:0:0:0:
368,124,113616,1,0,0:0:0:0:
496,176,113727,6,0,P|492:232|440:240,1,106.666666666667,0|0,3:0|0:0,0:0:0:0:
436,228,113950,2,0,P|400:220|352:216,1,80,10|0,2:0|0:0,0:0:0:0:
235,307,114172,6,0,B|237:322|237:322|240:306|240:306|232:290|232:290|229:307|229:307|237:322|237:322|235:307,1,100,10|0,2:3|0:0,0:0:0:0:
168,232,114283,2,0,P|172:192|196:156,1,80,10|2,2:0|2:3,0:0:0:0:
256,112,114505,1,0,0:0:0:0:
272,28,114616,6,0,P|236:44|240:104,1,106.666666666667,0|0,3:0|0:0,0:0:0:0:
256,112,114838,2,0,P|304:112|336:88,1,80,6|0,2:0|0:0,0:0:0:0:
484,104,115061,6,0,P|505:97|482:96,1,62.5,10|0,2:3|0:0,0:0:0:0:
392,44,115209,1,0,0:0:0:0:
408,56,115283,2,0,P|412:96|396:136,1,80,6|0,2:0|0:0,0:0:0:0:
328,220,115505,6,0,P|327:260|376:308,1,106.666666666667,0|0,3:0|0:0,0:0:0:0:
432,264,115727,2,0,L|511:253,1,80,6|0,2:0|0:0,0:0:0:0:
505,264,115950,6,0,L|441:272,1,62.5,2|0,2:3|0:0,0:0:0:0:
336,204,116061,2,0,L|252:196,1,80,0|10,2:0|2:3,0:0:0:0:
200,256,116283,1,0,0:0:0:0:
152,156,116394,6,0,P|88:176|88:228,1,106.666666666667,0|0,3:0|0:0,0:0:0:0:
96,224,116616,2,0,P|108:264|116:308,1,80,0|0,2:0|0:0,0:0:0:0:
200,356,116838,6,0,B|179:372|179:372|187:335,1,62.5,2|0,2:3|0:0,0:0:0:0:
304,240,116987,1,0,0:0:0:0:
288,252,117061,2,0,P|249:248|226:217,1,80,0|0,2:0|0:0,0:0:0:0:
152,156,117283,6,0,P|88:176|88:228,1,106.666666666667,0|0,3:0|0:0,0:0:0:0:
96,224,117505,2,0,P|136:256|172:264,1,80,2|0,2:3|2:3,0:0:0:0:
200,356,117727,6,0,B|179:372|179:372|187:335,1,62.5,2|0,2:3|0:0,0:0:0:0:
256,296,117838,1,10,2:0:0:0:
312,356,117950,2,0,P|356:364|380:360,1,53.3333333333333,10|0,2:3|0:0,0:0:0:0:
496,264,118172,6,0,P|440:256|408:304,1,106.666666666667,6|0,2:1|0:0,0:0:0:0:
392,284,118394,2,0,P|368:256|368:204,1,80,0|0,2:0|0:0,0:0:0:0:
416,132,118616,6,0,P|432:148|411:136,1,62.5,10|0,2:3|0:0,0:0:0:0:
272,208,118764,1,0,0:0:0:0:
268,189,118838,2,0,P|280:154|325:128,1,80,0|0,2:0|0:0,0:0:0:0:
388,44,119061,6,0,P|336:52|288:32,1,106.666666666667,0|0,3:0|0:0,0:0:0:0:
276,16,119283,2,0,P|248:44|240:88,1,80,6|0,2:0|0:0,0:0:0:0:
168,144,119505,2,0,B|170:156|154:163|154:163|173:172|187:157|187:157|170:156|168:144,1,87.500000834465,2|0,2:3|0:0,0:0:0:0:
132,32,119616,1,10,2:0:0:0:
132,32,119727,1,10,2:0:0:0:
104,108,119838,1,10,3:0:0:0:
37,57,119950,6,0,P|85:25|145:41,1,106.666666666667,0|0,3:0|0:0,0:0:0:0:
148,44,120172,2,0,L|228:56,1,80,6|0,2:0|0:0,0:0:0:0:
332,60,120394,6,0,B|317:71|311:83|311:83|317:71|319:54,1,62.5,10|0,2:3|0:0,0:0:0:0:
360,140,120542,1,0,0:0:0:0:
340,156,120616,2,0,P|292:160|248:128,1,100,6|0,2:0|0:0,0:0:0:0:
104,108,120838,6,0,P|48:140|60:212,1,133.333333333333,0|0,3:0|0:0,0:0:0:0:
72,216,121061,2,0,P|104:252|120:300,1,100,10|0,2:0|0:0,0:0:0:0:
212,344,121283,6,0,B|215:354|223:359|223:359|215:364|212:375|212:375|204:367|193:369|193:369|201:359|193:349|193:349|204:351|212:344,1,100,10|0,2:3|0:0,0:0:0:0:
256,276,121394,1,10,2:0:0:0:
188,232,121505,2,0,L|176:152,1,80,10|0,2:3|0:0,0:0:0:0:
248,44,121727,6,0,P|276:36|328:88,1,106.666666666667,0|0,3:0|0:0,0:0:0:0:
312,100,121950,2,0,P|304:136|300:188,1,80,6|0,2:0|0:0,0:0:0:0:
380,276,122172,6,0,B|364:258|365:273|365:273|370:284|382:291|382:291|393:282|395:270|395:270|394:255|380:276,1,100,10|0,2:3|0:0,0:0:0:0:
456,192,122320,1,0,0:0:0:0:
452,172,122394,2,0,P|412:144|368:156,1,80,6|0,2:0|0:0,0:0:0:0:
228,116,122616,6,0,P|196:136|128:140,1,106.666666666667,0|0,3:0|0:0,0:0:0:0:
108,132,122838,2,0,P|136:164|152:220,1,80,6|0,2:0|0:0,0:0:0:0:
92,316,123061,6,0,B|52:328|52:328|79:342|79:342|92:316,1,100,10|0,2:3|0:0,0:0:0:0:
144,212,123172,1,10,2:0:0:0:
100,304,123283,1,10,2:3:0:0:
64,232,123394,1,0,0:0:0:0:
184,284,123505,6,0,P|231:261|283:266,1,106.666666666667,0|0,3:0|0:0,0:0:0:0:
300,254,123727,2,0,L|321:335,1,80,0|0,2:0|0:0,0:0:0:0:
234,363,123950,6,0,P|229:377|226:355,1,62.5,2|0,2:3|0:0,0:0:0:0:
285,266,124098,1,0,0:0:0:0:
300,254,124172,2,0,P|320:216|320:168,1,80,6|0,2:0|0:0,0:0:0:0:
512,48,124394,5,0,3:0:0:0:
448,96,124505,1,2,2:3:0:0:
384,48,124616,1,0,3:0:0:0:
320,96,124727,1,8,2:0:0:0:
256,48,124838,2,0,L|192:96,1,62.5,0|0,3:1|0:0,0:0:0:0:
192,96,124950,1,8,3:1:0:0:
128,48,125061,1,8,2:1:0:0:
64,96,125172,1,0,3:0:0:0:
0,48,125283,6,0,P|32:168|96:168,2,180,6|8|0,3:1|2:0|3:0,0:0:0:0:
76,0,125838,2,0,B|92:24|92:24|152:40,1,90.0000000000001,0|8,0:0|2:0,0:0:0:0:
292,76,126061,6,0,P|340:24|460:44,1,180
424,136,126394,2,0,P|388:160|340:148,1,90.0000000000001,8|0,0:0|0:0,0:0:0:0:
228,24,126616,2,0,B|204:52|204:52|212:116,1,90.0000000000001,8|0,3:2|0:0,0:0:0:0:
284,248,126838,2,0,L|276:348,1,90.0000000000001,8|0,0:0|0:0,0:0:0:0:
192,264,127061,6,0,B|255:275|255:275|282:255|282:255|369:270,1,180,2|8,3:2|2:0,0:0:0:0:
416,344,127394,2,0,P|460:345|496:320,2,90.0000000000001,0|0|0,0:0|3:0|0:0,0:0:0:0:
284,248,127727,2,0,L|292:148,1,90.0000000000001,8|0,2:0|0:0,0:0:0:0:
408,108,127950,6,0,B|416:76|464:84|464:84|488:116|480:164|440:180,2,180,0|10|2,3:0|2:0|3:2,0:0:0:0:
368,188,128505,1,10,2:0:0:0:
328,68,128616,2,0,B|304:92|304:92|300:156,1,90.0000000000001,8|0,2:1|2:0,0:0:0:0:
288,296,128838,6,0,B|318:285|318:285|296:236|223:224|189:260,2,180,6|8|0,3:2|2:0|3:0,0:0:0:0:
205,332,129394,2,0,B|174:341|174:341|125:309,1,90.0000000000001,0|8,0:0|2:0,0:0:0:0:
0,208,129616,6,0,P|84:225|141:160,1,180
292,96,129950,2,0,L|284:-16,1,90.0000000000001,8|0,2:0|0:0,0:0:0:0:
224,212,130172,2,0,L|216:324,1,90.0000000000001,8|0,3:2|0:0,0:0:0:0:
72,108,130394,2,0,B|88:84|88:84|160:68,1,90.0000000000001,8|0,2:0|0:0,0:0:0:0:
328,0,130616,6,0,P|419:58|411:130,1,180,2|8,3:2|2:0,0:0:0:0:
320,208,130950,1,2,2:0:0:0:
384,272,131061,2,0,L|400:368,1,90.0000000000001,0|0,3:0|0:0,0:0:0:0:
260,276,131283,2,0,B|228:244|228:244|235:199,1,90.0000000000001,10|0,2:0|0:0,0:0:0:0:
208,40,131505,6,0,B|168:56|168:56|144:200,2,180,0|10|0,3:2|2:0|3:2,0:0:0:0:
344,80,132061,1,10,2:0:0:0:
259,113,132172,2,0,P|243:153|235:201,1,90.0000000000001,2|0,2:0|0:0,0:0:0:0:
376,280,132394,6,0,B|392:240|448:224|488:240|488:240|500:272|476:304,2,180,6|8|0,3:2|2:0|3:0,0:0:0:0:
344,364,132950,2,0,P|392:372|432:348,1,90.0000000000001,0|8,0:0|2:0,0:0:0:0:
312,204,133172,1,0,0:0:0:0:
253,273,133283,2,0,P|212:288|153:289,1,90.0000000000001,0|0,3:0|0:0,0:0:0:0:
48,108,133505,2,0,P|92:124|148:124,1,90.0000000000001,8|0,2:0|0:0,0:0:0:0:
240,32,133727,6,0,B|272:64|272:64|264:120,1,90.0000000000001,8|0,2:0|0:0,0:0:0:0:
166,290,133950,2,0,B|134:258|134:258|142:202,1,90.0000000000001,8|0,3:2|0:0,0:0:0:0:
168,56,134172,6,0,B|200:88|200:88|344:72,1,180,2|10,3:2|2:0,0:0:0:0:
460,8,134505,2,0,B|492:24|492:24|508:96,1,90.0000000000001,2|0,2:0|2:0,0:0:0:0:
468,160,134727,1,0,0:0:0:0:
341,247,134838,2,0,P|350:202|364:160,1,90.0000000000001,10|0,2:0|0:0,0:0:0:0:
279,11,135061,6,0,P|252:46|252:90,1,90.0000000000001,0|0,3:2|0:0,0:0:0:0:
440,239,135283,2,0,P|467:204|467:160,1,90.0000000000001,10|0,2:0|0:0,0:0:0:0:
334,73,135505,1,0,3:2:0:0:
364,160,135616,1,8,2:0:0:0:
424,90,135727,1,0,0:0:0:0:
304,352,135950,5,12,2:0:0:0:
208,320,136061,2,0,P|160:336|120:368,1,100,8|0,2:0|2:0,0:0:0:0:
8,208,136283,2,0,P|73:169|120:272,1,200,8|0,2:0|0:0,0:0:0:0:
128,255,136616,1,8,2:0:0:0:
304,0,136838,5,8,2:0:0:0:
200,120,136950,2,0,P|200:192|256:224,1,110,8|0,2:0|2:0,0:0:0:0:
392,144,137172,2,0,B|417:92|417:92|267:151,1,220,8|0,2:0|0:0,0:0:0:0:
265,151,137505,1,8,2:0:0:0:
488,304,137727,5,8,2:0:0:0:
368,368,137838,2,0,B|336:336|336:336|344:256,1,120,8|0,2:0|2:0,0:0:0:0:
368,24,138061,2,0,P|248:40|272:160,1,240,12|0,2:0|0:0,0:0:0:0:
249,137,138394,1,8,2:0:0:0:
152,224,138505,5,0,0:0:0:0:
152,224,138561,1,0,0:0:0:0:
152,224,138616,2,0,B|128:256|128:256|0:264,2,130,8|8|8,2:0|2:0|2:0,0:0:0:0:
360,160,138950,2,0,B|384:128|384:128|512:120,2,130,8|8|8,2:0|2:1|2:1,0:0:0:0:
280,352,139283,6,0,B|240:314|216:248|252:176|252:176|263:148|301:103|340:109|355:9|289:-30|228:-7|227:51|227:51|204:-3|139:-3|90:56|138:145|175:125|225:155|252:176|252:176|300:200|388:124|464:220|468:288|432:348|360:340|312:304|292:256|328:216|384:168|456:184|500:212|516:260,1,1300,8|0,2:0|0:0,0:0:0:0:
507,242,140727,6,0,L|498:323,2,45,8|8|8,2:1|2:1|2:0,0:0:0:0:
376,148,140950,2,0,P|375:103|396:64,1,90.0000000000001,8|8,3:0|2:0,0:0:0:0:
464,4,141172,1,8,3:0:0:0:
472,120,141283,6,0,B|500:82|500:82|256:120,1,225,4|0,3:2|0:0,0:0:0:0:
308,96,141505,6,0,P|279:117|292:192,1,100,10|0,2:0|0:0,0:0:0:0:
348,336,141727,2,0,B|372:304|372:304|364:232,1,100,0|0,3:2|0:0,0:0:0:0:
236,120,141950,6,0,P|240:155|311:181,1,100,8|2,2:0|2:0,0:0:0:0:
461,204,142172,2,0,P|429:180|365:244,1,150,0|0,2:0|0:0,0:0:0:0:
377,264,142394,2,0,B|353:288|353:288|281:280,1,100,10|0,2:1|2:0,0:0:0:0:
287,280,142616,1,0,3:2:0:0:
116,384,142727,2,0,P|161:355|211:351,1,100,10|8,2:1|3:1,0:0:0:0:
206,351,142950,1,0,2:0:0:0:
40,288,143061,6,0,B|16:256|16:256|24:184,1,100,2|0,3:1|0:0,0:0:0:0:
180,160,143283,2,0,B|204:192|204:192|196:264,2,100,8|0|2,2:0|2:0|3:2,0:0:0:0:
109,228,143616,2,0,P|153:196|182:156,1,100,2|8,2:0|2:0,0:0:0:0:
160,0,143838,5,2,2:0:0:0:
68,36,143950,2,0,P|32:96|92:136,1,150,0|0,2:0|0:0,0:0:0:0:
104,128,144172,2,0,P|152:132|228:168,1,100,10|0,2:1|2:0,0:0:0:0:
200,149,144394,1,0,3:2:0:0:
376,208,144505,2,0,P|428:204|476:192,1,100,10|10,2:1|2:0,0:0:0:0:
474,192,144727,1,0,2:0:0:0:
380,320,144838,6,0,P|304:324|284:244,1,150,4|0,3:2|0:0,0:0:0:0:
288,248,145061,2,0,P|296:192|312:136,1,100,8|0,2:0|0:0,0:0:0:0:
348,60,145283,5,0,3:2:0:0:
176,112,145394,2,0,P|172:160|208:208,1,100,0|8,0:0|2:0,0:0:0:0:
288,248,145616,1,0,2:0:0:0:
424,216,145727,6,0,P|459:280|451:354,1,150,2|0,3:1|0:0,0:0:0:0:
444,374,145950,2,0,B|396:366|396:366|370:311,1,100,8|0,2:0|0:0,0:0:0:0:
432,136,146172,2,0,B|480:144|480:144|506:199,1,100,0|0,3:2|0:0,0:0:0:0:
374,319,146394,2,0,B|266:337,1,100,8|0,2:0|2:0,0:0:0:0:
200,192,146616,5,10,3:1:0:0:
28,148,146727,2,0,B|4:192|4:192|28:236,1,100,0|8,2:0|2:0,0:0:0:0:
188,192,146950,5,8,2:1:0:0:
39,228,147061,2,0,B|4:192|4:192|39:156,1,100,0|0,3:2|2:0,0:0:0:0:
176,192,147283,5,10,2:0:0:0:
45,164,147394,2,0,B|4:192|4:192|45:220,1,100,8|0,2:1|3:2,0:0:0:0:
276,148,147616,6,0,B|300:192|300:192|276:236,1,100,10|8,2:0|2:0,0:0:0:0:
164,192,147838,1,0,3:2:0:0:
136,96,147950,5,8,3:0:0:0:
212,192,148061,1,0,3:0:0:0:
136,288,148172,2,0,L|128:348,2,50,8|8|8,2:0|2:1|2:0,0:0:0:0:
80,191,148394,6,0,B|128:167|128:167|212:203|212:203|208:207|208:207|284:239,1,225,6|0,3:2|0:0,0:0:0:0:
296,244,148616,6,0,B|324:208|324:208|316:152,1,100,10|0,2:0|0:0,0:0:0:0:
360,32,148838,1,0,3:2:0:0:
264,0,148950,2,0,B|236:36|236:36|244:92,1,100,0|8,0:0|2:0,0:0:0:0:
296,244,149172,1,0,1:2:0:0:
392,276,149283,2,0,B|420:240|420:240|400:112,1,150,0|0,3:0|0:0,0:0:0:0:
412,120,149505,6,0,P|360:120|324:152,1,100,10|0,2:1|1:2,0:0:0:0:
296,244,149727,1,2,3:2:0:0:
392,208,149838,5,10,2:1:0:0:
252,92,149950,2,0,P|225:137|235:184,1,100,10|2,3:1|3:2,0:0:0:0:
336,328,150172,6,0,B|352:360|352:360|232:332,1,150,2|0,3:1|0:0,0:0:0:0:
224,320,150394,2,0,P|176:328|144:368,1,100,8|0,2:0|0:0,0:0:0:0:
8,288,150616,1,0,3:2:0:0:
80,216,150727,2,0,L|96:112,1,100,8|0,2:0|2:0,0:0:0:0:
184,64,150950,5,0,2:0:0:0:
32,0,151061,2,0,B|0:32|0:32|8:88,1,100,2|0,3:1|0:0,0:0:0:0:
80,216,151283,2,0,P|128:216|172:168,1,100,8|0,2:1|1:2,0:0:0:0:
248,128,151505,5,0,3:2:0:0:
108,44,151616,1,8,2:1:0:0:
280,0,151727,2,0,B|312:24|312:24|320:96,1,100,8|0,2:0|2:0,0:0:0:0:
448,180,151950,6,0,B|416:156|416:156|400:8,1,150,4|0,3:2|0:0,0:0:0:0:
412,28,152172,2,0,P|448:16|488:72,1,100,8|0,2:0|0:0,0:0:0:0:
448,180,152394,2,0,B|376:200|376:200|356:248|356:248|284:268,1,200,0|8,3:0|2:0,0:0:0:0:
186,215,152727,2,0,P|202:205|193:222,1,50
125,262,152838,6,0,B|93:286|93:286|221:310,1,150,2|2,3:2|2:0,0:0:0:0:
214,323,153061,2,0,P|258:311|286:263,1,100,10|2,2:0|2:0,0:0:0:0:
184,120,153283,2,0,P|176:72|176:16,1,100,2|0,3:2|0:0,0:0:0:0:
24,200,153505,2,0,P|16:248|0:296,1,100,8|0,2:0|1:0,0:0:0:0:
0,88,153727,6,0,B|77:101|77:101|90:119|90:119|177:134|177:134|195:122|195:122|282:137,1,300,14|0,2:1|2:0,0:0:0:0:
397,156,154061,1,10,2:1:0:0:
511,63,154172,2,0,B|536:10|536:10|459:78,1,150
432,263,154394,2,0,B|476:343|476:343|471:285,1,150,0|8,3:0|2:0,0:0:0:0:
388,80,154616,6,0,P|332:108|332:184,1,100,0|8,3:0|2:0,0:0:0:0:
240,280,154838,2,0,L|252:396,1,100,0|8,3:0|2:0,0:0:0:0:
392,184,155061,6,0,B|368:216|368:216|288:232,1,100,8|8,3:2|3:2,0:0:0:0:
160,128,155283,2,0,L|104:120,2,50,8|8|8,2:1|2:1|2:1,0:0:0:0:
232,56,155505,6,0,B|264:88|264:88|256:148|256:148|248:156|248:156|232:264,1,225,4|0,3:2|0:0,0:0:0:0:
248,272,155727,6,0,P|304:280|344:240,1,100,10|0,2:0|0:0,0:0:0:0:
392,123,155950,2,0,P|363:83|312:36,1,100,0|0,3:2|0:0,0:0:0:0:
204,144,156172,6,0,P|237:189|294:189,1,100,8|2,2:0|2:0,0:0:0:0:
326,47,156394,2,0,P|454:63|502:83,1,150,0|0,2:0|0:0,0:0:0:0:
486,59,156616,2,0,P|482:111|470:163,1,100,10|0,2:1|2:0,0:0:0:0:
473,158,156838,1,0,3:2:0:0:
336,255,156950,2,0,P|340:307|352:359,1,100,10|8,2:1|3:1,0:0:0:0:
350,353,157172,1,0,2:0:0:0:
400,200,157283,6,0,P|360:168|304:176,1,100,2|0,3:1|0:0,0:0:0:0:
244,272,157505,2,0,P|244:320|236:376,2,100,8|0|2,2:0|2:0|3:2,0:0:0:0:
148,120,157838,2,0,P|144:80|156:16,1,100,2|0,2:0|2:0,0:0:0:0:
252,0,158061,5,2,2:0:0:0:
224,136,158172,2,0,P|180:192|92:176,1,150,0|0,3:0|0:0,0:0:0:0:
92,176,158394,2,0,P|60:208|44:272,1,100,10|0,2:1|2:0,0:0:0:0:
43,259,158616,1,0,3:2:0:0:
196,360,158727,2,0,P|164:328|148:264,1,100,10|10,2:1|2:0,0:0:0:0:
147,276,158950,1,0,2:0:0:0:
148,120,159061,6,0,P|192:64|280:80,1,150,4|0,3:2|0:0,0:0:0:0:
276,84,159283,2,0,P|320:112|376:104,1,100,8|0,2:0|0:0,0:0:0:0:
512,72,159505,5,0,3:2:0:0:
432,8,159616,2,0,B|392:-8|392:-8|344:24,1,100,0|8,0:0|2:0,0:0:0:0:
224,136,159838,1,0,2:0:0:0:
280,224,159950,6,0,P|257:295|248:369,1,150,2|0,3:1|0:0,0:0:0:0:
232,380,160172,2,0,B|180:384|180:384|144:336,1,100,8|0,2:0|0:0,0:0:0:0:
316,156,160394,2,0,P|348:180|336:272,1,100,0|0,3:2|0:0,0:0:0:0:
160,224,160616,2,0,L|48:200,1,100,8|0,2:2|2:0,0:0:0:0:
256,200,160838,5,10,3:1:0:0:
296,100,160950,2,0,L|256:8,1,100,0|8,2:0|2:0,0:0:0:0:
256,208,161172,5,8,2:1:0:0:
216,100,161283,2,0,L|256:8,1,100,0|0,3:2|0:0,0:0:0:0:
256,216,161505,5,8,2:0:0:0:
296,100,161616,2,0,L|256:192,1,100,8|0,2:1|3:2,0:0:0:0:
256,192,161838,2,0,L|216:100,1,100,8|8,2:0|2:0,0:0:0:0:
256,8,162061,5,0,3:2:0:0:
206,101,162172,1,2,3:1:0:0:
306,101,162283,1,0,3:0:0:0:
256,192,162394,2,0,L|256:256,2,50,8|8|8,2:0|2:1|2:0,0:0:0:0:
328,304,162616,6,0,B|360:336|360:336|176:304,1,225,4|0,3:2|0:0,0:0:0:0:
164,312,162838,6,0,P|136:280|136:224,1,100,8|0,2:0|0:0,0:0:0:0:
4,196,163061,1,0,3:2:0:0:
40,100,163172,2,0,L|28:-8,1,100,0|8,2:0|2:0,0:0:0:0:
192,72,163394,5,0,1:2:0:0:
236,160,163505,2,0,P|193:217|120:219,1,150,0|0,3:0|0:0,0:0:0:0:
104,208,163727,2,0,P|56:200|0:196,1,100,10|0,2:0|1:2,0:0:0:0:
4,196,163950,1,2,3:2:0:0:
104,312,164061,1,10,2:1:0:0:
156,152,164172,2,0,P|204:144|260:140,1,100,10|2,3:1|3:2,0:0:0:0:
504,112,164394,6,0,P|432:108|352:56,1,150,2|0,3:1|0:0,0:0:0:0:
348,80,164616,2,0,P|336:136|332:192,1,100,8|0,2:0|0:0,0:0:0:0:
248,316,164838,1,0,3:2:0:0:
171,250,164950,2,0,P|159:194|155:138,1,100,0|8,2:0|2:0,0:0:0:0:
205,48,165172,5,0,2:0:0:0:
345,8,165283,2,0,P|385:60|361:140,1,150,2|0,3:1|0:0,0:0:0:0:
353,152,165505,2,0,P|317:160|253:184,1,100,8|0,2:1|2:0,0:0:0:0:
155,151,165727,1,0,3:2:0:0:
298,78,165838,1,8,2:1:0:0:
117,72,165950,2,0,P|81:64|17:40,1,100,8|0,2:0|2:1,0:0:0:0:
112,216,166172,6,0,P|183:224|228:168,1,150,4|0,3:2|0:0,0:0:0:0:
248,160,166394,2,0,P|272:216|272:264,1,100,0|0,2:0|0:0,0:0:0:0:
423,311,166616,2,0,P|325:315|252:379,1,200,0|8,2:0|2:0,0:0:0:0:
128,308,166950,2,0,L|120:380,1,50
116,320,167061,6,0,P|64:304|84:220,1,150,2|0,3:1|0:0,0:0:0:0:
92,212,167283,2,0,P|140:232|188:236,1,100,0|0,2:0|0:0,0:0:0:0:
338,332,167505,2,0,P|294:364|246:380,1,100,0|0,3:0|0:0,0:0:0:0:
304,176,167727,2,0,L|320:72,1,100,8|0,2:0|1:0,0:0:0:0:
452,4,167950,6,0,B|512:52|512:52|468:116|468:116|452:108|452:108|412:148|412:148|428:220,1,300,14|8,2:1|2:1,0:0:0:0:
408,364,168283,1,10,2:1:0:0:
500,324,168394,2,0,B|532:280|532:280|508:172,1,150
372,64,168616,2,0,B|320:120|320:120|344:228,1,150,10|8,2:1|2:0,0:0:0:0:
420,136,168838,6,0,P|459:105|507:94,1,100,2|8,2:0|2:0,0:0:0:0:
347,291,169061,2,0,P|299:280|260:250,1,100,0|8,1:2|2:0,0:0:0:0:
256,72,169283,6,0,B|224:48|224:48|140:60,1,100,8|8,2:1|2:1,0:0:0:0:
16,156,169505,2,0,L|8:220,2,50,8|8|8,2:1|2:1|2:1,0:0:0:0:
76,28,169727,6,0,P|80:110|136:148,1,150,4|0,3:2|0:0,0:0:0:0:
144,160,169950,2,0,P|184:144|240:144,1,100,8|0,2:0|0:0,0:0:0:0:
372,96,170172,2,0,B|348:128|348:128|356:192,1,100,0|0,3:0|0:0,0:0:0:0:
260,344,170394,2,0,B|284:312|284:312|276:252,1,100,8|0,2:0|0:0,0:0:0:0:
452,176,170616,6,0,P|448:248|380:288,1,150,0|0,3:0|0:0,0:0:0:0:
372,276,170838,2,0,P|320:256|268:252,1,100,8|0,2:0|0:0,0:0:0:0:
140,371,171061,1,4,3:2:0:0:
260,344,171172,1,0,2:1:0:0:
155,382,171283,2,0,P|204:376|250:356,1,100,8|0,2:0|2:1,0:0:0:0:
192,248,171505,6,0,P|120:224|32:232,1,150,14|0,2:0|0:0,0:0:0:0:
28,236,171653,2,0,P|84:185|121:105,1,150,10|0,2:0|0:0,0:0:0:0:
120,100,171801,2,0,P|135:174|186:246,1,150,10|0,2:0|0:0,0:0:0:0:
298,222,171950,6,0,P|306:293|370:328,1,150,10|0,2:0|0:0,0:0:0:0:
389,327,172098,2,0,P|447:284|444:213,1,150,10|0,2:0|0:0,0:0:0:0:
435,195,172246,2,0,P|368:167|307:205,1,150,10|0,2:0|0:0,0:0:0:0:
376,248,172394,6,0,B|408:268|448:248|456:196|444:144|384:120|328:128|280:152|248:232|304:220|296:288|232:332|176:320|176:320|256:348|316:368|372:360|408:336|456:348|496:320|512:284|528:248|528:204|512:164|504:136|480:96|448:84|392:68|344:68|312:80|272:116,1,1125,10|0,3:0|0:0,0:0:0:0:
308,92,173283,6,0,P|268:100|212:96,1,80,6|0,3:0|0:0,0:0:0:0:
160,56,173505,1,0,0:0:0:0:
0,176,173727,2,0,P|12:164|4:176,1,50,8|0,2:0|0:0,0:0:0:0:
64,304,173950,1,0,0:0:0:0:
300,208,174172,2,0,P|236:180|148:200,1,160
72,216,174505,1,0,0:0:0:0:
0,176,174616,2,0,P|12:164|4:176,1,50,8|0,2:0|0:0,0:0:0:0:
150,198,174838,2,0,P|180:184|252:184,1,80
308,92,175061,6,0,P|268:100|212:96,1,80,2|0,3:2|0:0,0:0:0:0:
160,56,175283,1,0,0:0:0:0:
0,176,175505,2,0,P|12:164|4:176,1,50,8|0,2:0|0:0,0:0:0:0:
64,304,175727,1,0,0:0:0:0:
300,208,175950,2,0,P|236:180|148:200,1,160
72,216,176283,1,0,0:0:0:0:
0,176,176394,2,0,P|12:164|4:176,1,50,8|0,2:0|0:0,0:0:0:0:
150,198,176616,2,0,P|180:184|252:184,1,80
308,92,176838,6,0,P|268:100|212:96,1,80,2|0,3:2|0:0,0:0:0:0:
160,56,177061,1,0,0:0:0:0:
0,176,177283,2,0,P|12:164|4:176,1,50,8|0,2:0|0:0,0:0:0:0:
64,304,177505,1,0,0:0:0:0:
300,208,177727,2,0,P|236:180|148:200,1,160
72,216,178061,1,0,0:0:0:0:
0,176,178172,2,0,P|12:164|4:176,1,50,8|0,2:0|0:0,0:0:0:0:
226,179,178394,2,0,P|265:187|300:208,1,80
212,280,178616,6,0,P|173:288|140:311,1,80,2|0,3:2|0:0,0:0:0:0:
94,375,178838,1,0,0:0:0:0:
0,176,179061,2,0,P|12:164|4:176,1,50,8|0,2:0|0:0,0:0:0:0:
176,384,179283,1,0,0:0:0:0:
300,208,179505,5,0,0:0:0:0:
227,180,179616,1,10,2:0:0:0:
36,248,179838,1,10,3:0:0:0:
0,176,179950,2,0,P|12:164|4:176,1,50,10|0,2:0|0:0,0:0:0:0:
84,180,180061,1,10,2:0:0:0:
112,104,180172,1,12,2:1:0:0:
324,344,180394,6,0,P|348:312|340:264,1,80,2|0,3:2|0:0,0:0:0:0:
300,208,180616,1,0,0:0:0:0:
512,133,180838,2,0,P|527:146|508:144,1,50,10|0,2:0|0:0,0:0:0:0:
368,68,181061,1,0,0:0:0:0:
512,48,181283,2,0,P|448:76|432:168,1,160
480,224,181616,1,0,0:0:0:0:
512,133,181727,2,0,P|527:146|508:144,1,50,10|0,2:0|0:0,0:0:0:0:
224,176,181950,2,0,P|219:223|235:260,1,80
324,344,182172,6,0,P|348:312|340:264,1,80,2|0,3:2|0:0,0:0:0:0:
300,208,182394,1,0,0:0:0:0:
512,133,182616,2,0,P|527:146|508:144,1,50,10|0,2:0|0:0,0:0:0:0:
368,68,182838,1,0,0:0:0:0:
512,48,183061,2,0,P|448:76|432:168,1,160
480,224,183394,1,0,0:0:0:0:
512,133,183505,2,0,P|527:146|508:144,1,50,10|0,2:0|0:0,0:0:0:0:
224,176,183727,2,0,P|219:223|235:260,1,80
324,344,183950,6,0,P|348:312|340:264,1,80,2|0,3:2|0:0,0:0:0:0:
300,208,184172,1,0,0:0:0:0:
512,133,184394,2,0,P|527:146|508:144,1,50,10|0,2:0|0:0,0:0:0:0:
368,68,184616,1,0,0:0:0:0:
512,48,184838,6,0,P|476:56|436:96,1,80
416,208,185061,2,0,L|424:296,1,80,10|0,2:0|2:0,0:0:0:0:
512,133,185283,2,0,P|527:146|508:144,1,50,8|0,2:1|0:0,0:0:0:0:
440,97,185394,1,10,2:0:0:0:
370,137,185505,1,10,2:0:0:0:
192,112,185727,6,0,L|184:200,1,75,2|0,2:0|0:0,0:0:0:0:
184,200,185950,2,0,L|176:272,1,50,2|0,2:0|0:0,0:0:0:0:
108,136,186172,2,0,L|100:208,1,50,2|0,2:0|0:0,0:0:0:0:
90,285,186394,2,0,L|96:236,1,50,2|0,2:0|0:0,0:0:0:0:
185,186,186616,6,0,L|196:68,1,100,2|0,2:0|0:0,0:0:0:0:
200,72,186950,6,0,B|248:72|276:120|220:220|144:184|100:124|112:80|132:128|148:64|116:24|60:8|12:40|0:84,1,360,2|10,2:0|2:0,0:0:0:0:
0,140,187394,1,10,2:0:0:0:
92,208,187505,6,0,P|108:248|124:328,1,90.0000000000001,6|0,2:0|0:0,0:0:0:0:
184,360,187727,2,0,P|125:297|41:319,2,180,0|0|0,2:0|2:0|2:0,0:0:0:0:
276,384,188283,1,0,2:0:0:0:
276,384,188394,2,0,P|316:360|368:340,1,90.0000000000001,0|0,2:0|0:0,0:0:0:0:
488,296,188616,6,0,P|444:296|412:256,1,90.0000000000001,10|0,1:2|2:0,0:0:0:0:
400,140,188838,2,0,P|312:132|248:196,1,180,0|10,2:0|1:2,0:0:0:0:
224,280,189172,1,0,2:0:0:0:
24,184,189283,6,0,P|40:80|108:100,1,180,2|10,2:0|1:2,0:0:0:0:
176,116,189616,1,2,2:0:0:0:
128,192,189727,2,0,P|120:236|120:284,1,90.0000000000001,2|0,2:0|0:0,0:0:0:0:
244,366,189950,2,0,P|239:321|223:279,1,90.0000000000001,10|0,1:2|2:0,0:0:0:0:
268,108,190172,6,0,P|372:116|416:32,2,180,0|10|0,3:0|1:2|3:0,0:0:0:0:
128,192,190727,1,10,2:0:0:0:
223,279,190838,2,0,P|240:324|244:368,1,90.0000000000001,2|0,3:2|2:0,0:0:0:0:
340,280,191061,6,0,P|368:240|404:224,1,90.0000000000001,6|0,2:0|0:0,0:0:0:0:
456,148,191283,2,0,P|504:192|492:312,2,180,0|0|0,2:0|2:0|2:0,0:0:0:0:
320,176,191838,1,0,2:0:0:0:
320,176,191950,2,0,P|276:172|216:156,1,90.0000000000001,0|0,2:0|0:0,0:0:0:0:
172,48,192172,5,10,1:2:0:0:
91,8,192283,1,0,2:0:0:0:
51,87,192394,2,0,P|82:114|143:107,1,90.0000000000001,0|0,3:0|0:0,0:0:0:0:
248,76,192616,2,0,P|296:68|344:60,1,90.0000000000001,10|0,1:2|2:0,0:0:0:0:
460,132,192838,6,0,P|500:148|508:204,1,90.0000000000001,2|0,2:0|0:0,0:0:0:0:
484,276,193061,1,10,1:2:0:0:
384,384,193172,2,0,P|392:336|392:280,1,90.0000000000001,2|2,2:0|2:0,0:0:0:0:
393,294,193394,1,0,0:0:0:0:
300,164,193505,2,0,P|292:212|292:268,1,90.0000000000001,10|0,1:2|2:0,0:0:0:0:
424,216,193727,5,10,3:2:0:0:
200,4,193950,1,10,2:0:0:0:
84,92,194061,1,10,2:0:0:0:
108,0,194172,1,2,3:2:0:0:
108,0,194283,1,10,2:0:0:0:
212,104,194394,2,0,P|256:97|299:84,1,90.0000000000001,0|0,1:0|2:0,0:0:0:0:
444,72,194616,6,0,P|476:92|484:152,1,90.0000000000001,6|0,2:0|0:0,0:0:0:0:
328,168,194838,6,0,P|304:185|297:250,1,99,10|0,2:0|1:0,0:0:0:0:
346,320,195061,2,0,P|375:332|441:303,1,108,2|0,3:2|0:0,0:0:0:0:
480,218,195283,2,0,P|476:183|412:137,1,117,10|0,1:2|1:0,0:0:0:0:
296,144,195505,6,0,P|255:209|262:259,1,126,2|0,3:2|0:0,0:0:0:0:
142,291,195727,2,0,P|103:218|50:197,1,135,10|0,1:2|1:0,0:0:0:0:
88,63,195950,2,0,P|180:68|227:30,1,145,2|0,3:2|0:0,0:0:0:0:
392,160,196172,6,0,P|394:235|348:294,1,154,10|0,1:2|1:0,0:0:0:0:
204,304,196394,6,0,B|175:325|175:325|222:130,1,163,2|0,3:2|0:0,0:0:0:0:
174,89,196616,2,0,B|169:54|169:54|315:192,1,172,10|0,1:2|1:2,0:0:0:0:
391,173,196838,2,0,B|423:187|423:187|231:244,1,181,2|0,3:2|0:0,0:0:0:0:
100,280,197061,2,0,B|68:294|68:294|296:360|296:360|288:348|288:348|504:280|504:280|496:272|496:272|508:224,1,570,10|0,1:2|0:0,0:0:0:0:
384,72,197505,6,0,P|320:76|292:204,1,190,10|0,2:0|2:0,0:0:0:0:
284,172,197727,2,0,P|366:235|430:207,1,172,0|10,3:0|2:0,0:0:0:0:
416,208,197950,2,0,P|440:152|388:80,1,154,0|0,1:0|2:0,0:0:0:0:
359,156,198172,6,0,P|283:212|203:196,1,180,6|8,2:0|1:2,0:0:0:0:
140,128,198505,1,0,2:0:0:0:
89,345,198616,6,0,P|169:281|280:320,1,216,2|8,3:2|1:2,0:0:0:0:
352,384,198950,1,0,2:0:0:0:
512,192,199061,6,0,P|455:55|368:64,1,252,2|8,3:2|1:2,0:0:0:0:
304,168,199394,1,0,2:0:0:0:
260,8,199505,6,0,P|284:156|188:236,1,288,2|10,3:2|1:2,0:0:0:0:
40,240,199838,1,0,2:0:0:0:
80,96,199950,6,0,B|48:64|56:8|120:-40|187:-47|259:40|233:106|142:157|219:144|149:124|107:133|62:157|40:224|40:304|80:376|176:408|232:400|304:344|336:272|336:200|244:181|311:214|259:213|216:165|221:97|266:30|331:-8|411:-4|482:34|538:92|528:176|488:240|472:272|432:280|376:272,1,1134,0|0,3:0|2:0,0:0:0:0:
348,268,200838,5,10,3:1:0:0:
313,365,200950,1,10,2:1:0:0:
319,360,201061,1,10,2:0:0:0:
350,276,201172,5,10,2:0:0:0:
415,347,201283,1,0,3:0:0:0:
407,344,201394,1,10,2:0:0:0:
359,327,201505,5,0,0:0:0:0:
32,320,201950,5,0,0:0:0:0:
32,320,202172,1,0,0:0:0:0:
280,140,202505,1,2,2:0:0:0:
84,192,202838,1,2,2:0:0:0:
156,220,203061,1,2,2:0:0:0:
228,248,203283,1,2,2:0:0:0:
256,336,203505,5,2,2:0:0:0:
496,288,203727,1,2,2:0:0:0:
496,288,203950,1,2,2:0:0:0:
388,380,204061,1,0,0:0:0:0:
296,188,204283,1,2,2:0:0:0:
412,168,204505,1,2,2:0:0:0:
368,276,204838,1,2,2:0:0:0:
480,128,205061,1,0,0:0:0:0:
372,96,205172,2,0,L|364:64,1,25,2|2,2:0|2:0,0:0:0:0:
360,88,205283,5,2,2:0:0:0:
360,88,205727,1,2,2:0:0:0:
192,36,206061,1,2,2:0:0:0:
180,112,206172,1,0,0:0:0:0:
256,320,206394,1,2,2:0:0:0:
280,244,206616,1,2,2:0:0:0:
188,284,206838,1,2,2:0:0:0:
0,128,207061,5,2,2:0:0:0:
168,108,207283,1,0,0:0:0:0:
112,160,207394,1,2,2:0:0:0:
96,88,207505,1,0,2:0:0:0:
224,192,207727,1,2,2:0:0:0:
148,36,207950,5,2,2:0:0:0:
408,0,208172,1,2,2:0:0:0:
328,64,208394,1,2,2:0:0:0:
300,184,208616,1,2,2:0:0:0:
368,308,208838,1,2,2:0:0:0:
512,132,209283,5,2,2:0:0:0:
256,192,209727,1,0,0:0:0:0:
352,128,209950,1,2,2:0:0:0:
336,240,210172,1,2,2:0:0:0:
320,352,210394,1,2,2:0:0:0:
440,212,210616,5,2,2:0:0:0:
180,140,210838,1,2,2:0:0:0:
340,52,211061,1,2,2:0:0:0:
120,16,211394,1,2,2:0:0:0:
108,96,211505,1,0,0:0:0:0:
0,224,211727,5,2,2:0:0:0:
224,256,211950,1,2,2:0:0:0:
448,288,212172,1,2,2:0:0:0:
512,192,212394,5,2,2:0:0:0:
96,320,213283,1,2,2:0:0:0:
288,128,215061,1,2,2:0:0:0:
80,296,215394,6,0,L|36:280,2,45,8|8|8,2:1|2:1|2:0,0:0:0:0:
168,384,215616,2,0,P|216:380|264:348,1,90.0000000000001,8|8,2:1|2:0,0:0:0:0:
296,280,215838,1,8,2:1:0:0:
484,356,215950,6,0,B|516:332|516:332|500:236|500:236|484:228|484:228|476:156,1,225,4|0,3:2|0:0,0:0:0:0:
468,176,216172,6,0,B|454:193|430:201|430:201|446:185|454:153,1,100,10|0,2:0|0:0,0:0:0:0:
410,69,216394,2,0,P|446:36|495:40,1,100,0|0,3:2|0:0,0:0:0:0:
410,204,216616,2,0,P|360:204|318:178,1,100,8|2,2:0|2:0,0:0:0:0:
230,21,216838,6,0,P|296:31|281:96,1,150,0|0,2:0|0:0,0:0:0:0:
263,108,217061,2,0,P|230:155|234:220,1,100,10|0,2:1|1:2,0:0:0:0:
246,297,217283,1,0,3:2:0:0:
318,178,217394,2,0,P|360:204|410:204,1,100,10|8,2:1|3:1,0:0:0:0:
498,157,217616,1,0,2:0:0:0:
500,284,217727,6,0,B|488:316|488:316|424:336,1,100,2|0,3:1|0:0,0:0:0:0:
336,288,217950,2,0,P|322:325|351:374,2,100,8|0|2,2:0|2:0|3:2,0:0:0:0:
365,383,218283,2,0,P|339:352|282:353,1,100,2|0,2:0|2:0,0:0:0:0:
160,288,218505,5,2,2:0:0:0:
72,332,218616,2,0,P|0:308|24:224,1,150,0|0,2:0|0:0,0:0:0:0:
16,232,218838,2,0,P|52:204|76:144,1,100,10|0,2:1|2:0,0:0:0:0:
68,52,219061,1,0,3:2:0:0:
164,180,219172,2,0,P|209:185|268:160,1,100,10|10,2:1|2:0,0:0:0:0:
328,96,219394,1,0,2:0:0:0:
416,196,219505,6,0,B|466:187|498:224|498:224|457:205|409:240,1,150,4|0,3:2|0:0,0:0:0:0:
420,223,219727,2,0,P|359:204|341:167,1,100,8|0,2:0|0:0,0:0:0:0:
260,64,219950,6,0,P|306:20|347:23,1,100,0|0,3:2|0:0,0:0:0:0:
416,136,220172,1,8,2:0:0:0:
328,96,220283,1,0,2:0:0:0:
259,166,220394,6,0,P|216:216|128:200,1,150,2|0,3:1|0:0,0:0:0:0:
124,196,220616,2,0,L|16:192,1,100,8|0,2:0|0:0,0:0:0:0:
96,88,220838,6,0,P|176:116|176:160,1,100,0|0,3:2|0:0,0:0:0:0:
72,272,221061,2,0,L|64:376,1,100,8|0,2:0|2:0,0:0:0:0:
256,336,221283,5,10,3:1:0:0:
212,192,221394,2,0,B|256:169|256:169|300:192,1,100,0|8,2:0|2:0,0:0:0:0:
256,336,221616,5,8,2:1:0:0:
300,192,221727,2,0,B|256:215|256:215|212:192,1,100,0|0,3:2|2:0,0:0:0:0:
256,48,221950,5,14,2:0:0:0:
345,289,222061,2,0,B|257:335,1,100,8|0,2:1|3:2,0:0:0:0:
167,289,222283,2,0,B|255:335,1,100,14|8,2:0|2:0,0:0:0:0:
256,192,222505,1,0,3:2:0:0:
128,192,222616,5,8,3:0:0:0:
384,192,222727,1,0,3:0:0:0:
256,48,222838,2,0,L|256:-12,2,50,8|8|8,2:0|2:1|2:0,0:0:0:0:
104,24,223061,6,0,B|140:68|140:68|116:120|116:120|112:116|112:116|64:136|64:136|48:188,1,225,4|0,3:2|0:0,0:0:0:0:
32,200,223283,6,0,P|48:256|84:280,1,100,8|0,2:0|0:0,0:0:0:0:
192,152,223505,1,0,3:2:0:0:
256,232,223616,2,0,P|309:241|368:248,1,100,0|8,0:0|2:0,0:0:0:0:
452,216,223838,1,0,1:2:0:0:
336,176,223950,6,0,P|280:228|300:296,1,150,0|0,3:0|0:0,0:0:0:0:
312,305,224172,2,0,P|349:301|355:247,1,100,10|0,2:1|1:2,0:0:0:0:
256,232,224394,1,2,3:2:0:0:
360,380,224505,1,10,2:1:0:0:
419,210,224616,2,0,P|384:176|336:176,1,100,10|2,3:2|3:2,0:0:0:0:
248,56,224838,6,0,P|280:24|404:28,1,150,2|0,3:1|0:0,0:0:0:0:
392,0,225061,2,0,B|424:40|424:40|416:96,1,100,8|0,2:0|0:0,0:0:0:0:
256,232,225283,1,0,3:2:0:0:
396,284,225394,2,0,P|448:284|488:244,1,100,8|8,2:0|2:0,0:0:0:0:
500,72,225616,5,0,2:0:0:0:
415,180,225727,2,0,P|366:171|336:133,1,100,2|0,3:1|0:0,0:0:0:0:
208,68,225950,2,0,P|156:56|108:52,1,100,8|0,2:1|1:2,0:0:0:0:
252,156,226172,5,0,3:2:0:0:
116,64,226283,1,8,2:1:0:0:
320,32,226394,2,0,B|352:64|352:64|344:128,1,100,8|8,2:0|2:1,0:0:0:0:
328,248,226616,6,0,P|272:204|196:216,1,150,4|0,3:2|0:0,0:0:0:0:
184,228,226838,2,0,P|144:216|116:164,1,100,8|0,2:0|0:0,0:0:0:0:
92,36,227061,2,0,B|61:14|12:22|-9:74|-9:74|22:103|22:103|52:100,1,200,0|8,3:0|2:0,0:0:0:0:
200,32,227394,2,0,B|196:84,1,50
180,96,227505,6,0,B|204:128|204:128|316:120,1,150,2|0,3:1|0:0,0:0:0:0:
328,104,227727,2,0,P|372:128|384:176,1,100,8|0,0:0|0:0,0:0:0:0:
456,296,227950,6,0,B|432:324|432:324|368:328,1,100,0|0,3:0|0:0,0:0:0:0:
208,240,228172,2,0,B|232:212|232:212|296:208,1,100,8|0,2:0|1:0,0:0:0:0:
504,64,228394,6,0,B|480:92|480:92|416:96|416:96|424:88|424:88|324:76|324:76|308:100|308:100|240:108,1,300,14|0,2:1|2:0,0:0:0:0:
84,180,228727,1,10,2:1:0:0:
102,58,228838,2,0,B|55:0|55:0|32:71,1,150
29,279,229061,2,0,B|103:290|103:290|170:254,1,150,10|8,2:1|2:0,0:0:0:0:
304,376,229283,6,0,P|254:374|211:350,1,100,6|8,2:1|2:0,0:0:0:0:
84,180,229505,2,0,P|120:145|174:130,1,100,0|8,1:2|2:0,0:0:0:0:
368,252,229727,2,0,B|336:288|336:288|284:284,1,100,2|2,2:0|2:0,0:0:0:0:
167,131,229950,2,0,L|176:80,2,50,2|2|2,2:0|2:0|2:0,0:0:0:0:
60,308,230172,6,0,B|28:268|28:268|108:260|108:260|116:268|116:268|220:252,1,225,4|0,3:2|0:0,0:0:0:0:
216,264,230394,6,0,P|232:220|232:164,1,100,10|0,2:0|0:0,0:0:0:0:
320,32,230616,2,0,B|312:0|283:-14|283:-14|296:0|300:20,1,100,0|0,3:2|0:0,0:0:0:0:
400,88,230838,2,0,B|376:120|376:120|312:128,1,100,8|2,2:0|2:0,0:0:0:0:
141,81,231061,6,0,B|172:36|223:48|223:48|188:60|172:84,1,150,0|0,2:0|0:0,0:0:0:0:
164,92,231283,2,0,B|132:128|132:128|144:180,1,100,10|0,2:1|1:2,0:0:0:0:
212,252,231505,1,0,3:2:0:0:
360,152,231616,2,0,B|389:164|396:200|396:200|379:181|354:176,1,100,10|8,2:1|3:1,0:0:0:0:
267,167,231838,1,0,2:0:0:0:
208,264,231950,6,0,P|244:292|308:276,1,100,2|0,3:1|0:0,0:0:0:0:
440,156,232172,2,0,P|392:148|353:177,1,100,8|0,2:0|2:0,0:0:0:0:
380,336,232394,1,2,3:2:0:0:
288,376,232505,2,0,P|292:328|308:278,1,100,2|0,2:0|2:0,0:0:0:0:
244,88,232727,5,2,2:0:0:0:
184,168,232838,2,0,P|114:199|34:167,1,150,0|0,3:0|0:0,0:0:0:0:
32,164,233061,2,0,B|0:204|0:204|16:260,1,100,10|0,2:1|2:0,0:0:0:0:
136,288,233283,1,0,3:2:0:0:
32,384,233394,1,10,2:1:0:0:
192,344,233505,2,0,B|224:304|224:304|208:248,1,100,10|0,2:0|2:0,0:0:0:0:
112,120,233727,6,0,P|96:60|169:24,1,150,4|0,3:2|0:0,0:0:0:0:
170,41,233950,2,0,B|188:72|188:72|258:93,1,100,8|0,2:0|0:0,0:0:0:0:
396,91,234172,2,0,P|387:43|348:15,1,100,2|0,3:2|0:0,0:0:0:0:
256,84,234394,1,8,2:0:0:0:
372,192,234505,1,0,2:0:0:0:
392,104,234616,6,0,P|320:136|280:200,1,150,2|0,3:2|0:0,0:0:0:0:
272,208,234838,2,0,P|296:256|312:320,1,100,8|0,2:0|0:0,0:0:0:0:
128,328,235061,2,0,P|177:323|214:291,1,100,0|0,3:2|0:0,0:0:0:0:
376,248,235283,2,0,P|338:215|289:211,1,100,10|0,2:0|2:0,0:0:0:0:
144,240,235505,5,10,3:1:0:0:
99,84,235616,2,0,B|106:33|106:33|129:78,1,100,0|8,2:0|2:0,0:0:0:0:
141,231,235838,5,8,2:1:0:0:
91,85,235950,2,0,B|106:37|106:37|138:76,1,100,0|0,3:2|0:0,0:0:0:0:
140,223,236172,5,8,2:0:0:0:
83,86,236283,2,0,B|107:43|107:43|146:74,1,100,8|0,2:1|3:2,0:0:0:0:
154,74,236505,6,0,B|108:51|108:51|75:87,1,100,8|12,2:0|2:0,0:0:0:0:
138,215,236727,1,0,3:2:0:0:
43,176,236838,5,2,3:1:0:0:
216,145,236950,1,0,3:0:0:0:
156,310,237061,2,0,L|165:365,2,50,8|8|8,2:0|2:1|2:0,0:0:0:0:
40,368,237283,6,0,B|76:340|76:340|132:352|132:352|128:356|128:356|192:368|192:368|196:364|196:364|244:372,1,225,6|0,3:2|0:0,0:0:0:0:
256,384,237505,6,0,B|292:348|292:348|284:299,1,100,8|0,2:0|0:0,0:0:0:0:
304,120,237727,1,2,3:2:0:0:
192,164,237838,2,0,P|196:216|232:252,1,100,0|10,2:0|2:0,0:0:0:0:
348,256,238061,1,2,1:2:0:0:
264,184,238172,6,0,B|232:204|232:204|120:192,1,150,0|0,3:0|0:0,0:0:0:0:
103,173,238394,2,0,P|112:120|156:88,1,100,10|0,2:0|1:2,0:0:0:0:
244,84,238616,5,0,3:2:0:0:
148,12,238727,1,10,2:1:0:0:
192,164,238838,2,0,B|228:180|228:180|296:148,1,100,8|2,3:2|3:2,0:0:0:0:
484,128,239061,6,0,P|462:81|413:64,1,100,2|0,3:1|0:0,0:0:0:0:
296,148,239283,2,0,L|280:248,1,100,8|0,2:0|0:0,0:0:0:0:
408,140,239505,1,0,3:2:0:0:
249,30,239616,2,0,B|217:62|217:62|225:134,1,100,0|8,2:0|2:0,0:0:0:0:
284,260,239838,1,0,2:0:0:0:
240,96,239950,6,0,P|312:76|368:132,1,150,2|0,3:1|0:0,0:0:0:0:
372,140,240172,2,0,L|356:240,1,100,8|0,2:1|2:0,0:0:0:0:
248,324,240394,1,0,3:2:0:0:
296,148,240505,1,8,2:1:0:0:
424,272,240616,2,0,P|392:312|340:312,1,100,8|0,2:0|2:1,0:0:0:0:
208,200,240838,6,0,P|144:176|48:168,1,150,4|0,3:2|0:0,0:0:0:0:
48,152,241061,2,0,B|20:192|20:192|40:244,1,100,0|0,2:0|0:0,0:0:0:0:
100,384,241283,2,0,P|176:328|128:256,1,200,0|2,2:0|2:0,0:0:0:0:
144,72,241616,2,0,P|148:48|160:24,1,50
176,16,241727,6,0,B|248:24|248:24|264:48|264:48|352:64,1,150,2|0,3:2|0:0,0:0:0:0:
332,52,241950,2,0,P|308:100|324:148,1,100,8|0,2:0|0:0,0:0:0:0:
248,264,242172,2,0,B|288:296|288:296|344:288,1,100,0|0,2:0|0:0,0:0:0:0:
419,231,242394,2,0,P|466:244|509:270,1,100,8|0,2:0|1:0,0:0:0:0:
484,84,242616,6,0,B|470:73|470:73|415:83|415:83|397:118|397:118|318:132|318:132|309:126|309:126|254:136|254:136|221:182,1,300,14|8,2:1|2:1,0:0:0:0:
16,280,242950,1,10,2:1:0:0:
128,384,243061,2,0,B|168:356|168:356|176:300|176:300|172:304|172:304|180:248,1,150
104,80,243283,2,0,B|96:56|96:56|64:120|64:120|80:170,1,150,0|8,3:0|2:0,0:0:0:0:
224,176,243505,6,0,P|269:140|328:144,1,100,0|8,3:0|2:0,0:0:0:0:
464,96,243727,2,0,P|416:96|376:56,1,100,0|8,3:0|2:0,0:0:0:0:
256,0,243950,2,0,B|224:16|224:16|208:96,1,100,2|2,2:0|2:0,0:0:0:0:
296,216,244172,2,0,L|304:272,2,50,2|2|2,2:0|2:0|2:0,0:0:0:0:
288,68,244394,6,0,P|273:132|180:145,1,150,6|0,3:2|0:0,0:0:0:0:
180,144,244616,2,0,P|129:145|83:205,1,100,8|0,2:0|0:0,0:0:0:0:
120,332,244838,1,0,3:0:0:0:
152,228,244950,1,0,0:0:0:0:
17,182,245061,2,0,P|33:228|75:253,1,100,8|0,2:0|0:0,0:0:0:0:
220,264,245283,6,0,P|259:235|334:254,1,100,0|0,3:0|0:0,0:0:0:0:
432,360,245505,1,8,2:0:0:0:
288,320,245616,1,0,0:0:0:0:
376,296,245727,1,4,3:2:0:0:
288,320,245838,1,0,2:1:0:0:
432,360,245950,2,0,P|460:312|448:256,1,100,8|0,2:0|2:1,0:0:0:0:
368,152,246172,6,0,B|444:148|444:148|512:212,1,150,14|0,2:0|0:0,0:0:0:0:
512,212,246320,2,0,B|470:148|470:148|491:57,1,150,10|0,2:0|0:0,0:0:0:0:
491,58,246468,2,0,B|456:125|456:125|367:152,1,150,10|0,2:0|0:0,0:0:0:0:
328,216,246616,6,0,B|288:256|288:256|216:256|216:256|200:240,1,150,10|0,2:0|0:0,0:0:0:0:
188,228,246764,2,0,B|242:242|242:242|278:304|278:304|272:326,1,150,10|0,2:0|0:0,0:0:0:0:
268,343,246912,2,0,B|253:288|253:288|289:226|289:226|311:220,1,150,10|0,2:0|0:0,0:0:0:0:
368,316,247061,6,0,B|324:324|288:288|288:288|292:284|292:284|220:280|184:328|184:328|188:332|188:332|132:336|108:296|108:296|112:292|112:292|48:264|-8:324|-8:324|-4:328|-4:328|-48:268|4:212|4:212|8:216|8:216|52:188|44:132|44:132|40:136|40:136|-8:120|-16:52|-16:52|-20:52|-20:52|-20:56|-20:56|40:24|84:64|84:64|80:68|80:68|132:80|176:12|176:12|176:16|176:16|172:12|172:12|176:60|160:88,1,1125,10|0,3:0|0:0,0:0:0:0:
156,96,247950,6,0,B|209:102|209:102|246:63|246:63|243:55|243:55|282:13|282:13|333:22,1,225,4|0,3:0|0:0,0:0:0:0:
324,40,248172,2,0,P|332:88|368:128,1,100,10|0,2:0|0:0,0:0:0:0:
496,160,248394,1,0,3:2:0:0:
456,232,248505,2,0,P|408:244|352:248,1,100,2|10,2:0|2:0,0:0:0:0:
236,348,248727,6,0,B|204:308|220:264|220:264|232:260|232:260|272:232|268:172,1,200,2|2,2:0|2:0,0:0:0:0:
160,120,249061,1,8,2:0:0:0:
192,192,249172,1,2,2:0:0:0:
144,336,249283,2,0,P|104:360|40:368,1,100,8|0,3:2|0:0,0:0:0:0:
300,296,249505,2,0,P|348:300|400:324,1,100,8|0,2:0|0:0,0:0:0:0:
212,264,249727,6,0,P|160:260|120:172,1,150,2|0,3:2|0:0,0:0:0:0:
132,168,249950,2,0,P|164:120|168:76,1,100,10|0,2:0|0:0,0:0:0:0:
136,4,250172,1,8,3:2:0:0:
37,182,250283,2,0,P|94:185|134:167,1,100,2|10,2:0|2:0,0:0:0:0:
256,124,250505,6,0,B|289:170|241:221|241:221|232:221|232:221|184:239|168:292|188:336,1,250,2|0,2:0|0:0,0:0:0:0:
168,308,250838,6,0,B|152:276|152:276|304:308,1,150,2|0,2:1|0:0,0:0:0:0:
352,384,251061,1,0,3:0:0:0:
168,308,251172,6,0,B|152:276|152:276|304:308,1,150,2|2,2:1|3:2,0:0:0:0:
352,384,251394,1,0,0:0:0:0:
384,220,251505,6,0,B|372:188|372:188|296:172|296:172|288:180|288:180|164:152,1,225,6|0,3:1|0:0,0:0:0:0:
168,168,251727,6,0,P|136:128|152:56,1,100,10|0,2:0|0:0,0:0:0:0:
188,16,251950,1,0,3:2:0:0:
48,0,252061,2,0,B|12:24|12:24|0:84,1,100,2|10,2:0|2:0,0:0:0:0:
68,196,252283,6,0,B|116:164|164:192|164:192|160:184|160:184|216:204|228:272,1,200,2|2,2:0|2:0,0:0:0:0:
132,352,252616,1,10,2:0:0:0:
148,272,252727,1,2,2:0:0:0:
272,304,252838,2,0,P|328:312|368:280,1,100,10|0,3:2|0:0,0:0:0:0:
503,383,253061,2,0,P|466:352|417:351,1,100,8|0,2:0|0:0,0:0:0:0:
308,224,253283,6,0,L|424:208,1,100,2|0,3:1|0:0,0:0:0:0:
308,224,253505,2,0,L|192:240,1,100,10|0,2:0|0:0,0:0:0:0:
52,148,253727,6,0,L|168:132,1,100,2|0,3:1|0:0,0:0:0:0:
251,121,253950,2,0,L|135:137,1,100,10|0,2:0|0:0,0:0:0:0:
11,266,254172,6,0,L|209:237,1,200,2|8,2:1|2:0,0:0:0:0:
308,224,254505,1,10,2:0:0:0:
408,212,254616,1,8,2:1:0:0:
450,94,254727,2,0,L|334:110,2,100,10|4|0,2:0|2:1|0:0,0:0:0:0:
272,20,255061,6,0,B|236:64|236:64|258:125|258:125|270:133|270:133|290:165|290:165|274:213,1,225,4|0,3:0|0:0,0:0:0:0:
260,200,255283,2,0,B|216:218|216:218|196:269,1,100,10|0,2:0|0:0,0:0:0:0:
224,344,255505,1,2,3:2:0:0:
352,288,255616,2,0,L|456:304,1,100,2|10,2:0|2:0,0:0:0:0:
496,192,255838,6,0,P|451:111|360:136,1,200,2|2,2:0|2:0,0:0:0:0:
300,228,256172,1,10,2:0:0:0:
376,212,256283,1,2,2:0:0:0:
428,92,256394,2,0,P|364:104|344:144,1,100,10|0,3:2|0:0,0:0:0:0:
192,196,256616,2,0,P|128:180|112:144,1,100,8|0,2:0|0:0,0:0:0:0:
4,84,256838,6,0,P|44:44|132:52,1,150,2|0,3:2|0:0,0:0:0:0:
140,32,257061,2,0,B|176:56|176:56|184:136,1,100,10|0,2:0|0:0,0:0:0:0:
120,164,257283,1,8,3:2:0:0:
240,272,257394,2,0,P|276:239|288:191,1,100,2|8,2:0|2:0,0:0:0:0:
376,60,257616,6,0,B|392:20|435:40|435:40|466:93|429:147|342:161|325:99,1,250,2|0,2:0|0:0,0:0:0:0:
324,112,257950,6,0,B|304:93|304:93|214:126|214:126|211:153,1,150,2|0,2:1|0:0,0:0:0:0:
327,297,258172,1,0,3:0:0:0:
324,112,258283,6,0,B|304:93|304:93|214:126|214:126|211:153,1,150,2|2,2:1|2:0,0:0:0:0:
327,297,258505,1,0,0:0:0:0:
436,280,258616,6,0,B|428:230|369:204|369:204|366:212|366:212|369:204|369:204|308:186|270:219,1,225,6|0,3:2|0:0,0:0:0:0:
260,236,258838,6,0,P|212:240|168:216,1,100,10|0,2:0|0:0,0:0:0:0:
48,288,259061,1,0,3:0:0:0:
15,190,259172,2,0,P|19:138|39:90,1,100,2|10,2:0|2:0,0:0:0:0:
140,0,259394,6,0,P|220:0|220:128,1,200,2|2,2:0|2:0,0:0:0:0:
92,200,259727,1,10,2:0:0:0:
180,64,259838,1,2,3:2:0:0:
328,120,259950,2,0,P|340:172|348:244,2,100,2|8|8,3:2|2:1|2:0,0:0:0:0:
128,352,260394,5,2,3:2:0:0:
128,352,260616,1,2,2:0:0:0:
384,352,260838,1,2,3:2:0:0:
256,288,261061,1,2,2:0:0:0:
128,352,261283,1,2,3:2:0:0:
256,288,261616,1,2,3:2:0:0:
256,96,261727,5,0,3:0:0:0:
160,160,261838,2,0,L|156:224,2,50,8|8|8,2:1|2:1|2:0,0:0:0:0:
354,196,262116,2,0,L|352:172,3,25
256,192,262616,5,14,3:0:0:0:
256,192,262672,12,0,275283,0:0:0:0:
