osu file format v14

[General]
AudioFilename: audio.mp3
AudioLeadIn: 0
PreviewTime: 215969
Countdown: 0
SampleSet: Soft
StackLeniency: 0.4
Mode: 0
LetterboxInBreaks: 0
WidescreenStoryboard: 1

[Editor]
Bookmarks: 34616,48838,64838,79061,96838,111061,125283,141283,155505,173283,186950,262616
DistanceSpacing: 1.6
BeatDivisor: 4
GridSize: 32
TimelineZoom: 3.399999

[Metadata]
Title:Lilith
TitleUnicode:Lilith
Artist:Aitsuki Nakuru & Kabocha
ArtistUnicode:藍月なくる & かぼちゃ
Creator:Celine
Version:Miuline Collab Extra
Source:
Tags:japanese jazz pop osu! fa featured artist nacollection-3- nacollection 3 0ppinosu ancul felter mnyui muya gelidium sunazuka akira miura
BeatmapID:3019856
BeatmapSetID:1261931

[Difficulty]
HPDrainRate:5
CircleSize:4
OverallDifficulty:8.6
ApproachRate:9.3
SliderMultiplier:1.6
SliderTickRate:0.5

[Events]
//Background and Video events
0,0,"yande.re_564086_dress_rurudo_rurudot_wings (1).jpg",0,0
//Break Periods
//Storyboard Layer 0 (Background)
//Storyboard Layer 1 (Fail)
//Storyboard Layer 2 (Pass)
//Storyboard Layer 3 (Foreground)
//Storyboard Layer 4 (Overlay)
//Storyboard Sound Samples

[TimingPoints]
-50,222.222222222223,4,2,1,70,1,0
616,-133.333333333333,4,2,1,70,0,0
783,-133.333333333333,4,2,1,5,0,0
838,-100,4,2,2,70,0,0
1172,-100,4,2,1,70,0,0
1450,-133.333333333333,4,2,1,5,0,0
1505,-125,4,2,1,70,0,0
1838,-125,4,2,1,75,0,0
1950,-166.666666666667,4,2,1,70,0,0
2116,-133.333333333333,4,2,1,5,0,0
2172,-125,4,2,1,70,0,0
2394,-166.666666666667,4,2,1,70,0,0
2616,-100,4,2,13,75,0,0
2838,-133.333333333333,4,2,13,5,0,0
2912,-166.666666666667,4,2,1,73,0,0
3135,-133.333333333333,4,2,1,5,0,0
3209,-125,4,2,15,69,0,0
3431,-133.333333333333,4,2,15,5,0,0
3505,-250,4,2,1,67,0,0
3727,-133.333333333333,4,2,1,5,0,0
3801,-400,4,2,1,63,0,0
5616,-133.333333333333,4,2,1,70,0,0
5950,-250,4,2,1,75,0,0
6116,-133.333333333333,4,2,1,5,0,0
6172,-66.6666666666667,4,2,9,85,0,0
6338,-133.333333333333,4,2,9,5,0,0
6394,-125,4,2,1,75,0,0
7950,-100,4,2,1,75,0,0
8505,-100,4,2,1,82,0,0
8616,-100,4,2,1,75,0,0
8838,-166.666666666667,4,2,1,75,0,0
9061,-66.6666666666667,4,2,1,80,0,0
9227,-133.333333333333,4,2,1,5,0,0
9283,-66.6666666666667,4,2,1,80,0,0
9505,-125,4,2,1,70,0,0
9727,-66.6666666666667,4,2,2,85,0,0
9949,-66.6666666666667,4,2,1,75,0,0
10283,-125,4,2,1,75,0,0
11505,-66.6666666666667,4,2,1,85,0,0
11672,-133.333333333333,4,2,1,5,0,0
11727,-66.6666666666667,4,2,1,75,0,0
11950,-66.6666666666667,4,2,1,85,0,0
12116,-133.333333333333,4,2,1,5,0,0
12172,-100,4,2,1,75,0,0
12394,-80,4,2,1,90,0,0
12561,-133.333333333333,4,2,1,5,0,0
12616,-80,4,2,1,85,0,0
12727,-100,4,2,1,85,0,0
13061,-100,4,2,5,85,0,0
13283,-66.6666666666667,4,2,10,85,0,0
13450,-133.333333333333,4,2,10,5,0,0
13505,-125,4,2,1,75,0,0
15061,-100,4,2,1,75,0,0
15950,-166.666666666667,4,2,1,75,0,0
16172,-66.6666666666667,4,2,1,75,0,0
16338,-133.333333333333,4,2,1,5,0,0
16394,-66.6666666666667,4,2,1,80,0,0
16616,-125,4,2,1,70,0,0
16838,-66.6666666666667,4,2,5,85,0,0
17060,-66.6666666666667,4,2,1,75,0,0
17394,-125,4,2,1,75,0,0
18172,-125,4,2,1,85,0,0
18616,-200,4,2,1,65,0,0
18783,-133.333333333333,4,2,1,5,0,0
18838,-200,4,2,1,65,0,0
19005,-133.333333333333,4,2,1,5,0,0
19061,-333.333333333333,4,2,1,65,0,0
19505,-125,4,2,1,65,0,0
19838,-166.666666666667,4,2,1,65,0,0
19950,-166.666666666667,4,2,1,55,0,0
20394,-200,4,2,1,55,0,0
20838,-200,4,2,3,55,0,0
21283,-250,4,2,3,55,0,0
21727,-200,4,2,3,80,0,0
21950,-200,4,2,3,55,0,0
23505,-200,4,2,3,80,0,0
23616,-200,4,2,3,55,0,0
23950,-166.666666666667,4,2,3,55,0,0
25172,-100,4,2,3,55,0,0
25283,-100,4,2,3,80,0,0
25450,-133.333333333333,4,2,3,5,0,0
25505,-100,4,2,3,55,0,0
25727,-125,4,2,3,55,0,0
27061,-125,4,2,3,80,0,0
27505,-166.666666666667,4,2,3,55,0,0
27950,-250,4,2,3,55,0,0
28838,-250,4,2,3,80,0,0
29061,-166.666666666667,4,2,3,55,0,0
30061,-200,4,2,3,55,0,0
30283,-166.666666666667,4,2,3,55,0,0
30561,-133.333333333333,4,2,3,5,0,0
30616,-125,4,2,3,80,0,0
30727,-125,4,2,3,55,0,0
32394,-125,4,2,3,80,0,0
32616,-125,4,2,3,55,0,0
32838,-125,4,2,3,45,0,0
33727,-100,4,2,90,45,0,0
34616,-66.6666666666667,4,2,91,80,0,0
34838,-66.6666666666667,4,2,2,75,0,0
35061,-125,4,2,2,75,0,0
35505,-100,4,2,2,75,0,0
36172,-125,4,2,2,75,0,0
36394,-100,4,2,2,75,0,0
36561,-133.333333333333,4,2,2,5,0,0
36616,-100,4,2,2,75,0,0
38616,-125,4,2,2,75,0,0
39061,-166.666666666667,4,2,2,75,0,0
40394,-111.111111111111,4,2,2,75,0,0
40838,-166.666666666667,4,2,2,75,0,0
41283,-111.111111111111,4,2,2,75,0,0
41727,-100,4,2,2,75,0,0
42172,-125,4,2,2,75,0,0
43505,-100,4,2,2,75,0,0
43672,-133.333333333333,4,2,2,5,0,0
43727,-100,4,2,2,75,0,0
45727,-125,4,2,2,75,0,0
46172,-166.666666666667,4,2,2,75,0,0
46616,-80,4,2,2,75,0,0
47283,-125,4,2,2,75,0,0
47450,-133.333333333333,4,2,2,5,0,0
47505,-80,4,2,2,75,0,0
48838,-80,4,2,1,75,0,0
49283,-90.9090909090909,4,2,1,75,0,0
49727,-100,4,2,1,75,0,0
50950,-133.333333333333,4,2,1,75,0,0
51283,-200,4,2,1,75,0,0
51505,-100,4,2,1,75,0,0
54338,-133.333333333333,4,2,1,5,0,0
54394,-100,4,2,1,75,0,0
54505,-80,4,2,1,75,0,0
54672,-133.333333333333,4,2,1,5,0,0
54727,-80,4,2,1,75,0,0
54838,-66.6666666666667,4,2,1,75,0,0
55005,-133.333333333333,4,2,1,5,0,0
55061,-100,4,2,1,75,0,0
57727,-133.333333333333,4,2,1,75,0,0
58561,-133.333333333333,4,2,1,5,0,0
58616,-100,4,2,1,75,0,0
59838,-250,4,2,1,75,0,0
60727,-200,4,2,1,75,0,0
61616,-142.857142857143,4,2,1,75,0,0
62838,-285.714285714286,4,2,1,75,0,0
64394,-133.333333333333,4,2,1,75,0,0
64838,-133.333333333333,4,2,9,85,0,1
65061,-66.6666666666667,4,2,7,85,0,1
65227,-133.333333333333,4,2,7,5,0,1
65283,-80,4,2,7,85,0,1
65616,-88.8888888888889,4,2,7,85,0,1
65950,-80,4,2,7,85,0,1
66172,-66.6666666666667,4,2,7,85,0,1
66338,-133.333333333333,4,2,7,5,0,1
66394,-80,4,2,7,85,0,1
67061,-100,4,2,7,85,0,1
67394,-80,4,2,7,85,0,1
67616,-100,4,2,7,85,0,1
67950,-66.6666666666667,4,2,7,85,0,1
68116,-133.333333333333,4,2,7,5,0,1
68172,-80,4,2,7,85,0,1
68394,-80,4,2,1,85,0,1
70838,-80,4,2,4,85,0,1
70950,-80,4,2,7,85,0,1
71172,-80,4,2,5,85,0,1
71283,-80,4,2,7,85,0,1
71505,-133.333333333333,4,2,7,85,0,1
71950,-53.763440860215,4,2,9,85,0,1
72172,-53.763440860215,4,2,7,85,0,1
72394,-66.6666666666667,4,2,7,85,0,1
72727,-80,4,2,7,85,0,1
73061,-133.333333333333,4,2,7,85,0,1
73283,-100,4,2,7,85,0,1
73505,-80,4,2,7,85,0,1
73727,-66.6666666666667,4,2,7,85,0,1
73894,-133.333333333333,4,2,7,5,0,1
73950,-80,4,2,7,85,0,1
74838,-57.1428571428571,4,2,7,85,0,1
75505,-100,4,2,1,85,0,1
75950,-133.333333333333,4,2,1,85,0,1
76394,-80,4,2,1,65,0,1
76505,-80,4,2,1,70,0,1
76616,-80,4,2,1,75,0,1
76727,-80,4,2,1,80,0,1
76838,-133.333333333333,4,2,1,85,0,1
77061,-100,4,2,1,85,0,1
77283,-66.6666666666667,4,2,2,90,0,1
77616,-66.6666666666667,4,2,7,90,0,1
78172,-66.6666666666667,4,2,7,100,0,1
78616,-133.333333333333,4,2,7,100,0,1
79061,-50,4,2,9,85,0,1
79283,-66.6666666666667,4,2,7,85,0,1
79450,-133.333333333333,4,2,7,5,0,1
79505,-80,4,2,7,85,0,1
79838,-88.8888888888889,4,2,7,85,0,1
80172,-80,4,2,7,85,0,1
80394,-66.6666666666667,4,2,7,85,0,1
80561,-133.333333333333,4,2,7,5,0,1
80616,-80,4,2,7,85,0,1
81283,-100,4,2,7,85,0,1
81616,-80,4,2,7,85,0,1
81838,-100,4,2,7,85,0,1
82172,-66.6666666666667,4,2,7,85,0,1
82338,-133.333333333333,4,2,7,5,0,1
82394,-80,4,2,7,85,0,1
82616,-100,4,2,7,85,0,1
83061,-80,4,2,7,85,0,1
83505,-100,4,2,7,85,0,1
83950,-80,4,2,7,85,0,1
85505,-80,4,2,5,85,0,1
85727,-133.333333333333,4,2,7,85,0,1
86172,-80,4,2,9,85,0,1
86394,-80,4,2,7,85,0,1
86616,-66.6666666666667,4,2,7,85,0,1
86950,-80,4,2,7,85,0,1
87283,-133.333333333333,4,2,7,85,0,1
87505,-100,4,2,7,85,0,1
87727,-80,4,2,7,85,0,1
87950,-66.6666666666667,4,2,7,85,0,1
88116,-133.333333333333,4,2,7,5,0,1
88172,-80,4,2,7,85,0,1
89061,-57.1428571428571,4,2,7,85,0,1
89727,-100,4,2,1,85,0,1
90172,-133.333333333333,4,2,1,85,0,1
90616,-80,4,2,1,85,0,1
91061,-133.333333333333,4,2,1,85,0,1
91283,-100,4,2,1,85,0,1
91505,-66.6666666666667,4,2,2,85,0,1
91727,-66.6666666666667,4,2,7,85,0,1
91838,-80,4,2,7,85,0,1
92394,-66.6666666666667,4,2,7,100,0,1
92450,-66.6666666666667,4,2,7,85,0,1
92616,-100,4,2,7,85,0,1
93061,-133.333333333333,4,2,7,85,0,1
93283,-80,4,2,5,75,0,1
93505,-80,4,2,7,75,0,1
93950,-133.333333333333,4,2,7,75,0,1
94172,-76.9230769230769,4,2,7,75,0,1
94616,-76.9230769230769,4,2,7,85,0,1
94838,-100,4,2,7,85,0,1
95061,-100,4,2,7,95,0,1
95950,-100,4,2,98,40,0,0
96172,-333.333333333333,4,2,98,70,0,0
96838,-66.6666666666667,4,2,10,85,0,0
97005,-133.333333333333,4,2,10,5,0,0
97061,-125,4,2,1,75,0,0
98616,-100,4,2,1,75,0,0
99172,-100,4,2,1,82,0,0
99283,-100,4,2,1,75,0,0
99394,-100,4,2,1,50,0,0
99505,-166.666666666667,4,2,1,75,0,0
99727,-66.6666666666667,4,2,1,80,0,0
99894,-133.333333333333,4,2,1,5,0,0
99950,-66.6666666666667,4,2,1,80,0,0
100172,-125,4,2,1,70,0,0
100394,-66.6666666666667,4,2,1,85,0,0
100616,-66.6666666666667,4,2,1,75,0,0
100950,-125,4,2,1,75,0,0
102172,-66.6666666666667,4,2,1,85,0,0
102338,-133.333333333333,4,2,1,5,0,0
102394,-66.6666666666667,4,2,1,75,0,0
102616,-66.6666666666667,4,2,1,85,0,0
102783,-133.333333333333,4,2,1,5,0,0
102838,-100,4,2,1,75,0,0
103061,-80,4,2,1,90,0,0
103227,-133.333333333333,4,2,1,5,0,0
103283,-80,4,2,1,85,0,0
103394,-100,4,2,1,85,0,0
103727,-100,4,2,5,85,0,0
103950,-66.6666666666667,4,2,10,85,0,0
104116,-133.333333333333,4,2,10,5,0,0
104172,-125,4,2,1,75,0,0
105727,-100,4,2,1,75,0,0
106283,-100,4,2,1,82,0,0
106394,-100,4,2,1,75,0,0
106505,-100,4,2,1,50,0,0
106616,-166.666666666667,4,2,1,75,0,0
106838,-66.6666666666667,4,2,1,80,0,0
107005,-133.333333333333,4,2,1,5,0,0
107061,-66.6666666666667,4,2,1,80,0,0
107283,-125,4,2,1,70,0,0
107505,-66.6666666666667,4,2,1,85,0,0
107727,-66.6666666666667,4,2,1,75,0,0
108061,-125,4,2,1,75,0,0
108838,-125,4,2,1,85,0,0
109283,-125,4,2,1,65,0,0
111061,-83.3333333333333,4,2,2,75,0,0
111505,-125,4,2,2,75,0,0
111950,-100,4,2,2,75,0,0
113005,-133.333333333333,4,2,2,5,0,0
113061,-100,4,2,2,75,0,0
115061,-125,4,2,2,75,0,0
115505,-166.666666666667,4,2,2,75,0,0
115950,-83.3333333333333,4,2,2,75,0,0
116172,-100,4,2,2,75,0,0
116394,-86.9565217391304,4,2,2,75,0,0
116838,-125,4,2,2,75,0,0
117283,-86.9565217391304,4,2,2,75,0,0
117727,-125,4,2,2,75,0,0
118172,-100,4,2,2,75,0,0
118616,-125,4,2,2,75,0,0
119950,-100,4,2,2,75,0,0
120116,-133.333333333333,4,2,2,5,0,0
120172,-100,4,2,2,75,0,0
122172,-166.666666666667,4,2,2,75,0,0
123505,-80,4,2,2,75,0,0
125283,-80,4,2,1,75,0,0
125838,-90.9090909090909,4,2,1,75,0,0
126061,-100,4,2,1,75,0,0
127394,-133.333333333333,4,2,1,75,0,0
127727,-200,4,2,1,75,0,0
127950,-90.9090909090909,4,2,1,75,0,0
128116,-133.333333333333,4,2,1,5,0,0
128172,-100,4,2,1,75,0,0
128394,-100,4,2,1,80,0,0
128616,-100,4,2,1,70,0,0
128838,-90.9090909090909,4,2,1,85,0,0
129283,-100,4,2,1,85,0,0
129727,-100,4,2,1,75,0,0
130783,-133.333333333333,4,2,1,5,0,0
130838,-100,4,2,1,75,0,0
130950,-80,4,2,1,75,0,0
131116,-133.333333333333,4,2,1,5,0,0
131172,-80,4,2,1,75,0,0
131283,-66.6666666666667,4,2,1,75,0,0
131450,-133.333333333333,4,2,1,5,0,0
131505,-100,4,2,1,75,0,0
131950,-100,4,2,1,80,0,0
132172,-100,4,2,1,70,0,0
132394,-90.9090909090909,4,2,1,75,0,0
132838,-100,4,2,1,75,0,0
134838,-133.333333333333,4,2,1,75,0,0
135005,-133.333333333333,4,2,1,5,0,0
135061,-133.333333333333,4,2,1,75,0,0
135950,-133.333333333333,4,2,4,75,0,0
136283,-250,4,2,4,75,0,0
136950,-100,4,2,4,75,0,0
137172,-200,4,2,4,75,0,0
138061,-166.666666666667,4,2,4,75,0,0
139061,-166.666666666667,4,2,1,75,0,0
139283,-285.714285714286,4,2,1,75,0,0
140838,-133.333333333333,4,2,1,75,0,0
141283,-133.333333333333,4,2,9,85,0,1
141505,-66.6666666666667,4,2,7,85,0,1
141672,-133.333333333333,4,2,7,5,0,1
141727,-80,4,2,7,85,0,1
142061,-88.8888888888889,4,2,7,85,0,1
142394,-80,4,2,7,85,0,1
142616,-66.6666666666667,4,2,7,85,0,1
142783,-133.333333333333,4,2,7,5,0,1
142838,-80,4,2,7,85,0,1
143061,-100,4,2,7,85,0,1
143227,-133.333333333333,4,2,7,5,0,1
143283,-100,4,2,7,85,0,1
143838,-80,4,2,7,85,0,1
144061,-100,4,2,7,85,0,1
144394,-66.6666666666667,4,2,7,85,0,1
144561,-133.333333333333,4,2,7,5,0,1
144616,-80,4,2,7,85,0,1
144838,-100,4,2,1,85,0,1
145283,-80,4,2,1,85,0,1
146172,-50,4,2,1,85,0,1
147283,-50,4,2,4,85,0,1
147394,-50,4,2,7,85,0,1
147616,-50,4,2,5,85,0,1
147727,-50,4,2,7,85,0,1
147950,-133.333333333333,4,2,7,85,0,1
148394,-57.1428571428571,4,2,9,85,0,1
148616,-57.1428571428571,4,2,7,85,0,1
148838,-66.6666666666667,4,2,7,85,0,1
149172,-80,4,2,7,85,0,1
149505,-133.333333333333,4,2,7,85,0,1
149727,-100,4,2,7,85,0,1
149950,-80,4,2,7,85,0,1
150172,-66.6666666666667,4,2,7,85,0,1
150338,-133.333333333333,4,2,7,5,0,1
150394,-80,4,2,7,85,0,1
151283,-66.6666666666667,4,2,7,85,0,1
151950,-100,4,2,1,85,0,1
152394,-133.333333333333,4,2,1,85,0,1
152838,-80,4,2,1,65,0,1
152950,-80,4,2,1,70,0,1
153060,-80,4,2,1,75,0,1
153172,-80,4,2,1,80,0,1
153283,-133.333333333333,4,2,1,85,0,1
153505,-100,4,2,1,85,0,1
153727,-50,4,2,7,85,0,1
154061,-50,4,2,7,90,0,1
154616,-50,4,2,7,100,0,1
155283,-133.333333333333,4,2,7,100,0,1
155505,-50,4,2,9,85,0,1
155727,-66.6666666666667,4,2,7,85,0,1
155894,-133.333333333333,4,2,7,5,0,1
155950,-80,4,2,7,85,0,1
156283,-88.8888888888889,4,2,7,85,0,1
156616,-80,4,2,7,85,0,1
156838,-66.6666666666667,4,2,7,85,0,1
157005,-133.333333333333,4,2,7,5,0,1
157061,-80,4,2,7,85,0,1
157727,-100,4,2,7,85,0,1
158061,-80,4,2,7,85,0,1
158283,-100,4,2,7,85,0,1
158616,-66.6666666666667,4,2,7,85,0,1
158783,-133.333333333333,4,2,7,5,0,1
158838,-80,4,2,7,85,0,1
159061,-80,4,2,1,85,0,1
159505,-100,4,2,1,85,0,1
159950,-80,4,2,1,85,0,1
161950,-80,4,2,5,85,0,1
162172,-133.333333333333,4,2,7,85,0,1
162616,-53.763440860215,4,2,9,85,0,1
162838,-53.763440860215,4,2,7,85,0,1
163172,-80,4,2,7,85,0,1
163727,-133.333333333333,4,2,7,85,0,1
163950,-100,4,2,7,85,0,1
164172,-80,4,2,7,85,0,1
164394,-66.6666666666667,4,2,7,85,0,1
164561,-133.333333333333,4,2,7,5,0,1
164616,-80,4,2,7,85,0,1
165172,-98.0392156862745,4,2,7,85,0,1
165505,-57.1428571428571,4,2,7,85,0,1
166172,-100,4,2,1,85,0,1
166616,-133.333333333333,4,2,1,85,0,1
167061,-80,4,2,1,85,0,1
167505,-100,4,2,1,85,0,1
167950,-66.6666666666667,4,2,2,85,0,1
168172,-66.6666666666667,4,2,7,85,0,1
168283,-66.6666666666667,4,2,7,85,0,1
168838,-66.6666666666667,4,2,7,100,0,1
168950,-66.6666666666667,4,2,7,85,0,1
169505,-133.333333333333,4,2,7,85,0,1
169727,-80,4,2,5,75,0,1
169949,-80,4,2,7,75,0,1
170394,-133.333333333333,4,2,7,75,0,1
170616,-80,4,2,7,75,0,1
171061,-100,4,2,4,85,0,1
171505,-100,4,2,7,95,0,1
172394,-100,4,2,98,50,0,0
172616,-333.333333333333,4,2,98,70,0,0
173283,-166.666666666667,4,2,1,65,0,0
173727,-166.666666666667,4,2,3,65,0,0
173949,-166.666666666667,4,2,3,50,0,0
174172,-500,4,2,3,50,0,0
175061,-166.666666666667,4,2,3,50,0,0
175950,-500,4,2,3,50,0,0
176838,-166.666666666667,4,2,3,50,0,0
177727,-500,4,2,3,50,0,0
179061,-166.666666666667,4,2,3,50,0,0
179616,-166.666666666667,4,2,1,50,0,0
180172,-166.666666666667,4,2,5,50,0,0
180394,-166.666666666667,4,2,5,65,0,0
180838,-166.666666666667,4,2,3,65,0,0
181060,-166.666666666667,4,2,3,50,0,0
181283,-500,4,2,3,50,0,0
182172,-166.666666666667,4,2,3,50,0,0
183061,-500,4,2,3,50,0,0
183950,-166.666666666667,4,2,3,50,0,0
185061,-166.666666666667,4,2,1,50,0,0
186950,-500,4,2,1,50,0,0
187505,-66.6666666666667,4,2,1,50,0,0
188394,-125,4,2,1,50,0,0
188616,-66.6666666666667,4,2,1,50,0,0
188783,-133.333333333333,4,2,1,5,0,0
188838,-66.6666666666667,4,2,1,50,0,0
189950,-80,4,2,1,50,0,0
190394,-100,4,2,1,50,0,0
191061,-66.6666666666667,4,2,1,50,0,0
191950,-125,4,2,1,50,0,0
192172,-66.6666666666667,4,2,1,50,0,0
192338,-133.333333333333,4,2,1,5,0,0
192394,-66.6666666666667,4,2,1,50,0,0
193172,-90.9090909090909,4,2,1,50,0,0
193727,-125,4,2,1,50,0,0
194061,-100,4,2,1,50,0,0
194616,-66.6666666666667,4,2,1,50,0,0
198172,-80,4,2,1,50,0,0
198616,-125,4,2,1,50,0,0
199061,-100,4,2,1,50,0,0
199505,-80,4,2,1,50,0,0
201394,-125,4,2,1,50,0,0
201727,-125,4,2,4,50,0,0
201950,-166.666666666667,4,2,4,50,0,0
202116,-133.333333333333,4,2,4,5,0,0
202172,-333.333333333333,4,2,4,50,0,0
202505,-222.222222222222,4,2,1,50,0,0
202838,-166.666666666667,4,2,1,50,0,0
203227,-133.333333333333,4,2,1,5,0,0
203283,-333.333333333333,4,2,1,50,0,0
204283,-222.222222222222,4,2,1,50,0,0
206172,-166.666666666667,4,2,1,50,0,0
206616,-222.222222222222,4,2,1,50,0,0
207950,-166.666666666667,4,2,1,50,0,0
210172,-125,4,2,1,50,0,0
211394,-142.857142857143,4,2,1,50,0,0
211950,-125,4,2,1,50,0,0
212394,-250,4,2,1,50,0,0
213283,-200,4,2,1,50,0,0
215394,-200,4,2,1,85,0,0
215505,-133.333333333333,4,2,1,85,0,0
215950,-133.333333333333,4,2,9,85,0,1
216172,-66.6666666666667,4,2,7,85,0,1
216338,-133.333333333333,4,2,7,5,0,1
216394,-80,4,2,7,85,0,1
216727,-88.8888888888889,4,2,7,85,0,1
217061,-80,4,2,7,85,0,1
217283,-66.6666666666667,4,2,7,85,0,1
217450,-133.333333333333,4,2,7,5,0,1
217505,-80,4,2,7,85,0,1
218172,-100,4,2,7,85,0,1
218505,-80,4,2,7,85,0,1
218727,-100,4,2,7,85,0,1
219061,-66.6666666666667,4,2,7,85,0,1
219227,-133.333333333333,4,2,7,5,0,1
219283,-80,4,2,7,85,0,1
219505,-80,4,2,1,85,0,1
219950,-66.6666666666667,4,2,1,85,0,1
220394,-80,4,2,1,85,0,1
221950,-80,4,2,7,85,0,1
222616,-133.333333333333,4,2,7,85,0,1
223061,-53.5714285714286,4,2,9,85,0,1
223283,-53.5714285714286,4,2,7,85,0,1
223505,-66.6666666666667,4,2,7,85,0,1
223838,-80,4,2,7,85,0,1
224172,-133.333333333333,4,2,7,85,0,1
224394,-100,4,2,7,85,0,1
224616,-80,4,2,7,85,0,1
224838,-66.6666666666667,4,2,7,85,0,1
225005,-133.333333333333,4,2,7,5,0,1
225061,-80,4,2,7,85,0,1
225616,-90.9090909090909,4,2,7,85,0,1
225950,-57.1428571428571,4,2,7,85,0,1
226616,-100,4,2,1,85,0,1
227061,-133.333333333333,4,2,1,85,0,1
227505,-66.6666666666667,4,2,1,85,0,1
227950,-133.333333333333,4,2,1,85,0,1
228172,-100,4,2,1,85,0,1
228394,-66.6666666666667,4,2,2,85,0,1
228727,-53.763440860215,4,2,7,85,0,1
229283,-66.6666666666667,4,2,7,85,0,1
229727,-133.333333333333,4,2,7,85,0,1
230172,-50,4,2,9,85,0,1
230394,-66.6666666666667,4,2,7,85,0,1
230561,-133.333333333333,4,2,7,5,0,1
230616,-80,4,2,7,85,0,1
230950,-88.8888888888889,4,2,7,85,0,1
231283,-80,4,2,7,85,0,1
231505,-66.6666666666667,4,2,7,85,0,1
231672,-133.333333333333,4,2,7,5,0,1
231727,-80,4,2,7,85,0,1
232172,-66.6666666666667,4,2,7,85,0,1
232338,-133.333333333333,4,2,7,5,0,1
232394,-66.6666666666667,4,2,7,85,0,1
232505,-80,4,2,7,85,0,1
232950,-100,4,2,7,85,0,1
233505,-80,4,2,7,85,0,1
233727,-80,4,2,1,85,0,1
236616,-80,4,2,5,85,0,1
236838,-133.333333333333,4,2,7,85,0,1
237061,-66.6666666666667,4,2,7,85,0,1
237283,-53.763440860215,4,2,7,85,0,1
237838,-80,4,2,7,85,0,1
238394,-133.333333333333,4,2,7,85,0,1
238616,-100,4,2,7,85,0,1
238838,-80,4,2,7,85,0,1
239061,-66.6666666666667,4,2,7,85,0,1
239227,-133.333333333333,4,2,7,5,0,1
239283,-80,4,2,7,85,0,1
240172,-57.1428571428571,4,2,7,85,0,1
240838,-100,4,2,1,85,0,1
241283,-133.333333333333,4,2,1,85,0,1
241727,-80,4,2,1,85,0,1
242172,-133.333333333333,4,2,1,85,0,1
242394,-100,4,2,1,85,0,1
242616,-66.6666666666667,4,2,2,85,0,1
242838,-66.6666666666667,4,2,7,85,0,1
244172,-133.333333333333,4,2,7,85,0,1
244394,-80,4,2,5,85,0,1
244616,-80,4,2,7,85,0,1
245061,-133.333333333333,4,2,7,85,0,1
245283,-80,4,2,7,85,0,1
245727,-100,4,2,7,85,0,1
247061,-100,4,2,98,85,0,0
247283,-333.333333333333,4,2,98,85,0,0
247950,-66.6666666666667,4,2,10,85,0,0
248116,-133.333333333333,4,2,10,5,0,0
248172,-125,4,2,1,85,0,0
249727,-100,4,2,1,85,0,0
250616,-166.666666666667,4,2,1,85,0,0
250838,-66.6666666666667,4,2,1,85,0,0
251005,-133.333333333333,4,2,1,5,0,0
251061,-66.6666666666667,4,2,1,85,0,0
251283,-125,4,2,1,85,0,0
251505,-66.6666666666667,4,2,2,85,0,0
251727,-66.6666666666667,4,2,1,85,0,0
252061,-125,4,2,1,85,0,0
253283,-66.6666666666667,4,2,1,85,0,0
253450,-133.333333333333,4,2,1,5,0,0
253505,-66.6666666666667,4,2,1,85,0,0
253894,-133.333333333333,4,2,1,5,0,0
253950,-100,4,2,1,85,0,0
254172,-80,4,2,1,85,0,0
254338,-133.333333333333,4,2,1,5,0,0
254394,-80,4,2,1,85,0,0
254505,-100,4,2,1,85,0,0
254838,-100,4,2,5,85,0,0
255061,-66.6666666666667,4,2,10,85,0,0
255227,-133.333333333333,4,2,10,5,0,0
255283,-125,4,2,1,85,0,0
256838,-100,4,2,1,85,0,0
257727,-166.666666666667,4,2,1,85,0,0
257950,-66.6666666666667,4,2,1,85,0,0
258116,-133.333333333333,4,2,1,5,0,0
258172,-100,4,2,1,85,0,0
258394,-125,4,2,1,85,0,0
258616,-66.6666666666667,4,2,1,85,0,0
259172,-125,4,2,1,85,0,0
262061,-80,4,2,1,85,0,0
262616,-80,4,2,98,85,0,0
262672,-80,4,2,98,5,0,0
263727,-80,4,2,1,5,0,0

[Colours]
Combo1 : 255,147,255
Combo2 : 255,128,128
Combo3 : 163,70,255
Combo4 : 128,128,255

[HitObjects]
17,378,394,6,0,P|0:366|3:344,2,40,8|8|8,2:0|2:0|2:0,0:0:0:0:
30,384,616,2,0,P|71:367|115:361,1,90.0000000000002,8|0,2:0|0:0,0:0:0:0:
153,283,838,6,0,P|150:203|166:125,1,160,4|0,3:1|0:0,0:0:0:0:
207,65,1172,1,8,2:0:0:0:
177,137,1283,2,0,P|162:197|163:260,1,120,8|0,2:0|0:0,0:0:0:0:
201,357,1505,6,0,L|331:333,1,128,4|0,3:0|0:0,0:0:0:0:
245,271,1838,1,8,2:0:0:0:
203,369,1950,2,0,L|278:355,1,71.9999999999999,8|0,2:0|0:0,0:0:0:0:
343,318,2172,6,0,P|343:286|358:259,1,64,0|8,3:0|2:1,0:0:0:0:
416,309,2394,2,0,P|436:297|459:297,1,47.9999999999999,8|0,3:1|0:0,0:0:0:0:
494,211,2616,6,0,P|418:195|393:123,1,160,14|0,3:0|0:0,0:0:0:0:
502,62,2912,2,0,P|506:108|469:136,1,95.9999999999998,14|0,3:0|0:0,0:0:0:0:
323,189,3209,6,0,P|262:170|198:167,1,128,14|0,3:0|0:0,0:0:0:0:
190,179,3505,2,0,P|161:166|158:136,1,64,10|0,2:0|0:0,0:0:0:0:
162,31,3801,6,0,P|205:156|216:289,1,266.666666666667,10|0,2:0|0:0,0:0:0:0:
216,289,5616,6,0,L|208:330,1,30.0000000000001,8|8,2:0|2:0,0:0:0:0:
258,383,5727,5,8,2:1:0:0:
282,351,5838,1,8,2:0:0:0:
290,357,5950,2,0,L|347:346,1,48,8|0,2:1|0:0,0:0:0:0:
491,164,6172,6,0,P|406:173|384:255,1,180,4|0,3:2|0:0,0:0:0:0:
419,325,6394,2,0,L|403:239,1,64,8|0,2:0|0:0,0:0:0:0:
306,187,6616,1,0,3:0:0:0:
306,187,6727,2,0,L|226:201,1,64,0|8,0:0|2:0,0:0:0:0:
178,152,6950,2,0,L|162:66,1,64,0|0,0:0|3:0,0:0:0:0:
254,0,7172,5,0,0:0:0:0:
280,65,7283,1,8,2:0:0:0:
340,100,7394,1,0,0:0:0:0:
416,88,7505,6,0,P|374:100|370:120,1,64,8|0,3:2|0:0,0:0:0:0:
493,0,7727,2,0,P|483:42|498:56,1,64,8|0,2:0|0:0,0:0:0:0:
512,201,7950,6,0,B|412:218|412:218|406:227|406:227|359:236,1,160,0|8,3:0|2:0,0:0:0:0:
360,237,8394,5,8,3:2:0:0:
307,175,8505,1,0,0:0:0:0:
279,237,8616,1,8,2:0:0:0:
297,288,8727,1,0,0:0:0:0:
332,317,8838,2,0,L|321:375,1,47.9999999999999,0|0,3:0|0:0,0:0:0:0:
467,340,9061,6,0,P|473:293|368:248,1,180,10|0,2:0|0:0,0:0:0:0:
232,327,9283,5,0,3:0:0:0:
205,207,9394,1,10,2:0:0:0:
236,340,9505,2,0,P|239:355|203:374,1,64
123,382,9727,6,0,P|204:320|351:340,1,240,4|8,3:1|2:0,0:0:0:0:
433,196,10172,5,0,3:0:0:0:
433,196,10283,2,0,L|419:116,1,64,0|8,0:0|2:0,0:0:0:0:
498,117,10505,2,0,L|514:203,1,64,0|0,0:0|3:0,0:0:0:0:
340,26,10727,5,0,0:0:0:0:
300,83,10838,1,8,2:0:0:0:
231,96,10950,1,0,0:0:0:0:
161,57,11061,6,0,P|119:69|115:89,1,64,8|0,3:2|0:0,0:0:0:0:
216,208,11283,2,0,P|246:239|239:258,1,64,8|0,2:0|0:0,0:0:0:0:
41,351,11505,6,0,P|99:253|152:256,1,180,2|0,3:2|0:0,0:0:0:0:
152,256,11727,2,0,P|140:175|162:148,1,120,10|0,2:0|0:0,0:0:0:0:
252,8,11950,6,0,P|310:106|363:103,1,180,2|0,3:2|0:0,0:0:0:0:
363,102,12172,2,0,P|366:64|417:56,1,80,10|0,2:0|0:0,0:0:0:0:
488,178,12394,6,0,L|329:205,1,150,10|0,2:0|0:0,0:0:0:0:
338,214,12616,1,10,2:0:0:0:
336,224,12727,2,0,L|418:209,1,80,8|8,2:1|2:1,0:0:0:0:
509,289,12950,1,10,2:0:0:0:
511,299,13061,2,0,L|428:284,1,80,6|0,2:1|0:0,0:0:0:0:
297,142,13283,6,0,P|297:56|378:27,1,180,4|0,3:0|0:0,0:0:0:0:
406,99,13505,2,0,L|390:13,1,64,8|0,2:0|0:0,0:0:0:0:
240,0,13727,1,0,3:0:0:0:
240,0,13838,2,0,L|160:14,1,64,0|8,0:0|2:0,0:0:0:0:
119,61,14061,2,0,L|56:49,1,64,0|0,0:0|3:0,0:0:0:0:
23,218,14283,5,0,0:0:0:0:
64,161,14394,1,8,2:0:0:0:
131,143,14505,1,0,0:0:0:0:
202,174,14616,6,0,P|164:151|165:131,1,64,8|0,3:2|0:0,0:0:0:0:
272,207,14838,2,0,P|249:244|229:243,1,64,8|0,2:0|0:0,0:0:0:0:
406,99,15061,6,0,P|382:175|378:254,1,160,0|8,3:0|2:0,0:0:0:0:
378,254,15505,5,8,3:2:0:0:
411,183,15616,1,0,0:0:0:0:
449,223,15727,1,8,2:0:0:0:
453,270,15838,1,0,0:0:0:0:
436,309,15950,2,0,L|425:367,1,47.9999999999999,0|0,3:0|0:0,0:0:0:0:
303,275,16172,6,0,P|320:199|414:184,1,180,10|0,2:0|0:0,0:0:0:0:
508,96,16394,5,0,3:1:0:0:
484,0,16505,1,10,2:0:0:0:
512,109,16616,2,0,P|515:124|479:143,1,64,0|0,3:1|2:0,0:0:0:0:
410,182,16838,6,0,P|344:125|179:122,1,240,6|8,3:2|2:0,0:0:0:0:
11,208,17283,5,0,3:0:0:0:
11,208,17394,2,0,L|-3:128,1,64,0|8,0:0|2:0,0:0:0:0:
76,127,17616,2,0,L|92:213,1,64,0|0,0:0|3:0,0:0:0:0:
213,18,17838,5,0,0:0:0:0:
155,12,17950,1,8,2:0:0:0:
110,48,18061,1,0,0:0:0:0:
177,85,18172,5,0,3:0:0:0:
296,46,18283,5,8,2:1:0:0:
322,127,18394,5,8,2:0:0:0:
322,127,18616,6,0,L|395:114,1,60,2|0,2:0|0:0,0:0:0:0:
396,127,18838,2,0,L|469:114,1,60,2|0,2:0|0:0,0:0:0:0:
510,50,19061,6,0,L|504:17,1,24,2|0,2:0|0:0,0:0:0:0:
496,28,19283,2,0,L|500:51,1,24,2|0,2:0|0:0,0:0:0:0:
397,140,19505,2,0,P|422:182|504:175,1,128,2|0,2:0|0:0,0:0:0:0:
504,194,19838,2,0,P|468:257|467:330,1,144,2|0,2:0|0:0,0:0:0:0:
476,339,20394,6,0,P|423:309|363:308,1,120,0|0,2:0|0:0,0:0:0:0:
313,367,20838,2,0,P|283:371|227:300,1,120,8|0,2:0|0:0,0:0:0:0:
220,229,21283,2,0,P|233:257|230:290,1,64,0|0,2:0|0:0,0:0:0:0:
149,354,21727,6,0,L|94:344,1,40,8|0,2:0|0:0,0:0:0:0:
61,263,21950,2,0,L|74:341,2,80,0|0|0,2:0|2:0|2:0,0:0:0:0:
98,193,22616,6,0,P|114:166|106:112,1,80,8|0,2:0|2:0,0:0:0:0:
101,100,22950,1,0,2:0:0:0:
101,100,23172,1,0,2:0:0:0:
101,100,23394,1,0,2:0:0:0:
185,21,23505,6,0,L|176:71,1,40,8|0,2:0|2:0,0:0:0:0:
253,78,23727,2,0,L|259:38,1,40,0|0,2:0|2:0,0:0:0:0:
208,177,23950,6,0,P|280:95|363:109,2,192,0|8|0,2:0|2:0|2:0,0:0:0:0:
132,185,25172,6,0,B|239:194|197:262|304:272,1,200
311,284,25505,2,0,P|346:280|364:242,1,80
412,173,25727,6,0,P|402:125|431:178,1,192
412,173,26172,1,10,2:0:0:0:
412,173,26616,6,0,P|414:124|429:182,1,192
469,96,27061,1,10,2:0:0:0:
512,261,27505,6,0,P|460:256|383:310,1,144,0|0,2:0|0:0,0:0:0:0:
318,342,27950,2,0,P|295:352|265:330,1,64,8|0,2:0|0:0,0:0:0:0:
223,265,28394,2,0,L|240:366,1,96,0|0,2:0|0:0,0:0:0:0:
139,278,28838,5,8,2:0:0:0:
138,278,29061,2,0,P|94:271|85:227,2,95.9999999999998,0|0|0,2:0|2:0|2:0,0:0:0:0:
24,179,29727,2,0,P|72:150|125:158,1,95.9999999999998,8|0,2:0|2:0,0:0:0:0:
124,143,30061,2,0,L|117:104,1,40,0|0,2:0|0:0,0:0:0:0:
89,33,30283,2,0,L|110:155,1,120,0|0,2:0|0:0,0:0:0:0:
206,206,30616,6,0,L|280:192,1,64,8|0,2:0|2:0,0:0:0:0:
284,192,30838,2,0,L|358:178,1,64,0|0,0:0|2:0,0:0:0:0:
433,124,31061,6,0,P|320:174|293:295,2,256,0|8|0,2:0|2:0|2:0,0:0:0:0:
425,135,32394,6,0,P|471:141|479:62,1,128,10|0,2:0|0:0,0:0:0:0:
491,75,32838,5,0,0:0:0:0:
491,75,33283,1,0,0:0:0:0:
343,21,33727,6,0,L|351:71,1,40,2|0,2:0|0:0,0:0:0:0:
340,35,34172,1,0,0:0:0:0:
337,49,34616,6,0,B|251:61|251:61|212:34|212:34|213:29|213:29|209:32|209:32|175:9|175:9|70:24|70:24|109:23|154:40,1,360,4|0,2:0|0:0,0:0:0:0:
168,157,35061,6,0,P|156:128|175:103,1,64,10|0,2:3|0:0,0:0:0:0:
245,141,35283,1,2,2:0:0:0:
78,175,35505,6,0,P|156:185|226:224,1,160,2|2,3:2|2:0,0:0:0:0:
300,197,35838,1,0,0:0:0:0:
304,212,35950,5,2,2:3:0:0:
329,311,36061,5,8,2:0:0:0:
376,247,36172,6,0,P|395:222|426:226,1,64,10|8,2:0|3:0,0:0:0:0:
485,175,36394,6,0,P|466:232|463:291,1,120,2|0,3:2|0:0,0:0:0:0:
475,303,36616,2,0,P|479:341|494:378,1,80,2|0,2:0|0:0,0:0:0:0:
344,384,36838,6,0,P|379:366|398:332,1,80,10|0,2:3|0:0,0:0:0:0:
208,225,37061,5,2,2:0:0:0:
301,318,37172,2,0,P|303:278|283:244,1,80,0|2,0:0|3:2,0:0:0:0:
166,377,37394,5,0,0:0:0:0:
222,322,37505,2,0,P|189:299|149:300,1,80,8|0,2:0|0:0,0:0:0:0:
1,254,37727,5,10,2:3:0:0:
92,353,37838,5,8,2:0:0:0:
75,277,37950,5,2,2:3:0:0:
75,276,38172,6,0,P|108:204|170:156,1,160,0|2,3:2|2:0,0:0:0:0:
219,217,38505,1,0,0:0:0:0:
150,300,38616,6,0,P|212:294|271:317,1,128,10|0,2:3|3:0,0:0:0:0:
270,334,38950,1,0,0:0:0:0:
356,290,39061,6,0,L|341:384,1,95.9999999999998,0|2,3:2|2:0,0:0:0:0:
295,241,39505,6,0,L|286:191,1,47.9999999999999,10|8,2:3|2:0,0:0:0:0:
437,298,39727,2,0,L|428:248,1,47.9999999999999,8|0,2:0|0:0,0:0:0:0:
403,141,39950,6,0,P|400:177|390:133,1,144,0|0,3:2|0:0,0:0:0:0:
463,90,40394,6,0,P|403:53|334:66,1,144,10|0,2:3|2:0,0:0:0:0:
285,128,40727,1,0,0:0:0:0:
241,64,40838,6,0,P|219:18|252:56,1,144,0|8,3:2|2:0,0:0:0:0:
463,90,41283,6,0,P|403:53|334:66,1,144,10|10,2:3|2:3,0:0:0:0:
285,128,41616,1,0,0:0:0:0:
354,277,41727,6,0,P|340:199|381:132,1,160,6|0,2:1|2:0,0:0:0:0:
332,352,42172,6,0,P|300:347|288:318,1,64,8|0,2:3|0:0,0:0:0:0:
354,277,42394,1,0,2:0:0:0:
212,337,42616,6,0,P|200:309|218:284,1,64,2|0,3:2|0:0,0:0:0:0:
354,277,42838,1,2,2:0:0:0:
136,138,43061,5,10,2:3:0:0:
210,162,43172,5,8,2:0:0:0:
164,225,43283,6,0,P|182:200|212:203,1,64,8|8,2:0|3:0,0:0:0:0:
288,235,43505,6,0,P|291:175|278:116,1,120,0|0,3:0|0:0,0:0:0:0:
266,106,43727,2,0,P|254:67|233:34,1,80,2|0,2:0|0:0,0:0:0:0:
412,72,43950,6,0,P|375:57|336:64,1,80,10|0,2:3|0:0,0:0:0:0:
110,91,44172,5,2,2:0:0:0:
233,34,44283,2,0,P|201:57|188:94,1,80,0|2,0:0|3:2,0:0:0:0:
186,174,44505,5,0,0:0:0:0:
109,169,44616,2,0,P|113:208|139:238,1,80,10|0,2:0|0:0,0:0:0:0:
163,343,44838,5,10,2:3:0:0:
292,301,44950,5,8,2:0:0:0:
211,270,45061,5,2,2:3:0:0:
216,285,45172,5,0,0:0:0:0:
239,359,45283,6,0,P|256:281|306:221,1,160,2|2,3:2|2:0,0:0:0:0:
375,185,45616,1,0,0:0:0:0:
366,273,45727,6,0,P|426:253|488:264,1,128,10|0,2:3|3:0,0:0:0:0:
481,275,46061,1,0,0:0:0:0:
426,332,46172,6,0,L|415:386,2,47.9999999999999,2|0|2,3:2|0:0|2:0,0:0:0:0:
326,98,46616,6,0,B|322:39|385:29|393:81|362:104|362:104|336:125|330:162|330:162|313:129|281:116|281:116|244:104|236:53|299:43|314:99,1,400,10|2,2:3|3:2,0:0:0:0:
265,205,47283,6,0,P|227:181|178:188,1,96,2|0,2:0|0:0,0:0:0:0:
167,198,47505,6,0,P|200:255|187:390,1,200,2|4,2:3|2:0,0:0:0:0:
111,275,47838,1,0,2:0:0:0:
118,353,47950,5,2,3:2:0:0:
181,307,48061,1,8,2:0:0:0:
258,298,48172,1,8,2:0:0:0:
329,328,48283,1,8,2:0:0:0:
263,284,48394,5,8,2:3:0:0:
334,314,48505,1,8,2:3:0:0:
411,305,48616,1,8,3:0:0:0:
474,259,48727,1,8,3:0:0:0:
489,345,48838,5,4,3:0:0:0:
489,345,49061,1,10,2:0:0:0:
407,210,49283,6,0,P|392:249|470:343,1,176,0|10,3:0|2:0,0:0:0:0:
474,177,49616,1,0,0:0:0:0:
469,164,49727,2,0,P|439:138|399:134,1,80,0|0,3:0|0:0,0:0:0:0:
274,51,49950,6,0,P|302:113|315:204,2,160,10|8|10,2:0|3:2|2:0,0:0:0:0:
205,0,50616,6,0,P|167:12|144:45,1,80,2|0,3:2|0:0,0:0:0:0:
78,7,50838,5,10,2:0:0:0:
71,24,50950,2,0,P|67:55|80:88,1,60.0000000000001,0|0,0:0|3:0,0:0:0:0:
28,139,51172,5,0,0:0:0:0:
35,147,51283,2,0,P|49:158|70:159,1,40,10|0,2:0|0:0,0:0:0:0:
157,231,51505,6,0,L|314:203,1,160,2|10,3:2|2:0,0:0:0:0:
314,203,51950,5,0,3:0:0:0:
375,255,52061,1,10,2:0:0:0:
450,219,52172,5,10,2:0:0:0:
476,248,52283,1,0,0:0:0:0:
404,366,52394,6,0,P|400:315|495:260,1,160,4|10,3:0|2:0,0:0:0:0:
346,16,52838,6,0,P|374:78|387:169,1,160,0|10,3:0|2:0,0:0:0:0:
247,162,53172,5,0,0:0:0:0:
243,152,53283,2,0,P|254:128|308:128,1,80,2|0,3:2|0:0,0:0:0:0:
475,335,53505,6,0,P|413:307|322:294,2,160,10|10|10,2:0|3:2|2:0,0:0:0:0:
252,332,54172,6,0,P|233:372|230:328,1,120,2|0,3:2|0:0,0:0:0:0:
135,310,54394,5,10,2:0:0:0:
135,310,54505,2,0,P|83:329|119:288,1,150,2|0,2:0|0:0,0:0:0:0:
61,196,54727,5,0,0:0:0:0:
61,196,54838,2,0,P|0:169|66:164,1,180,10|0,2:0|0:0,0:0:0:0:
209,114,55061,6,0,B|175:140|168:180|168:180|175:140|153:104,1,160,0|10,3:0|2:0,0:0:0:0:
195,31,55505,5,0,3:0:0:0:
263,58,55616,1,10,2:0:0:0:
331,20,55727,5,10,2:0:0:0:
414,52,55838,1,0,0:0:0:0:
503,10,55950,6,0,P|452:6|397:101,1,160,6|10,3:0|2:0,0:0:0:0:
505,217,56394,6,0,P|443:189|352:176,1,160,0|10,3:0|2:0,0:0:0:0:
266,196,56727,5,0,0:0:0:0:
314,257,56838,2,0,P|337:245|337:191,1,80,2|0,3:2|0:0,0:0:0:0:
236,384,57061,6,0,P|229:316|195:230,2,160,10|8|10,2:0|3:2|2:0,0:0:0:0:
137,169,57727,6,0,P|108:149|42:186,1,120,2|10,3:2|2:0,0:0:0:0:
39,200,58061,1,0,0:0:0:0:
44,212,58172,1,0,3:0:0:0:
107,364,58394,6,0,P|122:328|130:277,1,90.0000000000002,10|0,2:0|0:0,0:0:0:0:
195,231,58616,2,0,L|290:214,1,80,2|0,3:2|0:0,0:0:0:0:
46,45,58838,5,10,2:0:0:0:
46,45,59061,1,2,3:2:0:0:
65,116,59172,1,8,2:0:0:0:
117,64,59283,1,2,2:0:0:0:
442,172,59505,5,8,2:0:0:0:
400,115,59616,1,8,2:0:0:0:
468,137,59727,1,0,2:0:0:0:
400,159,59838,2,0,P|433:155|441:100,1,96,8|8,2:0|2:0,0:0:0:0:
219,146,60394,5,8,2:0:0:0:
325,99,60505,1,8,2:0:0:0:
211,75,60616,1,0,2:0:0:0:
289,160,60727,2,0,P|295:104|275:44,1,120,8|8,2:0|2:0,0:0:0:0:
127,244,61283,5,8,2:0:0:0:
17,194,61394,1,8,2:0:0:0:
135,169,61505,1,0,2:0:0:0:
54,258,61616,2,0,P|104:226|67:138,1,168,8|8,2:0|2:0,0:0:0:0:
248,329,62172,5,0,3:0:0:0:
183,301,62283,1,8,2:0:0:0:
240,260,62394,1,8,2:0:0:0:
247,362,62505,5,8,2:0:0:0:
191,312,62616,1,8,2:1:0:0:
263,287,62727,1,8,2:1:0:0:
335,327,62838,6,0,B|365:235|307:177|193:170|206:290|267:287,1,280,8|0,2:0|0:0,0:0:0:0:
417,357,64283,5,8,2:1:0:0:
417,357,64338,1,8,2:1:0:0:
417,357,64394,2,0,P|431:331|422:303,1,60.0000000000001,8|8,2:0|3:1,0:0:0:0:
377,240,64616,5,8,2:0:0:0:
377,240,64727,1,8,3:1:0:0:
471,114,64838,5,4,3:2:0:0:
221,222,65061,6,0,P|132:213|47:240,1,180,10|0,2:0|0:0,0:0:0:0:
34,248,65283,2,0,P|7:208|25:163,1,100,0|0,3:2|0:0,0:0:0:0:
264,287,65505,5,8,2:0:0:0:
302,219,65616,2,0,P|265:137|199:78,1,180,2|0,2:0|0:0,0:0:0:0:
186,70,65950,2,0,P|207:26|254:20,1,100,10|0,2:1|1:2,0:0:0:0:
345,287,66172,6,0,P|396:214|415:127,1,180,0|0,3:2|0:0,0:0:0:0:
415,112,66394,2,0,P|462:108|491:146,1,100,8|0,3:1|2:0,0:0:0:0:
302,219,66616,1,2,3:1:0:0:
386,41,66838,5,10,2:0:0:0:
336,148,66950,1,2,2:0:0:0:
394,27,67061,2,0,L|314:9,2,80,2|2|8,3:2|2:0|2:0,0:0:0:0:
414,289,67394,6,0,L|511:267,1,100,2|0,2:0|2:0,0:0:0:0:
213,66,67616,6,0,L|291:83,1,80,2|10,2:0|2:1,0:0:0:0:
284,310,67838,5,0,2:0:0:0:
358,234,67950,2,0,P|268:233|186:269,1,180,0|0,3:2|0:0,0:0:0:0:
180,353,68172,2,0,P|205:312|186:267,1,100,10|0,2:0|2:0,0:0:0:0:
147,107,68394,6,0,B|93:150|109:231|109:231|168:169|250:156,1,300,4|0,3:2|0:0,0:0:0:0:
30,169,68838,6,0,B|-82:90|-18:-55|104:9|61:86,1,300,0|0,3:2|2:0,0:0:0:0:
361,241,69283,6,0,P|263:233|175:278,1,200,2|8,3:1|2:0,0:0:0:0:
153,353,69616,1,0,0:0:0:0:
157,118,69727,6,0,P|101:199|97:298,1,200,0|8,3:2|2:0,0:0:0:0:
285,77,70172,5,10,3:1:0:0:
209,61,70283,1,0,2:0:0:0:
133,45,70394,1,8,2:0:0:0:
242,163,70505,5,8,2:1:0:0:
280,155,70616,1,0,3:2:0:0:
318,147,70727,1,0,2:0:0:0:
263,247,70838,5,10,2:0:0:0:
244,243,70950,1,8,2:1:0:0:
225,239,71061,1,0,3:2:0:0:
259,327,71172,5,10,2:0:0:0:
268,325,71283,1,8,2:0:0:0:
278,323,71394,1,0,3:2:0:0:
193,368,71505,6,0,P|176:343|182:314,1,60.0000000000001,8|0,3:0|3:0,0:0:0:0:
345,281,71727,2,0,P|361:305|355:334,1,60.0000000000001,8|8,2:0|2:0,0:0:0:0:
8,256,71950,6,0,B|48:202|130:187|191:239|191:239|135:235|112:278,1,297.6,6|10,3:2|2:0,0:0:0:0:
289,376,72394,6,0,B|259:308|182:315|182:315|152:364|90:350,1,240,0|8,3:2|2:0,0:0:0:0:
103,87,72727,6,0,P|136:179|114:276,1,200,0|0,1:2|0:0,0:0:0:0:
0,176,73061,6,0,P|29:177|56:190,1,60.0000000000001,10|0,2:1|1:2,0:0:0:0:
378,86,73283,6,0,P|376:125|359:160,1,80,2|10,3:2|2:1,0:0:0:0:
155,28,73505,6,0,P|187:65|201:113,1,100,10|2,3:2|3:2,0:0:0:0:
495,56,73727,6,0,P|406:65|323:31,1,180,2|0,3:1|0:0,0:0:0:0:
312,42,73950,2,0,P|284:82|283:132,1,100,8|0,2:0|0:0,0:0:0:0:
407,222,74172,5,0,3:2:0:0:
452,158,74283,2,0,P|404:145|358:161,1,100,8|0,0:0|2:0,0:0:0:0:
142,229,74505,6,0,P|238:206|331:239,1,200,0|0,2:0|0:0,0:0:0:0:
267,337,74838,6,0,P|226:204|121:115,2,280,8|0|8,2:1|3:2|2:0,0:0:0:0:
102,334,75394,1,8,2:1:0:0:
185,305,75505,6,0,L|172:383,1,80,4|0,3:2|0:0,0:0:0:0:
32,282,75727,2,0,L|19:360,1,80,8|0,2:0|0:0,0:0:0:0:
172,384,75950,6,0,L|242:372,1,60.0000000000001,0|0,3:0|0:0,0:0:0:0:
3,208,76172,2,0,L|73:196,1,60.0000000000001,8|0,2:0|0:0,0:0:0:0:
420,261,76394,6,0,P|327:268|308:359,1,200,2|10,3:2|2:0,0:0:0:0:
387,381,76727,1,2,2:0:0:0:
387,381,76838,6,0,P|394:352|378:327,1,60.0000000000001,2|0,3:2|0:0,0:0:0:0:
504,234,77061,6,0,L|491:312,1,80,8|0,2:0|1:0,0:0:0:0:
208,304,77283,6,0,B|244:328|291:316|314:283|314:283|339:245|387:239|420:261,1,240,14|0,2:1|2:0,0:0:0:0:
251,238,77616,6,0,P|224:147|311:187,1,240,10|0,2:0|0:0,0:0:0:0:
382,331,77950,5,0,3:1:0:0:
382,331,78061,1,8,2:0:0:0:
420,261,78172,2,0,B|387:239|339:245|314:283|314:283|291:316|244:328|208:304,1,240,0|0,3:0|3:2,0:0:0:0:
127,172,78505,1,8,2:0:0:0:
140,342,78616,6,0,P|124:317|131:288,1,60.0000000000001,8|8,3:1|3:1,0:0:0:0:
177,232,78838,5,8,2:1:0:0:
177,232,78950,1,8,2:1:0:0:
0,243,79061,6,0,P|43:211|15:247,1,160,4|0,3:2|0:0,0:0:0:0:
18,329,79283,6,0,P|26:240|0:155,1,180,10|0,2:0|0:0,0:0:0:0:
0,77,79505,2,0,P|-13:26|26:6,1,100,0|0,3:2|0:0,0:0:0:0:
266,293,79727,5,8,2:0:0:0:
262,282,79838,2,0,P|205:212|126:171,1,180,2|0,2:0|0:0,0:0:0:0:
71,116,80172,2,0,P|25:89|39:47,1,100,10|0,2:1|1:2,0:0:0:0:
401,77,80394,6,0,P|312:68|227:95,1,180,0|0,3:2|0:0,0:0:0:0:
148,94,80616,2,0,P|96:107|76:68,1,100,8|0,3:1|2:0,0:0:0:0:
280,166,80838,1,2,3:1:0:0:
300,41,81061,5,8,2:0:0:0:
285,178,81172,1,0,2:0:0:0:
401,77,81283,2,0,P|354:100|366:140,2,80,2|2|8,3:2|2:0|2:0,0:0:0:0:
372,210,81616,6,0,L|469:188,1,100,2|0,2:0|3:0,0:0:0:0:
207,20,81838,6,0,L|285:37,1,80,0|10,2:0|2:1,0:0:0:0:
479,86,82061,5,0,2:0:0:0:
492,8,82172,2,0,P|446:85|436:174,1,180,0|0,3:2|0:0,0:0:0:0:
306,254,82394,2,0,P|337:287|401:285,1,100,10|0,2:0|2:0,0:0:0:0:
126,171,82616,6,0,B|141:83|84:42|-16:53|13:157|67:148,1,240,2|0,3:1|0:0,0:0:0:0:
42,259,83061,6,0,B|4:295|15:352|15:352|73:253|173:247,1,300,0|0,3:2|2:0,0:0:0:0:
256,356,83505,6,0,P|186:328|190:253,1,160,2|8,3:1|2:0,0:0:0:0:
274,179,83838,1,0,0:0:0:0:
306,254,83950,6,0,P|315:154|356:64,1,200,0|8,3:2|2:2,0:0:0:0:
508,32,84394,5,10,3:1:0:0:
432,48,84505,1,0,2:0:0:0:
356,64,84616,1,8,2:0:0:0:
278,27,84727,5,8,2:1:0:0:
240,35,84838,1,0,3:2:0:0:
202,43,84950,1,0,0:0:0:0:
168,115,85061,5,8,2:0:0:0:
187,119,85172,1,8,2:1:0:0:
206,123,85283,1,0,3:2:0:0:
179,196,85394,5,8,2:0:0:0:
181,205,85505,1,8,2:0:0:0:
183,215,85616,1,0,3:2:0:0:
117,245,85727,6,0,P|130:217|158:208,1,60.0000000000001,2|0,3:1|3:0,0:0:0:0:
155,371,85950,2,0,P|138:346|144:317,1,60.0000000000001,8|8,2:0|2:0,0:0:0:0:
22,100,86172,6,0,L|262:142,1,200,6|10,3:2|2:0,0:0:0:0:
500,167,86616,6,0,B|426:133|371:187|371:187|365:241|309:256,1,240,0|8,3:2|2:0,0:0:0:0:
233,0,86950,6,0,P|288:80|292:179,1,200,0|0,1:2|0:0,0:0:0:0:
234,232,87283,6,0,P|194:226|194:190,1,60.0000000000001,10|0,2:0|1:2,0:0:0:0:
288,53,87505,6,0,P|305:102|305:149,1,80,2|10,3:2|2:1,0:0:0:0:
83,46,87727,2,0,P|132:42|175:67,1,100,10|2,3:2|3:2,0:0:0:0:
309,256,87950,6,0,L|499:222,1,180,2|0,3:1|0:0,0:0:0:0:
487,237,88172,2,0,L|388:254,1,100,8|0,2:0|0:0,0:0:0:0:
354,324,88394,5,0,3:2:0:0:
234,232,88505,2,0,P|236:287|264:320,1,100,0|8,2:0|2:0,0:0:0:0:
29,336,88727,2,0,P|31:281|158:260,1,200,0|0,2:0|0:0,0:0:0:0:
66,56,89061,6,0,B|214:82|147:172|295:198,2,280,8|0|8,2:1|3:2|2:0,0:0:0:0:
66,56,89616,1,0,2:0:0:0:
0,98,89727,6,0,P|10:137|48:124,1,80,4|0,3:2|0:0,0:0:0:0:
231,56,89950,6,0,P|192:45|184:84,1,80,8|0,2:0|0:0,0:0:0:0:
236,208,90172,6,0,L|306:196,1,60.0000000000001,0|0,3:0|0:0,0:0:0:0:
101,230,90394,2,0,L|171:218,1,60.0000000000001,8|0,2:0|0:0,0:0:0:0:
407,188,90616,6,0,P|318:218|324:311,1,200,2|8,3:1|2:0,0:0:0:0:
406,312,90950,1,0,0:0:0:0:
406,312,91061,6,0,P|405:282|383:262,1,60.0000000000001,0|0,3:0|0:0,0:0:0:0:
498,123,91283,6,0,L|485:201,1,80,8|0,2:0|1:0,0:0:0:0:
323,328,91505,6,0,P|300:231|426:182,1,240,14|8,2:1|2:1,0:0:0:0:
349,73,91838,6,0,P|405:13|412:95,1,200,10|0,2:1|0:0,0:0:0:0:
267,95,92172,5,10,3:1:0:0:
235,137,92283,1,8,2:0:0:0:
235,162,92394,2,0,L|94:186,1,120,2|8,3:2|2:0,0:0:0:0:
107,193,92616,2,0,L|87:83,1,80,0|8,3:2|2:0,0:0:0:0:
12,0,92838,5,8,2:1:0:0:
24,75,92950,1,8,2:1:0:0:
0,41,93061,6,0,L|52:32,2,30.0000000000001,8|8|8,2:1|2:1|2:1,0:0:0:0:
27,235,93283,6,0,P|125:224|220:255,1,200,4|8,3:2|2:0,0:0:0:0:
220,255,93727,1,0,3:0:0:0:
289,290,93838,1,0,0:0:0:0:
290,367,93950,2,0,L|303:292,1,60.0000000000001,8|0,2:0|0:0,0:0:0:0:
489,304,94172,6,0,P|417:278|393:149,1,208,0|8,3:0|2:0,0:0:0:0:
388,159,94616,5,0,3:2:0:0:
394,189,94727,1,0,2:1:0:0:
489,70,94838,6,0,L|468:186,1,80,8|0,2:0|2:1,0:0:0:0:
286,174,95061,5,14,2:0:0:0:
389,52,95209,5,10,2:0:0:0:
231,24,95357,5,10,2:0:0:0:
282,196,95505,5,10,2:0:0:0:
410,44,95653,5,10,2:0:0:0:
213,9,95801,5,0,0:0:0:0:
301,91,95950,5,10,3:0:0:0:
301,91,96172,2,0,L|248:100,2,48.0000000000001
185,62,96838,6,0,P|205:160|294:166,1,180,4|0,3:0|0:0,0:0:0:0:
274,253,97061,2,0,L|284:189,1,64,10|0,2:0|0:0,0:0:0:0:
380,78,97283,1,0,3:2:0:0:
380,78,97394,2,0,L|447:66,1,64,2|10,2:0|2:0,0:0:0:0:
511,135,97616,2,0,L|448:146,1,64,2|0,2:0|3:0,0:0:0:0:
352,258,97838,5,2,2:0:0:0:
402,208,97950,1,8,2:0:0:0:
471,220,98061,1,2,2:0:0:0:
512,286,98172,6,0,P|481:280|470:251,1,64,8|0,3:2|0:0,0:0:0:0:
328,184,98394,2,0,P|332:153|360:141,1,64,8|0,2:0|0:0,0:0:0:0:
267,357,98616,6,0,P|276:278|249:203,1,160,2|10,3:2|2:0,0:0:0:0:
249,203,99061,5,8,3:2:0:0:
275,129,99172,1,2,2:0:0:0:
205,139,99283,1,10,2:0:0:0:
174,184,99394,1,2,2:0:0:0:
180,238,99505,2,0,L|119:228,1,47.9999999999999,0|0,3:0|0:0,0:0:0:0:
0,61,99727,6,0,P|45:132|129:120,1,180,2|0,2:1|0:0,0:0:0:0:
249,203,99950,5,0,3:0:0:0:
230,66,100061,1,2,2:1:0:0:
251,217,100172,2,0,P|280:215|287:185,1,64,2|0,3:2|0:0,0:0:0:0:
296,107,100394,6,0,P|409:80|512:137,1,240,6|10,3:2|2:0,0:0:0:0:
347,338,100838,5,0,3:2:0:0:
347,338,100950,2,0,L|332:275,1,64,2|10,2:0|2:0,0:0:0:0:
409,258,101172,2,0,L|423:320,1,64,2|0,2:0|3:0,0:0:0:0:
512,137,101394,5,2,2:0:0:0:
459,183,101505,1,10,2:0:0:0:
388,183,101616,1,2,2:0:0:0:
330,132,101727,6,0,P|346:106|377:106,1,64,10|0,3:2|0:0,0:0:0:0:
454,32,101950,2,0,P|468:59|452:86,1,64,8|0,2:0|0:0,0:0:0:0:
332,275,102172,6,0,P|292:199|207:204,1,180,2|0,3:1|0:0,0:0:0:0:
207,203,102394,2,0,P|197:262|149:296,1,120,10|0,2:0|0:0,0:0:0:0:
7,149,102616,6,0,P|46:224|131:219,1,180,2|0,3:1|0:0,0:0:0:0:
158,146,102838,2,0,P|147:109|191:83,1,80,10|0,2:0|0:0,0:0:0:0:
383,111,103061,6,0,L|235:132,1,150,2|0,2:1|0:0,0:0:0:0:
246,137,103283,1,8,2:0:0:0:
257,142,103394,2,0,L|243:241,1,80,10|8,2:0|2:1,0:0:0:0:
71,143,103616,1,10,2:0:0:0:
60,138,103727,2,0,L|73:38,1,80,4|0,2:1|0:0,0:0:0:0:
37,290,103950,6,0,P|84:219|168:234,1,180,4|0,3:0|0:0,0:0:0:0:
180,311,104172,2,0,L|170:245,1,64,10|0,2:0|0:0,0:0:0:0:
387,170,104394,1,2,3:2:0:0:
387,170,104505,2,0,L|377:235,1,64,2|10,2:0|2:0,0:0:0:0:
367,311,104727,2,0,L|357:376,1,64,2|0,2:0|3:0,0:0:0:0:
160,170,104950,5,2,2:0:0:0:
228,154,105061,1,10,2:0:0:0:
290,186,105172,1,2,2:0:0:0:
306,262,105283,6,0,P|276:272|252:252,1,64,10|0,3:2|0:0,0:0:0:0:
294,108,105505,2,0,P|274:82|286:53,1,64,8|0,2:0|0:0,0:0:0:0:
508,128,105727,6,0,B|431:137|431:137|436:140|436:140|359:150,1,160,2|10,3:2|2:0,0:0:0:0:
360,150,106172,5,8,3:2:0:0:
399,218,106283,1,2,2:0:0:0:
438,159,106394,1,8,2:0:0:0:
424,107,106505,1,2,2:0:0:0:
380,75,106616,2,0,L|393:23,1,47.9999999999999,0|0,3:0|0:0,0:0:0:0:
323,282,106838,6,0,P|298:199|213:188,1,180,2|0,2:1|0:0,0:0:0:0:
53,198,107061,5,0,3:0:0:0:
88,331,107172,1,2,2:1:0:0:
56,210,107283,2,0,P|78:230|103:214,1,64,2|0,2:0|0:0,0:0:0:0:
149,282,107505,6,0,P|140:166|212:73,1,240,6|10,3:2|2:0,0:0:0:0:
274,337,107950,5,0,3:0:0:0:
274,337,108061,2,0,L|194:327,1,64,2|10,2:0|2:0,0:0:0:0:
220,251,108283,2,0,L|283:258,1,64,2|0,2:0|3:0,0:0:0:0:
485,271,108505,5,2,2:0:0:0:
423,306,108616,1,10,2:0:0:0:
360,276,108727,1,2,3:2:0:0:
337,201,108838,6,0,P|364:188|390:204,1,64,2|8,3:2|2:1,0:0:0:0:
444,146,109061,2,0,P|469:163|468:194,1,64,8|0,2:0|0:0,0:0:0:0:
307,333,109283,5,2,3:2:0:0:
284,258,109505,1,2,2:0:0:0:
231,316,109727,1,2,3:2:0:0:
208,241,109950,1,2,2:0:0:0:
155,299,110172,5,2,3:2:0:0:
132,224,110283,1,0,0:0:0:0:
79,282,110505,5,2,3:2:0:0:
56,207,110616,1,0,3:0:0:0:
3,265,110838,5,0,0:0:0:0:
3,265,111061,6,0,B|105:246|59:184|162:166,1,192,6|6,2:0|2:0,0:0:0:0:
0,125,111505,6,0,P|-12:96|7:71,1,64,2|0,2:3|0:0,0:0:0:0:
77,109,111727,1,6,2:0:0:0:
160,166,111950,6,0,P|238:176|308:215,1,160,0|6,3:0|2:0,0:0:0:0:
330,291,112283,1,0,0:0:0:0:
334,306,112394,5,10,2:3:0:0:
308,215,112505,5,10,2:0:0:0:
399,237,112616,6,0,P|400:268|356:269,1,80,10|10,2:0|3:0,0:0:0:0:
492,65,112838,6,0,P|473:122|470:181,1,120,0|0,3:0|0:0,0:0:0:0:
482,193,113061,2,0,P|486:231|501:268,1,80,6|0,2:0|0:0,0:0:0:0:
372,146,113283,2,0,P|374:106|354:72,1,80,10|0,2:3|0:0,0:0:0:0:
288,28,113505,5,6,2:0:0:0:
298,128,113616,2,0,P|264:106|224:106,1,80,0|0,0:0|3:0,0:0:0:0:
185,252,113838,5,0,0:0:0:0:
243,181,113950,2,0,P|207:199|187:233,1,80,10|0,2:0|0:0,0:0:0:0:
143,379,114172,5,10,2:3:0:0:
18,359,114283,5,10,2:0:0:0:
89,325,114394,5,2,2:3:0:0:
89,325,114616,6,0,P|96:246|66:173,1,160,0|6,3:0|2:0,0:0:0:0:
83,54,114950,1,0,0:0:0:0:
4,87,115061,6,0,P|66:93|125:70,1,128,10|6,2:3|2:0,0:0:0:0:
180,10,115394,1,0,0:0:0:0:
258,86,115505,6,0,L|243:180,1,95.9999999999998,0|6,3:0|2:0,0:0:0:0:
237,262,115838,5,0,0:0:0:0:
237,262,115950,2,0,P|264:221|309:223,1,96.0000000000001,2|0,2:3|2:0,0:0:0:0:
381,110,116172,2,0,P|342:112|327:146,1,80,10|0,2:3|0:0,0:0:0:0:
304,311,116394,6,0,B|401:293|357:234|454:217,1,184,0|0,3:0|2:0,0:0:0:0:
507,355,116838,2,0,P|450:358|450:301,1,128,2|0,2:3|2:0,0:0:0:0:
237,262,117172,1,0,0:0:0:0:
304,311,117283,6,0,B|401:293|357:234|454:217,1,184,0|2,3:0|2:3,0:0:0:0:
470,227,117616,1,0,2:3:0:0:
507,355,117727,2,0,P|450:358|450:301,1,128,2|10,2:3|2:3,0:0:0:0:
307,222,118172,6,0,P|311:142|334:65,1,160,6|0,2:1|2:0,0:0:0:0:
456,117,118616,6,0,P|424:112|412:83,1,64,10|0,2:3|0:0,0:0:0:0:
478,42,118838,1,0,2:0:0:0:
247,74,119061,6,0,P|235:46|253:21,1,64,0|0,3:0|0:0,0:0:0:0:
334,66,119283,1,6,2:0:0:0:
33,109,119505,5,2,2:3:0:0:
157,129,119616,5,10,2:0:0:0:
77,226,119727,6,0,P|96:198|126:201,1,64,10|10,2:0|3:0,0:0:0:0:
207,353,119950,6,0,P|204:293|217:234,1,120,0|0,3:0|0:0,0:0:0:0:
211,219,120172,2,0,P|226:181|250:150,1,80,6|0,2:0|0:0,0:0:0:0:
112,66,120394,6,0,P|149:51|188:58,1,80,10|0,2:3|0:0,0:0:0:0:
412,42,120616,5,6,2:0:0:0:
289,4,120727,2,0,P|320:28|333:65,1,80,0|0,0:0|3:0,0:0:0:0:
509,112,120950,5,0,0:0:0:0:
490,37,121061,2,0,P|484:76|458:106,1,80,10|0,2:0|0:0,0:0:0:0:
367,324,121283,5,10,2:3:0:0:
496,282,121394,5,10,2:0:0:0:
415,251,121505,5,10,2:3:0:0:
420,266,121616,5,0,0:0:0:0:
443,340,121727,6,0,P|446:260|470:184,1,160,0|6,3:0|2:0,0:0:0:0:
509,112,122061,5,0,0:0:0:0:
388,172,122172,2,0,P|344:135|358:98,1,95.9999999999998,10|6,2:3|2:0,0:0:0:0:
289,4,122505,1,0,0:0:0:0:
226,48,122616,2,0,L|172:37,3,47.9999999999999,0|0|6|0,3:0|0:0|2:0|0:0,0:0:0:0:
216,57,123061,5,10,2:3:0:0:
192,52,123172,1,10,2:0:0:0:
168,47,123283,1,10,2:3:0:0:
15,149,123505,6,0,B|44:107|34:53|34:53|44:107|86:136,1,200,0|0,3:0|2:0,0:0:0:0:
60,212,123950,6,0,B|166:230|118:295|224:313,1,200,2|6,2:3|2:0,0:0:0:0:
232,326,124283,1,0,0:0:0:0:
164,375,124394,5,0,3:0:0:0:
156,305,124505,1,2,2:3:0:0:
199,250,124616,1,0,3:0:0:0:
268,248,124727,1,8,2:0:0:0:
192,236,124838,5,0,3:1:0:0:
271,233,124950,1,8,3:1:0:0:
336,187,125061,1,8,2:1:0:0:
353,108,125172,1,0,3:0:0:0:
315,32,125283,5,6,3:1:0:0:
315,32,125505,1,8,2:0:0:0:
471,84,125727,5,0,3:0:0:0:
418,26,125838,2,0,P|388:59|402:108,1,88,0|8,0:0|2:0,0:0:0:0:
362,204,126061,2,0,P|433:169|512:161,1,160
317,119,126394,6,0,P|284:191|279:270,2,160,8|8|8,0:0|3:2|0:0,0:0:0:0:
186,35,127061,6,0,P|175:73|189:110,1,80,2|0,3:2|0:0,0:0:0:0:
322,41,127283,5,8,2:0:0:0:
304,42,127394,2,0,P|275:48|257:70,1,60.0000000000001,0|0,0:0|3:0,0:0:0:0:
359,145,127616,5,0,0:0:0:0:
350,137,127727,2,0,P|336:122|317:119,1,40,8|0,2:0|0:0,0:0:0:0:
299,195,127950,6,0,L|457:174,1,132,0|0,3:0|0:0,0:0:0:0:
433,193,128172,2,0,L|512:182,1,80,10|0,2:0|0:0,0:0:0:0:
357,350,128394,5,2,3:2:0:0:
328,277,128505,2,0,L|249:266,1,80,10|8,2:0|2:1,0:0:0:0:
406,289,128727,5,0,2:0:0:0:
229,341,128838,2,0,P|171:280|202:203,1,176,6|8,3:2|2:0,0:0:0:0:
115,116,129283,6,0,P|193:125|268:98,1,160,0|8,3:0|2:0,0:0:0:0:
114,38,129616,1,0,0:0:0:0:
114,38,129727,2,0,P|75:34|54:66,1,80,2|0,3:2|0:0,0:0:0:0:
311,190,129950,6,0,P|344:117|348:38,2,160,8|8|8,2:0|3:2|2:0,0:0:0:0:
0,170,130616,6,0,P|51:143|108:155,1,120,2|0,3:2|0:0,0:0:0:0:
150,89,130838,5,8,2:0:0:0:
150,89,130950,2,0,P|211:128|233:199,1,150,2|0,2:0|0:0,0:0:0:0:
315,194,131172,5,0,0:0:0:0:
315,194,131283,2,0,P|310:281|250:346,1,180,10|0,2:0|0:0,0:0:0:0:
122,313,131505,6,0,B|155:260|217:275|217:275|189:287|176:324,1,160,0|10,3:2|2:0,0:0:0:0:
249,346,131950,5,0,3:2:0:0:
293,289,132061,1,10,2:0:0:0:
357,326,132172,5,2,2:0:0:0:
409,257,132283,1,0,0:0:0:0:
486,302,132394,6,0,B|386:242|432:107|539:144|513:215,1,264,6|0,3:2|0:0,0:0:0:0:
359,197,132838,6,0,P|386:124|457:83,1,160,0|8,3:0|2:0,0:0:0:0:
356,48,133172,5,0,0:0:0:0:
278,45,133283,2,0,P|274:83|305:107,1,80,0|0,3:0|0:0,0:0:0:0:
440,241,133505,6,0,P|363:225|292:260,2,160,8|8|8,2:0|2:0|3:2,0:0:0:0:
233,155,134172,6,0,L|205:312,1,160,2|10,3:2|2:0,0:0:0:0:
279,337,134505,2,0,B|305:336|334:361|334:361|294:353|241:382,1,160,2|0,2:0|0:0,0:0:0:0:
108,338,134838,6,0,P|124:296|121:252,1,90.0000000000002,10|0,2:0|0:0,0:0:0:0:
118,238,135061,2,0,P|107:210|84:190,1,60.0000000000001,0|0,3:2|0:0,0:0:0:0:
46,45,135283,5,10,2:0:0:0:
46,45,135505,1,0,3:2:0:0:
65,116,135616,1,8,2:0:0:0:
117,64,135727,1,0,0:0:0:0:
483,159,135950,5,12,2:0:0:0:
412,139,136061,1,8,2:0:0:0:
464,88,136172,1,0,2:0:0:0:
431,210,136283,2,0,P|464:211|483:158,1,96,8|8,2:0|2:0,0:0:0:0:
155,345,136838,5,8,2:0:0:0:
240,384,136950,2,0,L|226:305,1,80,8|0,2:0|2:0,0:0:0:0:
273,149,137172,6,0,L|293:267,1,120,8|8,2:0|2:0,0:0:0:0:
29,159,137727,5,8,2:0:0:0:
135,129,137838,1,8,2:0:0:0:
57,52,137950,1,0,2:0:0:0:
108,236,138061,2,0,P|58:237|29:158,1,144,12|8,2:0|2:0,0:0:0:0:
254,263,138616,5,8,2:0:0:0:
155,297,138727,1,8,2:0:0:0:
175,196,138838,1,8,2:0:0:0:
238,263,138950,5,8,2:0:0:0:
164,285,139061,1,8,2:1:0:0:
182,209,139172,1,8,2:1:0:0:
226,355,139283,6,0,B|235:258|311:228|418:268|358:372|303:346,1,280,8|0,2:0|0:0,0:0:0:0:
422,200,140727,5,8,2:1:0:0:
427,217,140783,1,8,2:1:0:0:
416,231,140838,2,0,P|402:205|411:177,1,60.0000000000001,8|8,2:0|3:0,0:0:0:0:
444,315,141061,5,8,2:0:0:0:
444,315,141172,1,8,3:0:0:0:
471,114,141283,5,4,3:2:0:0:
224,166,141505,6,0,B|128:149|171:91|76:74,1,180,10|0,2:0|0:0,0:0:0:0:
64,82,141727,2,0,P|24:61|39:3,1,100,0|0,3:2|0:0,0:0:0:0:
233,250,141950,5,8,2:0:0:0:
224,267,142061,2,0,B|215:170|282:196|274:100,1,180,2|0,2:0|0:0,0:0:0:0:
261,86,142394,2,0,P|270:41|330:41,1,100,10|0,2:1|2:0,0:0:0:0:
230,369,142616,6,0,B|325:352|282:294|377:277,1,180,0|0,3:2|0:0,0:0:0:0:
386,261,142838,2,0,P|430:267|436:326,1,100,8|0,3:1|2:0,0:0:0:0:
418,47,143061,6,0,P|395:102|387:161,1,120,2|0,3:1|0:0,0:0:0:0:
250,207,143283,5,8,2:0:0:0:
254,184,143394,1,0,2:0:0:0:
230,191,143505,2,0,L|310:209,2,80,2|2|8,3:2|2:0|2:0,0:0:0:0:
165,115,143838,6,0,L|262:84,1,100,2|0,2:0|2:0,0:0:0:0:
64,82,144061,6,0,L|133:6,1,80,0|10,2:0|2:1,0:0:0:0:
86,185,144283,5,0,2:0:0:0:
3,300,144394,2,0,P|15:212|100:211,1,180,0|0,3:2|0:0,0:0:0:0:
75,319,144616,2,0,P|29:310|9:261,1,100,10|0,2:0|2:0,0:0:0:0:
409,130,144838,6,0,B|431:44|378:-2|277:0|299:102|349:98,1,240,4|0,3:2|0:0,0:0:0:0:
230,191,145283,6,0,P|310:135|409:130,1,200,0|8,3:2|2:0,0:0:0:0:
479,209,145616,5,0,2:0:0:0:
433,320,145727,2,0,B|413:242|460:204|545:211|526:297|482:279|469:241,1,200,2|8,3:1|2:0,0:0:0:0:
325,106,146172,6,0,B|300:133|308:180|308:180|300:133|263:118,1,160,0|0,3:2|0:0,0:0:0:0:
230,191,146394,1,8,2:0:0:0:
2,23,146616,5,10,3:1:0:0:
18,99,146727,1,0,2:0:0:0:
34,175,146838,1,8,2:0:0:0:
88,46,146950,5,8,2:1:0:0:
100,103,147061,1,0,3:2:0:0:
112,160,147172,1,0,2:0:0:0:
177,89,147283,5,10,2:0:0:0:
183,117,147394,1,8,2:1:0:0:
189,146,147505,1,0,3:2:0:0:
263,118,147616,5,10,2:0:0:0:
264,125,147727,1,8,2:0:0:0:
265,132,147838,1,0,3:2:0:0:
205,218,147950,6,0,P|188:193|194:164,1,60.0000000000001,8|0,3:0|3:0,0:0:0:0:
316,60,148172,2,0,P|302:87|274:96,1,60.0000000000001,8|8,2:0|2:0,0:0:0:0:
26,253,148394,6,0,B|16:295|69:320|69:320|134:266|94:176|34:175,1,280,6|10,3:2|2:0,0:0:0:0:
68,341,148838,6,0,P|164:274|283:269,1,240,0|8,3:2|2:0,0:0:0:0:
493,359,149172,2,0,P|400:371|359:286,1,200,0|0,1:2|0:0,0:0:0:0:
316,59,149505,6,0,P|347:57|357:89,1,60.0000000000001,10|0,2:1|1:2,0:0:0:0:
495,72,149727,6,0,P|479:96|425:117,1,80,2|10,3:2|2:1,0:0:0:0:
343,257,149950,6,0,P|349:207|365:160,1,100,10|2,3:1|3:2,0:0:0:0:
282,139,150172,6,0,L|104:107,1,180,2|0,3:1|0:0,0:0:0:0:
57,47,150394,2,0,P|27:93|34:141,1,100,8|0,2:0|0:0,0:0:0:0:
82,292,150616,5,0,3:2:0:0:
141,242,150727,2,0,P|91:241|69:293,1,100,8|0,2:0|2:0,0:0:0:0:
40,377,150950,6,0,P|53:278|91:186,1,200,0|0,2:0|0:0,0:0:0:0:
286,155,151283,6,0,B|158:132|216:55|89:33,2,240,8|0|8,2:1|3:2|2:0,0:0:0:0:
356,121,151838,1,0,2:0:0:0:
449,137,151950,6,0,L|436:215,1,80,4|0,3:2|0:0,0:0:0:0:
359,203,152172,2,0,L|372:125,1,80,8|0,2:0|0:0,0:0:0:0:
493,226,152394,6,0,L|434:237,1,60.0000000000001,0|0,3:0|0:0,0:0:0:0:
449,309,152616,2,0,L|509:299,1,60.0000000000001,8|0,2:0|0:0,0:0:0:0:
315,374,152838,6,0,P|222:367|203:276,1,200,2|10,3:2|2:0,0:0:0:0:
221,194,153172,5,2,2:0:0:0:
282,254,153283,2,0,P|289:283|273:308,1,60.0000000000001,2|0,3:2|0:0,0:0:0:0:
118,332,153505,6,0,L|105:254,1,80,8|0,2:0|1:0,0:0:0:0:
45,94,153727,6,0,B|29:38|-20:28|-20:28|59:118|22:234,1,320,14|0,2:1|2:0,0:0:0:0:
118,332,154061,2,0,B|126:377|79:425|20:344|76:212|187:175|306:273,1,320,10|0,2:1|0:0,0:0:0:0:
467,17,154394,5,0,3:0:0:0:
478,92,154505,1,8,2:0:0:0:
434,157,154616,5,0,3:0:0:0:
445,232,154727,1,8,2:0:0:0:
401,297,154838,5,0,3:0:0:0:
412,372,154950,1,8,2:0:0:0:
336,344,155061,5,8,3:2:0:0:
336,344,155172,1,8,3:2:0:0:
508,319,155283,2,0,L|465:311,2,30.0000000000001,8|8|8,2:1|2:1|2:1,0:0:0:0:
267,239,155505,6,0,P|309:266|327:187,1,160,4|0,3:2|0:0,0:0:0:0:
192,211,155727,6,0,B|173:305|243:286|225:381,1,180,10|0,2:0|0:0,0:0:0:0:
149,357,155950,2,0,P|113:359|145:342,1,100,0|0,3:2|0:0,0:0:0:0:
254,162,156172,5,8,2:0:0:0:
267,239,156283,2,0,B|339:302|357:232|431:295,1,180,2|0,2:0|0:0,0:0:0:0:
372,348,156616,2,0,P|356:380|357:344,1,100,10|0,2:1|2:0,0:0:0:0:
328,188,156838,6,0,B|419:156|367:106|459:73,1,180,0|0,3:2|0:0,0:0:0:0:
475,150,157061,2,0,P|495:181|464:161,1,100,8|0,3:1|2:0,0:0:0:0:
315,109,157283,1,2,3:1:0:0:
345,314,157505,5,8,2:0:0:0:
410,232,157616,1,0,2:0:0:0:
292,257,157727,2,0,L|211:244,2,80,2|2|0,3:2|2:0|2:0,0:0:0:0:
499,17,158061,6,0,L|401:33,1,100,2|0,2:0|3:0,0:0:0:0:
167,157,158283,6,0,L|246:170,1,80,2|10,2:0|2:1,0:0:0:0:
392,111,158505,5,0,2:0:0:0:
323,21,158616,2,0,P|313:110|341:196,1,180,0|0,3:2|0:0,0:0:0:0:
436,214,158838,2,0,P|445:178|421:206,1,100,10|0,2:0|2:0,0:0:0:0:
269,332,159061,6,0,B|342:216|491:272|432:398|353:359,1,300,4|0,3:2|0:0,0:0:0:0:
340,194,159505,6,0,B|290:132|223:134|223:134|261:174|267:225,1,240,0|0,3:2|2:0,0:0:0:0:
164,384,159950,6,0,P|195:290|172:194,1,200,2|8,3:1|2:0,0:0:0:0:
108,239,160283,1,0,0:0:0:0:
279,308,160394,6,0,P|180:297|91:339,1,200,0|8,3:2|2:2,0:0:0:0:
353,332,160838,5,10,3:1:0:0:
337,256,160950,1,0,2:0:0:0:
321,180,161061,1,8,2:0:0:0:
279,94,161172,5,8,2:1:0:0:
317,102,161283,1,0,3:2:0:0:
355,110,161394,1,0,0:0:0:0:
437,97,161505,5,8,2:0:0:0:
433,116,161616,1,8,2:1:0:0:
429,135,161727,1,0,3:2:0:0:
431,213,161838,5,8,2:0:0:0:
422,215,161950,1,8,2:0:0:0:
412,217,162061,1,0,3:2:0:0:
295,178,162172,6,0,P|322:188|334:215,1,60.0000000000001,2|0,3:1|3:0,0:0:0:0:
508,203,162394,2,0,P|513:231|496:255,1,60.0000000000001,8|8,2:0|2:0,0:0:0:0:
263,246,162616,6,0,B|431:213|431:213|281:341,1,297.6,4|8,3:2|2:0,0:0:0:0:
111,229,163061,5,0,3:2:0:0:
252,168,163172,2,0,P|205:179|188:224,1,100,0|8,2:0|2:0,0:0:0:0:
277,346,163394,6,0,P|188:303|90:315,1,200,0|0,1:2|0:0,0:0:0:0:
15,296,163727,6,0,P|5:323|20:349,1,60.0000000000001,10|0,2:0|1:2,0:0:0:0:
263,246,163950,6,0,P|301:238|321:205,1,80,2|10,3:2|2:1,0:0:0:0:
95,56,164172,6,0,P|62:19|15:18,1,100,10|2,3:1|3:2,0:0:0:0:
125,199,164394,6,0,P|168:121|170:32,1,180,2|0,3:1|0:0,0:0:0:0:
182,39,164616,2,0,P|185:89|175:138,1,100,8|0,2:0|0:0,0:0:0:0:
9,179,164838,5,0,3:2:0:0:
0,167,164950,2,0,P|29:128|77:131,1,100,0|8,2:0|2:0,0:0:0:0:
265,211,165172,6,0,B|236:208|210:222|195:244|195:244|195:244|195:244|180:269|152:281|126:278,1,163.2,0|0,2:0|0:0,0:0:0:0:
313,271,165505,6,0,B|287:293|248:299|211:280|195:245|195:245|195:245|195:245|181:214|149:192|106:193|76:218,2,280,8|0|8,2:1|3:2|2:0,0:0:0:0:
292,81,166061,1,0,2:1:0:0:
244,20,166172,6,0,P|214:45|213:84,1,80,4|0,3:2|0:0,0:0:0:0:
370,78,166394,2,0,P|368:116|339:142,1,80,8|0,2:0|0:0,0:0:0:0:
265,211,166616,6,0,L|257:151,1,60.0000000000001,0|0,3:0|0:0,0:0:0:0:
350,281,166838,2,0,L|342:221,1,60.0000000000001,8|0,2:0|0:0,0:0:0:0:
222,301,167061,6,0,P|319:289|408:332,1,200,2|8,3:1|2:0,0:0:0:0:
408,332,167394,1,0,0:0:0:0:
423,247,167505,6,0,P|511:209|480:300,1,240,0|0,3:0|1:0,0:0:0:0:
235,166,167950,6,0,B|281:223|354:197|354:197|375:141|429:126,1,240,14|8,2:1|2:1,0:0:0:0:
353,62,168283,6,0,B|267:-3|267:-3|305:124,1,240,10|0,2:1|0:0,0:0:0:0:
355,283,168616,1,10,2:1:0:0:
355,283,168727,1,8,2:0:0:0:
423,247,168838,6,0,P|511:209|480:300,1,240,2|0,2:0|1:2,0:0:0:0:
305,343,169172,1,8,2:0:0:0:
381,356,169283,5,8,2:1:0:0:
355,283,169394,1,8,2:1:0:0:
329,210,169505,2,0,L|337:166,2,30.0000000000001,8|8|8,2:1|2:1|2:1,0:0:0:0:
81,291,169727,6,0,B|178:278|178:278|183:281|183:281|278:269,1,200,4|8,3:2|2:0,0:0:0:0:
279,269,170172,1,0,3:0:0:0:
275,291,170283,1,0,0:0:0:0:
325,351,170394,2,0,P|346:330|352:301,1,60.0000000000001,8|0,2:0|0:0,0:0:0:0:
511,182,170616,6,0,P|425:228|329:210,1,200,0|8,3:0|2:0,0:0:0:0:
236,149,170950,1,0,0:0:0:0:
329,210,171061,6,0,L|311:131,1,80,4|0,3:2|2:1,0:0:0:0:
406,38,171283,2,0,L|388:116,1,80,8|0,2:0|2:1,0:0:0:0:
232,260,171505,5,14,2:0:0:0:
260,75,171653,5,10,2:0:0:0:
405,192,171801,5,10,2:0:0:0:
218,276,171950,5,10,2:0:0:0:
252,55,172098,5,10,2:0:0:0:
425,195,172246,5,10,2:0:0:0:
299,176,172394,5,10,3:0:0:0:
299,176,172616,2,0,L|247:168,2,48.0000000000001
388,115,173283,6,0,P|437:111|459:67,1,95.9999999999998,6|0,3:0|0:0,0:0:0:0:
425,195,173727,2,0,P|429:244|473:266,1,95.9999999999998,8|0,2:0|0:0,0:0:0:0:
482,337,174172,2,0,L|473:286,2,48
402,384,175061,6,0,P|374:343|324:346,1,95.9999999999998,2|0,3:2|0:0,0:0:0:0:
208,379,175505,2,0,P|248:351|245:301,1,95.9999999999998,8|0,2:0|0:0,0:0:0:0:
315,264,175950,2,0,L|306:213,2,48
182,188,176838,6,0,P|133:179|115:133,1,95.9999999999998,2|0,3:2|0:0,0:0:0:0:
136,267,177283,2,0,P|132:316|88:338,1,95.9999999999998,8|0,2:0|0:0,0:0:0:0:
29,361,177727,2,0,L|79:352,2,48
9,243,178616,5,2,3:2:0:0:
19,252,178727,1,0,0:0:0:0:
22,265,178838,1,0,0:0:0:0:
17,278,178950,1,0,0:0:0:0:
4,290,179061,6,0,L|23:181,1,95.9999999999998,8|0,2:0|0:0,0:0:0:0:
0,112,179505,5,0,0:0:0:0:
182,188,179616,1,10,2:0:0:0:
182,188,179838,5,10,3:0:0:0:
219,152,179950,1,10,2:0:0:0:
265,173,180061,1,10,2:0:0:0:
302,137,180172,1,12,2:1:0:0:
388,269,180394,6,0,P|437:273|459:317,1,95.9999999999998,2|0,3:2|0:0,0:0:0:0:
425,189,180838,2,0,P|429:140|473:118,1,95.9999999999998,10|0,2:0|0:0,0:0:0:0:
482,47,181283,2,0,L|473:98,2,48
402,0,182172,6,0,P|374:41|324:38,1,95.9999999999998,2|0,3:2|0:0,0:0:0:0:
208,5,182616,2,0,P|248:33|245:83,1,95.9999999999998,10|0,2:0|0:0,0:0:0:0:
185,117,183061,2,0,L|134:108,2,48
0,195,183950,6,0,P|49:186|67:140,1,95.9999999999998,2|0,3:2|0:0,0:0:0:0:
46,274,184394,2,0,P|50:323|94:345,1,95.9999999999998,10|0,2:0|0:0,0:0:0:0:
92,361,184838,1,0,0:0:0:0:
256,192,185061,5,10,2:0:0:0:
189,228,185283,5,8,2:1:0:0:
303,267,185394,1,10,2:0:0:0:
194,241,185505,1,10,2:0:0:0:
358,166,185727,6,0,P|360:118|374:73,1,95.9999999999998,2|2,2:0|2:0,0:0:0:0:
412,4,186061,1,0,0:0:0:0:
412,4,186172,1,2,2:0:0:0:
450,70,186394,1,2,2:0:0:0:
255,21,186616,1,2,2:0:0:0:
255,21,186950,6,0,L|266:69,1,48,2|10,2:0|2:0,0:0:0:0:
302,228,187394,1,10,2:0:0:0:
164,122,187505,6,0,B|127:93|127:93|199:107,1,120,6|0,2:0|0:0,0:0:0:0:
356,142,187727,2,0,B|259:155|259:155|232:190|232:190|136:204,2,240,8|0|8,2:0|3:0|2:0,0:0:0:0:
365,283,188283,1,0,2:0:0:0:
351,276,188394,6,0,P|331:252|339:222,1,64,0|0,3:0|0:0,0:0:0:0:
392,72,188616,6,0,B|442:111|442:111|416:231,1,180,10|0,1:2|0:0,0:0:0:0:
417,225,188838,2,0,B|488:214|488:214|431:177,1,120,0|0,3:0|0:0,0:0:0:0:
320,102,189061,2,0,B|287:77|287:77|304:0,1,120,10|0,1:2|2:0,0:0:0:0:
482,105,189283,6,0,B|367:121|367:121|363:129|363:129|249:145,1,240,2|10,3:2|1:2,0:0:0:0:
97,207,189616,6,0,B|60:172|60:172|127:187,1,120,2|2,2:0|3:2,0:0:0:0:
278,220,189838,1,0,0:0:0:0:
189,265,189950,6,0,B|217:138|217:138|148:63|148:63|174:125,1,300,10|0,1:2|0:0,0:0:0:0:
261,296,190394,2,0,P|300:298|332:276,1,80,10|0,1:2|2:0,0:0:0:0:
81,372,190616,5,0,3:0:0:0:
48,301,190727,2,0,P|85:290|122:305,1,80,10|2,2:0|3:2,0:0:0:0:
302,377,190950,1,0,2:0:0:0:
199,342,191061,6,0,B|159:376|159:376|226:364,1,120,6|0,2:0|0:0,0:0:0:0:
415,277,191283,2,0,B|274:303|274:303|200:241,2,240,8|0|0,2:0|3:0|2:0,0:0:0:0:
301,143,191838,1,0,2:0:0:0:
285,146,191950,6,0,P|264:168|270:198,1,64,0|0,2:0|0:0,0:0:0:0:
322,380,192172,6,0,B|337:295|337:295|334:288|334:288|349:203,1,180,10|0,1:2|0:0,0:0:0:0:
349,203,192394,2,0,B|405:193|405:193|409:195|409:195|465:185,1,120,0|0,3:0|0:0,0:0:0:0:
252,327,192616,2,0,B|188:338|188:338|235:306,1,120,10|0,1:2|2:0,0:0:0:0:
415,294,192838,6,0,B|309:275|309:275|275:235|275:235|196:221,1,240,2|10,2:0|1:2,0:0:0:0:
70,176,193172,6,0,B|105:150|105:150|146:162,1,88,2|2,2:0|2:0,0:0:0:0:
120,235,193394,1,0,0:0:0:0:
93,307,193505,2,0,B|134:319|134:319|170:294,1,88,10|0,1:2|2:0,0:0:0:0:
195,101,193727,6,0,P|221:116|224:146,1,64,10|0,3:2|0:0,0:0:0:0:
262,376,193950,1,10,2:0:0:0:
248,384,194061,6,0,P|238:346|253:310,1,80,10|2,2:0|3:2,0:0:0:0:
343,193,194283,2,0,P|273:228|194:220,1,160,10|0,2:0|2:0,0:0:0:0:
421,195,194616,6,0,B|440:266|440:266|409:232,1,120,6|0,2:0|0:0,0:0:0:0:
384,126,194838,2,0,B|364:54|364:54|395:88,1,120,10|0,2:0|1:0,0:0:0:0:
498,143,195061,6,0,B|534:114|534:114|461:128,1,120,2|0,3:2|0:0,0:0:0:0:
308,208,195283,2,0,B|271:179|271:179|344:193,1,120,10|0,1:2|1:0,0:0:0:0:
459,293,195505,6,0,B|423:257|423:257|356:270,1,120,2|0,3:2|0:0,0:0:0:0:
220,47,195727,2,0,B|241:94|241:94|308:106,1,120,10|0,1:2|1:0,0:0:0:0:
402,8,195950,6,0,B|391:65|391:65|393:69|393:69|383:125,1,120,2|0,3:2|0:0,0:0:0:0:
281,295,196172,2,0,B|271:238|271:238|273:234|273:234|263:178,1,120,10|0,1:2|1:0,0:0:0:0:
75,210,196394,6,0,B|193:231,1,120,2|0,3:2|0:0,0:0:0:0:
501,105,196616,2,0,B|374:127,1,120,10|0,1:2|1:2,0:0:0:0:
318,32,196838,6,0,B|349:-2|349:-2|329:69,1,120,2|0,3:2|0:0,0:0:0:0:
173,308,197061,2,0,B|234:375|234:375|194:234,1,240,10|0,1:2|3:0,0:0:0:0:
251,71,197505,5,10,2:0:0:0:
189,216,197616,1,0,2:0:0:0:
103,118,197727,2,0,B|159:128|159:128|163:131|163:131|219:141,1,120,0|10,3:0|2:0,0:0:0:0:
437,179,197950,1,0,1:0:0:0:
437,179,198172,6,0,P|343:153|266:211,1,200,6|8,2:0|1:2,0:0:0:0:
194,310,198505,1,0,2:0:0:0:
194,310,198616,6,0,P|211:285|201:256,1,64,2|0,3:2|0:0,0:0:0:0:
197,177,198838,2,0,P|167:175|147:198,1,64,8|0,1:2|2:0,0:0:0:0:
50,286,199061,6,0,P|85:269|125:273,1,80,2|0,3:2|0:0,0:0:0:0:
226,105,199283,2,0,P|258:127|274:163,1,80,8|0,1:2|2:0,0:0:0:0:
378,237,199505,6,0,P|330:227|287:251,1,100,2|0,3:2|0:0,0:0:0:0:
183,40,199727,2,0,P|150:76|150:125,1,100,10|0,1:2|2:0,0:0:0:0:
154,357,199950,6,0,B|268:281|210:133|85:195|125:273,1,300,0|0,3:0|2:0,0:0:0:0:
243,381,200394,6,0,P|161:324|63:321,1,200,0|8,3:0|2:0,0:0:0:0:
331,249,200838,5,10,3:1:0:0:
281,308,200950,1,10,2:1:0:0:
321,374,201061,1,10,2:0:0:0:
396,356,201172,1,10,2:0:0:0:
406,282,201283,5,0,3:0:0:0:
406,282,201394,2,0,B|451:237|513:266|513:266|468:263|441:304,1,192,10|6,2:0|2:0,0:0:0:0:
463,110,201950,6,0,P|478:140|473:175,1,71.9999999999999
473,177,202172,2,0,P|449:172|427:181,1,48.0000000000001
332,74,202505,6,0,P|364:84|385:112,1,72.0000000000001,2|0,2:0|0:0,0:0:0:0:
386,115,202838,2,0,P|365:128|356:150,1,47.9999999999999,2|0,2:0|0:0,0:0:0:0:
214,143,203061,6,0,P|244:126|279:131,1,71.9999999999999,2|0,2:0|0:0,0:0:0:0:
280,132,203283,2,0,P|274:155|283:177,1,48.0000000000001,2|2,2:0|2:0,0:0:0:0:
400,259,203727,5,2,2:0:0:0:
388,238,203838,1,0,0:0:0:0:
368,226,203950,1,2,2:0:0:0:
344,225,204061,1,0,0:0:0:0:
328,338,204283,6,0,L|336:303,1,36,2|0,2:0|0:0,0:0:0:0:
230,260,204505,2,0,L|238:294,1,36,2|0,2:0|0:0,0:0:0:0:
257,370,204727,1,0,0:0:0:0:
260,384,204838,5,2,2:0:0:0:
303,233,205061,1,0,0:0:0:0:
407,344,205283,1,2,2:0:0:0:
466,292,205727,6,0,P|420:265|368:276,1,108,2|2,2:0|2:0,0:0:0:0:
302,233,206172,6,0,P|270:193|314:219,1,144
369,276,206616,6,0,P|330:311|277:313,1,108,2|0,2:0|0:0,0:0:0:0:
193,340,207061,6,0,L|204:268,1,72.0000000000001,2|0,2:0|0:0,0:0:0:0:
115,328,207394,1,2,2:0:0:0:
115,328,207505,2,0,L|126:256,1,72.0000000000001,0|2,2:0|2:0,0:0:0:0:
240,150,207838,5,0,0:0:0:0:
237,133,207950,2,0,L|227:71,2,47.9999999999999,2|0|2,2:0|0:0|2:0,0:0:0:0:
126,257,208283,5,0,0:0:0:0:
96,184,208394,2,0,B|148:162|196:191|169:214|218:243|270:221,1,192,2|2,2:0|2:0,0:0:0:0:
45,125,209283,6,0,P|0:99|33:138,2,144,2|0|2,2:0|0:0|2:0,0:0:0:0:
96,184,210172,6,0,L|170:170,1,64,2|0,2:0|0:0,0:0:0:0:
174,169,210394,2,0,L|248:155,1,64,2|0,2:0|0:0,0:0:0:0:
123,100,210616,5,2,2:0:0:0:
210,242,210838,1,2,2:0:0:0:
22,203,211061,1,2,2:0:0:0:
22,203,211172,2,0,L|84:214,1,64
281,210,211394,6,0,P|198:217|138:274,1,168,2|2,2:0|2:0,0:0:0:0:
139,273,211950,6,0,P|120:297|89:293,1,64,2|0,2:0|0:0,0:0:0:0:
85,214,212172,2,0,P|54:209|42:181,1,64,2|0,2:0|0:0,0:0:0:0:
109,137,212394,6,0,P|97:108|115:83,2,64,2|0|0,2:0|0:0|0:0,0:0:0:0:
187,119,213061,5,0,0:0:0:0:
35,42,213283,2,0,P|111:59|184:29,1,160,2|0,2:0|0:0,0:0:0:0:
250,73,213950,1,0,0:0:0:0:
386,9,214172,5,0,0:0:0:0:
327,59,214505,5,0,0:0:0:0:
302,132,214838,5,0,0:0:0:0:
318,208,215061,1,2,2:0:0:0:
382,163,215394,5,8,2:1:0:0:
382,163,215450,1,8,2:1:0:0:
382,163,215505,2,0,P|399:186|395:215,1,60.0000000000001,8|8,2:0|2:1,0:0:0:0:
244,183,215727,5,8,2:0:0:0:
244,183,215838,1,8,2:1:0:0:
290,41,215950,5,4,3:2:0:0:
336,305,216172,6,0,P|409:255|497:260,1,180,10|0,2:0|0:0,0:0:0:0:
512,265,216394,2,0,P|517:229|497:259,1,100,0|0,3:2|0:0,0:0:0:0:
287,366,216616,5,8,2:0:0:0:
259,294,216727,2,0,P|252:205|300:132,1,180,2|0,2:0|0:0,0:0:0:0:
313,122,217061,2,0,P|284:99|301:131,1,100,10|0,2:1|1:2,0:0:0:0:
210,355,217283,6,0,P|130:316|90:237,1,180,0|0,3:2|0:0,0:0:0:0:
88,223,217505,2,0,P|54:236|90:237,1,100,8|0,3:1|2:0,0:0:0:0:
260,294,217727,1,2,3:1:0:0:
113,146,217950,5,8,2:0:0:0:
207,238,218061,1,0,2:0:0:0:
194,160,218172,2,0,L|180:81,2,80,2|2|0,3:2|2:0|2:0,0:0:0:0:
328,357,218505,6,0,L|344:258,1,100,2|0,2:0|2:0,0:0:0:0:
251,31,218727,6,0,L|264:109,1,80,2|10,2:0|2:1,0:0:0:0:
420,240,218950,1,0,2:0:0:0:
442,159,219061,6,0,B|355:171|355:171|352:176|352:176|266:188,1,180,0|0,3:2|0:0,0:0:0:0:
241,262,219283,2,0,P|238:298|255:266,1,100,10|0,2:0|2:0,0:0:0:0:
0,202,219505,6,0,B|38:144|137:137|189:199|189:199|142:229|147:287,1,300,4|0,3:2|0:0,0:0:0:0:
69,278,219950,6,0,P|105:166|210:115,1,240,0|8,3:2|2:0,0:0:0:0:
118,338,220283,1,0,2:0:0:0:
147,266,220394,6,0,P|242:245|324:300,1,200,2|8,3:1|2:0,0:0:0:0:
383,249,220727,1,0,0:0:0:0:
283,176,220838,6,0,B|270:119|338:111|338:111|376:168|324:195,1,200,0|8,3:2|2:0,0:0:0:0:
138,177,221283,5,10,3:1:0:0:
205,215,221394,1,0,2:0:0:0:
272,253,221505,1,8,2:0:0:0:
262,348,221616,5,8,2:1:0:0:
295,328,221727,1,0,3:2:0:0:
328,308,221838,1,0,2:0:0:0:
406,338,221950,5,14,2:0:0:0:
405,318,222061,1,8,2:1:0:0:
405,299,222172,1,0,3:2:0:0:
465,245,222283,5,14,2:0:0:0:
456,240,222394,1,8,2:0:0:0:
448,235,222505,1,0,3:2:0:0:
451,158,222616,6,0,P|421:155|399:174,1,60.0000000000001,8|0,3:0|3:0,0:0:0:0:
512,307,222838,2,0,P|488:326|459:322,1,60.0000000000001,8|8,2:0|2:0,0:0:0:0:
231,291,223061,6,0,B|304:175|453:231|394:357|315:318,1,298.666666666667,4|8,3:2|2:0,0:0:0:0:
50,381,223505,6,0,B|85:318|162:327|162:327|193:379|252:365,1,240,0|8,3:2|2:0,0:0:0:0:
268,105,223838,6,0,P|222:192|230:290,1,200,0|0,1:2|0:0,0:0:0:0:
127,192,224172,6,0,P|128:221|142:247,1,60.0000000000001,10|0,2:1|1:2,0:0:0:0:
318,167,224394,6,0,P|300:202|298:242,1,80,2|10,3:2|2:1,0:0:0:0:
504,246,224616,6,0,P|462:273|435:314,1,100,10|2,3:2|3:2,0:0:0:0:
230,290,224838,6,0,P|301:271|357:366,1,180,2|0,3:1|0:0,0:0:0:0:
359,364,225061,2,0,P|315:382|283:348,1,100,8|0,2:0|0:0,0:0:0:0:
352,208,225283,5,0,3:2:0:0:
403,149,225394,2,0,P|370:115|327:133,1,100,8|8,2:0|2:0,0:0:0:0:
283,349,225616,6,0,P|282:261|260:176,1,176,0|0,2:0|0:0,0:0:0:0:
149,240,225950,6,0,P|286:265|408:331,2,280,8|0|8,2:1|3:2|2:0,0:0:0:0:
122,87,226505,1,8,2:1:0:0:
96,171,226616,6,0,L|173:156,1,80,4|0,3:2|0:0,0:0:0:0:
68,18,226838,2,0,L|146:3,1,80,8|0,2:0|0:0,0:0:0:0:
14,231,227061,6,0,L|72:245,1,60.0000000000001,0|0,3:0|0:0,0:0:0:0:
176,74,227283,2,0,L|234:88,1,60.0000000000001,8|0,2:0|0:0,0:0:0:0:
43,317,227505,6,0,B|83:334|127:314|144:278|144:278|162:236|208:222|245:238,1,240,2|8,3:1|2:0,0:0:0:0:
298,181,227838,1,0,0:0:0:0:
308,191,227950,6,0,P|327:214|323:243,1,60.0000000000001,0|0,3:0|0:0,0:0:0:0:
237,379,228172,6,0,P|211:349|216:311,1,80,8|0,2:0|1:0,0:0:0:0:
391,281,228394,6,0,B|429:302|440:350|440:350|360:307|292:325,1,240,14|0,2:1|2:0,0:0:0:0:
497,283,228727,6,0,B|571:167|457:56|368:162|436:217,1,297.6,10|0,2:1|0:0,0:0:0:0:
323,242,229061,5,10,2:1:0:0:
323,242,229172,1,8,2:0:0:0:
391,281,229283,2,0,B|429:302|440:350|440:350|360:307|293:324,1,240,6|0,2:1|1:2,0:0:0:0:
196,163,229616,1,8,2:0:0:0:
225,279,229727,6,0,P|243:257|240:228,1,60.0000000000001,2|2,2:0|2:0,0:0:0:0:
162,234,229950,5,2,2:0:0:0:
162,234,230061,1,2,2:0:0:0:
293,170,230172,6,0,P|315:117|275:157,1,160,4|0,3:2|0:0,0:0:0:0:
322,246,230394,6,0,P|409:249|478:305,1,180,10|0,2:0|0:0,0:0:0:0:
455,379,230616,2,0,P|408:374|396:329,1,100,0|0,3:2|0:0,0:0:0:0:
199,170,230838,5,8,2:0:0:0:
246,232,230950,2,0,P|199:306|116:337,1,180,2|0,2:0|0:0,0:0:0:0:
66,277,231283,2,0,P|93:238|139:251,1,100,10|0,2:1|1:2,0:0:0:0:
296,173,231505,6,0,P|255:95|269:7,1,180,0|0,3:2|0:0,0:0:0:0:
345,0,231727,2,0,P|365:43|331:76,1,100,8|0,3:1|2:0,0:0:0:0:
183,15,231950,1,2,3:1:0:0:
334,93,232172,6,0,P|246:77|167:117,1,180,8|0,2:0|0:0,0:0:0:0:
170,133,232394,1,2,3:2:0:0:
94,143,232505,2,0,P|73:100|107:67,1,100,2|0,2:0|2:0,0:0:0:0:
237,227,232727,6,0,L|139:205,1,100,2|0,2:0|3:0,0:0:0:0:
0,384,232950,6,0,L|78:367,1,80,0|10,2:0|2:1,0:0:0:0:
214,337,233172,1,0,2:0:0:0:
154,384,233283,5,0,3:2:0:0:
74,247,233394,1,10,2:1:0:0:
279,293,233505,2,0,P|292:339|271:389,1,100,10|0,2:0|2:0,0:0:0:0:
209,153,233727,6,0,B|137:199|156:285|156:285|214:222|295:208,1,300,4|0,3:2|0:0,0:0:0:0:
386,100,234172,6,0,P|294:29|319:142,1,300,2|0,3:2|2:0,0:0:0:0:
214,336,234616,6,0,P|299:286|397:286,1,200,2|8,3:2|2:0,0:0:0:0:
420,361,234950,1,0,0:0:0:0:
389,178,235061,6,0,P|463:243|493:337,1,200,0|10,3:2|2:0,0:0:0:0:
489,88,235505,5,10,3:1:0:0:
413,104,235616,1,0,2:0:0:0:
337,120,235727,1,8,2:0:0:0:
347,243,235838,5,8,2:1:0:0:
309,236,235950,1,0,3:2:0:0:
271,228,236061,1,0,0:0:0:0:
207,147,236172,5,8,2:0:0:0:
188,151,236283,1,8,2:1:0:0:
169,155,236394,1,0,3:2:0:0:
100,192,236505,5,8,2:0:0:0:
90,190,236616,1,12,2:0:0:0:
81,188,236727,1,0,3:2:0:0:
15,147,236838,6,0,P|-1:170|4:199,1,60.0000000000001,2|0,3:1|3:0,0:0:0:0:
166,233,237061,6,0,P|182:209|176:180,3,60,8|8|8|0,2:0|2:1|2:0|0:0,0:0:0:0:
73,277,237283,6,0,B|176:256|176:256|248:241|288:300|288:300|253:270|194:281,1,297.6,6|8,3:2|2:0,0:0:0:0:
0,250,237727,5,2,3:2:0:0:
97,351,237838,2,0,P|141:332|150:284,1,100,0|10,2:0|2:0,0:0:0:0:
53,99,238061,6,0,B|101:148|101:148|73:276,1,200,2|0,1:2|0:0,0:0:0:0:
16,174,238394,6,0,L|74:162,1,60.0000000000001,10|0,2:0|1:2,0:0:0:0:
150,285,238616,6,0,L|228:268,1,80,0|10,3:2|2:1,0:0:0:0:
254,38,238838,6,0,L|371:13,1,100,8|2,3:2|3:2,0:0:0:0:
144,206,239061,6,0,B|162:120|162:120|158:115|158:115|176:30,1,180,2|0,3:1|0:0,0:0:0:0:
179,16,239283,2,0,P|131:11|96:43,1,100,8|0,2:0|0:0,0:0:0:0:
229,176,239505,5,0,3:2:0:0:
292,223,239616,2,0,P|256:256|208:251,1,100,0|8,2:0|2:0,0:0:0:0:
63,131,239838,6,0,L|258:89,1,200,0|0,2:0|0:0,0:0:0:0:
316,35,240172,6,0,B|288:62|283:105|302:139|332:155|332:155|332:155|332:155|365:174|381:213|372:251|348:275,2,280,8|0|8,2:1|3:2|2:0,0:0:0:0:
316,35,240727,1,0,2:1:0:0:
392,39,240838,6,0,P|405:73|372:89,1,80,4|0,3:2|0:0,0:0:0:0:
292,223,241061,2,0,P|251:220|257:180,1,80,8|0,2:0|0:0,0:0:0:0:
204,126,241283,6,0,L|145:112,1,60.0000000000001,0|0,3:0|0:0,0:0:0:0:
391,170,241505,2,0,L|333:157,1,60.0000000000001,10|0,2:0|0:0,0:0:0:0:
84,160,241727,6,0,P|81:68|175:40,1,200,2|8,3:2|2:0,0:0:0:0:
121,228,242061,1,0,0:0:0:0:
164,164,242172,6,0,P|165:134|145:112,1,60.0000000000001,0|0,3:0|0:0,0:0:0:0:
0,284,242394,6,0,P|10:246|43:226,1,80,8|0,2:0|1:0,0:0:0:0:
229,257,242616,6,0,B|299:233|342:346|186:385|150:272,1,240,14|8,2:1|2:1,0:0:0:0:
414,157,242950,6,0,B|361:189|362:258|362:258|339:193|278:180,1,240,10|0,2:1|0:0,0:0:0:0:
120,199,243283,6,0,P|178:198|201:132,1,120,0|8,3:0|2:0,0:0:0:0:
26,12,243505,5,0,3:0:0:0:
15,87,243616,1,8,2:0:0:0:
59,152,243727,5,0,3:0:0:0:
48,227,243838,1,8,2:0:0:0:
92,292,243950,5,2,2:0:0:0:
81,367,244061,1,2,2:0:0:0:
20,321,244172,2,0,L|-30:314,2,30.0000000000001,2|2|2,2:0|2:0|2:0,0:0:0:0:
154,340,244394,6,0,P|240:294|336:312,1,200,6|8,3:2|2:0,0:0:0:0:
337,312,244838,1,0,3:0:0:0:
333,334,244950,1,0,0:0:0:0:
403,384,245061,6,0,L|415:318,1,60.0000000000001,8|0,2:0|0:0,0:0:0:0:
448,206,245283,6,0,B|512:235|512:235|384:250,1,200,0|8,3:0|2:0,0:0:0:0:
310,127,245616,1,0,0:0:0:0:
384,104,245727,6,0,P|392:142|371:175,1,80,4|0,3:2|2:1,0:0:0:0:
235,149,245950,2,0,P|227:110|248:78,1,80,8|0,2:0|2:1,0:0:0:0:
325,50,246172,5,14,2:0:0:0:
246,230,246320,5,10,2:0:0:0:
130,72,246468,5,10,2:0:0:0:
341,37,246616,5,10,2:0:0:0:
248,250,246764,5,10,2:0:0:0:
110,63,246912,5,10,2:0:0:0:
233,117,247061,5,10,3:0:0:0:
233,117,247283,2,0,L|226:59,2,48.0000000000001
310,104,247838,1,0,0:0:0:0:
283,176,247950,6,0,P|198:187|154:114,1,180,4|0,3:0|0:0,0:0:0:0:
89,75,248172,2,0,L|161:84,1,64,10|0,2:0|0:0,0:0:0:0:
180,266,248394,1,0,3:2:0:0:
180,266,248505,2,0,L|189:338,1,64,2|10,2:0|2:0,0:0:0:0:
112,345,248727,2,0,L|103:281,1,64,2|0,2:0|2:0,0:0:0:0:
219,123,248950,5,2,2:0:0:0:
188,185,249061,1,8,2:0:0:0:
122,207,249172,1,2,2:0:0:0:
52,172,249283,6,0,P|81:160|107:177,1,64,8|0,3:2|0:0,0:0:0:0:
266,185,249505,2,0,P|270:216|247:236,1,64,8|0,2:0|0:0,0:0:0:0:
179,40,249727,6,0,B|256:49|256:49|251:52|251:52|328:62,1,160,2|10,3:2|2:0,0:0:0:0:
327,61,250172,5,8,3:2:0:0:
330,140,250283,1,2,2:0:0:0:
392,104,250394,1,10,2:0:0:0:
404,51,250505,1,2,2:0:0:0:
378,3,250616,2,0,B|445:-4,1,47.9999999999999,0|0,3:0|0:0,0:0:0:0:
512,243,250838,6,0,P|457:178|376:202,1,180,2|0,2:1|0:0,0:0:0:0:
341,329,251061,5,0,3:0:0:0:
297,199,251172,1,2,2:1:0:0:
345,342,251283,2,0,P|374:339|381:310,1,64,2|0,3:2|0:0,0:0:0:0:
435,254,251505,6,0,P|330:292|219:224,1,240,6|10,3:1|2:0,0:0:0:0:
39,76,251950,5,0,3:2:0:0:
39,76,252061,2,0,L|112:67,1,64,2|10,2:0|2:0,0:0:0:0:
110,145,252283,2,0,L|46:152,1,64,2|0,2:0|3:0,0:0:0:0:
164,282,252505,5,2,2:0:0:0:
149,213,252616,1,10,2:0:0:0:
187,153,252727,1,2,2:0:0:0:
262,134,252838,6,0,P|273:162|256:188,1,64,10|0,3:2|0:0,0:0:0:0:
88,262,253061,2,0,P|58:258|44:230,1,64,8|0,2:0|0:0,0:0:0:0:
208,384,253283,6,0,P|157:315|200:241,1,180,2|0,3:1|0:0,0:0:0:0:
199,242,253505,2,0,P|253:266|309:245,1,120,10|0,2:0|0:0,0:0:0:0:
129,126,253727,6,0,P|213:115|256:189,1,180,2|0,3:1|0:0,0:0:0:0:
308,246,253950,2,0,P|330:213|332:171,1,80,10|0,2:0|0:0,0:0:0:0:
452,111,254172,6,0,L|303:91,1,150,2|0,2:1|0:0,0:0:0:0:
298,82,254394,1,8,2:0:0:0:
293,72,254505,2,0,L|375:81,1,80,10|8,2:0|2:1,0:0:0:0:
485,184,254727,1,10,2:0:0:0:
490,194,254838,2,0,L|410:184,1,80,4|0,2:1|0:0,0:0:0:0:
344,246,255061,6,0,P|301:172|216:183,1,180,4|0,3:0|0:0,0:0:0:0:
143,203,255283,2,0,L|206:210,1,64,10|0,2:0|0:0,0:0:0:0:
336,326,255505,1,2,3:2:0:0:
336,326,255616,2,0,L|399:316,1,64,2|10,2:0|2:0,0:0:0:0:
484,233,255838,2,0,L|421:243,1,64,2|0,2:0|3:0,0:0:0:0:
262,289,256061,5,2,2:0:0:0:
289,224,256172,1,10,2:0:0:0:
262,158,256283,1,2,2:0:0:0:
197,115,256394,6,0,P|177:137|184:167,1,64,10|0,3:2|0:0,0:0:0:0:
145,235,256616,2,0,P|169:253|199:243,1,64,8|0,2:0|0:0,0:0:0:0:
265,69,256838,6,0,P|190:95|111:86,1,160,2|10,3:2|2:0,0:0:0:0:
111,86,257283,5,8,3:2:0:0:
109,165,257394,1,2,2:0:0:0:
47,130,257505,1,8,2:0:0:0:
35,77,257616,1,2,2:0:0:0:
59,28,257727,2,0,B|-8:21,1,47.9999999999999,0|0,3:0|0:0,0:0:0:0:
63,249,257950,6,0,P|114:181|196:202,1,180,2|0,2:1|0:0,0:0:0:0:
375,233,258172,5,0,3:0:0:0:
343,384,258283,1,2,2:1:0:0:
371,245,258394,2,0,P|358:273|329:270,1,64,2|0,2:0|0:0,0:0:0:0:
284,333,258616,6,0,P|291:215|220:123,1,240,6|10,3:2|2:0,0:0:0:0:
212,371,259061,5,0,3:0:0:0:
212,371,259172,2,0,L|200:307,1,64,2|10,2:0|2:0,0:0:0:0:
123,322,259394,2,0,L|134:384,1,64,2|0,2:0|3:0,0:0:0:0:
50,212,259616,5,2,2:0:0:0:
92,251,259727,1,10,2:0:0:0:
150,249,259838,1,2,3:2:0:0:
119,178,259950,5,2,3:2:0:0:
147,105,260061,5,8,2:1:0:0:
218,73,260172,5,8,2:0:0:0:
218,73,260394,5,2,3:2:0:0:
211,150,260616,1,2,2:0:0:0:
282,117,260838,1,2,3:2:0:0:
314,187,261061,1,2,2:0:0:0:
358,124,261283,5,2,3:2:0:0:
420,168,261394,1,0,0:0:0:0:
427,92,261616,5,2,3:2:0:0:
502,99,261727,1,0,3:0:0:0:
471,27,261838,2,0,L|518:5,2,32,8|8|8,2:1|2:1|2:0,0:0:0:0:
380,31,262061,6,0,P|361:2|385:28,1,100
256,192,262616,5,14,3:0:0:0:
256,192,262672,12,0,275283,0:0:0:0:
