osu file format v14

[General]
AudioFilename: audio.mp3
AudioLeadIn: 0
PreviewTime: 215969
Countdown: 0
SampleSet: Soft
StackLeniency: 0.4
Mode: 0
LetterboxInBreaks: 0
WidescreenStoryboard: 1

[Editor]
DistanceSpacing: 1.6
BeatDivisor: 4
GridSize: 4
TimelineZoom: 3.699998

[Metadata]
Title:Lilith
TitleUnicode:Lilith
Artist:Aitsuki Nakuru & Kabocha
ArtistUnicode:藍月なくる & かぼちゃ
Creator:Celine
Version:Celinyui Collab Extra
Source:
Tags:japanese jazz pop osu! fa featured artist nacollection-3- nacollection 3 0ppinosu ancul felter mnyui muya gelidium sunazuka akira miura
BeatmapID:3103655
BeatmapSetID:1261931

[Difficulty]
HPDrainRate:5
CircleSize:4.2
OverallDifficulty:9
ApproachRate:9.8
SliderMultiplier:1.85
SliderTickRate:0.5

[Events]
//Background and Video events
0,0,"yande.re_564086_dress_rurudo_rurudot_wings (1).jpg",0,0
//Break Periods
2,20149,24748
2,27705,31859
//Storyboard Layer 0 (Background)
//Storyboard Layer 1 (Fail)
//Storyboard Layer 2 (Pass)
//Storyboard Layer 3 (Foreground)
//Storyboard Layer 4 (Overlay)
//Storyboard Sound Samples

[TimingPoints]
-50,222.222222222223,4,2,1,70,1,0
838,-90.9090909090909,4,2,2,70,0,0
1172,-90.9090909090909,4,2,1,70,0,0
1283,-125,4,2,1,70,0,0
1450,-133.333333333333,4,2,1,5,0,0
1505,-90.9090909090909,4,2,1,70,0,0
1838,-90.9090909090909,4,2,1,75,0,0
1950,-125,4,2,1,75,0,0
2116,-133.333333333333,4,2,1,5,0,0
2172,-90.9090909090909,4,2,1,70,0,0
2338,-133.333333333333,4,2,1,5,0,0
2394,-90.9090909090909,4,2,1,70,0,0
2616,-100,4,2,13,75,0,0
2838,-133.333333333333,4,2,13,5,0,0
2912,-111.111111111111,4,2,1,73,0,0
3135,-133.333333333333,4,2,1,5,0,0
3209,-125,4,2,15,69,0,0
3431,-133.333333333333,4,2,15,5,0,0
3505,-200,4,2,1,67,0,0
3727,-133.333333333333,4,2,1,5,0,0
3801,-1000,4,2,1,63,0,0
4764,-133.333333333333,4,2,1,5,0,0
5616,-1000,4,2,1,70,0,0
5950,-1000,4,2,1,75,0,0
6172,-66.6666666666667,4,2,9,85,0,0
6338,-133.333333333333,4,2,9,5,0,0
6394,-142.857142857143,4,2,1,75,0,0
6561,-133.333333333333,4,2,1,5,0,0
6616,-142.857142857143,4,2,1,75,0,0
6727,-83.3333333333333,4,2,1,75,0,0
6950,-100,4,2,1,75,0,0
7727,-125,4,2,1,75,0,0
7894,-133.333333333333,4,2,1,5,0,0
7950,-83.3333333333333,4,2,1,75,0,0
8172,-100,4,2,1,75,0,0
8505,-83.3333333333333,4,2,1,82,0,0
8727,-100,4,2,1,75,0,0
9061,-100,4,2,1,80,0,0
9505,-125,4,2,1,70,0,0
9672,-133.333333333333,4,2,1,5,0,0
9727,-66.6666666666667,4,2,2,85,0,0
9894,-133.333333333333,4,2,2,5,0,0
9950,-83.3333333333333,4,2,1,75,0,0
10283,-100,4,2,1,75,0,0
11505,-71.4285714285714,4,2,1,85,0,0
11672,-133.333333333333,4,2,1,5,0,0
11727,-100,4,2,1,75,0,0
11950,-76.9230769230769,4,2,1,85,0,0
12116,-133.333333333333,4,2,1,5,0,0
12172,-100,4,2,1,75,0,0
12394,-83.3333333333333,4,2,1,90,0,0
12561,-133.333333333333,4,2,1,5,0,0
12616,-83.3333333333333,4,2,1,85,0,0
12727,-90.9090909090909,4,2,1,85,0,0
12894,-133.333333333333,4,2,1,5,0,0
12950,-90.9090909090909,4,2,1,85,0,0
13061,-200,4,2,5,85,0,0
13227,-133.333333333333,4,2,5,5,0,0
13283,-66.6666666666667,4,2,10,85,0,0
13450,-133.333333333333,4,2,10,5,0,0
13505,-100,4,2,1,75,0,0
14838,-111.111111111111,4,2,1,75,0,0
15005,-133.333333333333,4,2,1,5,0,0
15061,-76.9230769230769,4,2,1,75,0,0
15283,-100,4,2,1,75,0,0
16172,-76.9230769230769,4,2,1,75,0,0
16338,-133.333333333333,4,2,1,5,0,0
16394,-76.9230769230769,4,2,1,80,0,0
16616,-149.253731343284,4,2,1,70,0,0
16783,-133.333333333333,4,2,1,5,0,0
16838,-66.6666666666667,4,2,5,85,0,0
17005,-133.333333333333,4,2,5,5,0,0
17061,-100,4,2,1,75,0,0
18172,-100,4,2,1,85,0,0
18616,-100,4,2,1,65,0,0
18783,-133.333333333333,4,2,1,5,0,0
18838,-100,4,2,1,65,0,0
19061,-111.111111111111,4,2,1,65,0,0
19227,-133.333333333333,4,2,1,5,0,0
19283,-111.111111111111,4,2,1,65,0,0
19783,-133.333333333333,4,2,1,5,0,0
19838,-111.111111111111,4,2,1,65,0,0
19949,-111.111111111111,4,2,1,55,0,0
20838,-111.111111111111,4,2,3,55,0,0
25283,-166.666666666666,4,2,3,80,0,0
25505,-166.666666666666,4,2,3,55,0,0
27060,-166.666666666666,4,2,3,80,0,0
27505,-166.666666666666,4,2,3,55,0,0
32394,-166.666666666666,4,2,3,80,0,0
32616,-166.666666666666,4,2,3,55,0,0
32838,-166.666666666666,4,2,3,45,0,0
33727,-166.666666666666,4,2,90,45,0,0
34171,-166.666666666666,4,2,90,45,0,0
34616,-76.9230769230769,4,2,91,80,0,0
34838,-76.9230769230769,4,2,2,80,0,0
35061,-111.111111111111,4,2,2,75,0,0
36616,-142.857142857143,4,2,2,75,0,0
36783,-133.333333333333,4,2,2,5,0,0
36838,-111.111111111111,4,2,2,75,0,0
38172,-125,4,2,2,75,0,0
38450,-133.333333333333,4,2,2,5,0,0
38505,-125,4,2,2,75,0,0
38616,-99.9999999999999,4,2,2,75,0,0
38783,-133.333333333333,4,2,2,5,0,0
38838,-200,4,2,2,75,0,0
39005,-133.333333333333,4,2,2,5,0,0
39061,-111.111111111111,4,2,2,75,0,0
39727,-142.857142857143,4,2,2,75,0,0
39894,-133.333333333333,4,2,2,5,0,0
39950,-111.111111111111,4,2,2,75,0,0
41727,-99.9999999999999,4,2,2,75,0,0
42172,-111.111111111111,4,2,2,75,0,0
42394,-142.857142857143,4,2,2,75,0,0
42561,-133.333333333333,4,2,2,5,0,0
42616,-111.111111111111,4,2,2,75,0,0
42950,-125,4,2,2,75,0,0
43505,-111.111111111111,4,2,2,75,0,0
43672,-133.333333333333,4,2,2,5,0,0
43727,-111.111111111111,4,2,2,75,0,0
45727,-142.857142857143,4,2,2,75,0,0
46172,-111.111111111111,4,2,2,75,0,0
48838,-90.9090909090908,4,2,1,75,0,0
49005,-133.333333333333,4,2,1,5,0,0
49061,-100,4,2,1,75,0,0
49394,-125,4,2,1,75,0,0
49561,-133.333333333333,4,2,1,5,0,0
49616,-100,4,2,1,75,0,0
50394,-166.666666666667,4,2,1,75,0,0
50561,-133.333333333333,4,2,1,5,0,0
50616,-100,4,2,1,75,0,0
51450,-133.333333333333,4,2,1,5,0,0
51505,-100,4,2,1,75,0,0
52394,-90.9090909090909,4,2,1,75,0,0
52561,-133.333333333333,4,2,1,5,0,0
52616,-100,4,2,1,75,0,0
53172,-90.9090909090909,4,2,1,75,0,0
53505,-100,4,2,1,75,0,0
53950,-142.857142857143,4,2,1,75,0,0
54116,-133.333333333333,4,2,1,5,0,0
54172,-100,4,2,1,75,0,0
54838,-142.857142857143,4,2,1,75,0,0
55005,-133.333333333333,4,2,1,5,0,0
55061,-100,4,2,1,75,0,0
55727,-166.666666666667,4,2,1,75,0,0
55894,-133.333333333333,4,2,1,5,0,0
55950,-100,4,2,1,75,0,0
56116,-133.333333333333,4,2,1,5,0,0
56172,-100,4,2,1,75,0,0
56561,-133.333333333333,4,2,1,5,0,0
56616,-100,4,2,1,75,0,0
57505,-200,4,2,1,75,0,0
57672,-133.333333333333,4,2,1,5,0,0
57727,-100,4,2,1,75,0,0
58783,-133.333333333333,4,2,1,5,0,0
58838,-100,4,2,1,75,0,0
64394,-125,4,2,1,75,0,0
64838,-66.6666666666667,4,2,9,85,0,1
65005,-133.333333333333,4,2,9,5,0,1
65061,-100,4,2,7,85,0,1
65283,-125,4,2,7,85,0,1
65450,-133.333333333333,4,2,7,5,0,1
65505,-125,4,2,7,85,0,1
65616,-90.9090909090909,4,2,7,85,0,1
65894,-133.333333333333,4,2,7,5,0,1
65950,-66.6666666666667,4,2,7,85,0,1
66172,-76.9230769230769,4,2,7,85,0,1
66338,-133.333333333333,4,2,7,5,0,1
66394,-142.857142857143,4,2,7,85,0,1
66616,-66.6666666666667,4,2,7,85,0,1
66783,-133.333333333333,4,2,7,5,0,1
66838,-66.6666666666667,4,2,7,85,0,1
67172,-100,4,2,7,85,0,1
67394,-83.3333333333333,4,2,7,85,0,1
67561,-133.333333333333,4,2,7,5,0,1
67616,-100,4,2,7,85,0,1
68394,-66.6666666666667,4,2,1,85,0,1
68561,-133.333333333333,4,2,1,5,0,1
68616,-166.666666666667,4,2,1,85,0,1
68783,-133.333333333333,4,2,1,5,0,1
68838,-83.3333333333333,4,2,1,85,0,1
69505,-200,4,2,1,85,0,1
69672,-133.333333333333,4,2,1,5,0,1
69727,-71.4285714285714,4,2,1,85,0,1
70838,-71.4285714285714,4,2,4,85,0,1
70950,-71.4285714285714,4,2,7,85,0,1
71172,-71.4285714285714,4,2,5,85,0,1
71283,-71.4285714285714,4,2,7,85,0,1
71950,-71.4285714285714,4,2,9,85,0,1
72116,-133.333333333333,4,2,9,5,0,1
72172,-166.666666666667,4,2,7,85,0,1
72338,-133.333333333333,4,2,7,5,0,1
72394,-100,4,2,7,85,0,1
72727,-125,4,2,7,85,0,1
73005,-133.333333333333,4,2,7,5,0,1
73061,-76.9230769230769,4,2,7,85,0,1
73283,-66.6666666666667,4,2,7,85,0,1
73450,-133.333333333333,4,2,7,5,0,1
73505,-166.666666666667,4,2,7,85,0,1
73672,-133.333333333333,4,2,7,5,0,1
73727,-62.5,4,2,7,85,0,1
74116,-133.333333333333,4,2,7,5,0,1
74172,-62.5,4,2,7,85,0,1
74283,-166.666666666667,4,2,7,85,0,1
74561,-133.333333333333,4,2,7,5,0,1
74616,-62.5,4,2,7,85,0,1
75061,-100,4,2,7,85,0,1
75505,-90.9090909090909,4,2,1,85,0,1
75838,-100,4,2,1,85,0,1
76394,-66.6666666666667,4,2,1,65,0,1
76505,-66.6666666666667,4,2,1,70,0,1
76616,-66.6666666666667,4,2,1,75,0,1
76727,-66.6666666666667,4,2,1,80,0,1
76838,-66.6666666666667,4,2,1,85,0,1
77283,-66.6666666666667,4,2,2,90,0,1
77450,-133.333333333333,4,2,2,5,0,1
77505,-66.6666666666667,4,2,2,90,0,1
77616,-62.5,4,2,7,90,0,1
77783,-133.333333333333,4,2,7,5,0,1
77838,-62.5,4,2,7,90,0,1
77950,-62.5,4,2,7,90,0,1
78116,-133.333333333333,4,2,7,5,0,1
78172,-62.5,4,2,7,100,0,1
78838,-166.666666666667,4,2,7,100,0,1
79005,-133.333333333333,4,2,7,5,0,1
79061,-66.6666666666667,4,2,9,85,0,1
79227,-133.333333333333,4,2,9,5,0,1
79283,-142.857142857143,4,2,7,85,0,1
79450,-133.333333333333,4,2,7,5,0,1
79505,-76.9230769230769,4,2,7,85,0,1
79838,-111.111111111111,4,2,7,85,0,1
80116,-133.333333333333,4,2,7,5,0,1
80172,-83.3333333333333,4,2,7,85,0,1
80394,-76.9230769230769,4,2,7,85,0,1
80561,-133.333333333333,4,2,7,5,0,1
80616,-142.857142857143,4,2,7,85,0,1
80783,-133.333333333333,4,2,7,5,0,1
80838,-66.6666666666667,4,2,7,85,0,1
81005,-133.333333333333,4,2,7,5,0,1
81061,-66.6666666666667,4,2,7,85,0,1
81394,-100,4,2,7,85,0,1
81616,-83.3333333333333,4,2,7,85,0,1
81783,-133.333333333333,4,2,7,5,0,1
81838,-100,4,2,7,85,0,1
82616,-66.6666666666667,4,2,7,85,0,1
82783,-133.333333333333,4,2,7,5,0,1
82838,-200,4,2,7,85,0,1
83005,-133.333333333333,4,2,7,5,0,1
83061,-71.4285714285714,4,2,7,85,0,1
83394,-83.3333333333333,4,2,7,85,0,1
83727,-142.857142857143,4,2,7,85,0,1
83894,-133.333333333333,4,2,7,5,0,1
83950,-100,4,2,7,85,0,1
84616,-66.6666666666667,4,2,7,85,0,1
85505,-66.6666666666667,4,2,5,85,0,1
85727,-66.6666666666667,4,2,7,85,0,1
86172,-66.6666666666667,4,2,9,85,0,1
86338,-133.333333333333,4,2,9,5,0,1
86394,-100,4,2,7,85,0,1
87227,-133.333333333333,4,2,7,5,0,1
87283,-142.857142857143,4,2,7,85,0,1
87450,-133.333333333333,4,2,7,5,0,1
87505,-76.9230769230769,4,2,7,85,0,1
87672,-133.333333333333,4,2,7,5,0,1
87727,-100,4,2,7,85,0,1
87950,-60.6060606060606,4,2,7,85,0,1
88116,-133.333333333333,4,2,7,5,0,1
88172,-100,4,2,7,85,0,1
88505,-149.253731343284,4,2,7,85,0,1
88672,-133.333333333333,4,2,7,5,0,1
88727,-83.3333333333333,4,2,7,85,0,1
89061,-100,4,2,7,85,0,1
89727,-76.9230769230769,4,2,1,85,0,1
90061,-100,4,2,1,85,0,1
90394,-200,4,2,1,85,0,1
90561,-133.333333333333,4,2,1,5,0,1
90616,-71.4285714285714,4,2,1,85,0,1
90783,-133.333333333333,4,2,1,5,0,1
90838,-76.9230769230769,4,2,1,85,0,1
91061,-142.857142857143,4,2,1,85,0,1
91227,-133.333333333333,4,2,1,5,0,1
91283,-142.857142857143,4,2,1,85,0,1
91505,-66.6666666666667,4,2,2,85,0,1
91561,-66.6666666666667,4,2,2,85,0,1
91727,-66.6666666666667,4,2,7,85,0,1
91838,-62.5,4,2,7,85,0,1
92394,-62.5,4,2,7,100,0,1
92505,-62.5,4,2,7,85,0,1
93283,-125,4,2,5,75,0,1
93450,-133.333333333333,4,2,5,5,0,1
93505,-76.9230769230769,4,2,7,75,0,1
93950,-166.666666666667,4,2,7,75,0,1
94116,-133.333333333333,4,2,7,5,0,1
94172,-66.6666666666667,4,2,7,75,0,1
94338,-133.333333333333,4,2,7,5,0,1
94394,-100,4,2,7,75,0,1
94616,-100,4,2,7,85,0,1
95061,-66.6666666666667,4,2,7,95,0,1
95135,-133.333333333333,4,2,7,5,0,1
95209,-66.6666666666667,4,2,7,95,0,1
95283,-133.333333333333,4,2,7,5,0,1
95357,-66.6666666666667,4,2,7,95,0,1
95431,-133.333333333333,4,2,7,5,0,1
95505,-66.6666666666667,4,2,7,95,0,1
95579,-133.333333333333,4,2,7,5,0,1
95653,-66.6666666666667,4,2,7,95,0,1
95727,-133.333333333333,4,2,7,5,0,1
95801,-66.6666666666667,4,2,7,95,0,1
95875,-133.333333333333,4,2,7,5,0,1
95950,-66.6666666666667,4,2,98,40,0,0
96172,-500,4,2,98,70,0,0
96838,-66.6666666666667,4,2,10,85,0,0
97005,-133.333333333333,4,2,10,5,0,0
97061,-142.857142857143,4,2,1,75,0,0
97227,-133.333333333333,4,2,1,5,0,0
97283,-142.857142857143,4,2,1,75,0,0
97394,-83.3333333333333,4,2,1,75,0,0
97616,-100,4,2,1,75,0,0
98394,-125,4,2,1,75,0,0
98561,-133.333333333333,4,2,1,5,0,0
98616,-83.3333333333333,4,2,1,75,0,0
98838,-100,4,2,1,75,0,0
99172,-83.3333333333333,4,2,1,82,0,0
99283,-83.3333333333333,4,2,1,75,0,0
99394,-80,4,2,1,50,0,0
99505,-80,4,2,1,75,0,0
99727,-100,4,2,1,80,0,0
100172,-125,4,2,1,70,0,0
100338,-133.333333333333,4,2,1,5,0,0
100394,-66.6666666666667,4,2,1,85,0,0
100561,-133.333333333333,4,2,1,5,0,0
100616,-100,4,2,1,75,0,0
102172,-71.4285714285714,4,2,1,85,0,0
102338,-133.333333333333,4,2,1,5,0,0
102394,-100,4,2,1,75,0,0
102616,-66.6666666666667,4,2,1,85,0,0
102783,-133.333333333333,4,2,1,5,0,0
102838,-133.333333333333,4,2,1,75,0,0
103061,-83.3333333333333,4,2,1,90,0,0
103227,-133.333333333333,4,2,1,5,0,0
103283,-83.3333333333333,4,2,1,85,0,0
103394,-111.111111111111,4,2,1,85,0,0
103561,-133.333333333333,4,2,1,5,0,0
103616,-111.111111111111,4,2,1,85,0,0
103727,-105.263157894737,4,2,5,85,0,0
103950,-57.1428571428571,4,2,10,85,0,0
104116,-133.333333333333,4,2,10,5,0,0
104172,-100,4,2,1,75,0,0
104616,-80,4,2,1,75,0,0
105505,-111.111111111111,4,2,1,75,0,0
105672,-133.333333333333,4,2,1,5,0,0
105727,-76.9230769230769,4,2,1,75,0,0
105950,-100,4,2,1,75,0,0
106283,-100,4,2,1,82,0,0
106394,-100,4,2,1,75,0,0
106505,-100,4,2,1,50,0,0
106616,-100,4,2,1,75,0,0
106838,-76.9230769230769,4,2,1,80,0,0
107005,-133.333333333333,4,2,1,5,0,0
107061,-76.9230769230769,4,2,1,80,0,0
107283,-149.253731343284,4,2,1,70,0,0
107450,-133.333333333333,4,2,1,5,0,0
107505,-66.6666666666667,4,2,1,85,0,0
107672,-133.333333333333,4,2,1,5,0,0
107727,-100,4,2,1,75,0,0
108838,-100,4,2,1,85,0,0
109283,-100,4,2,1,65,0,0
109450,-133.333333333333,4,2,1,5,0,0
109505,-100,4,2,1,65,0,0
109727,-111.111111111111,4,2,1,65,0,0
109894,-133.333333333333,4,2,1,5,0,0
109950,-111.111111111111,4,2,1,65,0,0
110450,-133.333333333333,4,2,1,5,0,0
110505,-111.111111111111,4,2,1,65,0,0
110616,-222.222222222222,4,2,1,65,0,0
111061,-76.9230769230769,4,2,2,75,0,0
111505,-111.111111111111,4,2,2,75,0,0
111950,-133.333333333333,4,2,2,75,0,0
112838,-111.111111111111,4,2,2,75,0,0
115061,-99.9999999999999,4,2,2,75,0,0
115227,-133.333333333333,4,2,2,5,0,0
115283,-200,4,2,2,75,0,0
115450,-133.333333333333,4,2,2,5,0,0
115505,-111.111111111111,4,2,2,75,0,0
116172,-142.857142857143,4,2,2,75,0,0
116338,-133.333333333333,4,2,2,5,0,0
116394,-100,4,2,2,75,0,0
116838,-111.111111111111,4,2,2,75,0,0
118172,-83.3333333333333,4,2,2,75,0,0
118616,-111.111111111111,4,2,2,75,0,0
119394,-125,4,2,2,75,0,0
119561,-133.333333333333,4,2,2,5,0,0
119616,-125,4,2,2,75,0,0
119727,-100,4,2,2,75,0,0
119950,-111.111111111111,4,2,2,75,0,0
120116,-133.333333333333,4,2,2,5,0,0
120172,-111.111111111111,4,2,2,75,0,0
121894,-133.333333333333,4,2,2,5,0,0
121950,-111.111111111111,4,2,2,75,0,0
122172,-142.857142857143,4,2,2,75,0,0
122783,-133.333333333333,4,2,2,5,0,0
122838,-142.857142857143,4,2,2,75,0,0
123505,-111.111111111111,4,2,2,75,0,0
125283,-90.9090909090909,4,2,1,75,0,0
125450,-133.333333333333,4,2,1,5,0,0
125505,-100,4,2,1,75,0,0
126061,-90.9090909090909,4,2,1,75,0,0
126394,-100,4,2,1,75,0,0
127061,-90.9090909090909,4,2,1,75,0,0
127394,-100,4,2,1,75,0,0
128172,-90.9090909090909,4,2,1,75,0,0
128394,-90.9090909090909,4,2,1,80,0,0
128616,-90.9090909090909,4,2,1,70,0,0
128838,-83.3333333333333,4,2,1,85,0,0
129005,-133.333333333333,4,2,1,5,0,0
129061,-100,4,2,1,85,0,0
129616,-100,4,2,1,75,0,0
130616,-90.9090909090909,4,2,1,75,0,0
131505,-100,4,2,1,75,0,0
131727,-90.9090909090909,4,2,1,75,0,0
131950,-90.9090909090909,4,2,1,80,0,0
132172,-111.111111111111,4,2,1,70,0,0
132394,-76.9230769230769,4,2,1,75,0,0
132561,-133.333333333333,4,2,1,5,0,0
132616,-100,4,2,1,75,0,0
134505,-90.9090909090909,4,2,1,75,0,0
135283,-83.3333333333333,4,2,1,75,0,0
135950,-83.3333333333333,4,2,4,75,0,0
139061,-83.3333333333333,4,2,1,75,0,0
140838,-125,4,2,1,75,0,0
141283,-66.6666666666667,4,2,9,85,0,1
141450,-133.333333333333,4,2,9,5,0,1
141505,-66.6666666666667,4,2,7,85,0,1
141727,-111.111111111111,4,2,7,85,0,1
141894,-133.333333333333,4,2,7,5,0,1
141950,-111.111111111111,4,2,7,85,0,1
142061,-90.9090909090909,4,2,7,85,0,1
142338,-133.333333333333,4,2,7,5,0,1
142394,-66.6666666666667,4,2,7,85,0,1
142783,-133.333333333333,4,2,7,5,0,1
142838,-142.857142857143,4,2,7,85,0,1
143005,-133.333333333333,4,2,7,5,0,1
143061,-66.6666666666667,4,2,7,85,0,1
143227,-133.333333333333,4,2,7,5,0,1
143283,-66.6666666666667,4,2,7,85,0,1
143616,-100,4,2,7,85,0,1
143838,-83.3333333333333,4,2,7,85,0,1
144005,-133.333333333333,4,2,7,5,0,1
144061,-100,4,2,7,85,0,1
144838,-66.6666666666667,4,2,1,85,0,1
145005,-133.333333333333,4,2,1,5,0,1
145061,-166.666666666667,4,2,1,85,0,1
145227,-133.333333333333,4,2,1,5,0,1
145283,-83.3333333333333,4,2,1,85,0,1
145950,-200,4,2,1,85,0,1
146116,-133.333333333333,4,2,1,5,0,1
146172,-71.4285714285714,4,2,1,85,0,1
147283,-71.4285714285714,4,2,4,85,0,1
147394,-71.4285714285714,4,2,7,85,0,1
147616,-71.4285714285714,4,2,5,85,0,1
147727,-71.4285714285714,4,2,7,85,0,1
148394,-66.6666666666667,4,2,9,85,0,1
148561,-133.333333333333,4,2,9,5,0,1
148616,-166.666666666667,4,2,7,85,0,1
148783,-133.333333333333,4,2,7,5,0,1
148838,-100,4,2,7,85,0,1
149450,-133.333333333333,4,2,7,5,0,1
149505,-76.9230769230769,4,2,7,85,0,1
149727,-66.6666666666667,4,2,7,85,0,1
149894,-133.333333333333,4,2,7,5,0,1
149950,-166.666666666667,4,2,7,85,0,1
150116,-133.333333333333,4,2,7,5,0,1
150172,-76.9230769230769,4,2,7,85,0,1
150561,-133.333333333333,4,2,7,5,0,1
150616,-76.9230769230769,4,2,7,85,0,1
150727,-166.666666666667,4,2,7,85,0,1
151005,-133.333333333333,4,2,7,5,0,1
151061,-62.5,4,2,7,85,0,1
151505,-100,4,2,7,85,0,1
151950,-90.9090909090909,4,2,1,85,0,1
152616,-100,4,2,1,85,0,1
152838,-66.6666666666667,4,2,1,65,0,1
152950,-66.6666666666667,4,2,1,70,0,1
153061,-66.6666666666667,4,2,1,75,0,1
153172,-66.6666666666667,4,2,1,80,0,1
153282,-66.6666666666667,4,2,1,85,0,1
153727,-58.8235294117647,4,2,7,85,0,1
153894,-133.333333333333,4,2,7,5,0,1
153950,-58.8235294117647,4,2,7,85,0,1
154061,-62.5,4,2,7,90,0,1
154227,-133.333333333333,4,2,7,5,0,1
154283,-62.5,4,2,7,90,0,1
154561,-133.333333333333,4,2,7,5,0,1
154616,-62.5,4,2,7,100,0,1
155505,-57.1428571428571,4,2,9,85,0,1
155672,-133.333333333333,4,2,9,5,0,1
155727,-142.857142857143,4,2,7,85,0,1
155894,-133.333333333333,4,2,7,5,0,1
155950,-100,4,2,7,85,0,1
156116,-133.333333333333,4,2,7,5,0,1
156172,-100,4,2,7,85,0,1
156283,-111.111111111111,4,2,7,85,0,1
156561,-133.333333333333,4,2,7,5,0,1
156616,-83.3333333333333,4,2,7,85,0,1
156838,-76.9230769230769,4,2,7,85,0,1
157005,-133.333333333333,4,2,7,5,0,1
157061,-142.857142857143,4,2,7,85,0,1
157227,-133.333333333333,4,2,7,5,0,1
157283,-66.6666666666667,4,2,7,85,0,1
157450,-133.333333333333,4,2,7,5,0,1
157505,-66.6666666666667,4,2,7,85,0,1
157838,-100,4,2,7,85,0,1
158061,-83.3333333333333,4,2,7,85,0,1
158283,-66.6666666666667,4,2,7,85,0,1
158616,-100,4,2,7,85,0,1
158838,-200,4,2,7,85,0,1
159005,-133.333333333333,4,2,7,5,0,1
159061,-57.4712643678161,4,2,1,85,0,1
159227,-133.333333333333,4,2,1,5,0,1
159283,-200,4,2,1,85,0,1
159450,-133.333333333333,4,2,1,5,0,1
159505,-71.4285714285714,4,2,1,85,0,1
159838,-90.9090909090909,4,2,1,85,0,1
160172,-142.857142857143,4,2,1,85,0,1
160338,-133.333333333333,4,2,1,5,0,1
160394,-100,4,2,1,85,0,1
161061,-66.6666666666667,4,2,1,85,0,1
161950,-66.6666666666667,4,2,5,85,0,1
162172,-66.6666666666667,4,2,7,85,0,1
162616,-66.6666666666667,4,2,9,85,0,1
162783,-133.333333333333,4,2,9,5,0,1
162838,-100,4,2,7,85,0,1
163394,-66.6666666666667,4,2,7,85,0,1
163727,-166.666666666667,4,2,7,85,0,1
163894,-133.333333333333,4,2,7,5,0,1
163950,-111.111111111111,4,2,7,85,0,1
164116,-133.333333333333,4,2,7,5,0,1
164172,-100,4,2,7,85,0,1
164394,-58.8235294117647,4,2,7,85,0,1
164561,-133.333333333333,4,2,7,5,0,1
164616,-100,4,2,7,85,0,1
164950,-149.253731343284,4,2,7,85,0,1
165116,-133.333333333333,4,2,7,5,0,1
165172,-149.253731343284,4,2,7,85,0,1
165283,-60.6060606060606,4,2,7,85,0,1
165505,-100,4,2,7,85,0,1
166172,-76.9230769230769,4,2,1,85,0,1
166505,-100,4,2,1,85,0,1
166838,-200,4,2,1,85,0,1
167005,-133.333333333333,4,2,1,5,0,1
167061,-71.4285714285714,4,2,1,85,0,1
167227,-133.333333333333,4,2,1,5,0,1
167283,-76.9230769230769,4,2,1,85,0,1
167505,-111.111111111111,4,2,1,85,0,1
167672,-133.333333333333,4,2,1,5,0,1
167727,-111.111111111111,4,2,1,85,0,1
167950,-66.6666666666667,4,2,2,85,0,1
168172,-66.6666666666667,4,2,7,85,0,1
168283,-62.5,4,2,7,85,0,1
168838,-62.5,4,2,7,100,0,1
168950,-62.5,4,2,7,85,0,1
169727,-125,4,2,5,75,0,1
169783,-125,4,2,5,75,0,1
169894,-133.333333333333,4,2,5,5,0,1
169950,-76.9230769230769,4,2,7,75,0,1
170394,-166.666666666667,4,2,7,75,0,1
170561,-133.333333333333,4,2,7,5,0,1
170616,-80,4,2,7,75,0,1
170783,-133.333333333333,4,2,7,5,0,1
170838,-100,4,2,7,75,0,1
171061,-100,4,2,4,85,0,1
171505,-66.6666666666667,4,2,7,95,0,1
171579,-133.333333333333,4,2,7,5,0,1
171653,-66.6666666666667,4,2,7,95,0,1
171727,-133.333333333333,4,2,7,5,0,1
171801,-66.6666666666667,4,2,7,95,0,1
171875,-133.333333333333,4,2,7,5,0,1
171950,-66.6666666666667,4,2,7,95,0,1
172024,-133.333333333333,4,2,7,5,0,1
172098,-66.6666666666667,4,2,7,95,0,1
172172,-133.333333333333,4,2,7,5,0,1
172246,-66.6666666666667,4,2,7,95,0,1
172320,-133.333333333333,4,2,7,5,0,1
172394,-66.6666666666667,4,2,98,50,0,0
172616,-500,4,2,98,70,0,0
173283,-166.666666666667,4,2,1,65,0,0
173727,-166.666666666667,4,2,3,65,0,0
173949,-166.666666666667,4,2,3,50,0,0
179616,-166.666666666666,4,2,1,50,0,0
180172,-166.666666666666,4,2,5,50,0,0
180838,-166.666666666666,4,2,3,50,0,0
185061,-166.666666666666,4,2,1,65,0,0
186950,-249.999999999999,4,2,1,65,0,0
187505,-100,4,2,1,65,0,0
195505,-90.9090909090909,4,2,1,65,0,0
196172,-100,4,2,1,65,0,0
196394,-83.3333333333333,4,2,1,65,0,0
197505,-90.9090909090909,4,2,1,65,0,0
197672,-133.333333333333,4,2,1,5,0,0
197727,-100,4,2,1,65,0,0
197894,-133.333333333333,4,2,1,5,0,0
197950,-111.111111111111,4,2,1,65,0,0
198116,-133.333333333333,4,2,1,5,0,0
198172,-90.9090909090908,4,2,1,65,0,0
198616,-111.111111111111,4,2,1,65,0,0
199061,-100,4,2,1,65,0,0
199505,-62.5,4,2,1,65,0,0
199950,-1000,4,2,1,65,0,0
201505,-125,4,2,1,65,0,0
201727,-125,4,2,4,65,0,0
201950,-200,4,2,4,45,0,0
202505,-200,4,2,1,45,0,0
215505,-125,4,2,1,45,0,0
215950,-66.6666666666667,4,2,9,85,0,1
216116,-133.333333333333,4,2,9,5,0,1
216172,-125,4,2,7,85,0,1
216338,-133.333333333333,4,2,7,5,0,1
216394,-111.111111111111,4,2,7,85,0,1
216561,-133.333333333333,4,2,7,5,0,1
216616,-111.111111111111,4,2,7,85,0,1
216727,-100,4,2,7,85,0,1
217005,-133.333333333333,4,2,7,5,0,1
217061,-66.6666666666667,4,2,7,85,0,1
217450,-133.333333333333,4,2,7,5,0,1
217505,-66.6666666666667,4,2,7,85,0,1
217894,-133.333333333333,4,2,7,5,0,1
217950,-66.6666666666667,4,2,7,85,0,1
218283,-100,4,2,7,85,0,1
218505,-83.3333333333333,4,2,7,85,0,1
218672,-133.333333333333,4,2,7,5,0,1
218727,-100,4,2,7,85,0,1
219505,-66.6666666666667,4,2,1,85,0,1
219672,-133.333333333333,4,2,1,5,0,1
219727,-66.6666666666667,4,2,1,85,0,1
219950,-125,4,2,1,85,0,1
220116,-133.333333333333,4,2,1,5,0,1
220172,-125,4,2,1,85,0,1
220283,-83.3333333333333,4,2,1,85,0,1
220616,-200,4,2,1,85,0,1
220783,-133.333333333333,4,2,1,5,0,1
220838,-111.111111111111,4,2,1,85,0,1
221005,-133.333333333333,4,2,1,5,0,1
221061,-111.111111111111,4,2,1,85,0,1
221950,-111.111111111111,4,2,7,85,0,1
223061,-80,4,2,9,85,0,1
223227,-133.333333333333,4,2,9,5,0,1
223283,-166.666666666667,4,2,7,85,0,1
223450,-133.333333333333,4,2,7,5,0,1
223505,-100,4,2,7,85,0,1
224116,-133.333333333333,4,2,7,5,0,1
224172,-76.9230769230769,4,2,7,85,0,1
224394,-66.6666666666667,4,2,7,85,0,1
224561,-133.333333333333,4,2,7,5,0,1
224616,-166.666666666667,4,2,7,85,0,1
224783,-133.333333333333,4,2,7,5,0,1
224838,-76.9230769230769,4,2,7,85,0,1
225394,-166.666666666667,4,2,7,85,0,1
225672,-133.333333333333,4,2,7,5,0,1
225727,-66.6666666666667,4,2,7,85,0,1
225894,-133.333333333333,4,2,7,5,0,1
225950,-66.6666666666667,4,2,7,85,0,1
226394,-100,4,2,7,85,0,1
226616,-66.6666666666667,4,2,1,85,0,1
227283,-100,4,2,1,85,0,1
227673,-100,4,2,1,85,0,1
228394,-58.8235294117647,4,2,2,90,0,1
228561,-133.333333333333,4,2,2,5,0,1
228616,-58.8235294117647,4,2,2,90,0,1
228727,-80,4,2,7,90,0,1
229005,-133.333333333333,4,2,7,5,0,1
229061,-80,4,2,7,90,0,1
229394,-80,4,2,7,100,0,1
229838,-80,4,2,7,90,0,1
229950,-80,4,2,7,80,0,1
230005,-80,4,2,7,75,0,1
230061,-80,4,2,7,70,0,1
230172,-58.8235294117647,4,2,9,85,0,1
230338,-133.333333333333,4,2,9,5,0,1
230394,-142.857142857143,4,2,7,85,0,1
230561,-133.333333333333,4,2,7,5,0,1
230616,-100,4,2,7,85,0,1
230783,-133.333333333333,4,2,7,5,0,1
230838,-100,4,2,7,85,0,1
230950,-111.111111111111,4,2,7,85,0,1
231227,-133.333333333333,4,2,7,5,0,1
231283,-83.3333333333333,4,2,7,85,0,1
231505,-76.9230769230769,4,2,7,85,0,1
231672,-133.333333333333,4,2,7,5,0,1
231727,-142.857142857143,4,2,7,85,0,1
231894,-133.333333333333,4,2,7,5,0,1
231950,-66.6666666666667,4,2,7,85,0,1
232116,-133.333333333333,4,2,7,5,0,1
232172,-66.6666666666667,4,2,7,85,0,1
232505,-100,4,2,7,85,0,1
232950,-66.6666666666667,4,2,7,85,0,1
233505,-142.857142857143,4,2,7,85,0,1
233727,-57.4712643678161,4,2,1,85,0,1
233894,-133.333333333333,4,2,1,5,0,1
233950,-200,4,2,1,85,0,1
234116,-133.333333333333,4,2,1,5,0,1
234172,-71.4285714285714,4,2,1,85,0,1
234505,-90.9090909090909,4,2,1,85,0,1
234838,-142.857142857143,4,2,1,85,0,1
235005,-133.333333333333,4,2,1,5,0,1
235061,-100,4,2,1,85,0,1
236616,-100,4,2,5,85,0,1
236673,-100,4,2,5,85,0,1
236838,-100,4,2,7,85,0,1
237283,-66.6666666666667,4,2,7,85,0,1
237450,-133.333333333333,4,2,7,5,0,1
237505,-100,4,2,7,85,0,1
238172,-66.6666666666667,4,2,7,85,0,1
238394,-166.666666666667,4,2,7,85,0,1
238561,-133.333333333333,4,2,7,5,0,1
238616,-111.111111111111,4,2,7,85,0,1
238783,-133.333333333333,4,2,7,5,0,1
238838,-100,4,2,7,85,0,1
239061,-58.8235294117647,4,2,7,85,0,1
239227,-133.333333333333,4,2,7,5,0,1
239283,-100,4,2,7,85,0,1
239616,-149.253731343284,4,2,7,85,0,1
239783,-133.333333333333,4,2,7,5,0,1
239838,-149.253731343284,4,2,7,85,0,1
239950,-83.3333333333333,4,2,7,85,0,1
240116,-133.333333333333,4,2,7,5,0,1
240172,-100,4,2,7,85,0,1
240838,-76.9230769230769,4,2,1,85,0,1
241172,-100,4,2,1,85,0,1
241727,-80,4,2,1,85,0,1
241894,-133.333333333333,4,2,1,5,0,1
241950,-80,4,2,1,85,0,1
242061,-76.9230769230769,4,2,1,85,0,1
242616,-66.6666666666667,4,2,2,85,0,1
242673,-66.6666666666667,4,2,2,85,0,1
242838,-66.6666666666667,4,2,7,85,0,1
242950,-62.5,4,2,7,85,0,1
243505,-62.5,4,2,7,100,0,1
243616,-62.5,4,2,7,85,0,1
244172,-100,4,2,7,85,0,1
244394,-125,4,2,5,85,0,1
244561,-133.333333333333,4,2,5,5,0,1
244616,-76.9230769230769,4,2,7,75,0,1
245061,-166.666666666667,4,2,7,75,0,1
245227,-133.333333333333,4,2,7,5,0,1
245283,-80,4,2,7,75,0,1
245450,-133.333333333333,4,2,7,5,0,1
245505,-100,4,2,7,75,0,1
245727,-100,4,2,7,85,0,1
246172,-66.6666666666667,4,2,7,95,0,1
246246,-133.333333333333,4,2,7,5,0,1
246320,-66.6666666666667,4,2,7,95,0,1
246394,-133.333333333333,4,2,7,5,0,1
246468,-66.6666666666667,4,2,7,95,0,1
246542,-133.333333333333,4,2,7,5,0,1
246616,-66.6666666666667,4,2,7,95,0,1
246690,-133.333333333333,4,2,7,5,0,1
246764,-66.6666666666667,4,2,7,95,0,1
246838,-133.333333333333,4,2,7,5,0,1
246912,-66.6666666666667,4,2,7,95,0,1
246987,-133.333333333333,4,2,7,5,0,1
247061,-66.6666666666667,4,2,98,60,0,0
247283,-66.6666666666667,4,2,98,70,0,0
247505,-500,4,2,98,70,0,0
247950,-66.6666666666667,4,2,10,85,0,0
248116,-133.333333333333,4,2,10,5,0,0
248172,-142.857142857143,4,2,1,75,0,0
248338,-133.333333333333,4,2,1,5,0,0
248394,-142.857142857143,4,2,1,75,0,0
248505,-83.3333333333333,4,2,1,75,0,0
248727,-100,4,2,1,75,0,0
249505,-125,4,2,1,75,0,0
249672,-133.333333333333,4,2,1,5,0,0
249727,-83.3333333333333,4,2,1,75,0,0
249950,-100,4,2,1,75,0,0
250283,-83.3333333333333,4,2,1,82,0,0
250394,-83.3333333333333,4,2,1,75,0,0
250505,-80,4,2,1,50,0,0
250616,-80,4,2,1,75,0,0
250838,-100,4,2,1,80,0,0
251283,-125,4,2,1,70,0,0
251450,-133.333333333333,4,2,1,5,0,0
251505,-66.6666666666667,4,2,2,85,0,0
251672,-133.333333333333,4,2,2,5,0,0
251727,-100,4,2,1,75,0,0
253283,-71.4285714285714,4,2,1,85,0,0
253450,-133.333333333333,4,2,1,5,0,0
253505,-100,4,2,1,75,0,0
253727,-66.6666666666667,4,2,1,85,0,0
253894,-133.333333333333,4,2,1,5,0,0
253950,-133.333333333333,4,2,1,75,0,0
254172,-66.6666666666667,4,2,1,90,0,0
254338,-133.333333333333,4,2,1,5,0,0
254394,-66.6666666666667,4,2,1,85,0,0
254505,-111.111111111111,4,2,1,85,0,0
254672,-133.333333333333,4,2,1,5,0,0
254727,-111.111111111111,4,2,1,85,0,0
254838,-100,4,2,5,85,0,0
255061,-57.1428571428571,4,2,10,85,0,0
255227,-133.333333333333,4,2,10,5,0,0
255283,-100,4,2,1,75,0,0
255727,-80,4,2,1,75,0,0
256616,-111.111111111111,4,2,1,75,0,0
256783,-133.333333333333,4,2,1,5,0,0
256838,-76.9230769230769,4,2,1,75,0,0
257061,-100,4,2,1,75,0,0
257394,-100,4,2,1,82,0,0
257505,-100,4,2,1,75,0,0
257616,-100,4,2,1,50,0,0
257727,-100,4,2,1,75,0,0
257950,-66.6666666666667,4,2,1,80,0,0
258116,-133.333333333333,4,2,1,5,0,0
258172,-66.6666666666667,4,2,1,80,0,0
258394,-149.253731343284,4,2,1,80,0,0
258561,-133.333333333333,4,2,1,5,0,0
258616,-66.6666666666667,4,2,1,70,0,0
258783,-133.333333333333,4,2,1,5,0,0
258838,-100,4,2,1,75,0,0
259950,-100,4,2,1,85,0,0
260394,-100,4,2,1,65,0,0
260561,-133.333333333333,4,2,1,5,0,0
260616,-100,4,2,1,65,0,0
260838,-111.111111111111,4,2,1,65,0,0
261005,-133.333333333333,4,2,1,5,0,0
261061,-111.111111111111,4,2,1,65,0,0
261561,-133.333333333333,4,2,1,5,0,0
261616,-111.111111111111,4,2,1,65,0,0
262172,-200,4,2,1,65,0,0
262616,-200,4,2,98,65,0,0
262672,-133.333333333333,4,2,98,5,0,0
263727,-133.333333333333,4,2,1,5,0,0

[Colours]
Combo1 : 255,147,255
Combo2 : 255,128,128
Combo3 : 163,70,255
Combo4 : 128,128,255

[HitObjects]
29,44,394,5,8,2:0:0:0:
29,44,450,1,8,2:0:0:0:
29,44,505,1,8,2:0:0:0:
76,125,616,1,8,2:0:0:0:
76,125,838,6,0,B|125:81|183:116|165:140|222:166|270:129,1,203.5,4|0,3:1|0:0,0:0:0:0:
306,37,1172,1,8,2:0:0:0:
306,37,1283,2,0,B|319:17|319:17|225:62,1,111,8|0,2:0|0:0,0:0:0:0:
117,207,1505,6,0,B|143:261|154:322|154:322|204:334|226:296,1,203.5,4|0,3:0|0:0,0:0:0:0:
293,217,1838,1,8,2:0:0:0:
293,217,1950,2,0,B|322:192|313:167|313:167|285:179|291:220,1,111,8|0,2:0|0:0,0:0:0:0:
487,377,2172,6,0,P|423:368|390:278,1,152.625,0|0,3:0|0:0,0:0:0:0:
393,218,2394,2,0,P|438:216|453:272,1,101.75,8|0,3:1|0:0,0:0:0:0:
314,373,2616,6,0,P|253:319|125:358,1,185,14|0,3:0|0:0,0:0:0:0:
150,339,2912,6,0,P|210:260|171:168,1,166.5,14|0,3:0|0:0,0:0:0:0:
189,174,3209,6,0,P|117:193|139:288,1,148,14|0,3:0|0:0,0:0:0:0:
121,267,3505,6,0,P|161:243|161:195,1,92.5,10|0,2:0|0:0,0:0:0:0:
98,81,3801,6,0,P|63:101|31:128,1,80.1666666666667,10|0,2:0|0:0,0:0:0:0:
413,87,5616,5,8,2:0:0:0:
414,87,5672,1,8,2:0:0:0:
413,87,5727,1,8,2:1:0:0:
332,32,5838,1,8,2:0:0:0:
286,117,5950,1,8,2:1:0:0:
286,117,6172,6,0,B|258:168|293:210|293:210|301:210|301:210|330:252|298:305,1,208.125,4|0,3:2|0:0,0:0:0:0:
281,322,6394,2,0,B|211:336|211:336|233:307,1,97.1249999999999,8|0,2:0|0:0,0:0:0:0:
405,254,6616,5,0,3:0:0:0:
403,266,6727,2,0,P|454:287|507:302,1,111,0|8,0:0|2:0,0:0:0:0:
384,174,6950,2,0,P|400:130|412:86,1,92.5,0|0,0:0|3:0,0:0:0:0:
332,32,7172,5,0,0:0:0:0:
202,74,7283,1,8,2:0:0:0:
212,64,7394,1,0,0:0:0:0:
195,160,7505,5,8,3:2:0:0:
27,118,7616,1,0,0:0:0:0:
100,61,7727,2,0,P|120:112|102:163,1,111,8|0,2:0|0:0,0:0:0:0:
109,178,7950,6,0,P|60:223|-2:217,1,111,0|0,3:0|0:0,0:0:0:0:
7,335,8172,2,0,P|92:308|167:357,1,185,8|8,2:0|3:2,0:0:0:0:
240,291,8505,6,0,P|258:256|226:285,1,111,0|8,0:0|2:0,0:0:0:0:
309,352,8727,2,0,P|339:318|346:273,1,92.5,0|0,0:0|3:0,0:0:0:0:
244,156,8950,1,0,0:0:0:0:
310,99,9061,2,0,P|350:120|394:135,1,92.5,10|0,2:0|0:0,0:0:0:0:
225,70,9283,5,0,3:0:0:0:
294,15,9394,1,10,2:0:0:0:
156,132,9505,2,0,P|97:150|42:178,1,111
10,178,9727,6,0,P|113:188|130:300,1,208.125,4|0,3:1|0:0,0:0:0:0:
111,351,9950,2,0,P|58:330|66:266,1,110.999996612549,8|0,2:0|0:0,0:0:0:0:
224,211,10172,5,0,3:0:0:0:
239,226,10283,2,0,P|224:269|217:318,1,92.5,0|8,0:0|2:0,0:0:0:0:
321,186,10505,2,0,P|364:200|410:207,1,92.5,0|0,0:0|3:0,0:0:0:0:
250,114,10727,5,0,0:0:0:0:
224,105,10838,1,8,2:0:0:0:
197,109,10950,1,0,0:0:0:0:
118,63,11061,5,8,3:2:0:0:
185,9,11172,1,0,0:0:0:0:
269,31,11283,1,8,2:0:0:0:
269,31,11505,6,0,B|318:-4|371:31|352:52|394:75|454:44,1,194.25,2|0,3:2|0:0,0:0:0:0:
474,28,11727,2,0,P|505:59|499:103,1,92.5,10|0,2:0|0:0,0:0:0:0:
387,324,11950,6,0,B|363:201|363:201|393:188|422:166,1,180.375,2|0,3:2|0:0,0:0:0:0:
426,162,12172,2,0,P|467:182|512:194,1,92.5,10|0,2:0|0:0,0:0:0:0:
297,283,12394,6,0,P|216:304|141:340,1,166.5,10|0,2:0|0:0,0:0:0:0:
131,357,12616,1,10,2:0:0:0:
19,248,12727,6,0,P|90:264|141:212,1,152.625,8|0,2:1|0:0,0:0:0:0:
156,201,12950,1,10,2:0:0:0:
75,100,13061,6,0,P|36:101|3:130,1,69.375,6|0,2:1|0:0,0:0:0:0:
65,181,13283,6,0,B|107:239|166:211|166:211|186:150|257:158,1,208.125,4|0,3:0|0:0,0:0:0:0:
318,169,13505,2,0,B|359:204|359:204|313:194,1,92.5,8|0,2:0|0:0,0:0:0:0:
217,72,13727,5,0,3:0:0:0:
294,32,13838,1,0,0:0:0:0:
356,93,13950,2,0,P|435:97|484:11,1,185,8|0,2:0|3:0,0:0:0:0:
393,7,14283,5,0,0:0:0:0:
395,13,14394,1,8,2:0:0:0:
398,19,14505,1,0,0:0:0:0:
480,121,14616,5,8,3:2:0:0:
415,186,14727,1,0,0:0:0:0:
511,211,14838,2,0,P|449:221|387:245,1,124.875,8|0,2:0|0:0,0:0:0:0:
318,319,15061,6,0,B|277:275|277:275|303:210,1,120.25,0|0,3:0|0:0,0:0:0:0:
427,332,15283,2,0,P|336:332|262:384,1,185,8|8,2:0|3:2,0:0:0:0:
93,334,15616,2,0,P|136:330|157:369,1,92.5,0|8,0:0|2:0,0:0:0:0:
300,220,15838,2,0,P|254:218|214:240,1,92.5,0|0,0:0|3:0,0:0:0:0:
348,144,16061,1,0,0:0:0:0:
204,249,16172,6,0,P|119:231|91:150,1,180.375,10|0,2:0|0:0,0:0:0:0:
106,131,16394,1,0,3:1:0:0:
278,318,16505,1,10,2:0:0:0:
292,332,16616,2,0,P|336:318|382:309,1,92.9624999999998,0|0,3:1|0:0,0:0:0:0:
492,160,16838,6,0,B|465:152|441:109|441:109|444:197|385:224,1,208.125,6|0,3:2|0:0,0:0:0:0:
300,220,17061,2,0,P|301:165|332:162,1,92.5,8|0,2:0|0:0,0:0:0:0:
464,290,17283,1,0,3:0:0:0:
382,309,17394,2,0,P|337:318|293:332,1,92.5,0|8,0:0|2:0,0:0:0:0:
177,295,17616,2,0,P|190:339|199:384,1,92.5,0|0,0:0|3:0,0:0:0:0:
88,244,17838,5,0,0:0:0:0:
174,204,17950,1,8,2:0:0:0:
100,153,18061,1,0,0:0:0:0:
77,268,18172,5,0,3:0:0:0:
176,113,18283,1,8,2:1:0:0:
16,86,18394,1,8,2:0:0:0:
298,34,18616,6,0,P|348:72|424:66,1,138.75,2|0,2:0|0:0,0:0:0:0:
441,46,18838,2,0,P|396:43|366:76,1,92.5,2|0,2:0|0:0,0:0:0:0:
414,240,19061,6,0,P|471:215|504:146,1,124.875,2|0,2:0|0:0,0:0:0:0:
491,129,19283,2,0,P|466:166|479:208,1,83.2500000000001,2|0,2:0|0:0,0:0:0:0:
462,384,19505,6,0,P|394:324|253:354,1,208.125,2|0,2:0|0:0,0:0:0:0:
278,359,19838,2,0,P|317:355|328:317,1,83.2500000000001,2|0,2:0|0:0,0:0:0:0:
21,94,25227,5,0,0:0:0:0:
16,99,25283,2,0,P|17:126|31:150,1,55.5000000000002,10|0,2:0|0:0,0:0:0:0:
211,106,25505,2,0,P|209:78|195:54,1,55.5000000000002
110,15,25727,6,0,B|66:72|118:121|126:114|168:145|139:218,1,222.000000000001,0|10,0:0|2:0,0:0:0:0:
139,218,26616,2,0,B|168:145|126:114|118:121|66:72|110:15,1,222.000000000001,0|10,0:0|2:0,0:0:0:0:
110,16,27505,1,0,2:0:0:0:
488,226,32338,5,0,0:0:0:0:
483,221,32394,2,0,P|455:223|431:237,1,55.5000000000002,10|0,2:0|0:0,0:0:0:0:
278,337,32616,2,0,P|305:336|329:322,1,55.5000000000002
372,165,32838,6,0,B|338:228|385:269|393:262|440:312|401:368,1,222.000000000001
401,368,33727,2,0,B|440:312|393:262|385:269|338:228|372:165,1,222.000000000001,2|0,2:0|0:0,0:0:0:0:
26,217,34616,6,0,B|78:145|149:188|149:188|160:252|217:260,1,240.5,4|2,2:0|2:0,0:0:0:0:
322,141,34950,5,0,0:0:0:0:
313,153,35061,2,0,P|268:169|222:183,1,83.2500000000001,10|0,2:3|0:0,0:0:0:0:
379,66,35283,2,0,P|339:51|300:37,1,83.2500000000001,2|0,2:0|0:0,0:0:0:0:
198,108,35505,6,0,B|155:64|194:13|194:13|191:52|221:76,1,166.5,2|2,3:2|2:0,0:0:0:0:
234,178,35838,1,0,0:0:0:0:
228,189,35950,1,2,2:3:0:0:
156,242,36061,5,8,2:0:0:0:
170,327,36172,1,10,2:0:0:0:
235,272,36283,1,8,3:0:0:0:
90,300,36394,6,0,P|45:320|5:334,1,83.2500000000001,2|0,3:2|0:0,0:0:0:0:
72,213,36616,2,0,P|55:167|36:122,1,97.1249999999999,2|0,2:0|0:0,0:0:0:0:
22,19,36838,2,0,P|64:17|87:50,1,83.2500000000001,10|0,2:3|0:0,0:0:0:0:
145,127,37061,1,2,2:0:0:0:
155,137,37172,6,0,P|176:84|159:45,1,83.2500000000001,0|2,0:0|3:2,0:0:0:0:
86,47,37394,1,0,0:0:0:0:
165,147,37505,2,0,P|218:161|265:181,1,83.2500000000001,8|0,2:0|0:0,0:0:0:0:
428,184,37727,5,10,2:3:0:0:
312,244,37838,1,8,2:0:0:0:
340,156,37950,5,2,2:3:0:0:
400,272,38061,1,0,0:0:0:0:
492,314,38172,6,0,P|409:303|338:373,1,185,0|0,3:2|0:0,0:0:0:0:
333,384,38505,1,0,0:0:0:0:
226,296,38616,2,0,P|211:230|249:174,1,138.75,10|0,2:3|0:0,0:0:0:0:
275,101,38838,2,0,P|246:93|198:121,1,69.375,0|0,3:0|0:0,0:0:0:0:
37,184,39061,6,0,P|117:171|184:218,1,166.5,0|2,3:2|2:0,0:0:0:0:
240,300,39394,1,0,0:0:0:0:
256,313,39505,1,10,2:3:0:0:
345,369,39616,5,8,2:0:0:0:
399,283,39727,2,0,P|445:274|479:306,1,97.1249999999999,8|0,2:0|0:0,0:0:0:0:
483,324,39950,6,0,P|494:241|513:160,1,166.5,0|0,3:2|2:0,0:0:0:0:
358,74,40283,1,0,0:0:0:0:
419,15,40394,2,0,P|456:33|494:49,1,83.2500000000001,10|0,2:3|0:0,0:0:0:0:
360,169,40616,2,0,P|397:150|435:134,1,83.2500000000001,0|0,2:0|0:0,0:0:0:0:
280,28,40838,6,0,B|172:47|255:99|143:116,1,166.5,0|8,3:2|2:0,0:0:0:0:
149,114,41172,1,8,2:0:0:0:
23,72,41283,5,10,2:3:0:0:
49,149,41394,1,8,2:0:0:0:
123,203,41505,5,10,2:3:0:0:
102,296,41616,1,0,0:0:0:0:
11,330,41727,6,0,P|99:318|158:384,1,185,6|0,2:1|2:0,0:0:0:0:
195,272,42061,1,0,0:0:0:0:
273,299,42172,2,0,P|232:288|194:271,1,83.2500000000001,8|0,2:3|0:0,0:0:0:0:
31,235,42394,2,0,P|77:221|122:201,1,97.1249999999999,0|0,2:0|0:0,0:0:0:0:
145,103,42616,6,0,B|160:60|115:27|115:27|99:82|142:104,1,166.5,2|2,3:2|2:0,0:0:0:0:
230,160,42950,2,0,B|267:165|286:122|286:122|238:119|228:158,1,148,0|8,0:0|2:0,0:0:0:0:
194,271,43283,2,0,B|200:288|224:286|224:286|213:264|194:269,1,74,8|8,2:0|3:0,0:0:0:0:
299,347,43505,6,0,P|331:296|391:296,1,124.875,0|0,3:0|0:0,0:0:0:0:
463,284,43727,2,0,P|479:328|453:347,1,83.2500000000001,2|0,2:0|0:0,0:0:0:0:
314,269,43950,2,0,P|294:232|305:189,1,83.2500000000001,10|0,2:3|0:0,0:0:0:0:
364,129,44172,1,2,2:0:0:0:
511,138,44283,2,0,P|435:166|363:128,1,166.5
435,70,44616,5,10,2:0:0:0:
442,82,44727,1,0,0:0:0:0:
363,128,44838,5,10,2:3:0:0:
267,157,44950,1,8,2:0:0:0:
201,96,45061,5,2,2:3:0:0:
94,68,45172,1,0,0:0:0:0:
24,119,45283,6,0,P|51:197|73:277,1,166.5,2|2,3:2|2:0,0:0:0:0:
228,329,45616,1,0,0:0:0:0:
129,382,45727,2,0,P|144:320|166:259,1,129.5,10|0,2:3|3:0,0:0:0:0:
265,155,46061,1,0,0:0:0:0:
265,155,46116,1,0,0:0:0:0:
265,155,46172,2,0,P|311:171|358:184,1,83.2500000000001,2|0,3:2|0:0,0:0:0:0:
512,149,46394,5,2,2:0:0:0:
495,143,46505,1,0,0:0:0:0:
481,138,46616,1,10,2:3:0:0:
453,54,46727,5,8,2:0:0:0:
395,120,46838,1,10,2:3:0:0:
423,204,46950,1,0,0:0:0:0:
510,232,47061,6,0,P|427:243|345:258,1,166.5,2|2,3:2|2:0,0:0:0:0:
431,298,47394,1,0,0:0:0:0:
345,258,47505,6,0,B|321:225|321:225|337:187,1,83.2500000000001,2|0,2:3|0:0,0:0:0:0:
431,298,47727,2,0,P|416:339|405:376,1,83.2500000000001,4|0,2:0|2:0,0:0:0:0:
277,325,47950,5,2,3:2:0:0:
267,306,48061,1,8,2:0:0:0:
177,335,48172,5,8,2:0:0:0:
199,258,48283,1,8,2:0:0:0:
63,255,48394,5,8,2:3:0:0:
135,206,48505,1,8,2:3:0:0:
0,91,48616,5,8,3:0:0:0:
125,123,48727,1,8,3:0:0:0:
175,51,48838,6,0,P|233:35|303:121,1,152.625,4|0,3:0|0:0,0:0:0:0:
355,146,49061,2,0,P|319:186|306:169,1,92.5,10|0,2:0|0:0,0:0:0:0:
370,56,49283,1,0,3:0:0:0:
379,45,49394,2,0,P|430:64|484:79,1,111,2|0,0:0|0:0,0:0:0:0:
512,104,49616,6,0,P|448:165|494:271,1,185,2|0,0:0|0:0,0:0:0:0:
332,358,49950,2,0,P|375:342|420:332,1,92.5,10|0,2:0|0:0,0:0:0:0:
271,230,50172,2,0,P|314:245|359:255,1,92.5,8|0,3:2|0:0,0:0:0:0:
206,375,50394,2,0,P|195:330|180:287,1,83.2499999999998,10|0,2:0|0:0,0:0:0:0:
161,212,50616,6,0,P|96:234|10:168,1,185,2|10,3:2|2:0,0:0:0:0:
35,55,50950,2,0,P|121:36|186:97,1,185
271,230,51283,2,0,P|344:232|374:175,1,138.75,10|0,2:0|0:0,0:0:0:0:
365,160,51505,6,0,B|315:190|329:245|329:245|376:276|359:346,1,185,2|10,3:2|2:0,0:0:0:0:
227,348,51838,2,0,B|198:336|163:344|163:344|211:331|281:315,1,185,2|10,2:0|2:0,0:0:0:0:
421,222,52172,2,0,P|465:235|510:243,1,92.5,10|0,2:0|0:0,0:0:0:0:
297,101,52394,6,0,P|224:123|149:139,1,152.625,4|0,3:0|0:0,0:0:0:0:
79,109,52616,2,0,B|62:156|62:156|91:195,1,92.5,10|0,2:0|0:0,0:0:0:0:
189,264,52838,1,0,3:0:0:0:
136,339,52950,2,0,P|92:324|46:318,1,92.5,0|10,0:0|2:0,0:0:0:0:
227,348,53172,2,0,B|277:306|328:339|320:360|369:396|439:343,1,203.5
448,176,53505,6,0,P|399:207|407:256,1,92.5,10|0,2:0|0:0,0:0:0:0:
501,252,53727,2,0,P|506:207|473:177,1,92.5,10|0,3:2|0:0,0:0:0:0:
407,248,53950,2,0,P|442:284|491:276,1,97.1249999999999,10|0,2:0|0:0,0:0:0:0:
365,126,54172,6,0,P|276:121|210:182,1,185,2|10,3:2|2:0,0:0:0:0:
82,265,54505,2,0,P|171:259|237:320,1,185,2|0,2:0|0:0,0:0:0:0:
150,371,54838,2,0,P|124:344|153:358,1,97.1249999999999,10|0,2:0|0:0,0:0:0:0:
326,325,55061,6,0,P|367:344|412:356,1,92.5,0|0,3:0|0:0,0:0:0:0:
481,232,55283,2,0,P|439:251|394:263,1,92.5,10|0,2:0|2:0,0:0:0:0:
308,234,55505,5,0,3:0:0:0:
373,173,55616,1,10,2:0:0:0:
263,75,55727,2,0,P|280:113|290:153,1,83.2499999999998,10|0,2:0|0:0,0:0:0:0:
488,138,55950,6,0,P|414:144|361:92,1,138.75,6|0,3:0|0:0,0:0:0:0:
347,15,56172,2,0,P|397:18|426:52,1,92.5,10|0,2:0|0:0,0:0:0:0:
290,153,56394,2,0,P|200:136|127:132,1,138.75,0|0,3:0|0:0,0:0:0:0:
131,143,56616,1,10,2:0:0:0:
15,232,56727,2,0,B|-23:309|43:353|43:353|78:300,1,185
197,253,57061,6,0,P|152:241|109:225,1,92.5,10|0,2:0|0:0,0:0:0:0:
265,331,57283,2,0,P|220:343|177:359,1,92.5,8|0,3:2|0:0,0:0:0:0:
410,224,57505,2,0,P|394:262|381:302,1,69.375,10|0,2:0|0:0,0:0:0:0:
348,362,57727,6,0,B|373:302|343:268|323:285|279:236|329:153,1,185,2|10,3:2|2:0,0:0:0:0:
391,50,58061,2,0,P|482:49|498:139,1,185
333,114,58394,2,0,B|302:79|302:79|311:29,1,92.5,10|0,2:0|0:0,0:0:0:0:
418,133,58616,6,0,P|350:138|311:194,1,138.75,2|0,3:2|0:0,0:0:0:0:
291,285,58838,2,0,P|334:269|379:259,1,92.5,10|0,2:0|0:0,0:0:0:0:
230,214,59061,5,2,3:2:0:0:
156,245,59172,1,8,2:0:0:0:
81,275,59283,1,2,2:0:0:0:
54,172,59505,5,8,2:0:0:0:
189,115,59616,1,8,2:0:0:0:
72,26,59727,1,0,2:0:0:0:
105,97,59838,1,8,2:0:0:0:
105,97,60172,1,8,2:0:0:0:
471,218,60394,5,8,2:0:0:0:
309,149,60505,1,8,2:0:0:0:
449,42,60616,1,0,2:0:0:0:
409,128,60727,1,8,2:0:0:0:
409,128,61061,1,8,2:0:0:0:
0,381,61283,5,8,2:0:0:0:
194,298,61394,1,8,2:0:0:0:
25,170,61505,1,0,2:0:0:0:
73,273,61616,1,8,2:0:0:0:
73,273,61950,1,8,2:0:0:0:
438,323,62172,5,0,3:0:0:0:
289,259,62283,1,8,2:0:0:0:
418,161,62394,1,8,2:0:0:0:
505,232,62505,5,8,2:0:0:0:
333,362,62616,1,8,2:1:0:0:
307,149,62727,1,8,2:1:0:0:
386,246,62838,5,8,2:0:0:0:
256,192,62894,12,0,63950,0:0:0:0:
145,0,64283,5,8,2:1:0:0:
145,0,64338,1,8,2:1:0:0:
145,0,64394,2,0,L|120:80,1,74,8|8,2:0|3:1,0:0:0:0:
189,180,64616,1,8,2:0:0:0:
189,180,64727,1,8,3:1:0:0:
3,129,64838,6,0,P|114:125|205:207,1,208.125,4|0,3:2|0:0,0:0:0:0:
210,261,65061,2,0,P|148:271|123:240,1,92.5,10|0,2:0|0:0,0:0:0:0:
252,117,65283,2,0,P|302:139|355:158,1,111,0|0,3:2|0:0,0:0:0:0:
380,163,65505,1,8,2:0:0:0:
460,39,65616,2,0,B|476:30|476:30|453:-34|312:-24|322:94,1,254.375,2|0,2:0|0:0,0:0:0:0:
425,233,65950,2,0,P|484:217|499:133,1,138.75,10|0,2:1|1:2,0:0:0:0:
407,341,66172,6,0,P|319:320|230:304,1,180.375,0|0,3:2|0:0,0:0:0:0:
157,340,66394,2,0,B|136:295|136:295|162:255,1,97.1249999999999,8|0,3:1|0:0,0:0:0:0:
43,126,66616,6,0,P|156:144|183:56,1,208.125,2|0,3:1|0:0,0:0:0:0:
176,48,66838,1,10,2:0:0:0:
273,85,66950,1,2,2:0:0:0:
202,150,67061,1,2,3:2:0:0:
299,177,67172,2,0,P|342:191|384:211,1,92.5,2|8,2:0|2:0,0:0:0:0:
219,243,67394,6,0,P|136:274|61:311,1,166.5,2|0,2:0|0:0,0:0:0:0:
0,349,67616,2,0,P|46:388|88:377,1,92.5,2|10,2:0|2:1,0:0:0:0:
116,180,67838,1,0,2:0:0:0:
102,169,67950,2,0,P|51:189|0:206,1,92.5,0|10,3:2|2:1,0:0:0:0:
135,93,68172,2,0,P|114:42|97:-8,1,92.5,10|0,2:0|2:0,0:0:0:0:
219,243,68394,6,0,B|291:241|307:186|280:178|300:115|384:122,1,208.125,4|0,3:2|0:0,0:0:0:0:
464,135,68616,2,0,P|465:168|452:147,1,83.2499999999998,8|0,2:0|0:0,0:0:0:0:
346,31,68838,6,0,P|237:49|135:92,1,222,0|8,3:2|2:0,0:0:0:0:
7,181,69172,2,0,P|116:199|218:242,1,222,0|0,2:0|0:0,0:0:0:0:
149,300,69505,6,0,P|129:277|140:224,1,69.375,8|0,2:0|0:0,0:0:0:0:
289,185,69727,2,0,P|312:243|291:303,1,129.5,0|0,3:2|0:0,0:0:0:0:
218,242,69950,1,8,2:0:0:0:
7,181,70172,5,10,3:1:0:0:
11,155,70283,1,0,2:0:0:0:
15,130,70394,1,8,2:0:0:0:
80,19,70505,5,8,2:1:0:0:
84,43,70616,1,0,3:2:0:0:
89,71,70727,1,0,2:0:0:0:
144,212,70838,5,10,2:0:0:0:
150,178,70950,1,8,2:1:0:0:
154,149,71061,1,0,3:2:0:0:
222,5,71172,5,10,2:0:0:0:
226,39,71283,1,8,2:0:0:0:
229,75,71394,1,0,3:2:0:0:
351,195,71505,5,8,3:0:0:0:
366,85,71616,1,0,3:0:0:0:
445,20,71727,5,8,2:0:0:0:
476,106,71838,1,8,2:0:0:0:
432,262,71950,6,0,B|364:241|298:226|298:226|277:264|231:276,1,194.25,6|0,3:2|0:0,0:0:0:0:
183,338,72172,2,0,P|169:298|153:260,1,83.2499999999998,10|0,2:0|0:0,0:0:0:0:
24,109,72394,6,0,P|68:129|76:169,1,92.5,0|0,3:2|0:0,0:0:0:0:
70,10,72616,1,8,2:0:0:0:
70,10,72727,2,0,P|33:100|103:182,1,185,0|0,1:2|0:0,0:0:0:0:
228,121,73061,2,0,P|240:62|190:7,1,120.25,10|0,2:1|1:2,0:0:0:0:
16,257,73283,6,0,B|62:195|125:211|125:211|133:255|184:275,1,208.125,2|0,3:2|0:0,0:0:0:0:
254,334,73505,2,0,P|229:340|245:330,1,83.2499999999998,10|0,3:2|0:0,0:0:0:0:
431,147,73727,6,0,B|415:135|403:93|403:93|374:167|432:212|432:212|318:256|369:378|369:378|420:295|506:327,1,518,2|0,3:1|0:0,0:0:0:0:
484,328,74172,1,0,3:2:0:0:
317,189,74283,2,0,P|278:198|177:249,1,138.75,8|0,0:0|0:0,0:0:0:0:
22,127,74616,6,0,P|151:151|162:20,1,296,2|8,3:1|2:1,0:0:0:0:
163,21,75061,2,0,B|211:29|211:29|212:32|212:32|257:42,1,92.5,0|8,3:2|2:1,0:0:0:0:
382,104,75283,1,8,2:0:0:0:
257,202,75394,1,8,2:1:0:0:
378,2,75505,6,0,P|358:101|346:202,1,203.5,4|8,3:2|2:0,0:0:0:0:
202,272,75838,2,0,P|173:235|172:190,1,92.5,0|0,0:0|3:0,0:0:0:0:
237,66,76061,1,0,0:0:0:0:
163,21,76172,2,0,P|117:39|67:50,1,92.5,8|0,2:0|0:0,0:0:0:0:
6,214,76394,6,0,B|43:289|110:264|110:264|122:196|203:127|326:185|329:321|245:356|245:356|255:319|310:288,1,555,2|2,2:0|3:2,0:0:0:0:
421,58,77061,5,8,2:0:0:0:
470,241,77172,1,0,1:0:0:0:
443,155,77283,6,0,B|371:123|371:123|330:176|330:176|257:188,1,208.125,14|0,2:1|0:0,0:0:0:0:
268,186,77505,1,0,2:0:0:0:
50,356,77616,6,0,B|34:276|15:207|15:207|46:191|78:157,1,222,10|0,2:0|0:0,0:0:0:0:
69,165,77838,1,0,0:0:0:0:
84,3,77950,6,0,P|155:84|289:33,1,222,0|0,3:1|0:0,0:0:0:0:
269,58,78172,5,0,3:0:0:0:
353,74,78283,1,8,2:0:0:0:
428,145,78394,5,0,3:2:0:0:
307,183,78505,1,8,2:0:0:0:
229,241,78616,5,8,3:1:0:0:
462,325,78727,1,8,3:1:0:0:
340,384,78838,6,0,P|347:354|358:389,1,83.2499999999998,8|0,2:1|0:0,0:0:0:0:
390,281,79061,6,0,B|330:253|287:287|299:296|261:339|197:318,1,208.125,4|0,3:2|0:0,0:0:0:0:
122,358,79283,2,0,P|109:314|141:260,1,97.1249999999999,10|0,2:0|0:0,0:0:0:0:
182,118,79505,2,0,P|138:106|68:75,1,120.25,0|0,3:2|0:0,0:0:0:0:
69,75,79727,1,8,2:0:0:0:
363,51,79838,6,0,P|447:38|495:152,1,208.125,2|0,2:0|0:0,0:0:0:0:
306,119,80172,2,0,B|268:77|268:77|293:9,1,111,10|0,2:1|1:2,0:0:0:0:
471,223,80394,6,0,P|383:216|321:277,1,180.375,0|0,3:2|0:0,0:0:0:0:
264,339,80616,2,0,P|271:379|307:358,1,97.1249999999999,8|0,3:1|0:0,0:0:0:0:
199,160,80838,6,0,B|142:207|84:179|84:179|72:126|-1:110,1,208.125,2|0,3:1|0:0,0:0:0:0:
0,194,81061,1,8,2:0:0:0:
101,332,81172,1,0,2:0:0:0:
84,342,81283,1,2,3:2:0:0:
72,353,81394,2,0,P|83:313|101:249,1,92.5,2|0,2:0|2:0,0:0:0:0:
136,94,81616,6,0,P|216:118|296:137,1,166.5,2|0,2:0|0:0,0:0:0:0:
358,194,81838,2,0,B|391:162|391:162|374:118,1,92.5,0|10,2:0|2:1,0:0:0:0:
182,263,82061,1,0,2:0:0:0:
272,305,82172,2,0,B|335:332|335:332|317:299,1,92.5,0|10,3:2|2:1,0:0:0:0:
94,222,82394,2,0,P|72:271|49:310,1,92.5,10|0,2:0|2:0,0:0:0:0:
263,202,82616,6,0,P|290:135|199:36,1,208.125,2|0,3:1|0:0,0:0:0:0:
186,17,82838,2,0,P|151:19|124:39,1,69.375,8|0,2:0|0:0,0:0:0:0:
10,149,83061,6,0,B|-13:187|-13:187|82:207|82:207|106:152|106:152|201:134,1,259,0|8,3:2|2:0,0:0:0:0:
367,115,83394,2,0,B|379:99|379:99|320:63|211:123|279:240,1,222,0|0,2:0|0:0,0:0:0:0:
379,281,83727,6,0,P|404:267|379:280,1,97.1249999999999,8|0,2:0|0:0,0:0:0:0:
275,355,83950,2,0,P|319:368|362:384,1,92.5,0|0,3:2|0:0,0:0:0:0:
262,201,84172,1,8,2:2:0:0:
250,214,84283,1,0,2:0:0:0:
144,366,84394,5,10,3:1:0:0:
197,290,84505,1,0,2:0:0:0:
157,206,84616,2,0,P|85:224|20:233,1,138.75,8|8,2:0|2:1,0:0:0:0:
343,222,84838,1,0,3:2:0:0:
343,222,85061,6,0,P|366:283|382:358,1,138.75,8|8,2:0|2:1,0:0:0:0:
289,298,85283,1,0,3:2:0:0:
303,138,85394,5,8,2:0:0:0:
250,214,85505,1,8,2:0:0:0:
210,130,85616,1,0,3:2:0:0:
343,222,85727,5,2,3:1:0:0:
157,206,85838,1,0,3:0:0:0:
86,319,85950,5,8,2:0:0:0:
250,214,86061,1,8,2:0:0:0:
147,59,86172,6,0,P|36:54|20:148,1,208.125,6|0,3:2|0:0,0:0:0:0:
6,213,86394,2,0,P|57:220|66:185,1,92.5,10|0,2:0|0:0,0:0:0:0:
231,37,86616,1,0,3:2:0:0:
246,30,86727,2,0,P|289:45|334:56,1,92.5,0|8,2:0|2:0,0:0:0:0:
463,288,86950,6,0,B|442:212|442:161|442:161|404:126|357:165,1,231.25,0|0,1:2|0:0,0:0:0:0:
291,327,87283,2,0,B|333:336|333:336|338:349|338:349|383:360,1,97.1249999999999,10|0,2:0|0:0,0:0:0:0:
350,180,87505,6,0,P|274:220|195:183,1,180.375,2|0,3:2|0:0,0:0:0:0:
92,208,87727,2,0,P|105:163|117:119,1,92.5,10|2,3:2|3:2,0:0:0:0:
42,284,87950,6,0,B|5:282|-17:316|-17:316|76:307|130:370,1,228.937502183318,2|0,3:1|0:0,0:0:0:0:
199,378,88172,2,0,P|210:327|160:323,1,92.5,8|0,2:0|0:0,0:0:0:0:
17,150,88394,1,0,3:2:0:0:
117,118,88505,2,0,P|104:162|92:207,1,92.9624999999998,2|0,2:0|0:0,0:0:0:0:
294,326,88727,6,0,B|343:310|399:310|399:310|449:254|373:177,1,222,2|0,2:0|0:0,0:0:0:0:
288,122,89061,2,0,P|246:142|202:157,1,92.5,8|0,2:1|2:0,0:0:0:0:
383,109,89283,6,0,P|398:66|422:25,1,92.5,0|8,3:2|2:1,0:0:0:0:
301,217,89505,1,8,2:0:0:0:
472,146,89616,1,0,2:0:0:0:
317,35,89727,6,0,B|251:20|178:4|178:4|153:59|103:83,1,240.5,4|0,3:2|2:0,0:0:0:0:
39,149,90061,2,0,P|20:106|0:65,1,92.5,0|0,0:0|2:0,0:0:0:0:
64,273,90283,1,0,0:0:0:0:
64,273,90394,2,0,P|96:287|126:305,1,69.375,8|0,2:0|0:0,0:0:0:0:
276,384,90616,6,0,B|242:332|263:274|287:299|312:249|265:180,1,194.25,2|0,3:1|0:0,0:0:0:0:
269,195,90838,2,0,P|242:229|266:299,1,120.25,0|0,2:0|0:0,0:0:0:0:
437,336,91061,2,0,B|454:348|453:380|453:380|430:359|435:336,1,97.1249999999999,0|0,3:0|0:0,0:0:0:0:
390,139,91283,5,8,2:0:0:0:
413,237,91394,1,0,1:0:0:0:
390,139,91505,6,0,P|375:71|361:3,1,138.75,14|0,2:1|0:0,0:0:0:0:
490,62,91727,1,8,2:1:0:0:
272,109,91838,6,0,P|199:92|127:77,1,148,10|0,2:1|0:0,0:0:0:0:
221,0,92061,1,0,0:0:0:0:
189,192,92172,6,0,P|172:266|156:342,1,148,10|8,3:1|2:0,0:0:0:0:
340,367,92394,5,2,3:2:0:0:
353,293,92505,1,8,2:0:0:0:
445,310,92616,5,0,3:2:0:0:
394,215,92727,1,8,2:0:0:0:
475,192,92838,5,8,2:1:0:0:
340,144,92950,1,8,2:1:0:0:
401,72,93061,5,8,2:1:0:0:
248,123,93172,1,8,2:1:0:0:
189,192,93283,6,0,P|104:164|101:122,1,111,4|0,3:2|0:0,0:0:0:0:
52,42,93505,2,0,P|106:61|188:85,1,120.25,8|0,2:0|0:0,0:0:0:0:
280,209,93727,1,0,3:0:0:0:
219,277,93838,1,0,0:0:0:0:
308,296,93950,2,0,B|360:311|360:311|316:282,1,83.2499999999998,8|0,2:0|0:0,0:0:0:0:
189,192,94172,6,0,B|134:182|96:228|129:244|95:302|5:284,1,208.125,0|0,3:0|0:0,0:0:0:0:
11,298,94394,2,0,P|5:251|-1:205,1,92.5,8|0,2:0|0:0,0:0:0:0:
67,21,94616,1,0,3:2:0:0:
81,112,94727,1,0,2:1:0:0:
153,52,94838,2,0,P|211:33|247:22,1,92.5,8|0,2:0|2:1,0:0:0:0:
385,150,95061,6,0,P|406:116|387:60,1,92.4999999999999,14|0,2:0|0:0,0:0:0:0:
394,67,95209,2,0,P|412:102|470:113,1,92.4999999999999,10|0,2:0|0:0,0:0:0:0:
462,118,95357,2,0,P|422:116|383:161,1,92.4999999999999,10|0,2:0|0:0,0:0:0:0:
388,341,95505,6,0,P|409:307|390:251,1,92.4999999999999,10|0,2:0|0:0,0:0:0:0:
320,290,95653,2,0,P|338:325|396:336,1,92.4999999999999,10|0,2:0|0:0,0:0:0:0:
397,258,95801,2,0,P|357:256|318:301,1,92.4999999999999
256,192,95950,21,10,3:0:0:0:
256,192,96172,2,0,L|256:155,2,37
37,354,96838,6,0,P|18:287|134:256,1,208.125,4|0,3:0|0:0,0:0:0:0:
109,266,97061,2,0,P|115:217|127:170,1,97.1249999999999,10|0,2:0|0:0,0:0:0:0:
60,54,97283,5,0,3:2:0:0:
0,101,97394,2,0,P|54:95|109:84,1,111,2|10,2:0|2:0,0:0:0:0:
250,50,97616,2,0,P|207:60|196:103,1,92.5,2|0,2:0|3:0,0:0:0:0:
140,0,97838,5,2,2:0:0:0:
277,131,97950,1,8,2:0:0:0:
277,131,98061,1,2,2:0:0:0:
209,181,98172,5,8,3:2:0:0:
316,207,98283,1,0,0:0:0:0:
383,143,98394,2,0,P|366:92|386:42,1,111,8|0,2:0|0:0,0:0:0:0:
478,189,98616,6,0,P|423:192|380:160,1,111,2|0,3:2|0:0,0:0:0:0:
314,307,98838,2,0,P|406:317|497:337,1,185,10|8,2:0|3:2,0:0:0:0:
105,323,99172,6,0,P|91:283|123:309,1,111,2|10,2:0|2:0,0:0:0:0:
36,380,99394,2,0,P|8:343|6:264,1,115.625,2|0,2:0|3:0,0:0:0:0:
122,199,99616,1,0,0:0:0:0:
93,116,99727,2,0,P|47:114|2:105,1,92.5,2|0,2:1|0:0,0:0:0:0:
181,134,99950,5,0,3:0:0:0:
149,51,100061,1,2,2:1:0:0:
272,176,100172,2,0,P|304:156|265:169,1,111,2|0,3:2|0:0,0:0:0:0:
493,21,100394,6,0,P|452:104|434:232,1,208.125,6|0,3:2|0:0,0:0:0:0:
456,364,100616,2,0,P|503:339|494:286,1,92.5,10|0,2:0|0:0,0:0:0:0:
330,259,100838,5,0,3:2:0:0:
330,259,100950,2,0,P|346:303|352:349,1,92.5,2|10,2:0|2:0,0:0:0:0:
180,356,101172,2,0,P|226:349|270:335,1,92.5,2|0,2:0|3:0,0:0:0:0:
136,238,101394,5,2,2:0:0:0:
147,266,101505,1,10,2:0:0:0:
137,287,101616,1,2,2:0:0:0:
87,349,101727,5,10,3:2:0:0:
25,332,101838,1,0,0:0:0:0:
0,273,101950,1,8,2:0:0:0:
0,273,102172,6,0,B|116:253|48:205|164:184,1,194.25,2|0,3:1|0:0,0:0:0:0:
167,168,102394,2,0,P|158:134|84:142,1,92.5,10|0,2:0|0:0,0:0:0:0:
322,136,102616,6,0,B|459:159|459:159|475:122|512:120,1,208.125,2|0,3:1|0:0,0:0:0:0:
421,72,102838,2,0,P|406:42|373:37,1,69.3750000000002,10|0,2:0|0:0,0:0:0:0:
261,279,103061,6,0,B|289:317|289:317|275:362|275:362|247:324|247:324|261:279,1,166.5,2|0,2:1|0:0,0:0:0:0:
160,330,103283,1,8,2:0:0:0:
144,345,103394,2,0,L|288:319,1,124.875,10|0,2:0|0:0,0:0:0:0:
395,252,103616,1,10,2:0:0:0:
415,267,103727,2,0,L|310:248,1,87.8749976534844,4|0,2:1|0:0,0:0:0:0:
20,206,103950,6,0,P|77:115|86:213,1,242.8125,4|0,3:0|0:0,0:0:0:0:
73,264,104172,2,0,B|32:299|32:299|78:289,1,92.5,10|0,2:0|0:0,0:0:0:0:
313,96,104394,5,2,3:2:0:0:
237,74,104505,1,2,2:0:0:0:
186,128,104616,2,0,P|77:145|12:57,1,231.25,10|0,2:0|3:0,0:0:0:0:
77,12,104950,5,2,2:0:0:0:
92,65,105061,1,10,2:0:0:0:
63,111,105172,1,2,2:0:0:0:
109,191,105283,5,10,3:2:0:0:
180,227,105394,1,0,0:0:0:0:
176,146,105505,2,0,P|123:167|46:147,1,124.875,8|0,2:0|0:0,0:0:0:0:
136,371,105727,6,0,P|101:324|114:268,1,120.25,2|0,3:2|0:0,0:0:0:0:
257,186,105950,2,0,P|279:276|292:368,1,185,10|8,2:0|3:2,0:0:0:0:
356,157,106283,6,0,P|357:129|347:160,1,92.5,2|8,2:0|2:0,0:0:0:0:
251,100,106505,2,0,P|268:56|281:12,1,92.5,2|0,2:0|3:0,0:0:0:0:
420,333,106727,5,0,0:0:0:0:
420,333,106838,2,0,P|473:304|474:180,1,180.375,2|0,2:1|0:0,0:0:0:0:
257,186,107061,5,0,3:0:0:0:
244,262,107172,1,2,2:1:0:0:
276,293,107283,2,0,P|232:279|186:270,1,92.9624999999998,2|0,2:0|0:0,0:0:0:0:
44,124,107505,6,0,B|29:98|-16:94|-16:94|56:136|58:218,1,208.125,6|0,3:2|0:0,0:0:0:0:
50,220,107727,2,0,P|63:163|94:160,1,92.5,10|0,2:0|0:0,0:0:0:0:
31,297,107950,1,0,3:0:0:0:
110,271,108061,2,0,P|153:256|198:246,1,92.5,2|10,2:0|2:0,0:0:0:0:
298,382,108283,2,0,P|285:338|276:293,1,92.5,2|0,2:0|3:0,0:0:0:0:
415,115,108505,5,2,2:0:0:0:
394,37,108616,1,10,2:0:0:0:
466,57,108727,1,2,3:2:0:0:
403,138,108838,5,2,3:2:0:0:
381,14,108950,1,8,2:1:0:0:
490,55,109061,1,8,2:0:0:0:
498,264,109283,6,0,P|448:302|372:296,1,138.75,2|0,3:2|0:0,0:0:0:0:
364,294,109505,2,0,P|409:291|439:324,1,92.5,2|0,2:0|0:0,0:0:0:0:
254,342,109727,6,0,P|197:317|164:248,1,124.875,2|0,3:2|0:0,0:0:0:0:
162,248,109950,2,0,P|187:285|174:327,1,83.2500000000001,2|0,2:0|0:0,0:0:0:0:
33,202,110172,6,0,P|22:110|86:18,1,208.125,2|0,3:2|0:0,0:0:0:0:
99,118,110505,1,2,3:2:0:0:
104,125,110616,2,0,P|65:121|54:83,1,83.2500000000001,0|0,3:0|0:0,0:0:0:0:
26,219,111061,6,0,B|78:147|149:190|149:190|160:254|217:262,1,240.5,6|6,2:0|2:0,0:0:0:0:
317,144,111394,5,0,0:0:0:0:
312,164,111505,2,0,P|265:176|218:185,1,83.2500000000001,2|0,2:3|0:0,0:0:0:0:
457,239,111727,2,0,P|410:226|365:211,1,83.2500000000001,6|0,2:0|0:0,0:0:0:0:
478,63,111950,2,0,P|413:69|397:133,1,138.75,0|6,3:0|2:0,0:0:0:0:
463,228,112283,1,0,0:0:0:0:
457,239,112394,1,10,2:3:0:0:
437,317,112505,5,10,2:0:0:0:
491,374,112616,1,10,2:0:0:0:
511,297,112727,1,10,3:0:0:0:
360,334,112838,2,0,P|267:309|173:290,2,166.5,0|6|10,3:0|2:0|2:3,0:0:0:0:
189,303,113505,5,6,2:0:0:0:
265,328,113616,1,0,0:0:0:0:
296,371,113727,2,0,P|284:315|308:279,1,83.2500000000001,0|0,3:0|0:0,0:0:0:0:
66,48,113950,5,10,2:0:0:0:
146,69,114061,1,0,0:0:0:0:
87,128,114172,1,10,2:3:0:0:
82,64,114283,5,10,2:0:0:0:
123,75,114394,1,2,2:3:0:0:
93,105,114505,1,0,0:0:0:0:
5,131,114616,6,0,P|88:92|180:83,1,166.5,0|6,3:0|2:0,0:0:0:0:
357,156,114950,1,0,0:0:0:0:
284,189,115061,2,0,P|221:167|194:103,1,138.75,10|0,2:3|0:0,0:0:0:0:
282,43,115283,2,0,P|290:71|262:120,1,69.375,6|0,2:0|0:0,0:0:0:0:
279,203,115505,6,0,P|361:210|436:245,1,166.5,0|6,3:0|2:0,0:0:0:0:
451,262,115838,1,0,0:0:0:0:
509,211,115950,1,2,2:3:0:0:
512,131,116061,5,0,2:0:0:0:
512,131,116172,2,0,P|466:122|441:164,1,97.1249999999999,10|0,2:3|0:0,0:0:0:0:
317,351,116394,6,0,P|354:266|363:174,1,185,0|0,3:0|2:0,0:0:0:0:
282,43,116727,1,0,0:0:0:0:
282,43,116838,2,0,P|321:54|361:63,1,83.2500000000001,2|0,2:3|0:0,0:0:0:0:
262,197,117061,2,0,P|222:208|182:217,1,83.2500000000001,0|0,2:0|0:0,0:0:0:0:
230,291,117283,6,0,P|221:208|187:132,1,166.5,0|2,3:0|2:3,0:0:0:0:
133,72,117616,1,0,2:3:0:0:
133,72,117727,1,2,2:3:0:0:
45,31,117838,5,10,2:0:0:0:
50,106,117950,1,10,2:3:0:0:
108,155,118061,1,0,0:0:0:0:
54,266,118172,6,0,B|89:306|77:371|77:371|89:306|135:280,1,222,6|0,2:1|2:0,0:0:0:0:
302,321,118505,1,0,0:0:0:0:
225,304,118616,2,0,P|264:289|305:281,1,83.2500000000001,10|0,2:3|0:0,0:0:0:0:
383,301,118838,2,0,P|430:291|476:275,1,83.2500000000001,0|0,2:0|0:0,0:0:0:0:
487,288,119061,1,0,3:0:0:0:
385,196,119283,5,6,2:0:0:0:
390,200,119394,2,0,P|355:183|385:211,1,111
512,73,119616,5,10,2:0:0:0:
495,153,119727,2,0,P|482:108|472:63,1,92.5,10|10,2:0|3:0,0:0:0:0:
278,164,119950,6,0,P|315:113|373:99,1,124.874996189118,0|0,3:0|0:0,0:0:0:0:
387,86,120172,2,0,P|378:40|314:37,1,83.2500000000001,6|0,2:0|0:0,0:0:0:0:
121,102,120394,6,0,B|222:119|163:155|265:173,2,166.5,10|6|0,2:3|2:0|3:0,0:0:0:0:
55,44,121061,5,10,2:0:0:0:
27,31,121172,1,0,0:0:0:0:
17,0,121283,2,0,L|0:97,2,83.2500000000001,10|10|10,2:3|2:0|2:3,0:0:0:0:
0,231,121727,6,0,P|59:210|120:193,1,124.875,0|0,3:0|0:0,0:0:0:0:
120,211,121950,1,6,2:0:0:0:
214,314,122061,1,0,0:0:0:0:
164,370,122172,2,0,P|179:308|201:247,1,129.5,10|6,2:3|2:0,0:0:0:0:
278,219,122505,1,0,0:0:0:0:
278,219,122616,2,0,P|324:235|371:248,1,97.1249970359803,0|0,3:0|0:0,0:0:0:0:
502,117,122838,5,6,2:0:0:0:
485,111,122950,1,0,0:0:0:0:
471,106,123061,1,10,2:3:0:0:
443,22,123172,5,10,2:0:0:0:
385,88,123283,1,10,2:3:0:0:
413,172,123394,1,0,0:0:0:0:
512,239,123505,6,0,P|429:250|347:265,1,166.5,0|0,3:0|2:0,0:0:0:0:
446,286,123838,1,0,0:0:0:0:
340,276,123950,6,0,P|317:230|338:200,1,83.2500000000001,2|0,2:3|0:0,0:0:0:0:
451,297,124172,2,0,P|436:338|425:375,1,83.2500000000001,6|0,2:0|0:0,0:0:0:0:
305,363,124394,5,0,3:0:0:0:
294,342,124505,1,2,2:3:0:0:
205,384,124616,5,0,3:0:0:0:
224,316,124727,1,8,2:0:0:0:
104,313,124838,5,0,3:1:0:0:
167,270,124950,1,8,3:1:0:0:
49,168,125061,5,8,2:1:0:0:
158,196,125172,1,0,3:0:0:0:
203,69,125283,6,0,P|277:54|353:47,1,152.625,6|0,3:1|0:0,0:0:0:0:
419,1,125505,2,0,P|443:49|423:87,1,92.5,8|0,2:0|0:0,0:0:0:0:
361,133,125727,1,0,3:0:0:0:
350,139,125838,2,0,P|340:184|333:230,1,92.5,0|8,0:0|2:0,0:0:0:0:
445,334,126061,6,0,P|498:282|430:176,1,203.5
353,324,126394,2,0,P|309:338|265:353,1,92.5,8|0,0:0|0:0,0:0:0:0:
162,232,126616,2,0,P|205:247|249:261,1,92.5,8|0,3:2|0:0,0:0:0:0:
179,329,126838,1,8,0:0:0:0:
398,77,127061,6,0,B|340:130|273:96|273:96|266:57|219:39,1,203.5,2|8,3:2|2:0,0:0:0:0:
132,0,127394,2,0,P|52:32|63:118,1,185
187,119,127727,2,0,P|98:144|11:178,1,185,8|0,2:0|3:0,0:0:0:0:
248,301,128172,6,0,P|297:314|344:332,1,101.75,10|0,2:0|0:0,0:0:0:0:
437,181,128394,1,2,3:2:0:0:
507,242,128505,2,0,P|457:255|410:273,1,101.75,10|8,2:0|2:1,0:0:0:0:
284,138,128727,1,0,2:0:0:0:
345,74,128838,6,0,P|328:155|314:237,1,166.5,6|0,3:2|0:0,0:0:0:0:
344,332,129061,2,0,P|297:314|248:301,1,92.5,8|0,2:0|0:0,0:0:0:0:
143,282,129283,2,0,P|160:329|174:378,1,92.5,0|0,3:0|0:0,0:0:0:0:
222,207,129505,1,8,2:0:0:0:
125,190,129616,2,0,P|94:106|181:38,1,185
262,7,129950,6,0,P|250:51|241:97,1,92.5,8|0,2:0|0:0,0:0:0:0:
362,145,130172,2,0,P|353:99|342:55,1,92.5,8|0,3:2|0:0,0:0:0:0:
464,97,130394,2,0,P|452:141|443:187,1,92.5,8|0,2:0|0:0,0:0:0:0:
498,302,130616,6,0,B|428:253|365:305|365:305|366:340|340:368,1,203.5,2|8,3:2|2:0,0:0:0:0:
126,266,130950,2,0,P|231:238|282:310,1,203.5,2|0,2:0|0:0,0:0:0:0:
199,362,131283,2,0,B|179:341|191:313|191:313|211:335|201:361,1,101.75,10|0,2:0|0:0,0:0:0:0:
336,222,131505,6,0,P|348:172|366:125,1,92.5,0|0,3:2|0:0,0:0:0:0:
437,67,131727,2,0,B|405:31|405:31|346:36,1,101.75,10|0,2:0|0:0,0:0:0:0:
226,160,131950,5,0,3:2:0:0:
290,95,132061,1,10,2:0:0:0:
180,4,132172,2,0,P|199:46|210:90,1,83.2500000000001,2|0,2:0|0:0,0:0:0:0:
170,230,132394,6,0,B|130:209|81:232|96:253|46:279|-5:248,1,180.375,6|0,3:2|0:0,0:0:0:0:
41,156,132616,2,0,B|16:123|16:123|35:180,1,92.5,8|0,2:0|0:0,0:0:0:0:
143,309,132838,1,0,3:0:0:0:
153,319,132950,2,0,P|198:326|242:341,1,92.5,0|8,0:0|2:0,0:0:0:0:
370,363,133172,6,0,B|382:319|353:278|333:294|297:253|321:195,1,185
398,138,133505,2,0,P|460:160|499:169,1,92.5,8|0,2:0|0:0,0:0:0:0:
339,60,133727,2,0,P|383:48|426:31,1,92.5,8|0,2:0|0:0,0:0:0:0:
261,119,133950,2,0,P|249:74|232:31,1,92.5,8|0,3:2|0:0,0:0:0:0:
88,0,134172,6,0,P|13:53|45:151,1,185,2|10,3:2|2:0,0:0:0:0:
187,178,134505,2,0,P|90:208|0:255,1,203.5,2|0,2:0|0:0,0:0:0:0:
277,299,134838,2,0,B|300:252|300:252|268:198,1,101.75,10|0,2:0|0:0,0:0:0:0:
127,95,135061,1,0,3:2:0:0:
126,95,135283,2,0,P|179:78|230:55,1,111,10|0,2:0|0:0,0:0:0:0:
319,10,135505,5,0,3:2:0:0:
394,35,135616,1,8,2:0:0:0:
471,60,135727,1,0,0:0:0:0:
458,212,135950,5,12,2:0:0:0:
323,269,136061,1,8,2:0:0:0:
440,358,136172,1,0,2:0:0:0:
407,287,136283,1,8,2:0:0:0:
407,287,136616,1,8,2:0:0:0:
41,166,136838,5,8,2:0:0:0:
203,235,136950,1,8,2:0:0:0:
63,342,137061,1,0,2:0:0:0:
103,256,137172,1,8,2:0:0:0:
103,256,137505,1,8,2:0:0:0:
512,3,137727,5,8,2:0:0:0:
318,86,137838,1,8,2:0:0:0:
487,214,137950,1,0,2:0:0:0:
439,111,138061,1,12,2:0:0:0:
439,111,138394,1,8,2:0:0:0:
74,61,138616,5,8,2:0:0:0:
223,125,138727,1,8,2:0:0:0:
94,223,138838,1,8,2:0:0:0:
7,152,138950,5,8,2:0:0:0:
179,22,139061,1,8,2:1:0:0:
205,235,139172,1,8,2:1:0:0:
126,138,139283,5,8,2:0:0:0:
256,192,139338,12,0,140394,0:0:0:0:
268,302,140727,5,8,2:1:0:0:
273,307,140783,1,8,2:1:0:0:
278,312,140838,2,0,P|316:302|366:295,1,74,8|8,2:0|3:0,0:0:0:0:
432,277,141061,1,8,2:0:0:0:
374,215,141172,1,8,3:0:0:0:
407,357,141283,6,0,P|406:253|428:151,1,208.125,4|0,3:2|0:0,0:0:0:0:
419,66,141505,2,0,P|484:80|512:141,1,138.75,10|0,2:0|0:0,0:0:0:0:
287,191,141727,2,0,P|233:167|170:151,1,124.874996189118,0|0,3:2|0:0,0:0:0:0:
171,161,141950,1,8,2:0:0:0:
13,84,142061,6,0,B|-10:47|20:2|20:2|100:29|114:81|68:173,1,254.375,2|0,2:0|0:0,0:0:0:0:
0,211,142394,2,0,P|68:222|132:248,1,138.75,10|0,2:1|2:0,0:0:0:0:
252,381,142616,6,0,B|223:330|244:262|281:297|315:230|279:176,1,208.125,0|0,3:2|0:0,0:0:0:0:
274,108,142838,2,0,P|322:109|354:144,1,97.1249999999999,8|0,3:1|0:0,0:0:0:0:
337,357,143061,6,0,P|433:368|472:279,1,208.125,2|0,3:1|0:0,0:0:0:0:
462,268,143283,1,8,2:0:0:0:
408,206,143394,1,0,2:0:0:0:
381,283,143505,1,2,3:2:0:0:
489,191,143616,2,0,P|478:146|464:102,1,92.5,2|8,2:0|2:0,0:0:0:0:
319,0,143838,6,0,P|247:39|160:56,1,166.5,2|0,2:0|0:0,0:0:0:0:
73,40,144061,2,0,B|50:36|39:7|39:7|59:23|97:33,1,92.5,0|10,2:0|2:1,0:0:0:0:
211,142,144283,1,0,2:0:0:0:
221,152,144394,2,0,P|206:196|197:241,1,92.5,0|10,3:2|2:1,0:0:0:0:
25,140,144616,2,0,P|70:149|114:163,1,92.5,10|0,2:0|2:0,0:0:0:0:
314,248,144838,6,0,P|211:265|117:307,1,208.125,4|0,3:2|0:0,0:0:0:0:
35,283,145061,2,0,P|17:256|47:268,1,83.2499999999998,8|0,2:0|0:0,0:0:0:0:
196,357,145283,6,0,P|250:365|302:384,1,111,0|0,3:2|0:0,0:0:0:0:
470,277,145505,1,8,2:0:0:0:
439,384,145616,2,0,B|470:335|443:265|406:299|373:235|415:172,1,222,0|0,2:0|0:0,0:0:0:0:
401,89,145950,2,0,P|433:100|467:108,1,69.375,8|0,2:0|0:0,0:0:0:0:
409,181,146172,2,0,P|345:195|284:214,1,129.5,0|0,3:2|0:0,0:0:0:0:
35,283,146394,1,8,2:0:0:0:
160,249,146616,5,10,3:1:0:0:
135,240,146727,1,0,2:0:0:0:
111,232,146838,1,8,2:0:0:0:
29,192,146950,5,8,2:1:0:0:
38,164,147061,1,0,3:2:0:0:
48,136,147172,1,0,2:0:0:0:
88,54,147283,5,10,2:0:0:0:
122,66,147394,1,8,2:1:0:0:
156,77,147505,1,0,3:2:0:0:
239,125,147616,5,10,2:0:0:0:
279,110,147727,1,8,2:0:0:0:
320,97,147838,1,0,3:2:0:0:
400,170,147950,5,8,3:0:0:0:
410,77,148061,1,0,3:0:0:0:
485,132,148172,5,8,2:0:0:0:
495,225,148283,1,8,2:0:0:0:
418,263,148394,6,0,P|314:280|255:368,1,208.125,6|0,3:2|0:0,0:0:0:0:
499,299,148616,2,0,B|515:266|515:266|494:224,1,83.2499999999998,10|0,2:0|0:0,0:0:0:0:
400,170,148838,6,0,P|352:182|298:193,1,92.5,0|0,3:2|0:0,0:0:0:0:
185,311,149061,1,8,2:0:0:0:
98,278,149172,2,0,B|138:202|229:222|229:222|238:269|291:284,1,231.25,0|0,1:2|0:0,0:0:0:0:
268,120,149505,2,0,P|228:163|229:222,1,120.25,10|0,2:1|1:2,0:0:0:0:
351,48,149727,6,0,P|249:72|147:91,1,208.125,2|0,3:2|0:0,0:0:0:0:
72,52,149950,2,0,B|51:15|51:15|101:59,1,83.2499999999998,10|0,3:1|0:0,0:0:0:0:
29,338,150172,6,0,B|91:243|76:136|76:136|91:243|212:328,1,420.875,2|0,3:1|0:0,0:0:0:0:
116,364,150616,1,0,3:2:0:0:
278,297,150727,2,0,P|316:311|416:338,1,138.75,8|0,2:0|0:0,0:0:0:0:
426,344,151061,6,0,B|439:256|495:205|495:205|455:133|367:165,1,296,2|8,3:1|2:1,0:0:0:0:
377,161,151505,2,0,P|310:173|278:141,1,92.5,0|8,3:2|2:1,0:0:0:0:
227,100,151727,1,8,2:0:0:0:
310,77,151838,1,0,2:0:0:0:
206,189,151950,6,0,P|110:223|19:268,1,203.5,4|8,3:2|2:0,0:0:0:0:
19,268,152394,1,0,3:0:0:0:
64,192,152505,1,0,0:0:0:0:
110,270,152616,2,0,P|120:314|132:370,1,92.5,8|0,2:0|0:0,0:0:0:0:
370,375,152838,6,0,B|323:296|382:197|420:260|498:153|429:57|429:57|350:92|340:166|385:245,1,555,2|2,2:0|3:2,0:0:0:0:
440,322,153505,5,8,2:0:0:0:
440,322,153616,1,0,1:0:0:0:
494,268,153727,6,0,P|380:299|265:325,1,235.875,14|0,2:1|0:0,0:0:0:0:
260,332,153950,1,0,2:0:0:0:
82,318,154061,6,0,P|45:225|130:146,1,222,10|0,2:1|0:0,0:0:0:0:
131,152,154283,1,0,0:0:0:0:
261,0,154394,6,0,P|233:107|211:216,1,222,0|0,3:0|0:0,0:0:0:0:
214,226,154616,5,0,3:0:0:0:
298,206,154727,1,8,2:0:0:0:
379,142,154838,5,0,3:0:0:0:
471,167,154950,1,8,2:0:0:0:
406,237,155061,5,8,3:2:0:0:
445,78,155172,1,8,3:2:0:0:
229,241,155283,5,8,2:1:0:0:
462,325,155394,1,8,2:1:0:0:
395,380,155505,6,0,B|359:322|385:267|391:275|457:243|414:148,1,242.8125,4|0,3:2|0:0,0:0:0:0:
510,41,155727,2,0,P|477:9|417:11,1,97.1249999999999,10|0,2:0|0:0,0:0:0:0:
295,70,155950,2,0,P|245:56|158:47,1,138.75,0|0,3:2|0:0,0:0:0:0:
80,60,156172,1,8,2:0:0:0:
203,159,156283,6,0,P|105:166|75:75,1,208.125,2|0,2:0|0:0,0:0:0:0:
337,5,156616,2,0,P|369:44|354:119,1,111,10|0,2:1|2:0,0:0:0:0:
336,271,156838,6,0,P|398:209|485:217,1,180.375,0|0,3:2|0:0,0:0:0:0:
496,226,157061,2,0,P|489:266|453:245,1,97.1249999999999,8|0,3:1|0:0,0:0:0:0:
238,363,157283,6,0,P|228:258|201:156,1,208.125,2|0,3:1|0:0,0:0:0:0:
7,12,157505,1,8,2:0:0:0:
7,12,157616,1,0,2:0:0:0:
150,99,157727,5,2,3:2:0:0:
76,81,157838,2,0,P|99:39|156:23,1,92.5,2|0,2:0|2:0,0:0:0:0:
284,129,158061,6,0,P|336:112|392:109,1,111,2|0,2:0|3:0,0:0:0:0:
191,230,158283,6,0,P|124:209|55:206,1,138.75,2|10,2:0|2:1,0:0:0:0:
195,244,158505,1,0,2:0:0:0:
263,294,158616,6,0,B|295:260|295:260|276:217,1,92.5,0|10,3:2|2:1,0:0:0:0:
133,182,158838,2,0,P|117:221|121:251,1,69.375,10|0,2:0|0:0,0:0:0:0:
238,363,159061,6,0,P|249:241|283:128,1,241.425,4|0,3:2|0:0,0:0:0:0:
292,48,159283,2,0,P|257:50|230:70,1,69.375,8|0,2:0|0:0,0:0:0:0:
50,162,159505,6,0,B|187:186|125:269|262:293,1,259,0|8,3:2|2:0,0:0:0:0:
293,144,159838,2,0,B|401:125|353:60|461:41,1,203.5,0|0,2:0|0:0,0:0:0:0:
447,143,160172,6,0,P|472:129|447:142,1,97.1249999999999,8|0,2:0|0:0,0:0:0:0:
364,219,160394,2,0,P|408:232|451:248,1,92.5,0|0,3:2|0:0,0:0:0:0:
292,48,160616,1,8,2:2:0:0:
295,61,160727,1,0,2:0:0:0:
147,76,160838,5,10,3:1:0:0:
209,24,160950,1,0,2:0:0:0:
218,105,161061,2,0,P|146:123|81:132,1,138.75,8|8,2:0|2:1,0:0:0:0:
45,342,161283,1,0,3:2:0:0:
45,342,161505,6,0,P|27:279|18:203,1,138.75,8|8,2:0|2:1,0:0:0:0:
351,236,161727,5,0,3:2:0:0:
170,284,161838,1,8,2:0:0:0:
284,170,161950,5,8,2:0:0:0:
249,257,162061,1,0,3:2:0:0:
194,195,162172,5,2,3:1:0:0:
268,251,162283,1,0,3:0:0:0:
218,105,162394,5,8,2:0:0:0:
262,271,162505,1,8,2:0:0:0:
344,56,162616,6,0,P|455:51|471:145,1,208.125,4|0,3:2|0:0,0:0:0:0:
485,210,162838,2,0,P|434:217|425:182,1,92.5,8|0,2:0|0:0,0:0:0:0:
231,16,163061,1,0,3:2:0:0:
242,26,163172,2,0,P|286:34|331:47,1,92.5,0|8,2:0|2:0,0:0:0:0:
492,220,163394,6,0,B|458:236|451:273|451:273|458:236|432:209,1,138.75,0|0,1:2|3:0,0:0:0:0:
429,369,163727,6,0,P|466:355|507:345,1,83.2499999999998,10|0,2:0|0:0,0:0:0:0:
374,262,163950,6,0,P|316:241|254:226,1,124.875,2|0,3:2|0:0,0:0:0:0:
474,137,164172,6,0,P|477:89|452:48,1,92.5,10|2,3:1|3:2,0:0:0:0:
251,311,164394,6,0,B|229:326|232:367|232:367|280:275|389:280,1,235.875,2|0,3:1|0:0,0:0:0:0:
441,54,164616,2,0,P|390:43|386:93,1,92.5,8|0,2:0|0:0,0:0:0:0:
103,155,164838,5,0,3:2:0:0:
177,184,164950,2,0,P|220:199|267:211,1,92.9624999999998,0|0,2:0|0:0,0:0:0:0:
352,159,165172,5,0,2:0:0:0:
492,316,165283,2,0,B|457:296|446:256|446:256|457:296|440:329,1,152.625001455545,2|0,3:1|0:0,0:0:0:0:
108,235,165505,6,0,P|88:277|73:321,1,92.5,8|0,2:1|2:0,0:0:0:0:
103,155,165727,2,0,P|114:109|159:117,1,92.5,0|8,3:2|2:1,0:0:0:0:
177,184,165950,1,8,2:0:0:0:
205,38,166061,1,0,2:1:0:0:
375,284,166172,6,0,B|336:204|248:218|248:218|229:258|188:261,1,240.5,4|0,3:2|2:0,0:0:0:0:
95,161,166505,2,0,P|76:118|90:66,1,92.5,0|0,0:0|2:0,0:0:0:0:
177,184,166727,1,0,0:0:0:0:
25,236,166838,6,0,L|93:248,1,69.375,8|0,2:0|0:0,0:0:0:0:
301,315,167061,6,0,P|316:225|405:206,1,194.25,2|0,3:1|0:0,0:0:0:0:
205,38,167283,6,0,P|265:33|324:21,1,120.25,0|0,2:0|0:0,0:0:0:0:
336,29,167505,2,0,P|346:66|280:72,1,124.875,0|0,3:0|0:0,0:0:0:0:
442,115,167727,5,8,2:0:0:0:
466,263,167838,1,0,1:0:0:0:
405,206,167950,6,0,P|418:138|443:71,1,138.75,14|0,2:1|0:0,0:0:0:0:
485,5,168172,1,8,2:1:0:0:
271,88,168283,6,0,P|198:71|126:56,1,148,10|0,2:1|0:0,0:0:0:0:
205,38,168505,1,0,0:0:0:0:
61,169,168616,6,0,P|44:243|28:319,1,148,10|8,2:1|2:0,0:0:0:0:
24,330,168838,5,2,2:0:0:0:
85,286,168950,1,8,2:0:0:0:
125,369,169061,5,0,1:2:0:0:
163,283,169172,1,8,2:0:0:0:
250,342,169283,5,8,2:1:0:0:
239,235,169394,1,8,2:1:0:0:
358,243,169505,5,8,2:1:0:0:
285,142,169616,1,8,2:1:0:0:
151,190,169727,6,0,P|66:162|53:124,1,111,4|0,3:2|0:0,0:0:0:0:
87,12,169950,2,0,P|145:25|206:38,1,120.25,8|0,2:0|0:0,0:0:0:0:
418,133,170172,5,0,3:0:0:0:
435,44,170283,1,0,0:0:0:0:
349,72,170394,2,0,B|296:85|296:85|349:88,1,83.2499999999998,8|0,2:0|0:0,0:0:0:0:
126,119,170616,6,0,P|99:196|18:222,1,173.4375,0|0,3:0|0:0,0:0:0:0:
134,384,170838,6,0,P|142:336|158:291,1,92.5,8|0,2:0|0:0,0:0:0:0:
422,147,171061,5,4,3:2:0:0:
463,222,171172,1,0,2:1:0:0:
343,177,171283,2,0,P|283:189|246:198,1,92.5,8|0,2:0|2:1,0:0:0:0:
377,350,171505,6,0,P|398:316|379:260,1,92.4999999999999,14|0,2:0|0:0,0:0:0:0:
386,267,171653,2,0,P|404:302|462:313,1,92.4999999999999,10|0,2:0|0:0,0:0:0:0:
454,318,171801,2,0,P|414:316|375:361,1,92.4999999999999,10|0,2:0|0:0,0:0:0:0:
213,120,171950,6,0,P|192:86|211:30,1,92.4999999999999,10|0,2:0|0:0,0:0:0:0:
281,69,172098,2,0,P|263:104|205:115,1,92.4999999999999,10|0,2:0|0:0,0:0:0:0:
204,37,172246,2,0,P|244:35|283:80,1,92.4999999999999,10|0,2:0|0:0,0:0:0:0:
256,192,172394,21,10,3:0:0:0:
256,192,172616,2,0,L|256:155,2,37
0,332,173283,6,0,P|13:280|77:256,1,111,6|0,3:0|0:0,0:0:0:0:
25,183,173727,2,0,P|76:169|129:213,1,111,8|0,2:0|0:0,0:0:0:0:
197,351,174172,6,0,P|278:335|361:322,2,166.5
0,332,175061,6,0,P|13:280|77:256,1,111,2|0,3:2|0:0,0:0:0:0:
25,183,175505,2,0,P|76:169|129:213,1,111,8|0,2:0|0:0,0:0:0:0:
197,351,175950,6,0,P|278:335|361:322,2,166.5
0,332,176838,6,0,P|13:280|77:256,1,111,2|0,3:2|0:0,0:0:0:0:
25,183,177283,2,0,P|76:169|129:213,1,111,8|0,2:0|0:0,0:0:0:0:
197,351,177727,6,0,P|278:335|361:322,2,166.5
13,133,178616,5,2,3:2:0:0:
22,145,178727,1,0,0:0:0:0:
27,158,178838,1,0,0:0:0:0:
29,174,178950,1,0,0:0:0:0:
25,186,179061,1,8,2:0:0:0:
195,257,179283,1,0,0:0:0:0:
270,206,179505,5,0,0:0:0:0:
270,206,179616,2,0,L|283:146,1,55.5000000000002,10|0,2:0|0:0,0:0:0:0:
343,22,179838,5,10,3:0:0:0:
368,105,179950,1,10,2:0:0:0:
343,22,180061,1,10,2:0:0:0:
368,105,180172,1,12,2:1:0:0:
512,332,180394,6,0,P|498:280|434:256,1,111,2|0,3:2|0:0,0:0:0:0:
487,183,180838,2,0,P|436:169|383:213,1,111,10|0,2:0|0:0,0:0:0:0:
315,351,181283,6,0,P|233:335|150:322,2,166.500000000001
512,332,182172,6,0,P|498:280|434:256,1,111,2|0,3:2|0:0,0:0:0:0:
487,183,182616,2,0,P|436:169|383:213,1,111,10|0,2:0|0:0,0:0:0:0:
315,351,183061,6,0,P|233:335|150:322,2,166.500000000001
512,332,183950,6,0,P|498:280|434:256,1,111,2|0,3:2|0:0,0:0:0:0:
487,183,184394,2,0,P|436:169|383:213,1,111,10|0,2:0|0:0,0:0:0:0:
315,351,184838,1,0,0:0:0:0:
250,250,185061,5,10,2:0:0:0:
250,250,185283,5,8,2:1:0:0:
291,146,185394,1,10,2:0:0:0:
250,250,185505,1,10,2:0:0:0:
67,35,185727,5,2,2:0:0:0:
146,62,185950,1,2,2:0:0:0:
144,145,186172,1,2,2:0:0:0:
64,168,186394,1,2,2:0:0:0:
17,99,186616,1,2,2:0:0:0:
446,76,186950,6,0,B|424:24|424:24|438:87,1,111,2|10,2:0|2:0,0:0:0:0:
512,131,187394,1,10,2:0:0:0:
343,138,187505,6,0,P|388:147|430:165,1,92.5,6|0,2:0|0:0,0:0:0:0:
503,220,187727,2,0,P|414:225|372:303,1,185,0|0,2:0|2:0,0:0:0:0:
269,348,188061,1,0,0:0:0:0:
262,361,188172,2,0,P|246:317|227:275,1,92.5,0|0,2:0|2:0,0:0:0:0:
133,223,188394,2,0,P|117:266|98:308,1,92.5,0|0,2:0|0:0,0:0:0:0:
257,172,188616,6,0,P|300:156|342:137,1,92.5,10|0,1:2|2:0,0:0:0:0:
163,31,188838,2,0,P|205:50|248:65,1,92.5,0|0,2:0|0:0,0:0:0:0:
65,159,189061,2,0,P|107:139|150:124,1,92.5,10|0,1:2|2:0,0:0:0:0:
345,4,189283,6,0,P|432:3|468:83,1,185,2|10,2:0|1:2,0:0:0:0:
336,232,189616,1,2,2:0:0:0:
257,172,189727,2,0,P|300:156|342:137,1,92.5,2|0,2:0|0:0,0:0:0:0:
510,230,189950,2,0,P|467:210|424:195,1,92.5,10|0,1:2|2:0,0:0:0:0:
242,272,190172,6,0,P|306:331|408:293,2,185,0|10|0,3:0|1:2|3:0,0:0:0:0:
161,146,190727,1,10,2:0:0:0:
92,201,190838,2,0,P|51:216|-2:232,1,92.5,2|0,3:2|2:0,0:0:0:0:
212,359,191061,6,0,P|225:314|241:271,1,92.5,6|0,2:0|0:0,0:0:0:0:
319,105,191283,2,0,P|386:73|483:148,2,185,0|0|0,2:0|2:0|2:0,0:0:0:0:
411,238,191838,1,0,2:0:0:0:
421,248,191950,2,0,P|407:203|391:160,1,92.5,0|0,2:0|0:0,0:0:0:0:
256,37,192172,5,10,1:2:0:0:
196,111,192283,1,0,2:0:0:0:
81,0,192394,2,0,P|123:19|167:33,1,92.5,0|0,3:0|0:0,0:0:0:0:
272,176,192616,2,0,P|228:190|185:209,1,92.5,10|0,1:2|2:0,0:0:0:0:
20,157,192838,6,0,P|12:103|60:70,1,92.5,2|0,2:0|0:0,0:0:0:0:
103,186,193061,1,10,1:2:0:0:
0,242,193172,2,0,P|43:256|85:276,1,92.5,2|2,2:0|2:0,0:0:0:0:
283,384,193394,1,0,0:0:0:0:
331,266,193505,2,0,P|247:306|160:336,1,185,10|10,1:2|3:2,0:0:0:0:
160,336,193950,5,10,2:0:0:0:
202,244,194061,1,10,2:0:0:0:
140,175,194172,1,2,3:2:0:0:
197,105,194283,1,10,2:0:0:0:
115,78,194394,2,0,P|72:97|28:111,1,92.5,0|0,1:0|2:0,0:0:0:0:
279,132,194616,6,0,P|323:146|365:165,1,92.5,6|0,2:0|0:0,0:0:0:0:
438,360,194838,6,0,P|443:314|419:276,1,92.5,10|0,2:0|1:0,0:0:0:0:
484,219,195061,2,0,P|442:236|420:276,1,92.5,2|0,3:2|0:0,0:0:0:0:
340,251,195283,2,0,P|376:278|421:277,1,92.5,10|0,1:2|1:0,0:0:0:0:
272,45,195505,6,0,P|225:63|196:104,1,101.75,2|0,3:2|0:0,0:0:0:0:
121,222,195727,2,0,P|129:172|108:127,1,101.75,10|0,1:2|1:0,0:0:0:0:
44,1,195950,2,0,P|82:32|132:37,1,101.75,2|0,3:2|0:0,0:0:0:0:
280,136,196172,6,0,P|324:123|369:113,1,92.5,10|0,1:2|1:0,0:0:0:0:
76,300,196394,6,0,P|39:265|37:205,1,111,2|0,3:2|0:0,0:0:0:0:
166,299,196616,2,0,P|154:348|103:380,1,111,10|0,1:2|1:2,0:0:0:0:
121,222,196838,2,0,P|169:207|222:235,1,111,2|0,3:2|0:0,0:0:0:0:
397,287,197061,6,0,B|378:359|434:387|434:387|404:262|457:173,1,333,10|0,1:2|0:0,0:0:0:0:
512,92,197505,6,0,P|422:86|357:145,1,152.625,10|0,2:0|0:0,0:0:0:0:
423,0,197727,2,0,P|379:52|374:121,1,138.75,0|0,3:0|0:0,0:0:0:0:
306,23,197950,2,0,P|330:86|386:125,1,124.875,0|0,1:0|0:0,0:0:0:0:
455,177,198172,6,0,B|380:139|327:178|327:178|326:224|277:246,1,203.5,6|8,2:0|1:2,0:0:0:0:
185,69,198505,1,0,2:0:0:0:
84,134,198616,6,0,P|166:148|246:169,1,166.5,2|8,3:2|1:2,0:0:0:0:
247,170,198950,1,0,2:0:0:0:
512,270,199061,6,0,P|420:285|330:309,1,185,2|8,3:2|1:2,0:0:0:0:
335,310,199394,1,0,2:0:0:0:
283,381,199505,6,0,L|301:85,1,296,2|10,3:2|1:2,0:0:0:0:
301,85,199838,1,0,2:0:0:0:
462,11,199950,6,0,L|475:78,1,64.75,0|0,3:0|2:0,0:0:0:0:
483,174,200838,5,10,3:1:0:0:
401,143,200950,1,10,2:1:0:0:
339,203,201061,1,10,2:0:0:0:
259,160,201172,5,10,2:0:0:0:
215,229,201283,1,0,3:0:0:0:
268,150,201394,1,10,2:0:0:0:
295,297,201505,6,0,P|231:310|214:236,1,148,0|6,0:0|2:0,0:0:0:0:
171,153,201950,6,0,P|168:107|155:63,1,92.5
0,51,202450,5,0,2:0:0:0:
0,51,202505,2,0,P|69:54|135:74,1,138.75,2|2,2:0|2:0,0:0:0:0:
171,153,203061,2,0,P|217:150|262:136,1,92.5,2|2,2:0|2:0,0:0:0:0:
342,81,203450,5,0,0:0:0:0:
340,96,203505,1,2,2:0:0:0:
340,230,203727,6,0,L|330:175,1,46.25,2|0,2:0|0:0,0:0:0:0:
419,213,203950,2,0,L|409:158,1,46.25,2|0,2:0|0:0,0:0:0:0:
394,290,204283,5,2,2:0:0:0:
463,96,204505,1,2,2:0:0:0:
340,230,204727,2,0,P|350:212|375:213,1,46.25,0|2,0:0|2:0,0:0:0:0:
485,324,205172,6,0,L|461:323,1,23.125,2|2,2:0|2:0,0:0:0:0:
493,332,205283,2,0,P|425:336|358:357,1,138.75,2|0,2:0|0:0,0:0:0:0:
292,301,205727,2,0,P|232:286|253:228,1,138.75,2|2,2:0|2:0,0:0:0:0:
253,228,206172,1,0,0:0:0:0:
240,152,206394,6,0,L|222:53,2,92.5,2|2|2,2:0|2:0|2:0,0:0:0:0:
46,30,207061,1,2,2:0:0:0:
73,104,207394,1,2,2:0:0:0:
125,43,207727,1,2,2:0:0:0:
240,152,207950,2,0,P|194:154|149:168,2,92.5,2|2|2,2:0|2:0|2:0,0:0:0:0:
321,189,208616,5,2,2:0:0:0:
395,192,208727,1,0,0:0:0:0:
449,136,208838,1,2,2:0:0:0:
327,9,209283,6,0,L|309:108,1,92.5,2|0,2:0|0:0,0:0:0:0:
319,179,209616,1,0,0:0:0:0:
321,189,209727,1,0,0:0:0:0:
250,318,209950,6,0,P|259:274|305:271,2,92.5,2|2|2,2:0|2:0|2:0,0:0:0:0:
425,364,210616,1,2,2:0:0:0:
218,164,210838,5,2,2:0:0:0:
218,164,211061,2,0,P|217:186|241:193,1,46.25,2|0,2:0|0:0,0:0:0:0:
250,318,211394,2,0,P|204:320|159:334,1,92.5,2|0,2:0|0:0,0:0:0:0:
90,366,211727,5,2,2:0:0:0:
55,243,211950,1,2,2:0:0:0:
92,102,212172,1,2,2:0:0:0:
61,26,212394,5,2,2:0:0:0:
61,26,213283,1,2,2:0:0:0:
61,26,215061,1,2,2:0:0:0:
10,184,215394,5,8,2:1:0:0:
15,189,215450,1,8,2:1:0:0:
20,194,215505,2,0,P|58:184|108:177,1,74,8|8,2:0|2:1,0:0:0:0:
116,97,215727,1,8,2:0:0:0:
174,159,215838,1,8,2:1:0:0:
169,33,215950,6,0,P|147:135|149:239,1,208.125,4|0,3:2|0:0,0:0:0:0:
163,316,216172,2,0,P|98:301|72:249,1,111,10|0,2:0|0:0,0:0:0:0:
232,367,216394,2,0,P|286:343|350:326,1,124.874996189118,0|0,3:2|0:0,0:0:0:0:
356,336,216616,1,8,2:0:0:0:
372,250,216727,2,0,B|398:176|347:127|250:121|261:224|314:224,1,231.25,2|0,2:0|0:0,0:0:0:0:
30,372,217061,6,0,P|91:345|163:326,1,138.75,10|0,2:1|1:2,0:0:0:0:
416,360,217283,2,0,P|404:297|279:298,1,208.125,0|0,3:2|0:0,0:0:0:0:
232,367,217505,1,8,3:1:0:0:
512,33,217727,6,0,P|472:129|456:231,1,208.125,2|0,3:1|0:0,0:0:0:0:
467,250,217950,1,8,2:0:0:0:
483,177,218061,1,0,2:0:0:0:
442,116,218172,1,2,3:2:0:0:
370,76,218283,2,0,P|333:51|338:6,1,92.5,2|0,2:0|2:0,0:0:0:0:
203,153,218505,6,0,P|127:185|39:194,1,166.5,2|0,2:0|0:0,0:0:0:0:
32,193,218727,2,0,P|13:158|45:173,1,92.5,2|10,2:0|2:1,0:0:0:0:
102,102,218950,1,0,2:0:0:0:
92,92,219061,2,0,P|107:48|116:3,1,92.5,0|10,3:2|2:1,0:0:0:0:
141,20,219283,2,0,P|187:18|232:11,1,92.5,10|0,2:0|2:0,0:0:0:0:
115,306,219505,6,0,P|218:323|312:365,1,208.125,4|0,3:2|0:0,0:0:0:0:
322,372,219727,2,0,P|341:325|310:357,1,138.750005292893,8|0,2:0|0:0,0:0:0:0:
297,192,219950,6,0,P|350:192|367:137,1,111,0|0,3:2|0:0,0:0:0:0:
500,127,220172,1,8,2:0:0:0:
487,0,220283,2,0,P|459:106|465:217,1,222,0|0,2:0|0:0,0:0:0:0:
445,294,220616,2,0,P|467:321|504:310,1,69.375,8|0,2:0|0:0,0:0:0:0:
297,192,220838,6,0,B|254:134|254:134|265:197,1,124.874996189118,0|0,3:2|0:0,0:0:0:0:
379,59,221061,1,8,2:0:0:0:
123,145,221283,5,10,3:1:0:0:
148,136,221394,1,0,2:0:0:0:
172,128,221505,1,8,2:0:0:0:
63,93,221616,5,8,2:1:0:0:
35,84,221727,1,0,3:2:0:0:
7,74,221838,1,0,2:0:0:0:
137,50,221950,5,14,2:0:0:0:
171,38,222061,1,8,2:1:0:0:
205,27,222172,1,0,3:2:0:0:
379,59,222283,5,14,2:0:0:0:
338,72,222394,1,8,2:0:0:0:
298,87,222505,1,0,3:2:0:0:
253,156,222616,5,8,3:0:0:0:
285,0,222727,1,0,3:0:0:0:
259,166,222838,5,8,2:0:0:0:
291,10,222950,1,8,2:0:0:0:
455,21,223061,6,0,P|451:104|379:144,1,173.4375,4|0,3:2|0:0,0:0:0:0:
371,159,223283,6,0,P|416:160|444:193,1,83.2499999999998,8|0,2:0|0:0,0:0:0:0:
316,266,223505,6,0,P|268:278|214:289,1,92.5,0|0,3:2|0:0,0:0:0:0:
221,306,223727,1,8,2:0:0:0:
18,307,223838,2,0,B|38:290|38:290|142:308|142:308|146:368|198:382,1,231.25,0|0,1:2|0:0,0:0:0:0:
393,285,224172,2,0,P|403:260|374:184,1,120.25,10|0,2:1|1:2,0:0:0:0:
322,248,224394,6,0,P|220:272|118:291,1,208.125,2|0,3:2|0:0,0:0:0:0:
1,381,224616,2,0,P|29:368|28:320,1,83.2499999999998,10|0,3:2|0:0,0:0:0:0:
71,79,224838,6,0,B|95:31|173:24|173:24|59:87|51:218,1,360.75,2|0,3:1|0:0,0:0:0:0:
221,306,225283,1,0,3:2:0:0:
196,380,225394,2,0,P|263:373|297:315,1,138.75,8|0,2:0|0:0,0:0:0:0:
206,108,225727,6,0,B|173:125|162:146|162:146|223:102|316:106,1,208.125,2|0,3:1|0:0,0:0:0:0:
311,119,225950,1,8,2:1:0:0:
499,11,226172,5,0,3:2:0:0:
439,68,226283,1,8,2:1:0:0:
429,143,226394,2,0,P|457:125|452:66,1,92.5,8|8,2:0|2:1,0:0:0:0:
462,269,226616,6,0,P|438:130|398:-2,1,277.5,4|0,3:2|2:0,0:0:0:0:
122,100,227061,1,0,2:0:0:0:
155,176,227172,1,0,0:0:0:0:
206,108,227283,2,0,P|180:100|152:154,1,92.5,8|0,2:0|0:0,0:0:0:0:
13,242,227505,6,0,B|111:259|66:318|165:336,2,185,2|0|0,3:1|2:0|3:0,0:0:0:0:
15,331,228172,5,8,2:0:0:0:
15,331,228283,1,0,1:0:0:0:
165,336,228394,6,0,P|166:218|205:108,1,235.875,14|0,2:1|0:0,0:0:0:0:
214,123,228616,1,0,2:0:0:0:
131,53,228727,6,0,P|263:34|283:165,1,289.0625,10|0,2:1|0:0,0:0:0:0:
147,205,229061,5,10,2:1:0:0:
224,225,229172,1,8,2:0:0:0:
136,219,229283,5,6,2:1:0:0:
228,243,229394,1,8,2:0:0:0:
397,201,229505,5,0,1:2:0:0:
305,177,229616,1,8,2:0:0:0:
329,306,229727,5,2,2:0:0:0:
329,306,229838,1,2,2:0:0:0:
408,330,229950,1,2,2:0:0:0:
413,315,230005,1,2,2:0:0:0:
410,299,230061,1,2,2:0:0:0:
283,384,230172,6,0,L|326:136,1,235.875,4|0,3:2|0:0,0:0:0:0:
427,14,230394,2,0,P|472:16|479:61,1,97.1249999999999,10|0,2:0|0:0,0:0:0:0:
406,91,230616,2,0,P|356:77|269:68,1,138.75,0|0,3:2|0:0,0:0:0:0:
73,15,230838,1,8,2:0:0:0:
197,115,230950,6,0,P|99:122|69:31,1,208.125,2|0,2:0|0:0,0:0:0:0:
283,82,231283,2,0,P|338:87|392:102,1,111,10|0,2:1|1:2,0:0:0:0:
250,304,231505,6,0,P|312:242|399:250,1,180.375,0|0,3:2|0:0,0:0:0:0:
407,260,231727,2,0,P|400:300|364:279,1,97.1249999999999,8|0,3:1|0:0,0:0:0:0:
144,52,231950,6,0,P|170:153|180:257,1,208.125,2|0,3:1|0:0,0:0:0:0:
174,342,232172,1,8,2:0:0:0:
170,354,232283,1,0,2:0:0:0:
10,275,232394,5,2,3:2:0:0:
10,275,232505,2,0,L|111:292,1,92.5,2|0,2:0|2:0,0:0:0:0:
299,185,232727,2,0,L|197:202,1,92.5,2|0,2:0|3:0,0:0:0:0:
73,15,232950,6,0,P|68:68|145:49,1,138.75,0|10,2:0|2:1,0:0:0:0:
230,94,233172,5,0,2:0:0:0:
201,218,233283,1,0,3:2:0:0:
280,295,233394,1,10,2:1:0:0:
280,295,233505,2,0,L|353:308,1,64.7499999999999,10|0,2:0|2:0,0:0:0:0:
441,331,233727,6,0,P|452:209|486:96,1,241.425,4|0,3:2|0:0,0:0:0:0:
494,17,233950,2,0,P|459:19|432:39,1,69.375,8|0,2:0|0:0,0:0:0:0:
88,332,234172,6,0,B|225:308|163:225|300:201,1,259,2|8,3:2|2:0,0:0:0:0:
279,40,234505,2,0,B|387:59|339:124|447:143,1,203.5,0|0,2:0|0:0,0:0:0:0:
432,39,234838,6,0,P|469:28|454:64,1,97.1249999999999,8|0,2:0|0:0,0:0:0:0:
446,142,235061,2,0,P|456:186|464:231,1,92.5,0|0,3:2|0:0,0:0:0:0:
377,218,235283,1,10,2:0:0:0:
380,231,235394,1,0,2:0:0:0:
282,338,235505,5,10,3:1:0:0:
287,306,235616,1,0,2:0:0:0:
279,353,235727,1,8,2:0:0:0:
205,318,235838,5,8,2:1:0:0:
214,263,235950,1,0,3:2:0:0:
202,333,236061,1,0,0:0:0:0:
127,284,236172,5,8,2:0:0:0:
89,195,236283,1,8,2:1:0:0:
114,366,236394,1,0,3:2:0:0:
108,377,236505,6,0,L|201:360,2,92.5,8|12|0,2:0|2:0|3:2,0:0:0:0:
83,210,236838,5,2,3:1:0:0:
48,317,236950,1,0,3:0:0:0:
215,170,237061,6,0,L|162:179,1,46.25,8|8,2:0|2:1,0:0:0:0:
72,198,237172,1,8,2:0:0:0:
0,42,237283,6,0,P|111:37|114:123,1,208.125,6|0,3:2|0:0,0:0:0:0:
284,212,237505,2,0,P|233:219|224:184,1,92.5,8|0,2:0|0:0,0:0:0:0:
260,32,237727,5,2,3:2:0:0:
338,40,237838,2,0,P|382:48|427:61,1,92.5,0|10,2:0|2:0,0:0:0:0:
399,157,238061,5,2,1:2:0:0:
320,143,238172,2,0,B|354:159|361:196|361:196|354:159|380:132,1,138.75,0|0,3:0|0:0,0:0:0:0:
420,342,238394,6,0,P|457:328|498:318,1,83.2499999999998,10|0,2:0|0:0,0:0:0:0:
284,212,238616,6,0,P|226:191|164:176,1,124.875,0|0,3:2|0:0,0:0:0:0:
504,89,238838,6,0,P|507:41|482:0,1,92.5,8|2,3:2|3:2,0:0:0:0:
320,303,239061,6,0,B|300:321|311:361|311:361|342:262|450:248,1,235.875,2|0,3:1|0:0,0:0:0:0:
427,61,239283,2,0,P|376:50|372:100,1,92.5,8|0,2:0|0:0,0:0:0:0:
103,155,239505,5,0,3:2:0:0:
177,184,239616,2,0,P|220:199|267:211,1,92.9624999999998,0|0,2:0|0:0,0:0:0:0:
399,157,239838,5,0,2:0:0:0:
420,342,239950,2,0,B|454:325|467:275|467:275|454:325|478:361,1,166.499994918823,2|0,3:1|0:0,0:0:0:0:
112,236,240172,6,0,P|92:278|77:322,1,92.5,8|0,2:1|2:0,0:0:0:0:
103,155,240394,2,0,P|114:109|159:117,1,92.5,0|8,3:2|2:1,0:0:0:0:
177,184,240616,1,8,2:0:0:0:
37,204,240727,1,0,2:1:0:0:
372,272,240838,6,0,B|276:288|276:288|250:326|250:326|190:309|154:343,1,240.5,4|0,3:2|2:0,0:0:0:0:
159,353,241172,2,0,P|192:333|233:335,1,92.5,0|0,0:0|2:0,0:0:0:0:
265,210,241394,6,0,P|263:184|277:162,1,46.25
276,203,241505,2,0,P|287:179|310:167,1,46.25,2|0,2:0|0:0,0:0:0:0:
290,203,241616,2,0,P|311:188|337:189,1,46.25
372,272,241727,6,0,P|376:185|401:102,1,173.4375,2|0,3:2|0:0,0:0:0:0:
453,261,241950,5,8,2:0:0:0:
453,261,242061,2,0,P|456:200|473:142,2,120.25,0|0|0,0:0|2:0|0:0,0:0:0:0:
401,102,242394,5,8,2:0:0:0:
422,335,242505,1,0,1:0:0:0:
294,312,242616,6,0,P|362:325|429:350,1,138.75,14|0,2:1|0:0,0:0:0:0:
504,322,242838,1,8,2:1:0:0:
477,168,242950,6,0,P|402:176|329:187,1,148,10|0,2:1|0:0,0:0:0:0:
330,187,243172,1,0,0:0:0:0:
280,126,243283,6,0,P|205:117|132:106,1,148,0|8,3:0|2:0,0:0:0:0:
48,141,243505,5,0,3:0:0:0:
28,66,243616,1,8,2:0:0:0:
60,152,243727,5,0,3:0:0:0:
96,24,243838,1,8,2:0:0:0:
20,233,243950,5,2,2:0:0:0:
25,237,244005,1,0,0:0:0:0:
31,239,244061,1,2,2:0:0:0:
37,236,244116,1,0,0:0:0:0:
38,231,244172,2,0,L|46:279,2,46.25,2|2|2,2:0|2:0|2:0,0:0:0:0:
158,242,244394,6,0,P|240:206|249:167,1,111,6|0,3:2|0:0,0:0:0:0:
480,232,244616,2,0,L|361:211,1,120.25,8|0,2:0|0:0,0:0:0:0:
402,58,244838,5,0,3:0:0:0:
348,130,244950,1,0,0:0:0:0:
438,142,245061,2,0,B|491:152|491:152|444:127,1,83.2499999999998,8|0,2:0|0:0,0:0:0:0:
275,363,245283,6,0,P|255:279|246:193,1,173.4375,0|0,3:0|0:0,0:0:0:0:
127,346,245505,6,0,P|135:298|151:253,1,92.5,8|0,2:0|0:0,0:0:0:0:
261,210,245727,5,4,3:2:0:0:
232,289,245838,1,0,2:1:0:0:
158,270,245950,2,0,P|98:282|61:291,1,92.5,8|0,2:0|2:1,0:0:0:0:
377,351,246172,6,0,P|398:317|379:261,1,92.4999999999999,14|0,2:0|0:0,0:0:0:0:
386,268,246320,2,0,P|404:303|462:314,1,92.4999999999999,10|0,2:0|0:0,0:0:0:0:
454,319,246468,2,0,P|414:317|375:362,1,92.4999999999999,10|0,2:0|0:0,0:0:0:0:
91,131,246616,6,0,P|70:97|89:41,1,92.4999999999999,10|0,2:0|0:0,0:0:0:0:
159,80,246764,2,0,P|141:115|83:126,1,92.4999999999999,10|0,2:0|0:0,0:0:0:0:
82,48,246912,2,0,P|122:46|161:91,1,92.4999999999999,10|0,2:0|0:0,0:0:0:0:
256,192,247061,21,10,3:0:0:0:
256,192,247283,5,0,0:0:0:0:
256,192,247505,2,0,L|256:135,1,55.5
305,48,247950,6,0,B|384:28|425:90|425:90|412:131|444:171,1,208.125,4|0,3:0|0:0,0:0:0:0:
508,54,248172,2,0,P|460:57|424:89,1,97.1249999999999,10|0,2:0|0:0,0:0:0:0:
477,312,248394,5,0,3:2:0:0:
512,215,248505,2,0,P|459:231|404:243,1,111,2|10,2:0|2:0,0:0:0:0:
296,374,248727,6,0,B|285:331|285:331|289:325|289:325|275:272,1,92.5,2|0,2:0|2:0,0:0:0:0:
250,200,248950,5,2,2:0:0:0:
126,324,249061,1,8,2:0:0:0:
126,324,249172,1,2,2:0:0:0:
83,244,249283,5,8,3:2:0:0:
126,171,249394,1,0,0:0:0:0:
60,108,249505,2,0,P|47:55|29:1,1,111,8|0,2:0|0:0,0:0:0:0:
29,191,249727,6,0,B|81:206|81:206|125:170,1,111,2|0,3:2|0:0,0:0:0:0:
241,104,249950,2,0,B|345:114|281:179|391:199,1,185,10|8,2:0|3:2,0:0:0:0:
424,92,250283,6,0,B|425:49|425:49|393:118,1,111,2|10,2:0|2:0,0:0:0:0:
473,259,250505,2,0,P|417:275|363:295,1,115.625,2|0,2:0|3:0,0:0:0:0:
182,274,250727,1,0,0:0:0:0:
246,206,250838,2,0,P|261:249|274:294,1,92.5,2|0,2:1|0:0,0:0:0:0:
115,358,251061,5,0,3:0:0:0:
60,293,251172,1,2,2:1:0:0:
95,212,251283,2,0,P|106:157|113:102,1,111,2|0,3:2|0:0,0:0:0:0:
4,86,251505,6,0,P|106:70|207:43,1,208.125,6|0,3:1|0:0,0:0:0:0:
268,0,251727,2,0,P|303:30|278:65,1,92.5,10|0,2:0|0:0,0:0:0:0:
243,216,251950,5,0,3:2:0:0:
214,131,252061,2,0,P|259:139|303:151,1,92.5,2|10,2:0|2:0,0:0:0:0:
458,174,252283,2,0,P|476:131|499:91,1,92.5,2|0,2:0|3:0,0:0:0:0:
367,229,252505,5,2,2:0:0:0:
376,245,252616,1,10,2:0:0:0:
392,254,252727,1,2,2:0:0:0:
457,319,252838,5,10,3:2:0:0:
383,342,252950,1,0,0:0:0:0:
317,302,253061,1,8,2:0:0:0:
317,302,253283,6,0,B|246:277|209:321|209:321|209:362|166:388,1,194.25,2|0,3:1|0:0,0:0:0:0:
113,317,253505,2,0,B|91:276|91:276|131:323,1,92.5,10|0,2:0|0:0,0:0:0:0:
311,205,253727,6,0,B|313:78|397:159|399:-4,1,208.125,2|0,3:1|0:0,0:0:0:0:
347,82,253950,2,0,L|363:149,1,69.3750000000002,10|0,2:0|0:0,0:0:0:0:
211,138,254172,6,0,B|197:146|197:146|86:118|86:118|85:76|28:41,1,208.125,2|0,2:1|0:0,0:0:0:0:
0,129,254394,1,8,2:0:0:0:
12,231,254505,2,0,L|135:211,1,124.875,10|0,2:0|0:0,0:0:0:0:
147,218,254727,1,10,2:0:0:0:
249,359,254838,2,0,L|234:267,1,92.5,4|0,2:1|0:0,0:0:0:0:
347,82,255061,6,0,P|437:74|478:220,1,242.8125,4|0,3:0|0:0,0:0:0:0:
292,148,255283,2,0,B|259:120|259:120|260:57,1,92.5,10|0,2:0|0:0,0:0:0:0:
378,240,255505,5,2,3:2:0:0:
337,314,255616,1,2,2:0:0:0:
459,318,255727,2,0,P|348:283|234:267,1,231.25,10|0,2:0|3:0,0:0:0:0:
153,318,256061,5,2,2:0:0:0:
128,268,256172,1,10,2:0:0:0:
147,218,256283,1,2,2:0:0:0:
203,141,256394,5,10,3:2:0:0:
141,82,256505,1,0,0:0:0:0:
198,11,256616,2,0,P|253:26|340:42,1,124.875,8|0,2:0|0:0,0:0:0:0:
405,18,256838,6,0,P|433:70|380:89,1,120.25,2|0,3:2|0:0,0:0:0:0:
285,159,257061,2,0,P|374:182|458:220,1,185,10|8,2:0|3:2,0:0:0:0:
217,258,257394,6,0,P|194:235|229:247,1,92.5,2|8,2:0|2:0,0:0:0:0:
307,319,257616,2,0,P|262:332|220:351,1,92.5,2|0,2:0|3:0,0:0:0:0:
38,273,257838,5,0,0:0:0:0:
116,381,257950,2,0,B|145:334|119:268|84:300|53:239|93:180,1,208.125,2|0,2:1|0:0,0:0:0:0:
101,180,258172,5,0,3:0:0:0:
200,116,258283,1,2,2:1:0:0:
108,54,258394,2,0,B|63:68|18:78,1,92.9624999999998,2|0,2:0|0:0,0:0:0:0:
0,66,258616,6,0,P|102:80|200:116,1,208.125,6|0,3:2|0:0,0:0:0:0:
245,187,258838,2,0,P|282:163|284:118,1,92.5,10|0,2:0|0:0,0:0:0:0:
163,255,259061,1,0,3:0:0:0:
233,305,259172,2,0,P|276:289|321:279,1,92.5,2|10,2:0|2:0,0:0:0:0:
452,330,259394,2,0,P|439:286|430:241,1,92.5,2|0,2:0|3:0,0:0:0:0:
398,75,259616,5,2,2:0:0:0:
366,162,259727,1,10,2:0:0:0:
449,146,259838,1,2,3:2:0:0:
386,48,259950,5,2,3:2:0:0:
349,185,260061,1,8,2:1:0:0:
476,151,260172,1,8,2:0:0:0:
318,331,260394,6,0,P|260:306|227:237,1,138.75,2|0,3:2|0:0,0:0:0:0:
224,228,260616,2,0,P|249:265|235:307,1,92.5,2|0,2:0|0:0,0:0:0:0:
118,273,260838,6,0,P|111:211|154:148,1,124.875,2|0,3:2|0:0,0:0:0:0:
153,145,261061,2,0,P|133:185|90:194,1,83.2500000000001,2|0,2:0|0:0,0:0:0:0:
33,85,261283,6,0,P|107:29|218:38,1,208.125,2|0,3:2|0:0,0:0:0:0:
236,54,261616,1,2,3:2:0:0:
301,135,261727,1,0,3:0:0:0:
461,55,261838,1,8,2:1:0:0:
461,55,261894,1,8,2:1:0:0:
461,55,261950,1,8,2:0:0:0:
512,128,262116,1,0,0:0:0:0:
512,128,262172,2,0,L|502:328,1,185,0|14,0:0|3:0,0:0:0:0:
256,192,262672,12,0,276616,0:0:0:0:
