osu file format v14

[General]
AudioFilename: audio.mp3
AudioLeadIn: 0
PreviewTime: 170403
Countdown: 0
SampleSet: Soft
StackLeniency: 0.7
Mode: 0
LetterboxInBreaks: 0
WidescreenStoryboard: 1

[Editor]
Bookmarks: 1576,4886,18127,31369,44610,51231,57852,64472,71093,74403,81024,87645,100886,107507,114127,120748,127369,130679,143921,157162,170403,172058,178679,185300,191921,198541
DistanceSpacing: 0.8
BeatDivisor: 4
GridSize: 4
TimelineZoom: 2.999999

[Metadata]
Title:Joker Parade
TitleUnicode:ジョーカー・パレード
Artist:Aitsuki Nakuru & Kabocha
ArtistUnicode:藍月なくる & かぼちゃ
Creator:Some Hero
Version:Insane
Source:
Tags:Nacollection!!2 Gibune Japanese Pop jpop j-pop featured artist fa mappers' guild mpg
BeatmapID:2993045
BeatmapSetID:1456196

[Difficulty]
HPDrainRate:6
CircleSize:4
OverallDifficulty:8
ApproachRate:9
SliderMultiplier:2
SliderTickRate:1

[Events]
//Background and Video events
0,0,"mpg bg.jpg",0,0
//Break Periods
//Storyboard Layer 0 (Background)
//Storyboard Layer 1 (Fail)
//Storyboard Layer 2 (Pass)
//Storyboard Layer 3 (Foreground)
//Storyboard Layer 4 (Overlay)
//Storyboard Sound Samples

[TimingPoints]
-79,413.793103448276,4,2,1,60,1,0
1576,-86.9565217391304,4,2,2,75,0,1
4058,-166.666666666667,4,2,3,60,0,0
4886,-76.9230769230769,4,2,1,75,0,0
5196,-76.9230769230769,4,2,1,50,0,0
8714,-76.9230769230769,4,2,3,50,0,0
8817,-76.9230769230769,4,2,1,50,0,0
31369,-86.9565217391304,4,2,2,50,0,0
41300,-100,4,2,2,50,0,0
41714,-133.333333333333,4,2,2,50,0,0
42127,-80,4,2,2,50,0,0
42541,-100,4,2,2,50,0,0
44610,-76.9230769230769,4,2,2,75,0,1
50817,-52.6315789473684,4,2,1,75,0,0
51231,-76.9230769230769,4,2,2,50,0,0
57438,-66.6666666666667,4,2,2,50,0,0
57852,-76.9230769230769,4,2,2,75,0,1
64058,-52.6315789473684,4,2,1,75,0,0
64472,-76.9230769230769,4,2,2,50,0,0
70679,-66.6666666666667,4,2,2,50,0,0
71093,-86.9565217391304,4,2,2,75,0,1
73576,-166.666666666667,4,2,3,60,0,0
74403,-76.9230769230769,4,2,1,75,0,0
74714,-76.9230769230769,4,2,1,50,0,0
87645,-86.9565217391304,4,2,2,50,0,0
97990,-133.333333333333,4,2,2,50,0,0
98403,-80,4,2,2,50,0,0
98817,-100,4,2,2,50,0,0
100886,-76.9230769230769,4,2,2,75,0,1
107093,-52.6315789473684,4,2,1,75,0,0
107507,-76.9230769230769,4,2,2,50,0,0
113714,-66.6666666666667,4,2,2,50,0,0
114127,-76.9230769230769,4,2,2,75,0,1
120334,-52.6315789473684,4,2,1,75,0,0
120748,-76.9230769230769,4,2,2,50,0,0
126955,-66.6666666666667,4,2,2,50,0,0
127369,-86.9565217391304,4,2,2,75,0,1
129852,-166.666666666667,4,2,3,60,0,0
130265,-100,4,2,3,60,0,0
130679,-76.9230769230769,4,2,1,75,0,0
130989,-76.9230769230769,4,2,1,50,0,0
142265,-76.9230769230769,4,2,1,40,0,0
143921,-55.5555555555556,4,2,2,60,0,0
144334,-55.5555555555556,4,2,2,60,0,1
146610,-133.333333333333,4,2,2,60,0,1
147438,-55.5555555555556,4,2,2,60,0,1
149921,-133.333333333333,4,2,2,60,0,1
150748,-55.5555555555556,4,2,2,60,0,1
153231,-133.333333333333,4,2,2,60,0,1
154058,-55.5555555555556,4,2,2,60,0,1
156334,-133.333333333333,4,2,2,60,0,1
156748,-80,4,2,2,60,0,0
157162,-86.9565217391304,4,2,2,50,0,0
169989,-100,4,2,2,50,0,0
172058,-76.9230769230769,4,2,2,75,0,1
172679,-76.9230769230769,4,2,2,75,0,0
172886,-76.9230769230769,4,2,3,75,0,0
173300,-76.9230769230769,4,2,2,75,0,1
178265,-52.6315789473684,4,2,1,75,0,0
178679,-76.9230769230769,4,2,2,50,0,0
184886,-66.6666666666667,4,2,2,50,0,0
185300,-76.9230769230769,4,2,2,75,0,1
191507,-52.6315789473684,4,2,1,75,0,0
191921,-76.9230769230769,4,2,2,50,0,0
198541,-86.9565217391304,4,2,2,75,0,1
201024,-86.9565217391304,4,2,3,60,0,1
201334,-86.9565217391304,4,2,1,50,0,1
201645,-133.333333333333,4,2,1,50,0,1
202679,-769.230769230769,4,2,1,60,0,0
202705,-769.230769230769,4,2,2,5,0,0
213438,-769.230769230769,4,2,1,25,0,0

[Colours]
Combo1 : 219,57,57
Combo2 : 83,158,181

[HitObjects]
373,118,1162,5,2,0:0:0:0:
362,164,1265,1,2,0:0:0:0:
377,207,1369,1,2,0:2:0:0:
416,233,1472,1,2,0:2:0:0:
463,240,1576,6,0,B|507:296|507:296|500:332|471:350,1,115.000002193451,6|0,1:2|0:0,0:0:0:0:
385,320,1886,2,0,B|352:301|311:325|328:361|258:350,1,115.000002193451,6|0,1:2|0:0,0:0:0:0:
281,351,2196,2,0,P|266:321|279:289,1,57.5000010967255,2|0,1:2|0:0,0:0:0:0:
136,126,2403,6,0,P|133:194|125:261,1,115.000002193451,6|0,1:2|0:0,0:0:0:0:
297,80,2714,2,0,B|330:61|371:85|351:112|394:132|424:110,1,115.000002193451,6|0,1:2|0:0,0:0:0:0:
396,118,3024,2,0,P|412:88|400:57,1,57.5000010967255,2|0,1:2|0:0,0:0:0:0:
190,15,3231,6,0,B|163:-6|121:-2|121:-2|96:24|62:20,1,115.000002193451,6|0,1:2|0:0,0:0:0:0:
141,130,3541,2,0,B|122:163|146:204|173:184|193:227|171:257,1,115.000002193451,6|0,1:2|0:0,0:0:0:0:
179,229,3852,2,0,P|149:245|118:233,1,57.5000010967255,2|0,1:2|0:0,0:0:0:0:
28,208,4058,6,0,B|22:235|22:235|24:245|24:245|19:274,2,59.9999981689454,2|2|2,1:3|0:3|0:2,0:0:0:0:
413,60,4886,6,0,B|445:93|445:93|442:94|442:94|465:120|465:120|490:188|438:227|394:222,1,194.999991073609,4|8,1:1|0:2,0:0:0:0:
341,264,5300,2,0,B|345:227|345:227|343:222|343:222|347:187,1,64.9999970245363,2|0,0:2|3:2,0:0:0:0:
251,130,5507,2,0,B|255:166|255:166|253:171|253:171|257:206,1,64.9999970245363,2|0,0:3|0:0,0:0:0:0:
168,253,5714,1,0,3:2:0:0:
168,253,5817,2,0,P|155:216|122:196,2,64.9999970245363,10|0|0,0:2|3:2|3:2,0:0:0:0:
53,262,6127,2,0,P|63:298|97:317,1,64.9999970245363,2|0,1:3|3:2,0:0:0:0:
271,356,6334,5,10,0:2:0:0:
271,356,6438,1,0,3:2:0:0:
271,356,6541,2,0,L|250:280,1,64.9999970245363,2|0,1:2|3:2,0:0:0:0:
255,194,6748,2,0,L|330:213,1,64.9999970245363,2|0,0:3|3:2,0:0:0:0:
396,268,6955,2,0,L|341:323,1,64.9999970245363,10|0,0:2|0:0,0:0:0:0:
502,276,7162,5,0,3:2:0:0:
502,276,7265,2,0,P|500:237|469:205,1,64.9999970245363,10|0,0:2|0:0,0:0:0:0:
386,117,7472,2,0,P|387:156|412:185,2,64.9999970245363,10|2|0,0:2|3:2|3:2,0:0:0:0:
287,130,7783,1,10,0:2:0:0:
248,169,7886,1,2,0:3:0:0:
193,177,7989,1,10,0:2:0:0:
145,154,8093,1,0,3:2:0:0:
116,114,8196,6,0,P|126:41|196:19,1,129.999994049073,6|0,1:2|0:0,0:0:0:0:
82,208,8507,2,0,P|46:192|22:162,1,64.9999970245363,2|2,1:2|0:2,0:0:0:0:
97,297,8714,1,2,3:3:0:0:
97,297,8817,2,0,B|133:279|133:279|135:274|135:274|165:261,2,64.9999970245363,2|0|0,0:3|0:0|3:2,0:0:0:0:
250,290,9127,5,10,0:2:0:0:
250,290,9231,2,0,P|278:316|294:351,1,64.9999970245363,0|0,3:2|3:2,0:0:0:0:
351,272,9438,2,0,P|359:234|382:202,1,64.9999970245363,2|0,1:3|3:2,0:0:0:0:
283,185,9645,2,0,P|245:196|207:192,1,64.9999970245363,10|0,0:2|3:2,0:0:0:0:
328,90,9852,6,0,P|320:51|316:13,1,64.9999970245363,2|0,1:2|3:2,0:0:0:0:
230,20,10058,2,0,P|237:58|241:97,1,64.9999970245363,2|0,0:3|3:2,0:0:0:0:
116,163,10265,1,2,0:3:0:0:
116,163,10369,2,0,P|121:123|127:85,1,64.9999970245363,8|2,0:2|3:2,0:0:0:0:
40,73,10576,2,0,P|35:111|28:150,1,64.9999970245363,0|0,0:0|3:2,0:0:0:0:
118,323,10783,2,0,P|143:295|139:257,2,64.9999970245363,10|2|2,0:2|3:2|3:2,0:0:0:0:
52,238,11093,2,0,P|26:265|30:303,1,64.9999970245363,2|2,3:2|0:3,0:0:0:0:
275,348,11300,5,10,0:2:0:0:
321,346,11403,1,2,3:2:0:0:
360,314,11507,2,0,B|339:243|311:268|284:180,1,129.999994049073,6|0,1:2|3:2,0:0:0:0:
401,110,11817,2,0,P|389:148|384:186,1,64.9999970245363,8|2,0:2|0:2,0:0:0:0:
298,99,12024,1,8,0:2:0:0:
298,99,12127,2,0,P|286:61|281:23,2,64.9999970245363,2|0|0,0:3|3:2|3:2,0:0:0:0:
186,2,12438,1,10,0:2:0:0:
186,2,12541,2,0,P|155:25|117:24,1,64.9999970245363,0|0,3:2|3:2,0:0:0:0:
146,144,12748,2,0,P|176:120|214:121,1,64.9999970245363,2|0,1:3|3:2,0:0:0:0:
43,93,12955,5,10,0:2:0:0:
43,93,13058,1,0,3:2:0:0:
43,93,13162,2,0,L|50:170,1,64.9999970245363,2|0,1:2|3:2,0:0:0:0:
114,236,13369,2,0,L|107:313,1,64.9999970245363,2|0,0:3|3:2,0:0:0:0:
187,349,13576,2,0,P|225:356|258:337,1,64.9999970245363,10|0,0:2|0:0,0:0:0:0:
361,222,13783,1,0,3:2:0:0:
361,222,13886,2,0,P|323:215|290:234,1,64.9999970245363,10|0,0:2|0:0,0:0:0:0:
347,371,14093,2,0,P|353:334|334:301,2,64.9999970245363,10|2|0,0:2|3:2|3:2,0:0:0:0:
443,160,14403,5,10,0:2:0:0:
479,187,14507,1,2,0:3:0:0:
499,232,14610,1,10,0:2:0:0:
497,284,14714,1,0,3:2:0:0:
468,324,14817,2,0,P|396:354|321:377,1,129.999994049073,6|0,1:2|3:2,0:0:0:0:
246,375,15127,2,0,P|210:357|174:344,1,64.9999970245363,2|2,1:2|0:2,0:0:0:0:
61,292,15334,5,8,0:2:0:0:
61,292,15438,2,0,P|96:274|132:261,2,64.9999970245363,2|0|0,0:3|0:0|3:2,0:0:0:0:
97,162,15748,1,10,0:2:0:0:
97,162,15852,2,0,P|61:179|25:192,1,64.9999970245363,0|0,3:2|3:2,0:0:0:0:
199,182,16058,2,0,P|182:147|191:110,1,64.9999970245363,2|0,1:3|3:2,0:0:0:0:
279,102,16265,2,0,P|295:136|286:173,1,64.9999970245363,10|0,0:2|3:2,0:0:0:0:
408,222,16472,6,0,L|429:297,1,64.9999970245363,2|0,1:2|3:2,0:0:0:0:
326,269,16679,2,0,L|250:249,1,64.9999970245363,2|0,0:3|3:2,0:0:0:0:
380,140,16886,1,2,0:3:0:0:
380,140,16989,2,0,P|405:111|406:73,1,64.9999970245363,8|2,0:2|3:2,0:0:0:0:
308,48,17196,2,0,P|282:76|281:114,1,64.9999970245363,0|0,0:0|3:2,0:0:0:0:
199,182,17403,1,10,0:2:0:0:
199,182,17507,2,0,P|183:217|148:233,1,64.9999970245363,2|2,3:2|3:2,0:0:0:0:
54,279,17714,5,2,3:2:0:0:
58,329,17817,1,2,0:3:0:0:
87,369,17921,1,10,0:2:0:0:
136,384,18024,1,2,3:2:0:0:
178,362,18127,1,4,1:2:0:0:
297,333,18334,6,0,P|300:294|308:255,1,64.9999970245363,2|8,3:2|0:2,0:0:0:0:
207,246,18541,2,0,P|203:207|195:168,1,64.9999970245363,2|8,0:2|0:2,0:0:0:0:
274,115,18748,2,0,P|296:83|316:50,1,64.9999970245363,2|0,0:3|3:2,0:0:0:0:
406,80,18955,2,0,P|430:111|428:149,1,64.9999970245363,2|8,3:2|0:2,0:0:0:0:
346,200,19162,1,0,3:2:0:0:
346,200,19265,2,0,P|322:230|324:268,2,64.9999970245363,2|2|0,3:2|1:3|3:2,0:0:0:0:
274,115,19576,6,0,L|201:87,1,64.9999970245363,10|0,0:2|3:2,0:0:0:0:
148,223,19783,2,0,L|208:173,1,64.9999970245363,2|0,1:2|3:2,0:0:0:0:
106,72,19989,1,0,0:3:0:0:
106,72,20093,1,2,3:2:0:0:
106,72,20196,2,0,L|118:149,1,64.9999970245363,8|0,0:2|0:0,0:0:0:0:
190,314,20403,2,0,P|155:329|119:316,1,64.9999970245363,2|8,3:2|0:2,0:0:0:0:
261,239,20610,2,0,P|299:239|326:266,1,64.9999970245363,2|8,0:2|0:2,0:0:0:0:
414,350,20817,2,0,P|398:314|411:278,1,64.9999970245363,2|0,3:2|3:2,0:0:0:0:
433,132,21024,5,8,0:2:0:0:
406,96,21127,1,0,0:3:0:0:
361,81,21231,1,8,0:2:0:0:
314,91,21334,1,0,3:2:0:0:
274,115,21438,2,0,B|267:81|267:81|269:73|269:73|262:38,1,64.9999970245363,4|0,1:2|3:2,0:0:0:0:
138,19,21645,6,0,P|111:47|107:85,1,64.9999970245363,2|0,3:2|1:2,0:0:0:0:
153,190,21852,2,0,P|179:161|183:123,1,64.9999970245363,2|8,0:2|0:2,0:0:0:0:
41,171,22058,2,0,P|60:205|77:240,2,64.9999970245363,2|0|2,0:3|0:0|3:2,0:0:0:0:
123,348,22369,2,0,P|142:314|159:279,1,64.9999970245363,8|0,0:2|3:2,0:0:0:0:
319,249,22576,2,0,P|282:254|255:227,1,64.9999970245363,2|2,3:2|1:3,0:0:0:0:
279,143,22783,1,0,3:2:0:0:
279,143,22886,2,0,P|316:137|343:164,1,64.9999970245363,10|0,0:2|3:2,0:0:0:0:
451,225,23093,6,0,P|438:262|428:300,1,64.9999970245363,2|0,1:2|3:2,0:0:0:0:
368,383,23300,1,2,0:3:0:0:
368,383,23403,2,0,P|355:346|345:308,1,64.9999970245363,2|2,3:2|0:3,0:0:0:0:
265,243,23610,1,8,0:2:0:0:
265,243,23714,2,0,P|267:170|198:147,1,129.999994049073,2|0,3:2|3:2,0:0:0:0:
124,103,24024,2,0,B|127:141|127:141|126:147|126:147|128:180,2,64.9999970245363,8|0|0,0:2|3:2|3:2,0:0:0:0:
21,265,24334,5,0,3:2:0:0:
48,304,24438,1,2,0:3:0:0:
92,318,24541,1,8,0:2:0:0:
141,308,24645,1,0,3:2:0:0:
174,272,24748,1,4,1:2:0:0:
265,243,24955,6,0,P|274:280|275:319,1,64.9999970245363,2|8,3:2|0:2,0:0:0:0:
330,173,25162,2,0,P|292:162|258:143,1,64.9999970245363,2|8,0:2|0:2,0:0:0:0:
356,285,25369,2,0,P|384:258|417:237,1,64.9999970245363,2|0,0:2|3:2,0:0:0:0:
470,67,25576,6,0,P|432:71|409:101,1,64.9999970245363,2|8,3:2|0:2,0:0:0:0:
457,177,25783,1,0,3:2:0:0:
457,177,25886,2,0,P|494:172|517:142,2,64.9999970245363,2|0|0,3:2|1:3|3:2,0:0:0:0:
326,4,26196,1,10,0:2:0:0:
333,11,26300,1,0,3:2:0:0:
333,11,26403,2,0,L|328:88,1,64.9999970245363,2|0,1:2|3:2,0:0:0:0:
232,109,26610,1,2,0:3:0:0:
232,109,26714,1,2,3:2:0:0:
232,109,26817,2,0,L|225:35,1,64.9999970245363,8|0,0:2|0:0,0:0:0:0:
330,173,27024,6,0,P|298:194|261:187,1,64.9999970245363,2|8,3:2|0:2,0:0:0:0:
293,344,27231,2,0,P|291:305|315:276,1,64.9999970245363,2|8,0:2|0:2,0:0:0:0:
155,238,27438,2,0,P|190:254|203:290,1,64.9999970245363,2|0,3:2|3:2,0:0:0:0:
64,273,27645,5,8,0:2:0:0:
46,221,27748,1,2,0:3:0:0:
50,167,27852,1,8,0:2:0:0:
77,119,27955,1,0,3:2:0:0:
126,97,28058,1,4,1:2:0:0:
265,9,28265,6,0,P|295:26|335:42,1,64.9999970245363,2|0,3:2|1:2,0:0:0:0:
465,80,28472,2,0,P|434:97|394:113,1,64.9999970245363,2|8,0:2|0:2,0:0:0:0:
330,173,28679,2,0,P|346:208|359:245,1,64.9999970245363,2|0,0:2|0:0,0:0:0:0:
474,345,28886,1,2,3:2:0:0:
507,305,28989,1,10,0:2:0:0:
512,257,29093,1,2,3:2:0:0:
491,213,29196,2,0,L|418:183,2,64.9999970245363,2|2|2,3:2|1:3|3:2,0:0:0:0:
355,232,29507,2,0,L|282:261,1,64.9999970245363,10|0,0:2|3:2,0:0:0:0:
189,371,29714,6,0,P|227:362|250:332,1,64.9999970245363,2|0,1:2|3:2,0:0:0:0:
189,249,29921,1,2,0:3:0:0:
189,249,30024,2,0,P|152:257|128:287,2,64.9999970245363,2|2|8,3:2|0:3|0:2,0:0:0:0:
82,166,30334,1,2,3:2:0:0:
82,166,30438,1,8,0:2:0:0:
82,166,30541,2,0,L|76:96,1,64.9999970245363,0|0,3:2|1:2,0:0:0:0:
173,21,30748,5,8,0:2:0:0:
227,29,30852,1,0,3:2:0:0:
265,66,30955,1,8,3:3:0:0:
309,99,31058,1,4,3:3:0:0:
366,97,31162,1,4,3:3:0:0:
398,56,31265,1,0,3:0:0:0:
393,5,31369,6,0,P|359:14|327:27,1,57.5000010967255,4|0,3:2|0:0,0:0:0:0:
457,109,31576,2,0,P|490:117|522:130,1,57.5000010967255,0|0,3:2|0:0,0:0:0:0:
374,242,31783,2,0,P|371:208|390:179,1,57.5000010967255
485,213,31989,2,0,P|487:246|468:275,1,57.5000010967255,0|0,3:2|3:2,0:0:0:0:
283,287,32196,5,0,0:0:0:0:
283,287,32300,2,0,B|275:254|275:254|276:249|276:249|268:220,2,57.5000010967255,0|0|0,3:2|3:2|0:0,0:0:0:0:
221,138,32610,2,0,P|198:112|165:105,1,57.5000010967255,0|0,3:2|3:2,0:0:0:0:
121,204,32817,2,0,P|143:229|176:235,1,57.5000010967255,0|0,3:2|3:2,0:0:0:0:
169,327,33024,6,0,L|164:396,1,57.5000010967255,4|0,0:3|0:0,0:0:0:0:
62,337,33231,2,0,L|56:268,1,57.5000010967255,2|0,3:2|0:0,0:0:0:0:
46,135,33438,2,0,P|67:113|112:114,1,57.5000010967255,2|0,3:2|0:0,0:0:0:0:
196,86,33645,1,2,3:2:0:0:
196,86,33748,2,0,B|209:111|209:111|209:119|209:119|226:147,2,57.5000010967255,0|2|0,3:2|3:2|3:2,0:0:0:0:
307,199,34058,2,0,B|321:169|321:169|321:162|321:162|333:135,1,57.5000010967255,0|2,3:2|3:2,0:0:0:0:
339,48,34265,1,0,3:2:0:0:
339,48,34369,2,0,B|372:56|372:56|377:61|377:61|404:69,2,57.5000010967255,0|2|0,0:0|3:2|3:2,0:0:0:0:
485,18,34679,6,0,P|500:48|496:82,1,57.5000010967255,4|0,0:3|0:0,0:0:0:0:
437,164,34886,2,0,P|421:195|425:229,1,57.5000010967255,0|0,3:2|3:2,0:0:0:0:
351,296,35093,2,0,L|284:309,1,57.5000010967255,0|0,3:2|0:0,0:0:0:0:
414,370,35300,2,0,L|481:356,1,57.5000010967255,0|0,3:2|3:2,0:0:0:0:
509,270,35507,5,0,0:0:0:0:
509,270,35610,2,0,B|513:238|513:238|511:231|511:231|513:201,2,57.5000010967255,0|0|0,3:2|3:2|0:0,0:0:0:0:
435,107,35921,1,0,3:2:0:0:
435,107,36024,2,0,B|438:139|438:139|436:146|436:146|438:175,2,57.5000010967255,0|0|0,3:2|3:2|3:2,0:0:0:0:
360,239,36334,2,0,L|349:307,1,57.5000010967255,4|0,0:3|0:0,0:0:0:0:
239,368,36541,2,0,P|217:341|213:308,1,57.5000010967255,2|0,3:2|0:0,0:0:0:0:
141,241,36748,2,0,P|162:214|166:181,1,57.5000010967255,2|0,1:2|0:0,0:0:0:0:
177,92,36955,5,2,0:2:0:0:
177,92,37058,1,0,3:2:0:0:
177,92,37162,2,0,L|245:102,1,57.5000010967255,2|0,1:2|3:2,0:0:0:0:
357,158,37369,1,0,0:0:0:0:
357,158,37472,2,0,L|288:168,1,57.5000010967255,2|0,3:2|1:2,0:0:0:0:
272,252,37679,1,0,0:0:0:0:
272,252,37782,2,0,B|279:283|279:283|283:288|283:288|290:319,1,57.5000010967255,2|0,3:2|3:2,0:0:0:0:
134,350,37989,6,0,P|100:354|70:338,1,57.5000010967255,6|0,1:2|0:0,0:0:0:0:
86,237,38196,2,0,P|119:232|149:248,1,57.5000010967255,0|0,1:2|3:2,0:0:0:0:
287,306,38403,2,0,P|321:305|348:285,1,57.5000010967255,0|0,1:2|0:0,0:0:0:0:
445,292,38610,2,0,P|443:259|423:232,1,57.5000010967255,0|0,1:2|3:2,0:0:0:0:
449,136,38817,5,0,1:2:0:0:
449,136,38921,2,0,B|446:105|446:105|449:99|449:99|446:67,2,57.5000010967255,0|0|0,3:2|1:2|0:0,0:0:0:0:
338,43,39231,1,0,1:2:0:0:
338,43,39335,2,0,B|335:73|335:73|338:80|338:80|335:111,2,57.5000010967255,0|0|0,3:2|1:2|3:2,0:0:0:0:
259,167,39645,6,0,P|235:144|231:102,1,57.5000010967255,0|0,1:2|0:0,0:0:0:0:
335,219,39852,2,0,P|364:192|387:194,1,57.5000010967255,2|0,1:2|3:2,0:0:0:0:
252,259,40058,2,0,P|253:292|222:319,1,57.5000010967255,2|0,1:2|0:0,0:0:0:0:
138,360,40265,5,2,1:2:0:0:
138,360,40369,1,0,3:2:0:0:
138,360,40472,1,2,1:2:0:0:
103,321,40576,1,0,3:2:0:0:
102,270,40679,1,0,1:2:0:0:
133,230,40783,1,2,3:2:0:0:
180,213,40886,5,0,1:2:0:0:
212,172,40989,1,0,3:2:0:0:
216,120,41093,1,2,1:2:0:0:
182,79,41196,1,0,3:2:0:0:
141,46,41300,6,0,L|81:40,3,50,2|0|2|0,1:2|1:0|1:3|1:0,0:0:0:0:
292,35,41714,2,0,L|320:0,3,37.5000014305115,2|0|0|0,1:2|1:2|1:2|1:2,0:0:0:0:
212,172,42127,2,0,L|216:210,7,31.25,2|0|0|0|0|0|0|0,1:2|1:2|1:2|1:2|1:0|1:0|1:0|1:0,0:0:0:0:
208,92,42541,2,0,L|219:71,16,12.5,2|0|0|0|0|0|0|0|0|0|0|0|0|0|0|0|0,1:2|1:2|1:2|1:2|1:0|1:0|1:0|1:0|1:0|1:0|1:0|1:0|1:0|1:0|1:0|1:0|1:0,0:0:0:0:
351,369,44196,5,10,0:2:0:0:
404,339,44300,1,2,0:0:0:0:
419,287,44403,1,10,0:0:0:0:
393,232,44507,1,10,0:0:0:0:
337,217,44610,1,6,1:2:0:0:
174,275,44817,5,2,0:3:0:0:
156,314,44921,1,2,0:2:0:0:
163,358,45024,1,8,0:1:0:0:
44,214,45231,1,2,0:2:0:0:
4,137,45438,1,2,1:2:0:0:
122,177,45645,1,2,0:3:0:0:
83,98,45852,1,8,0:1:0:0:
83,98,46058,1,2,1:2:0:0:
424,55,46265,5,2,1:2:0:0:
283,27,46472,1,2,0:3:0:0:
238,35,46576,1,2,1:2:0:0:
207,68,46679,1,8,0:1:0:0:
392,208,46886,5,2,0:2:0:0:
392,208,46989,1,2,0:3:0:0:
392,208,47093,1,2,1:2:0:0:
476,164,47300,1,2,0:3:0:0:
512,80,47507,1,10,0:1:0:0:
418,341,47714,2,0,L|382:334,3,32.4999985122681,0|0|0|0,1:2|1:2|1:2|1:2,0:0:0:0:
297,367,47921,5,6,1:2:0:0:
196,196,48127,1,2,0:3:0:0:
196,196,48231,1,2,0:2:0:0:
196,196,48334,1,8,0:1:0:0:
156,304,48541,1,2,0:2:0:0:
25,80,48748,5,2,1:2:0:0:
255,7,48955,1,2,0:3:0:0:
229,45,49058,1,2,0:2:0:0:
188,59,49162,1,8,0:1:0:0:
96,0,49369,1,2,1:2:0:0:
53,269,49576,5,2,1:2:0:0:
99,164,49783,1,2,0:3:0:0:
99,164,49886,1,2,1:2:0:0:
99,164,49989,1,8,0:1:0:0:
160,307,50196,1,2,1:2:0:0:
160,307,50403,1,2,1:2:0:0:
196,196,50610,1,0,1:2:0:0:
427,375,50817,6,0,B|442:331|442:331|438:331|438:331|448:298|448:298|442:226|379:213|348:237,1,189.999994926453,4|0,1:1|0:0,0:0:0:0:
271,118,51231,6,0,B|279:156|279:156|277:164|277:164|282:195,1,64.9999970245363,4|0,1:2|0:0,0:0:0:0:
385,227,51438,2,0,B|393:188|393:188|391:181|391:181|396:149,1,64.9999970245363,0|8,3:2|0:2,0:0:0:0:
456,55,51645,1,0,1:2:0:0:
456,55,51748,2,0,P|483:82|489:119,2,64.9999970245363,8|2|0,0:2|0:3|3:2,0:0:0:0:
398,168,52058,1,0,0:0:0:0:
398,168,52162,2,0,P|370:140|364:103,2,64.9999970245363,8|0|0,0:2|3:2|3:2,0:0:0:0:
226,218,52472,2,0,L|290:174,1,64.9999970245363,2|0,1:3|3:2,0:0:0:0:
134,81,52679,2,0,L|177:145,1,64.9999970245363,8|0,0:2|3:2,0:0:0:0:
91,280,52886,6,0,P|114:249|113:211,1,64.9999970245363,2|0,1:2|3:2,0:0:0:0:
43,148,53093,1,2,0:3:0:0:
43,148,53196,2,0,P|19:117|20:79,2,64.9999970245363,2|8|0,3:2|1:2|0:0,0:0:0:0:
109,24,53507,2,0,P|132:54|131:92,1,64.9999970245363,2|8,3:2|0:2,0:0:0:0:
226,218,53714,5,2,1:1:0:0:
272,238,53817,1,8,0:2:0:0:
320,224,53921,1,0,3:2:0:0:
347,180,54024,1,2,3:1:0:0:
351,132,54127,2,0,P|339:96|317:64,1,64.9999970245363,8|2,1:2|0:3,0:0:0:0:
477,16,54334,2,0,P|464:52|442:84,1,64.9999970245363,10|0,0:1|3:2,0:0:0:0:
464,185,54541,6,0,L|480:261,1,64.9999970245363,6|0,1:2|3:2,0:0:0:0:
373,347,54748,1,0,3:2:0:0:
373,347,54852,2,0,L|389:270,1,64.9999970245363,0|0,3:2|1:2,0:0:0:0:
248,313,55058,1,8,0:2:0:0:
248,313,55162,2,0,P|262:348|251:385,1,64.9999970245363,2|0,0:3|0:0,0:0:0:0:
161,384,55369,1,2,1:2:0:0:
161,384,55473,2,0,P|146:348|157:311,2,64.9999970245363,8|0|0,0:2|3:2|3:2,0:0:0:0:
87,206,55783,2,0,L|163:218,1,64.9999970245363,2|0,1:3|3:2,0:0:0:0:
215,128,55989,2,0,L|291:115,1,64.9999970245363,8|0,0:2|3:2,0:0:0:0:
341,28,56196,5,2,1:2:0:0:
341,28,56300,1,0,3:2:0:0:
341,28,56403,2,0,L|397:83,1,64.9999970245363,2|0,1:3|3:2,0:0:0:0:
431,180,56610,1,2,1:3:0:0:
431,180,56714,1,8,0:2:0:0:
431,180,56817,2,0,L|375:235,1,64.9999970245363,0|0,1:2|3:2,0:0:0:0:
282,259,57024,5,2,1:2:0:0:
278,309,57127,1,8,1:2:0:0:
306,350,57231,1,0,1:2:0:0:
353,366,57334,1,0,1:2:0:0:
402,358,57438,2,0,L|406:313,7,37.5000014305115,10|8|8|8|8|8|8|0,1:1|0:1|0:1|0:1|0:1|0:1|0:1|1:2,0:0:0:0:
479,278,57852,5,6,1:2:0:0:
426,90,58058,1,2,0:3:0:0:
396,130,58162,1,2,0:2:0:0:
351,144,58265,1,8,0:1:0:0:
236,114,58472,1,2,0:2:0:0:
159,275,58679,5,2,1:2:0:0:
159,275,58886,1,2,0:3:0:0:
110,153,59093,1,8,0:1:0:0:
276,225,59300,1,2,1:2:0:0:
192,188,59507,5,2,1:2:0:0:
14,235,59714,1,2,0:3:0:0:
3,188,59817,1,2,1:2:0:0:
11,139,59921,1,8,0:1:0:0:
204,0,60127,5,2,0:2:0:0:
204,0,60231,1,2,0:3:0:0:
204,0,60334,1,2,1:2:0:0:
82,6,60541,1,2,0:3:0:0:
285,69,60748,1,10,0:1:0:0:
406,57,60955,2,0,L|443:52,3,32.4999985122681,0|0|0|0,1:2|1:2|1:2|1:2,0:0:0:0:
505,110,61162,5,6,1:2:0:0:
475,243,61369,1,2,0:3:0:0:
434,274,61472,1,2,0:2:0:0:
385,279,61576,1,8,0:1:0:0:
403,169,61783,1,2,0:2:0:0:
248,368,61989,5,2,1:2:0:0:
277,262,62196,1,2,0:3:0:0:
276,213,62300,1,2,0:2:0:0:
255,170,62403,1,8,0:1:0:0:
158,248,62610,1,2,1:2:0:0:
143,129,62817,5,2,1:2:0:0:
41,262,63024,1,2,0:3:0:0:
41,262,63127,1,2,1:2:0:0:
41,262,63231,1,8,0:1:0:0:
27,142,63438,1,2,1:2:0:0:
233,40,63645,1,2,1:2:0:0:
233,40,63852,1,0,1:2:0:0:
158,248,64058,6,0,B|202:263|202:263|202:259|202:259|235:269|235:269|307:263|320:200|296:169,1,189.999994926453,4|0,1:1|0:0,0:0:0:0:
459,244,64472,6,0,L|442:167,1,64.9999970245363,4|0,1:2|0:0,0:0:0:0:
306,205,64679,2,0,L|381:228,1,64.9999970245363,0|8,3:2|0:2,0:0:0:0:
410,77,64886,1,0,1:2:0:0:
410,77,64989,2,0,L|351:130,2,64.9999970245363,8|2|0,0:2|0:3|3:2,0:0:0:0:
316,270,65300,5,2,1:2:0:0:
316,270,65403,2,0,L|305:192,2,64.9999970245363,8|0|0,0:2|3:2|3:2,0:0:0:0:
392,383,65714,1,2,1:3:0:0:
392,383,65817,1,0,3:2:0:0:
392,383,65921,2,0,L|402:305,1,64.9999970245363,8|0,0:2|3:2,0:0:0:0:
316,270,66127,6,0,P|279:283|242:273,1,64.9999970245363,2|0,1:2|3:2,0:0:0:0:
181,195,66334,1,2,0:3:0:0:
181,195,66438,1,2,3:2:0:0:
181,195,66541,2,0,P|168:159|178:122,2,64.9999970245363,8|0|2,1:2|0:0|3:2,0:0:0:0:
247,26,66852,5,8,0:2:0:0:
283,60,66956,1,2,1:1:0:0:
332,75,67059,2,0,P|366:58|385:24,2,64.9999970245363,8|0|2,0:2|3:2|3:1,0:0:0:0:
434,220,67369,2,0,P|408:190|370:181,1,64.9999970245363,8|2,1:2|0:3,0:0:0:0:
365,307,67576,2,0,P|330:290|311:256,1,64.9999970245363,10|0,0:1|3:2,0:0:0:0:
181,195,67783,6,0,B|230:186|230:186|246:162|246:162|323:149,2,129.999994049073,6|0|0,1:2|3:2|1:2,0:0:0:0:
70,276,68300,1,8,0:2:0:0:
70,276,68403,2,0,L|86:199,1,64.9999970245363,2|0,0:3|0:0,0:0:0:0:
118,108,68610,1,2,1:2:0:0:
118,108,68714,2,0,L|101:31,2,64.9999970245363,8|0|0,0:2|3:2|3:2,0:0:0:0:
257,105,69024,2,0,P|287:128|297:165,1,64.9999970245363,2|0,1:3|3:2,0:0:0:0:
385,80,69231,2,0,P|354:56|344:19,1,64.9999970245363,8|0,0:2|3:2,0:0:0:0:
411,190,69438,5,2,1:2:0:0:
411,190,69541,1,0,3:2:0:0:
411,190,69645,2,0,L|398:267,1,64.9999970245363,2|0,1:3|3:2,0:0:0:0:
302,283,69852,1,2,1:3:0:0:
302,283,69955,1,8,0:2:0:0:
302,283,70059,2,0,L|225:295,1,64.9999970245363,0|0,1:2|3:2,0:0:0:0:
133,221,70265,5,2,1:2:0:0:
117,172,70369,1,8,1:2:0:0:
125,122,70472,1,0,1:2:0:0:
160,86,70576,1,0,1:2:0:0:
208,78,70679,2,0,L|221:118,7,37.5000014305115,8|8|8|8|8|8|8|8,1:1|0:1|0:1|0:1|1:1|0:1|1:1|0:1,0:0:0:0:
288,159,71093,6,0,B|314:151|314:151|336:92|336:92|370:81,1,115.000002193451,6|0,1:2|0:0,0:0:0:0:
471,31,71403,2,0,B|487:91|487:91|485:99|485:99|502:165,1,115.000002193451,6|0,1:2|0:0,0:0:0:0:
496,142,71714,2,0,P|462:158|434:144,1,57.5000010967255,2|0,1:2|0:0,0:0:0:0:
357,262,71921,6,0,B|368:304|368:304|410:304|410:304|431:363,1,115.000002193451,6|0,1:2|0:0,0:0:0:0:
262,321,72231,2,0,B|196:331|196:331|189:330|189:330|125:343,1,115.000002193451,6|0,1:2|0:0,0:0:0:0:
148,338,72541,2,0,P|152:304|131:278,1,57.5000010967255,2|0,1:2|0:0,0:0:0:0:
27,195,72748,6,0,B|36:156|36:156|64:131|64:131|75:93,1,115.000002193451,6|0,1:2|0:0,0:0:0:0:
201,11,73058,2,0,B|200:69|200:69|205:80|205:80|204:124,1,115.000002193451,6|0,1:2|0:0,0:0:0:0:
204,124,73369,2,0,P|237:129|264:108,1,57.5000010967255,2|0,1:2|0:0,0:0:0:0:
373,147,73576,6,0,B|368:121|368:121|372:113|372:113|365:77,2,59.9999981689454,2|2|2,1:3|0:3|0:2,0:0:0:0:
130,261,74403,6,0,B|123:215|123:215|126:216|126:216|123:181|123:181|142:112|207:111|240:141,1,194.999991073609,4|8,1:1|0:2,0:0:0:0:
299,19,74817,2,0,B|294:60|294:60|290:64|290:64|286:97,1,64.9999970245363,2|0,0:2|3:2,0:0:0:0:
384,209,75024,2,0,B|379:170|379:170|375:166|375:166|371:132,1,64.9999970245363,2|0,0:3|0:0,0:0:0:0:
424,304,75231,1,0,3:2:0:0:
424,304,75334,2,0,P|387:315|352:299,2,64.9999970245363,10|0|0,0:2|3:2|3:2,0:0:0:0:
285,375,75644,2,0,P|249:363|214:379,1,64.9999970245363,2|0,1:3|3:2,0:0:0:0:
135,325,75851,5,10,0:2:0:0:
135,325,75955,1,0,3:2:0:0:
135,325,76058,2,0,L|128:247,1,64.9999970245363,2|0,1:2|3:2,0:0:0:0:
35,187,76265,2,0,L|41:109,1,64.9999970245363,2|0,0:3|3:2,0:0:0:0:
154,134,76472,2,0,P|184:109|188:71,1,64.9999970245363,10|0,0:2|0:0,0:0:0:0:
327,49,76679,1,0,3:2:0:0:
327,49,76783,2,0,P|297:73|293:111,1,64.9999970245363,10|0,0:2|0:0,0:0:0:0:
426,63,76989,2,0,B|423:27|423:27|419:20|419:20|417:-14,2,64.9999970245363,10|2|0,0:2|3:2|3:2,0:0:0:0:
512,169,77300,5,10,0:2:0:0:
488,212,77403,1,2,0:3:0:0:
443,232,77506,1,10,0:2:0:0:
395,233,77610,1,0,3:2:0:0:
348,219,77714,6,0,B|276:199|291:253|220:239,1,129.999994049073,6|0,1:2|0:0,0:0:0:0:
91,246,78024,2,0,P|115:275|116:313,1,64.9999970245363,2|2,1:2|0:2,0:0:0:0:
229,244,78231,1,8,0:2:0:0:
229,244,78334,2,0,P|204:214|203:176,2,64.9999970245363,2|0|0,0:3|0:0|3:0,0:0:0:0:
165,87,78644,5,10,0:2:0:0:
165,87,78748,2,0,B|197:91|197:91|201:90|201:90|242:94,1,64.9999970245363,0|0,3:2|3:2,0:0:0:0:
318,151,78955,2,0,B|353:146|353:146|358:147|358:147|395:143,1,64.9999970245363,2|0,1:3|3:2,0:0:0:0:
422,60,79162,2,0,P|416:23|386:-2,1,64.9999970245363,10|0,0:2|3:2,0:0:0:0:
392,208,79369,6,0,P|387:169|379:130,1,64.9999970245363,2|0,1:2|3:2,0:0:0:0:
476,130,79576,2,0,P|480:168|488:207,1,64.9999970245363,2|0,0:3|3:2,0:0:0:0:
229,244,79782,1,2,0:3:0:0:
229,244,79886,2,0,P|224:284|218:322,1,64.9999970245363,8|2,0:2|3:2,0:0:0:0:
300,332,80093,2,0,P|305:294|312:255,1,64.9999970245363,0|0,0:0|3:2,0:0:0:0:
234,147,80300,2,0,P|199:142|165:135,2,64.9999970245363,10|2|2,0:2|3:2|3:2,0:0:0:0:
74,202,80610,5,2,3:2:0:0:
54,251,80714,1,2,0:3:0:0:
56,303,80817,1,10,0:2:0:0:
82,350,80920,1,2,3:2:0:0:
129,373,81024,1,4,1:2:0:0:
300,332,81231,6,0,P|334:323|377:321,1,64.9999970245363,2|8,3:2|0:2,0:0:0:0:
425,251,81438,2,0,P|425:213|414:173,1,64.9999970245363,2|8,0:2|0:2,0:0:0:0:
338,114,81645,2,0,P|338:75|367:48,1,64.9999970245363,2|0,0:2|3:2,0:0:0:0:
249,2,81852,2,0,P|248:40|220:68,1,64.9999970245363,2|8,3:2|0:2,0:0:0:0:
142,139,82058,5,0,3:2:0:0:
142,139,82162,1,2,3:2:0:0:
142,139,82265,2,0,L|130:62,1,64.9999970245363,0|0,1:3|3:2,0:0:0:0:
38,140,82472,2,0,L|29:217,1,64.9999970245363,10|0,0:2|3:2,0:0:0:0:
118,306,82679,6,0,P|135:271|121:236,1,64.9999970245363,2|0,1:2|3:2,0:0:0:0:
252,198,82886,1,2,0:3:0:0:
252,198,82989,2,0,P|235:232|249:267,1,64.9999970245363,2|8,3:2|0:2,0:0:0:0:
347,272,83196,1,0,0:0:0:0:
347,272,83300,2,0,P|363:237|349:202,1,64.9999970245363,2|8,3:2|0:2,0:0:0:0:
402,118,83507,2,0,L|324:112,1,64.9999970245363,2|8,0:2|0:2,0:0:0:0:
259,39,83714,2,0,L|183:59,1,64.9999970245363,2|0,3:2|3:2,0:0:0:0:
94,188,83921,5,8,0:2:0:0:
123,232,84024,1,2,0:3:0:0:
172,249,84127,1,8,0:2:0:0:
222,237,84231,1,0,3:2:0:0:
252,198,84334,1,4,1:2:0:0:
383,264,84541,6,0,P|372:301|362:339,1,64.9999970245363,2|0,3:2|1:2,0:0:0:0:
512,260,84748,2,0,P|501:222|491:184,1,64.9999970245363,2|8,0:2|0:2,0:0:0:0:
464,101,84955,1,2,0:2:0:0:
464,101,85058,1,0,0:0:0:0:
464,101,85162,2,0,L|388:121,2,64.9999970245363,2|10|0,3:2|0:2|3:2,0:0:0:0:
347,209,85472,2,0,P|371:244|390:276,1,64.9999970245363,2|2,3:2|1:3,0:0:0:0:
277,344,85679,5,2,3:2:0:0:
225,350,85783,1,10,0:2:0:0:
176,333,85886,1,0,3:2:0:0:
136,295,85989,2,0,P|128:256|119:218,1,64.9999970245363,2|0,1:2|3:2,0:0:0:0:
22,202,86196,2,0,P|30:164|39:125,1,64.9999970245363,2|2,0:3|3:2,0:0:0:0:
146,118,86403,1,2,0:3:0:0:
146,118,86507,2,0,B|122:92|122:92|119:84|119:84|95:59,1,64.9999970245363,8|2,0:2|3:2,0:0:0:0:
261,6,86714,2,0,B|237:32|237:32|234:40|234:40|210:64,1,64.9999970245363,8|0,0:2|3:2,0:0:0:0:
221,190,86921,5,0,1:2:0:0:
244,237,87024,1,8,0:2:0:0:
290,262,87127,1,0,3:2:0:0:
352,263,87231,1,8,3:3:0:0:
352,263,87334,1,4,3:3:0:0:
351,263,87438,2,0,P|363:225|364:187,1,64.9999970245363,4|0,3:3|3:0,0:0:0:0:
391,89,87645,6,0,B|381:62|381:62|381:55|381:55|369:23,1,57.5000010967255,4|0,3:2|0:0,0:0:0:0:
273,73,87852,2,0,L|207:51,1,57.5000010967255,0|0,3:2|0:0,0:0:0:0:
122,1,88058,2,0,L|128:90,1,57.5000010967255
132,169,88265,2,0,L|190:132,1,57.5000010967255,0|0,3:2|3:2,0:0:0:0:
32,217,88472,5,0,0:0:0:0:
32,217,88576,2,0,B|33:186|33:186|31:182|31:182|31:148,2,57.5000010967255,0|0|0,3:2|3:2|0:0,0:0:0:0:
119,282,88886,1,0,3:2:0:0:
119,281,88990,2,0,B|120:311|120:311|118:315|118:315|118:349,2,57.5000010967255,0|0|0,3:2|3:2|3:2,0:0:0:0:
209,248,89300,6,0,P|242:253|267:276,1,57.5000010967255,4|0,0:3|0:0,0:0:0:0:
326,133,89507,2,0,P|304:159|272:169,1,57.5000010967255,2|0,3:2|0:0,0:0:0:0:
367,295,89714,2,0,P|354:263|362:230,1,57.5000010967255,2|0,3:2|0:0,0:0:0:0:
438,157,89921,1,2,3:2:0:0:
438,157,90024,2,0,B|445:187|445:187|449:193|449:193|457:223,2,57.5000010967255,0|2|0,3:2|3:2|3:2,0:0:0:0:
326,133,90334,2,0,B|333:102|333:102|337:99|337:99|345:66,1,57.5000010967255,0|2,3:2|3:2,0:0:0:0:
224,126,90541,6,0,P|194:141|160:137,1,57.5000010967255,0|0,3:2|0:0,0:0:0:0:
209,248,90748,2,0,P|239:233|273:237,1,57.5000010967255,2|0,3:2|3:2,0:0:0:0:
119,281,90955,6,0,L|86:222,1,57.5000010967255,4|0,0:3|0:0,0:0:0:0:
14,181,91162,2,0,L|22:112,1,57.5000010967255,0|0,3:2|3:2,0:0:0:0:
36,35,91369,2,0,L|82:0,1,57.5000010967255,0|0,3:2|0:0,0:0:0:0:
173,56,91576,1,0,3:2:0:0:
173,56,91679,2,0,B|173:26|173:26|176:19|176:19|177:-12,2,57.5000010967255,0|0|0,3:2|0:0|3:2,0:0:0:0:
285,10,91989,5,0,3:2:0:0:
324,38,92093,1,0,0:0:0:0:
338,86,92197,1,0,3:2:0:0:
326,133,92300,2,0,B|294:136|294:136|287:134|287:134|258:136,2,57.5000010967255,0|0|0,3:2|3:2|3:2,0:0:0:0:
409,198,92610,2,0,P|419:230|420:265,1,57.5000010967255,4|0,0:3|0:0,0:0:0:0:
362,340,92817,2,0,L|294:351,1,57.5000010967255,2|0,3:2|0:0,0:0:0:0:
213,384,93024,2,0,L|145:373,1,57.5000010967255,2|0,1:2|0:0,0:0:0:0:
60,355,93231,5,2,0:2:0:0:
60,355,93334,1,0,3:2:0:0:
60,355,93438,2,0,B|64:328|64:328|67:322|67:322|69:289,1,57.5000010967255,2|0,1:2|3:2,0:0:0:0:
83,123,93645,1,0,0:0:0:0:
83,123,93748,2,0,P|45:112|14:129,1,57.5000010967255,2|0,3:2|1:2,0:0:0:0:
140,214,93955,1,0,0:0:0:0:
140,214,94058,2,0,P|174:218|203:201,1,57.5000010967255,2|0,3:2|3:2,0:0:0:0:
326,101,94265,6,0,P|322:135|338:165,1,57.5000010967255,6|0,1:2|0:0,0:0:0:0:
442,202,94472,2,0,P|447:235|431:265,1,57.5000010967255,0|0,1:2|3:2,0:0:0:0:
362,340,94679,2,0,L|294:325,1,57.5000010967255,0|0,1:2|0:0,0:0:0:0:
193,306,94886,2,0,L|125:320,1,57.5000010967255,0|0,1:2|3:2,0:0:0:0:
42,258,95093,5,0,1:2:0:0:
42,258,95197,2,0,B|37:227|37:227|42:221|42:221|35:191,2,57.5000010967255,0|0|0,3:2|1:2|0:0,0:0:0:0:
87,68,95507,1,0,1:2:0:0:
87,68,95611,2,0,B|82:99|82:99|87:105|87:105|80:134,2,57.5000010967255,0|0|0,3:2|1:2|3:2,0:0:0:0:
188,24,95921,6,0,P|222:24|250:4,1,57.5000010967255,0|0,1:2|0:0,0:0:0:0:
353,47,96127,2,0,P|353:80|373:108,1,57.5000010967255,2|0,1:2|3:2,0:0:0:0:
473,71,96334,2,0,P|472:37|452:9,1,57.5000010967255,2|0,1:2|0:0,0:0:0:0:
496,181,96541,5,2,1:2:0:0:
496,181,96645,1,0,3:2:0:0:
496,181,96748,1,2,1:2:0:0:
477,225,96852,1,0,3:2:0:0:
433,249,96955,1,0,1:2:0:0:
382,243,97059,1,2,3:2:0:0:
332,252,97162,5,0,1:2:0:0:
299,288,97265,1,0,3:2:0:0:
286,333,97369,1,2,1:2:0:0:
297,383,97472,1,0,3:2:0:0:
350,384,97576,6,0,P|358:361|377:320,3,57.5000010967255,2|0|0|0,1:2|1:2|1:2|1:2,0:0:0:0:
306,179,97990,2,0,L|278:144,3,37.5000014305115,2|0|0|0,1:2|1:2|1:2|1:2,0:0:0:0:
227,85,98403,2,0,L|193:83,7,31.25,2|0|0|0|0|0|0|0,1:2|1:2|1:2|1:2|1:2|1:2|1:2|1:2,0:0:0:0:
127,40,98817,2,0,L|110:43,16,12.5,0|0|0|0|0|0|0|0|0|0|0|0|0|0|0|0|0,1:2|1:2|1:2|1:2|1:2|1:2|1:2|1:2|1:2|1:2|1:2|1:2|1:2|1:2|1:2|1:2|1:2,0:0:0:0:
49,305,100472,5,10,0:2:0:0:
80,345,100576,1,2,0:0:0:0:
128,359,100679,1,10,0:0:0:0:
179,342,100783,1,10,0:0:0:0:
208,297,100886,1,6,1:2:0:0:
164,181,101093,5,2,0:3:0:0:
164,181,101196,1,2,0:2:0:0:
164,181,101300,1,8,0:1:0:0:
283,197,101507,1,2,0:2:0:0:
303,75,101714,1,2,1:2:0:0:
303,75,101921,1,2,0:3:0:0:
185,60,102127,1,8,0:1:0:0:
185,60,102334,1,2,1:2:0:0:
455,30,102541,5,2,1:2:0:0:
405,140,102748,1,2,0:3:0:0:
398,184,102852,1,2,1:2:0:0:
406,231,102955,1,8,0:1:0:0:
466,332,103162,5,2,0:2:0:0:
466,332,103265,1,2,0:3:0:0:
466,332,103369,1,2,1:2:0:0:
347,366,103576,1,2,0:3:0:0:
296,268,103783,1,10,0:1:0:0:
183,301,103989,2,0,L|175:337,3,32.4999985122681,0|0|0|0,1:2|1:2|1:2|1:2,0:0:0:0:
94,364,104196,5,6,1:2:0:0:
9,254,104403,1,2,0:3:0:0:
2,207,104507,1,2,0:2:0:0:
13,159,104610,1,8,0:1:0:0:
104,82,104817,1,2,0:2:0:0:
257,11,105024,5,2,1:2:0:0:
337,97,105231,1,2,0:3:0:0:
421,8,105438,1,8,0:1:0:0:
421,8,105645,1,2,1:2:0:0:
470,261,105852,5,2,1:2:0:0:
369,201,106058,1,2,0:3:0:0:
320,202,106162,1,2,1:2:0:0:
280,233,106265,1,8,0:1:0:0:
235,347,106472,1,2,1:2:0:0:
179,172,106679,1,2,1:2:0:0:
179,172,106886,1,0,1:2:0:0:
0,282,107093,6,0,B|34:313|34:313|35:309|35:309|61:332|61:332|130:356|167:304|158:265,1,189.999994926453,4|0,1:1|0:0,0:0:0:0:
187,107,107507,6,0,P|181:145|178:184,1,64.9999970245363,4|0,1:2|0:0,0:0:0:0:
265,181,107714,2,0,P|271:142|274:103,1,64.9999970245363,0|8,3:2|0:2,0:0:0:0:
419,248,107921,1,0,1:2:0:0:
402,295,108024,1,8,0:2:0:0:
360,321,108127,2,0,P|325:304|289:290,1,64.9999970245363,2|0,0:3|3:2,0:0:0:0:
157,308,108334,5,2,1:2:0:0:
157,308,108438,2,0,P|192:293|202:256,2,64.9999970245363,8|0|0,0:2|3:2|3:2,0:0:0:0:
126,193,108748,2,0,P|91:208|81:245,1,64.9999970245363,2|0,1:3|3:2,0:0:0:0:
265,181,108955,2,0,P|250:144|236:108,1,64.9999970245363,8|0,0:2|3:2,0:0:0:0:
213,7,109162,6,0,P|249:21|286:36,1,64.9999970245363,2|0,1:2|3:2,0:0:0:0:
119,50,109369,1,2,0:3:0:0:
119,50,109472,1,2,3:2:0:0:
119,50,109576,2,0,B|82:64|82:64|80:64|80:64|46:78,1,64.9999970245363,8|0,1:2|0:0,0:0:0:0:
229,180,109783,2,0,P|245:146|234:110,1,64.9999970245363,2|8,3:2|0:2,0:0:0:0:
362,77,109989,6,0,P|345:111|356:147,1,64.9999970245363,2|8,1:1|0:2,0:0:0:0:
496,157,110196,1,0,3:2:0:0:
496,157,110300,2,0,P|474:125|437:117,1,64.9999970245363,2|8,3:1|1:2,0:0:0:0:
359,243,110507,1,2,0:3:0:0:
359,243,110610,2,0,P|397:240|422:212,1,64.9999970245363,10|0,0:1|3:2,0:0:0:0:
229,180,110817,6,0,P|244:247|247:333,2,129.999994049073,6|0|0,1:2|3:2|1:2,0:0:0:0:
89,149,111334,1,8,0:2:0:0:
89,149,111438,2,0,P|119:172|127:209,1,64.9999970245363,2|0,0:3|0:0,0:0:0:0:
38,257,111645,1,2,1:2:0:0:
38,257,111748,1,8,0:2:0:0:
38,257,111852,2,0,P|7:233|0:196,1,64.9999970245363,0|0,3:2|3:2,0:0:0:0:
36,41,112058,2,0,P|73:51|108:68,1,64.9999970245363,2|0,1:3|3:2,0:0:0:0:
195,98,112265,2,0,P|232:87|267:70,1,64.9999970245363,8|0,0:2|3:2,0:0:0:0:
442,183,112472,5,2,1:2:0:0:
442,183,112576,1,0,3:2:0:0:
442,183,112679,2,0,L|386:128,1,64.9999970245363,2|0,1:3|3:2,0:0:0:0:
396,10,112886,1,2,1:3:0:0:
396,10,112990,1,8,0:2:0:0:
396,10,113093,2,0,L|340:65,1,64.9999970245363,0|0,1:2|3:2,0:0:0:0:
236,173,113300,5,2,1:2:0:0:
187,174,113403,1,8,1:2:0:0:
143,152,113507,1,0,1:2:0:0:
123,107,113610,1,0,1:2:0:0:
126,59,113714,2,0,L|176:48,7,37.5000014305115,10|8|8|8|8|8|8|0,1:1|0:1|0:1|0:1|0:1|0:1|0:1|1:2,0:0:0:0:
251,80,114128,5,6,1:2:0:0:
327,208,114334,1,2,0:3:0:0:
323,255,114438,1,2,0:2:0:0:
284,287,114541,1,8,0:1:0:0:
156,287,114748,1,2,0:2:0:0:
51,371,114955,5,2,1:2:0:0:
51,371,115162,1,2,0:3:0:0:
24,238,115369,1,8,0:1:0:0:
2,120,115576,1,2,1:2:0:0:
126,59,115783,5,2,1:2:0:0:
149,188,115989,1,2,0:3:0:0:
149,188,116093,1,2,1:2:0:0:
149,188,116196,1,8,0:1:0:0:
253,108,116403,1,2,0:2:0:0:
343,294,116610,5,2,1:2:0:0:
343,294,116817,1,2,0:3:0:0:
363,159,117024,1,10,0:1:0:0:
214,300,117231,2,0,L|218:334,3,32.4999985122681,0|0|0|0,1:2|1:2|1:2|1:2,0:0:0:0:
291,383,117438,5,6,1:2:0:0:
427,331,117645,1,2,0:3:0:0:
448,290,117748,1,2,0:2:0:0:
448,243,117852,1,8,0:1:0:0:
484,131,118058,1,2,0:2:0:0:
396,15,118265,5,2,1:2:0:0:
396,15,118472,1,2,0:3:0:0:
270,69,118679,1,8,0:1:0:0:
368,165,118886,1,2,1:2:0:0:
147,301,119093,5,2,1:2:0:0:
239,194,119300,1,2,0:3:0:0:
239,194,119403,1,2,1:2:0:0:
239,194,119507,1,8,0:1:0:0:
116,149,119714,1,2,1:2:0:0:
33,244,119921,1,2,1:2:0:0:
33,244,120127,1,0,1:2:0:0:
368,165,120334,6,0,B|329:140|329:140|332:138|332:138|303:119|303:119|262:58|303:9|343:7,1,189.999994926453,4|0,1:1|0:0,0:0:0:0:
462,167,120748,6,0,B|458:204|458:204|454:214|454:214|450:243,1,64.9999970245363,4|0,1:2|0:0,0:0:0:0:
362,326,120955,2,0,B|358:289|358:289|354:279|354:279|350:249,1,64.9999970245363,0|8,3:2|0:2,0:0:0:0:
247,201,121162,1,0,1:2:0:0:
247,201,121265,2,0,P|262:235|249:271,2,64.9999970245363,8|2|0,0:2|0:3|3:2,0:0:0:0:
142,261,121576,1,2,1:2:0:0:
142,261,121679,2,0,P|129:225|144:190,2,64.9999970245363,8|0|0,0:2|3:2|3:2,0:0:0:0:
58,106,121989,2,0,L|135:96,1,64.9999970245363,2|0,1:3|3:2,0:0:0:0:
201,27,122196,2,0,L|278:36,1,64.9999970245363,8|0,0:2|3:2,0:0:0:0:
367,164,122403,6,0,P|359:126|359:87,1,64.9999970245363,2|0,1:2|3:2,0:0:0:0:
474,233,122610,1,2,0:3:0:0:
474,233,122714,1,2,3:2:0:0:
474,233,122817,2,0,P|481:194|481:155,1,64.9999970245363,8|0,1:2|0:0,0:0:0:0:
368,273,123024,2,0,P|360:311|360:350,1,64.9999970245363,2|8,3:2|0:2,0:0:0:0:
226,377,123231,5,2,1:1:0:0:
182,348,123334,1,8,0:2:0:0:
155,303,123438,2,0,L|173:227,1,64.9999970245363,0|2,3:2|3:1,0:0:0:0:
36,135,123645,2,0,L|54:210,1,64.9999970245363,8|2,1:2|0:3,0:0:0:0:
150,138,123852,5,10,0:1:0:0:
188,102,123955,1,0,3:2:0:0:
186,52,124059,2,0,P|108:41|32:27,2,129.999994049073,6|0|0,1:2|3:2|1:2,0:0:0:0:
302,121,124576,1,8,0:2:0:0:
302,121,124679,2,0,P|337:105|374:91,1,64.9999970245363,2|0,0:3|0:0,0:0:0:0:
410,179,124886,1,2,1:2:0:0:
410,179,124989,2,0,P|374:194|337:208,2,64.9999970245363,8|0|0,0:2|3:2|3:2,0:0:0:0:
249,260,125300,2,0,P|224:289|220:327,1,64.9999970245363,2|0,1:3|3:2,0:0:0:0:
325,364,125507,2,0,P|349:334|353:296,1,64.9999970245363,8|0,0:2|3:2,0:0:0:0:
499,295,125714,5,2,1:2:0:0:
499,295,125817,1,0,3:2:0:0:
499,295,125921,2,0,L|486:218,1,64.9999970245363,2|0,1:3|3:2,0:0:0:0:
381,98,126128,1,2,1:3:0:0:
381,98,126231,1,8,0:2:0:0:
381,98,126335,2,0,L|393:21,1,64.9999970245363,0|0,1:2|3:2,0:0:0:0:
225,187,126541,5,2,1:2:0:0:
181,216,126645,1,8,1:2:0:0:
129,211,126748,1,0,1:2:0:0:
90,170,126852,1,0,1:2:0:0:
79,122,126955,2,0,L|102:87,7,37.5000014305115,8|8|8|8|8|8|8|8,1:1|0:1|0:1|0:1|1:1|0:1|1:1|0:1,0:0:0:0:
23,237,127369,6,0,P|49:300|39:367,1,115.000002193451,6|0,1:2|0:0,0:0:0:0:
146,330,127679,2,0,B|175:327|199:295|199:295|234:292|266:315,1,115.000002193451,6|0,1:2|0:0,0:0:0:0:
247,303,127989,2,0,P|267:276|268:242,1,57.5000010967255,2|0,1:2|0:0,0:0:0:0:
469,91,128196,6,0,P|442:154|452:221,1,115.000002193451,6|0,1:2|0:0,0:0:0:0:
347,125,128507,2,0,B|324:93|290:92|290:92|249:108|224:86,1,115.000002193451,6|0,1:2|0:0,0:0:0:0:
244,97,128817,2,0,P|223:123|222:157,1,57.5000010967255,2|0,1:2|0:0,0:0:0:0:
310,360,129024,6,0,P|283:296|262:224,1,115.000002193451,6|0,1:2|0:0,0:0:0:0:
107,207,129334,2,0,B|139:230|140:264|140:264|124:305|145:329,1,115.000002193451,6|0,1:2|0:0,0:0:0:0:
134,309,129645,2,0,P|171:308|191:280,1,57.5000010967255,2|0,1:2|0:0,0:0:0:0:
276,194,129852,6,0,B|270:225|270:225|273:230|273:230|267:262,1,59.9999981689454,2|2,1:3|0:3,0:0:0:0:
18,174,130265,6,0,B|16:109|62:65|102:76|130:112,1,150,2|0,0:0|0:0,0:0:0:0:
276,194,130679,6,0,B|297:153|297:153|294:153|294:153|309:121|309:121|314:49|254:26|213:43,1,194.999991073609,4|8,1:1|0:2,0:0:0:0:
177,171,131093,2,0,P|200:141|194:104,1,64.9999970245363,0|8,0:2|0:2,0:0:0:0:
112,96,131300,1,2,0:3:0:0:
112,96,131403,2,0,P|88:125|94:162,2,64.9999970245363,0|0|8,3:2|3:2|0:2,0:0:0:0:
276,194,131714,2,0,L|352:206,1,64.9999970245363,2|0,3:2|3:2,0:0:0:0:
441,232,131921,2,0,L|391:292,1,64.9999970245363,2|0,1:2|3:2,0:0:0:0:
333,363,132127,2,0,L|305:290,1,64.9999970245363,10|0,0:2|3:2,0:0:0:0:
209,324,132334,6,0,B|204:374|146:388|122:367|129:317|87:306|57:339|55:366,1,194.999991073609,2|2,1:2|3:2,0:0:0:0:
199,228,132748,2,0,P|184:193|172:156,2,64.9999970245363,8|0|2,0:2|0:0|3:2,0:0:0:0:
121,40,133058,2,0,P|105:75|93:112,1,64.9999970245363,8|2,0:2|0:2,0:0:0:0:
0,126,133265,2,0,P|7:164|10:203,2,64.9999970245363,8|0|2,0:2|3:2|3:2,0:0:0:0:
199,228,133576,5,8,0:2:0:0:
226,190,133679,1,2,0:3:0:0:
265,171,133783,1,10,0:2:0:0:
315,166,133886,1,0,3:2:0:0:
349,200,133989,6,0,B|381:238|350:289|318:291|301:296|300:323|296:355|329:368,1,194.999991073609,6|0,1:2|1:2,0:0:0:0:
462,370,134403,1,0,0:2:0:0:
462,370,134507,1,8,0:2:0:0:
462,370,134610,2,0,P|437:339|415:307,2,64.9999970245363,2|0|0,0:2|0:0|3:2,0:0:0:0:
349,200,134921,2,0,P|371:168|396:138,2,64.9999970245363,8|0|0,0:2|3:2|3:2,0:0:0:0:
292,81,135231,2,0,L|273:5,1,64.9999970245363,2|0,1:3|3:2,0:0:0:0:
182,36,135438,2,0,L|200:111,1,64.9999970245363,8|0,0:2|3:2,0:0:0:0:
102,173,135645,6,0,P|112:209|98:245,1,64.9999970245363,0|0,1:2|3:2,0:0:0:0:
206,323,135852,2,0,P|195:286|209:250,1,64.9999970245363,2|0,0:2|3:2,0:0:0:0:
286,196,136058,2,0,P|322:206|358:192,1,64.9999970245363,2|8,0:2|0:2,0:0:0:0:
353,85,136265,2,0,P|316:74|280:88,1,64.9999970245363,2|0,3:2|0:0,0:0:0:0:
459,118,136472,2,0,B|464:84|464:84|461:75|461:75|465:41,1,64.9999970245363,2|8,3:2|0:2,0:0:0:0:
348,199,136679,2,0,B|353:233|353:233|350:242|350:242|354:275,1,64.9999970245363,2|0,3:2|3:2,0:0:0:0:
201,261,136886,2,0,B|176:233|176:233|181:192,1,64.9999970245363,2|2,3:2|0:3,0:0:0:0:
59,113,137093,5,10,0:2:0:0:
59,113,137196,1,0,3:2:0:0:
59,113,137300,2,0,B|79:148|79:148|67:183,1,64.9999970245363,6|0,1:2|0:0,0:0:0:0:
88,278,137507,1,0,3:2:0:0:
88,278,137610,2,0,B|55:301|55:301|50:338,1,64.9999970245363,10|2,0:2|0:3,0:0:0:0:
133,384,137817,2,0,B|165:360|165:360|170:323,2,64.9999970245363,8|2|0,0:2|0:2|3:2,0:0:0:0:
273,351,138127,5,2,3:2:0:0:
273,351,138231,2,0,B|302:339|302:339|328:276|328:276|365:260,1,129.999994049073,8|0,0:2|3:2,0:0:0:0:
410,182,138541,2,0,L|336:155,1,64.9999970245363,2|0,1:2|3:2,0:0:0:0:
456,276,138748,2,0,L|482:349,1,64.9999970245363,10|0,0:2|3:2,0:0:0:0:
509,176,138955,6,0,P|506:138|476:114,1,64.9999970245363,2|0,1:2|3:2,0:0:0:0:
404,0,139162,1,2,0:3:0:0:
404,0,139265,2,0,P|428:30|466:34,2,64.9999970245363,2|8|0,3:2|0:2|0:0,0:0:0:0:
302,51,139576,1,2,3:2:0:0:
302,51,139679,2,0,B|162:64,1,129.999994049073,8|8,0:2|0:2,0:0:0:0:
86,108,139989,2,0,B|47:138|86:192|136:186|166:144,1,129.999994049073,0|8,3:2|0:2,0:0:0:0:
323,224,140300,5,2,0:3:0:0:
270,215,140403,1,8,0:2:0:0:
228,242,140507,1,0,3:2:0:0:
205,285,140610,2,0,P|219:322|230:360,1,64.9999970245363,6|0,1:2|3:2,0:0:0:0:
363,323,140817,1,0,3:2:0:0:
363,323,140921,2,0,P|349:359|338:397,1,64.9999970245363,2|0,1:2|0:2,0:0:0:0:
230,350,141127,5,8,0:2:0:0:
230,350,141231,2,0,P|193:363|155:374,1,64.9999970245363,2|0,0:2|0:0,0:0:0:0:
83,244,141438,2,0,B|119:253|119:253|137:290,2,64.9999970245363,2|8|0,3:2|0:2|3:2,0:0:0:0:
73,368,141748,2,0,B|38:361|38:361|18:321,1,64.9999970245363,2|2,3:2|1:3,0:0:0:0:
4,181,141955,5,0,3:2:0:0:
36,142,142058,1,10,0:2:0:0:
50,95,142162,1,0,3:2:0:0:
37,46,142265,1,2,1:2:0:0:
208,178,142472,5,8,0:0:0:0:
279,45,142679,1,2,0:3:0:0:
323,22,142783,1,8,0:0:0:0:
369,23,142886,1,12,0:0:0:0:
457,114,143093,1,2,0:3:0:0:
457,114,143196,1,8,0:0:0:0:
462,273,143403,5,2,0:3:0:0:
462,273,143507,2,0,L|428:302,2,32.4999985122681,8|8|8,0:3|0:3|0:3,0:0:0:0:
370,363,143714,1,4,0:3:0:0:
370,363,143817,1,4,0:3:0:0:
370,363,143921,1,0,1:2:0:0:
188,349,144127,6,0,B|193:261|193:261|203:259|203:259|208:170,1,179.999994506836,2|12,0:1|0:2,0:0:0:0:
125,137,144438,2,0,B|121:215|121:215|111:217|111:217|105:309,1,179.999994506836,2|0,0:1|0:0,0:0:0:0:
19,263,144748,2,0,B|26:174|26:174|36:172|36:172|41:87,1,179.999994506836,2|0,1:1|0:0,0:0:0:0:
40,91,145058,1,2,0:1:0:0:
40,91,145162,1,8,0:2:0:0:
335,12,145369,6,2,B|456:87|457:192|457:192|286:253|253:61|253:61|300:67|390:126|370:156|396:207|396:207|400:239|387:273|387:273|440:278|486:258,1,899.999972534181,2|0,0:1|1:2,0:1:0:0:
316,352,146610,2,0,P|310:382|321:354,1,75.0000028610231,2|8,0:1|0:0,0:0:0:0:
190,261,146921,2,0,P|184:230|195:260,1,75.0000028610231,2|0,0:1|0:0,0:0:0:0:
48,376,147231,5,0,1:0:0:0:
48,376,147438,2,0,B|98:383|98:383|166:342|166:342|218:346,1,179.999994506836,2|8,0:1|0:0,0:0:0:0:
190,261,147748,2,0,B|143:257|143:257|78:298|78:298|17:288,1,179.999994506836,2|0,0:1|0:0,0:0:0:0:
3,207,148058,2,0,B|60:216|60:216|121:173|121:173|175:178,1,179.999994506836,2|0,1:1|0:0,0:0:0:0:
168,177,148369,1,2,0:1:0:0:
168,177,148472,1,8,0:0:0:0:
387,351,148679,6,2,B|290:81|469:51|469:51|456:197|281:202|281:202|283:253|296:284|296:284|416:259|470:213,1,899.999972534181,2|0,0:1|1:0,0:1:0:0:
266,87,149921,2,0,P|236:79|265:91,1,75.0000028610231,2|8,0:1|0:0,0:0:0:0:
91,172,150232,2,0,P|121:177|93:165,1,75.0000028610231,2|0,0:1|0:0,0:0:0:0:
244,250,150542,5,0,1:0:0:0:
244,250,150749,2,0,B|266:223|266:223|244:118|244:118|271:82,1,179.999994506836,2|8,0:1|0:0,0:0:0:0:
357,113,151058,2,0,B|332:142|332:142|354:247|354:247|327:283,1,179.999994506836,2|0,0:1|0:0,0:0:0:0:
425,293,151369,2,0,B|447:266|447:266|425:161|425:161|451:124,1,179.999994506836,2|0,1:1|0:0,0:0:0:0:
446,129,151680,1,2,0:1:0:0:
446,129,151783,1,8,0:0:0:0:
296,21,151990,6,2,B|175:57|60:189|60:189|78:71|131:15|131:15|179:31|247:121|247:121|159:180|118:237|118:237|127:282|149:315,1,899.999972534181,2|0,0:1|1:0,0:1:0:0:
285,360,153231,2,0,P|316:361|285:366,1,75.0000028610231,2|8,0:1|0:0,0:0:0:0:
147,313,153542,2,0,P|122:331|150:320,1,75.0000028610231,2|0,0:1|0:0,0:0:0:0:
271,218,153852,5,0,1:0:0:0:
271,218,154059,2,0,B|354:213|354:213|371:231|371:231|450:226,1,179.999994506836,2|8,0:1|0:0,0:0:0:0:
475,141,154369,2,0,B|404:146|404:146|387:128|387:128|302:133,1,179.999994506836,2|0,0:1|0:0,0:0:0:0:
335,47,154679,2,0,B|419:43|419:43|437:59|437:59|510:56,1,179.999994506836,2|0,1:1|0:0,0:0:0:0:
508,56,154990,1,2,0:1:0:0:
508,56,155093,1,8,0:0:0:0:
303,133,155300,2,2,B|332:195|288:272|288:272|228:232|221:183|218:155|218:155|217:123|228:93|247:70|247:70|178:39|178:39|153:87|146:123,1,539.999983520508,2|8,0:1|0:0,0:1:0:0:
60,150,156024,5,8,0:1:0:0:
33,189,156127,1,8,0:1:0:0:
30,237,156231,1,8,0:1:0:0:
47,283,156334,2,0,L|107:289,3,37.5000014305115,0|8|8|8,1:1|0:1|0:1|0:1,0:0:0:0:
183,356,156748,2,0,L|221:349,7,31.25,8|8|8|8|8|8|8|8,1:2|0:1|0:1|0:1|0:1|0:1|0:1|0:1,0:0:0:0:
295,376,157162,6,0,L|307:308,1,57.5000010967255,4|0,1:2|0:0,0:0:0:0:
399,279,157369,2,0,L|386:211,1,57.5000010967255,0|0,3:2|0:0,0:0:0:0:
455,155,157576,2,0,L|420:95,1,57.5000010967255,0|0,1:2|0:0,0:0:0:0:
331,23,157783,1,0,3:2:0:0:
289,52,157886,1,0,3:2:0:0:
268,102,157989,1,0,1:2:0:0:
268,155,158093,6,0,B|235:161|235:161|230:160|230:160|200:165,2,57.5000010967255,0|0|0,3:2|3:2|0:0,0:0:0:0:
160,71,158403,1,0,1:2:0:0:
160,71,158507,2,0,B|133:53|133:53|130:48|130:48|105:31,2,57.5000010967255,0|0|0,3:2|3:2|3:2,0:0:0:0:
62,133,158817,2,0,P|77:200|86:268,2,115.000002193451,4|2|2,1:3|3:2|1:2,0:0:0:0:
190,235,159438,5,2,3:2:0:0:
190,235,159541,1,0,3:2:0:0:
190,235,159645,2,0,B|192:269|192:269|193:274|193:274|195:303,2,57.5000010967255,2|0|0,1:2|3:2|3:2,0:0:0:0:
289,346,159955,2,0,B|291:312|291:312|292:306|292:306|294:277,2,57.5000010967255,2|0|0,3:2|1:2|0:0,0:0:0:0:
410,291,160265,5,2,3:2:0:0:
453,269,160369,1,0,3:2:0:0:
474,226,160472,2,0,B|435:167|431:190|391:132,1,115.000002193451,4|0,1:3|3:2,0:0:0:0:
308,35,160886,2,0,P|302:69|294:103,1,57.5000010967255,8|0,1:1|0:0,0:0:0:0:
171,162,161093,5,0,3:2:0:0:
171,162,161196,1,0,3:2:0:0:
171,162,161300,2,0,B|205:160|205:160|210:158|210:158|239:156,2,57.5000010967255,0|0|0,1:2|3:2|3:2,0:0:0:0:
99,68,161610,1,0,0:0:0:0:
99,68,161714,2,0,B|65:66|65:66|59:64|59:64|30:62,2,57.5000010967255,0|0|0,1:2|3:2|3:2,0:0:0:0:
22,222,162127,6,0,P|38:192|69:177,1,57.5000010967255,4|0,1:3|0:0,0:0:0:0:
131,257,162334,2,0,P|114:286|83:301,1,57.5000010967255,2|0,3:2|0:0,0:0:0:0:
218,324,162541,2,0,P|277:290|345:279,1,115.000002193451,2|2,1:2|0:2,0:0:0:0:
421,218,162852,1,0,3:2:0:0:
421,218,162955,2,0,L|425:149,2,57.5000010967255,2|0|0,1:2|3:2|0:0,0:0:0:0:
311,90,163265,2,0,L|315:158,2,57.5000010967255,2|0|0,3:2|1:2|0:0,0:0:0:0:
400,22,163576,5,2,3:2:0:0:
400,22,163679,1,0,3:2:0:0:
400,22,163783,1,4,1:3:0:0:
315,148,163989,2,0,P|281:152|250:137,1,57.5000010967255,0|0,3:2|3:2,0:0:0:0:
178,72,164196,1,0,1:2:0:0:
123,184,164403,6,0,P|108:153|85:130,1,57.5000010967255,0|0,3:2|3:2,0:0:0:0:
7,51,164610,1,0,1:2:0:0:
7,51,164714,1,0,3:2:0:0:
7,51,164817,2,0,B|6:78|6:78|1:84|1:84|-1:119,1,57.5000010967255
29,216,165024,1,0,1:2:0:0:
29,216,165127,2,0,B|28:248|28:248|31:255|31:255|32:284,2,57.5000010967255,0|0|0,3:2|3:2|3:2,0:0:0:0:
140,364,165438,6,0,P|171:375|203:363,1,57.5000010967255,0|0,1:2|0:0,0:0:0:0:
201,263,165645,2,0,P|169:251|137:263,1,57.5000010967255,2|0,0:2|3:2,0:0:0:0:
302,325,165852,2,0,P|308:257|319:189,1,115.000002193451,2|2,1:2|0:2,0:0:0:0:
381,114,166162,1,0,3:2:0:0:
381,114,166265,2,0,P|403:140|407:173,2,57.5000010967255,2|0|0,1:2|3:2|0:0,0:0:0:0:
319,215,166576,1,2,3:2:0:0:
319,215,166679,2,0,P|293:192|285:159,1,57.5000010967255,0|0,1:2|3:2,0:0:0:0:
279,13,166886,2,0,P|272:46|247:70,1,57.5000010967255,2|0,0:2|3:2,0:0:0:0:
172,151,167093,5,2,1:2:0:0:
172,151,167300,1,0,1:2:0:0:
35,26,167507,1,2,1:2:0:0:
35,26,167714,1,0,1:2:0:0:
103,89,167921,1,2,1:2:0:0:
103,89,168024,1,0,0:0:0:0:
103,89,168127,1,0,1:2:0:0:
30,146,168334,1,0,1:2:0:0:
144,248,168541,5,2,1:3:0:0:
144,248,168645,1,0,1:2:0:0:
144,248,168748,1,2,1:2:0:0:
195,263,168852,1,0,1:2:0:0:
244,252,168955,1,0,1:2:0:0:
281,216,169058,1,2,1:2:0:0:
302,163,169162,5,0,1:2:0:0:
354,129,169265,1,0,1:2:0:0:
414,131,169369,1,2,1:2:0:0:
459,175,169472,1,0,1:2:0:0:
471,230,169576,6,0,L|466:263,7,28.7500005483627,2|0|0|0|0|0|0|0,1:2|1:2|1:2|1:2|1:2|1:2|1:2|1:2,0:0:0:0:
414,323,169989,2,0,L|416:344,16,12.5,0|0|0|0|0|0|0|0|0|0|0|0|0|0|0|0|4,1:2|1:2|1:2|1:2|1:2|1:2|1:2|1:2|1:2|1:2|1:2|1:2|1:2|1:2|1:2|1:2|1:2,0:0:0:0:
256,188,171645,5,10,0:2:0:0:
286,142,171748,1,2,0:0:0:0:
273,90,171852,1,10,0:0:0:0:
224,64,171955,1,10,0:0:0:0:
171,72,172058,6,2,P|148:146|138:223,1,129.999994049073,6|0,1:2|0:0,0:1:0:0:
38,282,172369,2,2,B|50:252|32:212|32:212|66:253|46:304,1,129.999994049073,8|0,0:1|0:0,0:1:0:0:
19,368,172679,5,10,0:1:0:0:
19,368,173196,1,2,0:3:0:0:
129,298,173300,6,2,B|162:303|162:303|164:306|164:306|196:310|196:310|238:336|237:381,1,129.999994049073,12|0,0:1|1:0,0:1:0:0:
344,376,173610,1,8,0:1:0:0:
390,297,173714,2,2,P|337:237|312:164,1,129.999994049073,6|2,1:2|0:3,0:1:0:0:
456,85,174024,2,2,B|425:104|416:143|416:143|416:98|450:68,1,129.999994049073,8|0,0:1|0:0,0:1:0:0:
397,0,174334,5,0,1:0:0:0:
397,0,174438,1,0,3:3:0:0:
397,0,174541,1,0,1:0:0:0:
342,23,174645,1,0,3:3:0:0:
283,23,174748,1,2,0:3:0:0:
230,46,174852,1,8,0:3:0:0:
187,81,174955,2,0,P|168:116|161:154,1,64.9999970245363,8|8,0:2|0:0,0:0:0:0:
81,188,175162,2,0,L|84:224,3,32.4999985122681,0|0|0|0,1:2|1:2|1:2|1:2,0:0:0:0:
46,296,175369,5,6,1:2:0:0:
202,371,175576,1,2,0:3:0:0:
252,367,175679,1,2,0:2:0:0:
288,333,175783,1,8,0:1:0:0:
327,224,175989,5,2,0:2:0:0:
327,224,176093,1,0,0:0:0:0:
327,224,176196,1,2,1:2:0:0:
425,312,176403,1,2,0:3:0:0:
425,312,176610,1,8,0:1:0:0:
448,189,176817,5,2,1:2:0:0:
448,189,177024,1,2,1:2:0:0:
354,95,177231,1,2,0:3:0:0:
304,81,177334,1,2,1:2:0:0:
253,101,177438,1,8,0:1:0:0:
177,211,177645,5,2,1:2:0:0:
128,221,177748,1,0,0:0:0:0:
80,197,177852,1,2,1:2:0:0:
38,93,178058,1,0,1:2:0:0:
271,239,178265,6,0,B|280:284|280:284|277:283|277:283|284:317|284:317|270:389|206:395|176:368,1,189.999994926453,4|0,1:1|0:0,0:0:0:0:
94,272,178679,6,0,P|122:246|126:208,1,64.9999970245363,4|0,1:2|0:0,0:0:0:0:
203,135,178886,2,0,P|228:106|266:102,1,64.9999970245363,0|8,3:2|0:2,0:0:0:0:
337,21,179093,1,0,1:2:0:0:
337,21,179196,2,0,B|368:11|368:11|368:7|368:7|409:-4,2,64.9999970245363,8|2|0,0:2|0:3|3:2,0:0:0:0:
423,104,179507,5,2,1:2:0:0:
423,104,179610,2,0,B|455:113|455:113|459:116|459:116|495:128,2,64.9999970245363,8|0|0,0:2|3:2|3:2,0:0:0:0:
400,270,179921,1,2,1:3:0:0:
400,270,180024,1,0,3:2:0:0:
400,270,180127,2,0,P|384:235|395:196,1,64.9999970245363,8|0,0:2|3:2,0:0:0:0:
290,298,180334,6,0,P|305:332|294:371,1,64.9999970245363,2|0,1:2|3:2,0:0:0:0:
184,324,180541,1,2,0:3:0:0:
184,324,180645,1,2,3:2:0:0:
184,324,180748,2,0,L|119:307,1,64.9999970245363,8|0,1:2|0:0,0:0:0:0:
53,225,180955,1,2,3:2:0:0:
53,225,181058,2,0,P|75:194|114:183,2,64.9999970245363,8|2|8,0:2|1:1|0:2,0:0:0:0:
179,99,181369,5,0,3:2:0:0:
227,121,181472,1,2,3:1:0:0:
278,125,181576,2,0,P|298:93|310:56,1,64.9999970245363,8|2,1:2|0:3,0:0:0:0:
449,53,181783,2,0,P|428:85|416:122,1,64.9999970245363,10|0,0:1|3:2,0:0:0:0:
364,230,181989,6,0,B|373:287|373:287|370:297|370:297|381:359,2,129.999994049073,6|0|0,1:2|3:2|1:2,0:0:0:0:
271,293,182507,1,8,0:2:0:0:
271,293,182610,2,0,P|244:265|246:227,1,64.9999970245363,2|0,0:3|0:0,0:0:0:0:
133,296,182817,1,2,1:2:0:0:
133,296,182921,2,0,P|159:323|157:361,2,64.9999970245363,8|0|0,0:2|3:2|3:2,0:0:0:0:
35,253,183231,2,0,L|29:330,1,64.9999970245363,2|0,1:3|3:2,0:0:0:0:
52,149,183438,5,8,0:2:0:0:
52,149,183541,1,0,3:2:0:0:
52,149,183645,2,0,L|41:71,1,64.9999970245363,2|0,1:2|3:2,0:0:0:0:
158,77,183852,2,0,L|147:0,1,64.9999970245363,2|0,1:3|3:2,0:0:0:0:
270,130,184058,1,2,1:3:0:0:
270,130,184162,1,8,0:2:0:0:
270,130,184265,2,0,L|280:207,1,64.9999970245363,0|0,1:2|3:2,0:0:0:0:
380,272,184472,5,2,1:2:0:0:
430,268,184576,1,8,1:2:0:0:
471,234,184679,1,0,1:2:0:0:
475,184,184783,1,0,1:2:0:0:
451,134,184886,2,0,L|412:106,7,37.5000014305115,10|8|8|8|8|8|8|0,1:1|0:1|0:1|0:1|0:1|0:1|0:1|1:2,0:0:0:0:
387,26,185300,5,6,1:2:0:0:
270,130,185507,1,2,0:3:0:0:
247,178,185610,1,2,0:2:0:0:
244,230,185714,1,8,0:1:0:0:
288,351,185921,1,2,0:2:0:0:
161,330,186127,5,2,1:2:0:0:
126,220,186334,1,2,0:3:0:0:
126,220,186438,1,2,0:2:0:0:
126,220,186541,1,8,0:1:0:0:
82,103,186748,1,2,1:2:0:0:
198,61,186955,5,2,1:2:0:0:
331,102,187162,1,2,0:3:0:0:
364,136,187265,1,2,1:2:0:0:
371,187,187369,1,8,0:1:0:0:
476,267,187576,5,2,0:2:0:0:
443,301,187679,1,2,0:3:0:0:
436,352,187783,1,2,1:2:0:0:
319,369,187989,1,2,0:3:0:0:
279,265,188196,1,10,0:1:0:0:
279,265,188403,2,0,L|241:262,3,32.4999985122681,0|0|0|0,1:2|1:2|1:2|1:2,0:0:0:0:
208,168,188610,5,6,1:2:0:0:
331,102,188817,1,2,0:3:0:0:
348,55,188921,1,2,0:2:0:0:
336,7,189024,1,8,0:1:0:0:
473,75,189231,5,2,0:2:0:0:
473,75,189334,1,0,0:0:0:0:
473,75,189438,1,2,1:2:0:0:
476,197,189645,1,2,0:3:0:0:
436,223,189748,1,2,0:2:0:0:
388,218,189852,1,8,0:1:0:0:
350,341,190058,1,2,1:2:0:0:
220,357,190265,5,2,1:2:0:0:
107,296,190472,1,2,0:3:0:0:
107,296,190576,1,2,1:2:0:0:
107,296,190679,1,8,0:1:0:0:
70,174,190886,1,2,1:2:0:0:
86,129,190989,1,0,0:0:0:0:
128,106,191093,1,2,1:2:0:0:
246,139,191300,1,0,1:2:0:0:
494,0,191507,6,0,B|449:8|449:8|451:10|451:10|417:15|417:15|354:53|370:116|406:134,1,189.999994926453,4|0,1:1|0:0,0:0:0:0:
343,262,191921,6,0,B|339:228|339:228|335:224|335:224|331:185,1,64.9999970245363,4|0,1:2|0:0,0:0:0:0:
479,118,192128,2,0,B|475:155|475:155|471:159|471:159|467:195,1,64.9999970245363,0|8,3:2|0:2,0:0:0:0:
510,287,192335,1,0,1:2:0:0:
510,287,192438,2,0,P|476:302|440:289,2,64.9999970245363,8|2|0,0:2|0:3|3:2,0:0:0:0:
282,256,192749,1,2,1:2:0:0:
282,256,192852,2,0,P|318:269|353:254,2,64.9999970245363,8|0|0,0:2|3:2|3:2,0:0:0:0:
246,139,193162,2,0,L|236:75,1,64.9999970245363,2|0,1:3|3:2,0:0:0:0:
144,0,193369,2,0,L|86:53,1,64.9999970245363,8|0,0:2|3:2,0:0:0:0:
7,101,193576,6,0,L|17:178,1,64.9999970245363,2|0,1:2|3:2,0:0:0:0:
60,273,193783,1,2,0:3:0:0:
60,273,193887,1,2,3:2:0:0:
60,273,193990,2,0,L|50:350,1,64.9999970245363,8|0,1:2|0:0,0:0:0:0:
182,308,194196,2,0,L|172:230,1,64.9999970245363,2|8,3:2|0:2,0:0:0:0:
293,141,194404,5,2,1:1:0:0:
340,164,194507,1,8,0:2:0:0:
372,206,194611,2,0,P|360:242|331:268,1,64.9999970245363,0|2,3:2|3:1,0:0:0:0:
299,373,194817,2,0,P|286:336|257:310,1,64.9999970245363,8|2,1:2|0:3,0:0:0:0:
182,251,195025,5,10,0:1:0:0:
182,251,195128,1,0,3:2:0:0:
182,251,195232,2,0,B|133:218|133:218|147:122,2,129.999994049073,6|0|0,1:2|3:2|1:2,0:0:0:0:
223,74,195749,1,8,0:2:0:0:
223,74,195852,2,0,P|213:37|180:18,1,64.9999970245363,2|0,0:3|0:0,0:0:0:0:
297,145,196059,1,2,1:2:0:0:
297,145,196162,2,0,P|333:134|352:101,2,64.9999970245363,8|0|0,0:2|3:2|3:2,0:0:0:0:
285,258,196473,2,0,L|283:335,1,64.9999970245363,2|0,1:3|3:2,0:0:0:0:
137,384,196679,2,0,L|135:306,1,64.9999970245363,8|0,0:2|3:2,0:0:0:0:
35,230,196887,5,2,1:2:0:0:
35,230,196990,1,0,3:2:0:0:
35,230,197094,2,0,P|43:192|29:157,1,64.9999970245363,2|0,1:3|3:2,0:0:0:0:
128,25,197300,1,2,1:3:0:0:
128,25,197403,1,8,0:2:0:0:
128,25,197507,2,0,P|119:62|133:97,1,64.9999970245363,0|0,1:2|0:0,0:0:0:0:
269,168,197714,5,2,1:2:0:0:
317,157,197818,1,8,1:2:0:0:
343,116,197921,1,0,1:2:0:0:
384,85,198025,1,0,1:2:0:0:
436,85,198127,2,0,L|443:123,7,32.4999985122681,8|8|8|8|8|8|8|8,1:1|0:1|0:1|0:1|1:1|0:1|1:1|0:1,0:0:0:0:
508,203,198542,6,0,L|491:363,1,115.000002193451,6|0,1:2|0:0,0:0:0:0:
353,342,198852,2,0,B|337:316|291:304|291:304|250:312|242:355,1,115.000002193451,6|0,1:2|0:0,0:0:0:0:
256,323,199162,2,0,P|283:305|286:271,1,57.5000010967255,2|0,1:2|0:0,0:0:0:0:
165,242,199369,6,0,P|113:283|107:350,1,115.000002193451,6|0,1:2|0:0,0:0:0:0:
276,194,199680,2,0,B|302:163|360:173|316:204|374:224|405:197,1,115.000002193451,6|0,1:2|0:0,0:0:0:0:
376,208,199990,2,0,P|365:239|375:271,1,57.5000010967255,2|0,1:2|0:0,0:0:0:0:
508,203,200197,6,0,P|489:135|460:67,1,115.000002193451,6|0,1:2|0:0,0:0:0:0:
343,7,200507,2,0,B|320:39|289:50|289:50|250:30|214:47,1,115.000002193451,6|0,1:2|0:0,0:0:0:0:
245,39,200818,2,0,P|250:74|226:99,1,57.5000010967255,2|0,1:2|0:0,0:0:0:0:
117,57,201025,6,0,B|112:31|112:31|115:19|115:19|109:-13,1,57.5000010967255,2|0,1:3|0:0,0:0:0:0:
111,0,201231,1,2,0:3:0:0:
111,0,201334,1,8,0:3:0:0:
157,319,201645,2,0,P|163:275|178:233,1,75.0000028610231,4|0,0:3|0:0,0:0:0:0:
248,188,201955,1,8,0:3:0:0:
248,188,202058,1,4,0:3:0:0:
415,43,202265,1,8,0:1:0:0:
415,43,202679,6,2,B|447:76|447:76|444:77|444:77|467:103|467:103|492:171|440:210|405:229|350:217|350:217|349:221|349:221|300:273|266:238|240:302|257:312|247:371|247:371|266:260|335:229|359:233,1,675.999995874023,4|0,1:1|0:0,0:2:0:0:
