osu file format v14

[General]
AudioFilename: audio.mp3
AudioLeadIn: 0
PreviewTime: 67235
Countdown: 0
SampleSet: Normal
StackLeniency: 0.7
Mode: 1
LetterboxInBreaks: 0
WidescreenStoryboard: 1

[Editor]
DistanceSpacing: 1.01
BeatDivisor: 4
GridSize: 32
TimelineZoom: 2.1

[Metadata]
Title:Hello Kitty no Perfect Music
TitleUnicode:ハローキティのPerfect Music
Artist:Aisia Chang
ArtistUnicode:アイシアちゃん
Creator:KTYN
Version:Oni
Source:Hello Kitty and Friends
Tags:kitajimayn yuni jerry japanese jcore j-core bootleg electronic サンリオ sanrio 林原めぐみ hayashibara megumi 宮川泰 miyakawa hiroshi
BeatmapID:3337330
BeatmapSetID:1635190

[Difficulty]
HPDrainRate:5.3
CircleSize:5
OverallDifficulty:5.3
ApproachRate:5
SliderMultiplier:1.4
SliderTickRate:1

[Events]
//Background and Video events
0,0,"kitttt.jpg",0,130
//Break Periods
//Storyboard Layer 0 (Background)
//Storyboard Layer 1 (Fail)
//Storyboard Layer 2 (Pass)
//Storyboard Layer 3 (Foreground)
//Storyboard Layer 4 (Overlay)
//Storyboard Sound Samples

[TimingPoints]
2824,352.941176470588,4,1,0,80,1,0
2824,-111.111111111111,4,1,0,80,0,0
10213,-108.108108108108,4,1,0,80,0,0
10566,-105.263157894737,4,1,0,90,0,0
10654,-104.577099688935,4,1,0,90,0,0
10743,-103.892281656979,4,1,0,90,0,0
10919,-102.564102564103,4,1,0,90,0,0
11007,-101.912666907254,4,1,0,90,0,0
11096,-101.262191623637,4,1,0,90,0,0
11272,-100,4,1,0,95,0,0
11294,352.941176470588,4,1,0,95,1,0
45176,-90.909090909091,4,1,0,100,0,1
45507,-92.485833142258,4,1,0,100,0,1
45860,-94.118235303922,4,1,0,100,0,1
46125,-95.382068779137,4,1,0,100,0,1
46390,-96.680306117208,4,1,0,100,0,1
46566,-97.562239767799,4,1,0,100,0,1
46831,-98.92092632169,4,1,0,100,0,1
47096,-100.317990442522,4,1,0,100,0,1
47272,-101.267865789143,4,1,0,100,0,1
47537,-102.732498908456,4,1,0,100,0,1
47801,-104.234347312463,4,1,0,100,0,1
47978,-105.26610122099,4,1,0,100,0,1
48331,-107.385996272772,4,1,0,100,0,1
48684,-109.593028897471,4,1,0,100,0,1
48948,-111.310415516834,4,1,0,100,0,1
49213,-113.075690828995,4,1,0,100,0,1
49390,-114.290918658544,4,1,0,100,0,1
49654,-116.152786062488,4,1,0,100,0,1
49919,-118.083727154866,4,1,0,100,0,1
50096,-119.409612822736,4,1,0,100,0,1
50360,-121.443471902622,4,1,0,100,0,1
50448,-122.144834746496,4,1,0,100,0,1
50801,-125,4,1,0,100,0,1
55764,-125,4,1,0,100,0,0
55941,-125,4,1,0,90,0,0
56382,-125,4,1,0,100,0,0
56470,-100,4,1,0,100,0,1
64919,-100,4,1,0,100,0,1
65096,-99.234329714063,4,1,0,100,0,1
65184,-98.858004740358,4,1,0,100,0,1
65272,-98.484523247328,4,1,0,100,0,1
65448,-97.741798040051,4,1,0,100,0,1
65625,-97.014294172376,4,1,0,100,0,1
65801,-96.297540088993,4,1,0,100,0,1
65890,-95.939107523734,4,1,0,100,0,1
65978,-95.587316138172,4,1,0,100,0,1
66154,-94.891416752844,4,1,0,100,0,1
66331,-94.201708278581,4,1,0,100,0,1
66419,-93.862520458265,4,1,0,100,0,1
66507,-93.525766470972,4,1,0,100,0,1
66596,-93.187634561482,4,1,0,100,0,1
66684,-92.855697227282,4,1,0,100,0,1
66860,-92.19886660504,4,1,0,100,0,1
67037,-91.547609545854,4,1,0,100,0,1
67235,-90.909090909091,4,1,0,100,0,0
67764,-100,4,1,0,100,0,1
101646,-100,4,1,0,100,0,0
101801,-101.262191623637,4,1,0,80,0,0
101890,-101.912666907254,4,1,0,80,0,0
101978,-102.564102564103,4,1,0,80,0,0
102066,-103.223919877184,4,1,0,80,0,0
102154,-103.892281656979,4,1,0,80,0,0
102331,-105.263157894737,4,1,0,80,0,0
102507,-106.662637860704,4,1,0,80,0,0
102596,-107.384591984181,4,1,0,80,0,0
102684,-108.108108108108,4,1,0,80,0,0
102772,-108.841439913667,4,1,0,80,0,0
102860,-109.584788513776,4,1,0,80,0,0
103037,-111.111111111111,4,1,0,80,0,0
104096,-90.9090909090909,4,1,0,100,0,0

[HitObjects]
171,62,2824,5,0,0:0:0:0:
186,189,3176,1,8,0:0:0:0:
186,189,3529,1,0,0:0:0:0:
136,110,3618,1,8,0:0:0:0:
146,124,3706,1,0,0:0:0:0:
186,189,3882,1,8,0:0:0:0:
136,110,4059,1,8,0:0:0:0:
186,189,4235,1,0,0:0:0:0:
186,189,4588,1,8,0:0:0:0:
140,128,4765,1,8,0:0:0:0:
186,189,4941,1,0,0:0:0:0:
140,128,5029,1,8,0:0:0:0:
186,189,5118,1,0,0:0:0:0:
186,189,5294,1,8,0:0:0:0:
186,189,5647,1,0,0:0:0:0:
186,189,6000,1,8,0:0:0:0:
186,189,6353,1,0,0:0:0:0:
135,65,6441,1,8,0:0:0:0:
136,84,6529,1,0,0:0:0:0:
186,189,6706,1,8,0:0:0:0:
166,86,6882,1,8,0:0:0:0:
166,86,7059,1,0,0:0:0:0:
166,86,7412,1,8,0:0:0:0:
134,100,7588,1,8,0:0:0:0:
166,86,7765,1,0,0:0:0:0:
134,100,7853,1,8,0:0:0:0:
166,86,7941,1,0,0:0:0:0:
166,86,8118,1,8,0:0:0:0:
200,53,8206,1,8,0:0:0:0:
198,62,8471,1,0,0:0:0:0:
134,100,8647,1,8,0:0:0:0:
134,100,8735,1,8,0:0:0:0:
134,100,8823,1,8,0:0:0:0:
94,235,8912,1,8,0:0:0:0:
94,235,9000,1,0,0:0:0:0:
134,100,9176,1,0,0:0:0:0:
134,100,9353,1,8,0:0:0:0:
134,100,9441,1,8,0:0:0:0:
150,75,9529,1,8,0:0:0:0:
94,235,9618,1,8,0:0:0:0:
128,102,9706,1,0,0:0:0:0:
176,101,9882,1,8,0:0:0:0:
176,101,10235,1,8,0:0:0:0:
176,101,10588,1,0,0:0:0:0:
176,101,10676,1,0,0:0:0:0:
176,101,10765,1,0,0:0:0:0:
175,107,10941,1,8,0:0:0:0:
175,110,11029,1,8,0:0:0:0:
188,154,11118,1,8,0:0:0:0:
174,112,11294,1,4,0:0:0:0:
166,95,11646,1,8,0:0:0:0:
166,95,11823,1,0,0:0:0:0:
134,82,11911,1,0,0:0:0:0:
144,70,11999,1,8,0:0:0:0:
166,97,12176,1,0,0:0:0:0:
166,97,12352,1,8,0:0:0:0:
144,70,12705,1,0,0:0:0:0:
146,74,12882,1,0,0:0:0:0:
146,76,13058,1,8,0:0:0:0:
146,75,13235,1,8,0:0:0:0:
159,100,13323,1,8,0:0:0:0:
146,75,13411,1,0,0:0:0:0:
146,75,13588,1,8,0:0:0:0:
146,74,13764,1,8,0:0:0:0:
150,148,14117,1,0,0:0:0:0:
143,138,14293,1,8,0:0:0:0:
150,148,14470,1,8,0:0:0:0:
183,102,14646,1,0,0:0:0:0:
183,102,14823,1,8,0:0:0:0:
118,138,14911,1,0,0:0:0:0:
220,113,14999,1,0,0:0:0:0:
220,113,15176,1,8,0:0:0:0:
148,79,15529,1,0,0:0:0:0:
183,102,15705,1,0,0:0:0:0:
155,122,15793,1,0,0:0:0:0:
148,79,15882,1,8,0:0:0:0:
183,102,16058,1,8,0:0:0:0:
183,102,16146,1,8,0:0:0:0:
161,142,16235,1,0,0:0:0:0:
158,104,16411,1,8,0:0:0:0:
148,79,16588,1,8,0:0:0:0:
161,142,16941,1,0,0:0:0:0:
148,79,17293,1,8,0:0:0:0:
183,102,17470,1,0,0:0:0:0:
183,102,17646,1,0,0:0:0:0:
183,102,17735,1,8,0:0:0:0:
161,142,17823,1,0,0:0:0:0:
148,77,17999,1,8,0:0:0:0:
183,102,18352,1,0,0:0:0:0:
183,102,18441,1,0,0:0:0:0:
183,102,18529,1,0,0:0:0:0:
148,77,18705,1,8,0:0:0:0:
183,102,18882,1,0,0:0:0:0:
183,102,18970,1,0,0:0:0:0:
183,102,19058,1,8,0:0:0:0:
182,117,19235,1,0,0:0:0:0:
148,77,19411,1,8,0:0:0:0:
201,95,19764,1,0,0:0:0:0:
201,95,19941,1,0,0:0:0:0:
148,77,20117,1,8,0:0:0:0:
199,101,20293,1,0,0:0:0:0:
199,101,20470,1,8,0:0:0:0:
199,101,20558,1,0,0:0:0:0:
199,101,20735,1,0,0:0:0:0:
148,77,20823,1,8,0:0:0:0:
199,101,21176,1,0,0:0:0:0:
168,111,21352,1,0,0:0:0:0:
170,122,21441,1,0,0:0:0:0:
148,77,21529,1,8,0:0:0:0:
181,139,21705,1,8,0:0:0:0:
174,66,21793,1,0,0:0:0:0:
162,59,21882,1,8,0:0:0:0:
169,72,22058,1,0,0:0:0:0:
148,77,22235,1,8,0:0:0:0:
148,77,22588,1,0,0:0:0:0:
176,82,22764,1,0,0:0:0:0:
148,77,22941,1,8,0:0:0:0:
179,39,23117,1,8,0:0:0:0:
179,39,23205,1,8,0:0:0:0:
179,39,23293,1,0,0:0:0:0:
179,39,23470,1,0,0:0:0:0:
148,77,23646,1,8,0:0:0:0:
180,43,23823,1,0,0:0:0:0:
198,177,23911,1,0,0:0:0:0:
198,177,23999,1,8,0:0:0:0:
176,64,24176,1,0,0:0:0:0:
148,77,24352,1,8,0:0:0:0:
180,47,24529,1,8,0:0:0:0:
154,81,24617,1,8,0:0:0:0:
159,77,24705,1,0,0:0:0:0:
180,45,25058,1,8,0:0:0:0:
180,47,25411,1,0,0:0:0:0:
109,168,25499,1,0,0:0:0:0:
126,61,25764,1,0,0:0:0:0:
109,168,25852,1,0,0:0:0:0:
180,45,26117,1,0,0:0:0:0:
180,45,26293,1,0,0:0:0:0:
148,77,26470,1,8,0:0:0:0:
180,48,26646,1,8,0:0:0:0:
180,48,26735,1,8,0:0:0:0:
180,48,26823,1,0,0:0:0:0:
109,168,26911,1,0,0:0:0:0:
166,118,27176,1,8,0:0:0:0:
170,72,27352,1,8,0:0:0:0:
166,118,27705,1,0,0:0:0:0:
148,77,27882,1,8,0:0:0:0:
119,195,27970,1,8,0:0:0:0:
119,195,28058,1,8,0:0:0:0:
151,92,28235,1,0,0:0:0:0:
154,92,28588,1,8,0:0:0:0:
152,88,28764,1,8,0:0:0:0:
152,88,28852,1,8,0:0:0:0:
154,92,28941,1,0,0:0:0:0:
154,92,29117,1,0,0:0:0:0:
154,92,29293,1,8,0:0:0:0:
154,92,29470,1,0,0:0:0:0:
154,92,29558,1,0,0:0:0:0:
154,92,29646,1,8,0:0:0:0:
154,92,29823,1,0,0:0:0:0:
154,92,29999,1,8,0:0:0:0:
154,92,30176,1,8,0:0:0:0:
154,92,30352,1,0,0:0:0:0:
154,92,30705,1,8,0:0:0:0:
154,92,31058,1,0,0:0:0:0:
156,61,31235,1,0,0:0:0:0:
167,65,31411,1,8,0:0:0:0:
151,55,31588,1,0,0:0:0:0:
166,106,31676,1,8,0:0:0:0:
135,86,31764,1,0,0:0:0:0:
135,86,31941,1,0,0:0:0:0:
116,97,32117,1,8,0:0:0:0:
161,85,32293,1,0,0:0:0:0:
161,85,32382,1,0,0:0:0:0:
161,85,32470,1,8,0:0:0:0:
165,72,32646,1,0,0:0:0:0:
165,72,32823,1,8,0:0:0:0:
174,158,32999,1,8,0:0:0:0:
174,165,33088,1,8,0:0:0:0:
174,165,33176,1,0,0:0:0:0:
174,158,33352,1,8,0:0:0:0:
161,86,33529,1,8,0:0:0:0:
158,47,33882,1,0,0:0:0:0:
182,115,33970,1,0,0:0:0:0:
158,47,34235,1,0,0:0:0:0:
182,115,34323,1,0,0:0:0:0:
158,47,34588,1,0,0:0:0:0:
158,47,34764,1,0,0:0:0:0:
158,47,34941,1,8,0:0:0:0:
158,47,35117,1,0,0:0:0:0:
159,57,35205,1,0,0:0:0:0:
158,47,35293,1,8,0:0:0:0:
158,47,35470,1,0,0:0:0:0:
158,47,35646,1,8,0:0:0:0:
158,47,35823,1,8,0:0:0:0:
158,47,35911,1,8,0:0:0:0:
159,56,35999,1,0,0:0:0:0:
102,144,36176,1,0,0:0:0:0:
158,47,36352,1,8,0:0:0:0:
158,47,36705,1,0,0:0:0:0:
182,115,36793,1,0,0:0:0:0:
136,86,37058,1,0,0:0:0:0:
182,115,37146,1,0,0:0:0:0:
164,77,37411,1,0,0:0:0:0:
164,77,37588,1,0,0:0:0:0:
164,83,37764,1,8,0:0:0:0:
164,83,37941,1,0,0:0:0:0:
164,83,38029,1,0,0:0:0:0:
164,84,38117,1,8,0:0:0:0:
164,84,38293,1,0,0:0:0:0:
164,86,38470,1,8,0:0:0:0:
164,83,38646,1,8,0:0:0:0:
153,56,38735,1,8,0:0:0:0:
156,84,38823,1,0,0:0:0:0:
104,150,38999,1,0,0:0:0:0:
164,84,39176,1,8,0:0:0:0:
161,87,39529,1,0,0:0:0:0:
161,87,39882,1,8,0:0:0:0:
164,84,40058,1,8,0:0:0:0:
148,154,40146,1,8,0:0:0:0:
164,86,40235,1,0,0:0:0:0:
161,87,40588,1,8,0:0:0:0:
161,87,40764,1,8,0:0:0:0:
148,154,40852,1,8,0:0:0:0:
164,84,40941,1,0,0:0:0:0:
160,89,41293,1,8,0:0:0:0:
161,87,41470,1,8,0:0:0:0:
161,87,41558,1,8,0:0:0:0:
161,87,41646,1,0,0:0:0:0:
154,178,41999,1,8,0:0:0:0:
154,178,42176,1,8,0:0:0:0:
154,178,42264,1,8,0:0:0:0:
154,178,42352,1,0,0:0:0:0:
127,134,42529,1,8,0:0:0:0:
154,178,42705,1,0,0:0:0:0:
127,134,42882,1,8,0:0:0:0:
141,80,43058,1,0,0:0:0:0:
136,107,43235,1,0,0:0:0:0:
136,113,43411,1,0,0:0:0:0:
136,112,43499,1,0,0:0:0:0:
136,112,43588,1,0,0:0:0:0:
136,114,43676,1,0,0:0:0:0:
256,192,43764,12,0,44999,0:0:0:0:
156,156,45176,5,4,0:0:0:0:
156,156,45529,1,4,0:0:0:0:
156,156,45882,1,4,0:0:0:0:
156,156,46146,1,4,0:0:0:0:
156,156,46411,1,4,0:0:0:0:
156,156,46588,1,4,0:0:0:0:
156,156,46852,1,4,0:0:0:0:
156,156,47117,1,4,0:0:0:0:
156,156,47293,1,4,0:0:0:0:
156,156,47558,1,4,0:0:0:0:
156,156,47823,1,4,0:0:0:0:
156,156,47999,1,4,0:0:0:0:
156,156,48352,1,4,0:0:0:0:
156,156,48705,1,4,0:0:0:0:
156,156,48970,1,4,0:0:0:0:
156,156,49235,1,4,0:0:0:0:
156,156,49411,1,4,0:0:0:0:
156,156,49676,1,4,0:0:0:0:
156,156,49941,1,4,0:0:0:0:
156,156,50117,1,4,0:0:0:0:
121,117,50382,1,0,0:0:0:0:
156,156,50470,1,8,0:0:0:0:
151,165,50823,1,0,0:0:0:0:
150,169,51176,1,0,0:0:0:0:
122,68,51352,1,8,0:0:0:0:
139,165,51529,1,0,0:0:0:0:
188,46,51793,1,0,0:0:0:0:
156,61,51970,1,8,0:0:0:0:
142,114,52058,1,0,0:0:0:0:
155,157,52235,1,0,0:0:0:0:
149,78,52499,1,0,0:0:0:0:
156,61,52676,1,8,0:0:0:0:
161,111,52764,1,0,0:0:0:0:
160,102,52941,1,0,0:0:0:0:
159,102,53205,1,0,0:0:0:0:
162,107,53382,1,8,0:0:0:0:
162,107,53470,1,0,0:0:0:0:
161,107,53646,1,0,0:0:0:0:
157,109,53999,1,0,0:0:0:0:
152,109,54176,1,8,0:0:0:0:
151,120,54352,1,0,0:0:0:0:
196,44,54617,1,0,0:0:0:0:
156,51,54793,1,8,0:0:0:0:
116,119,54882,1,0,0:0:0:0:
136,73,55058,1,0,0:0:0:0:
130,111,55323,1,0,0:0:0:0:
147,90,55499,1,8,0:0:0:0:
147,112,55588,1,0,0:0:0:0:
126,139,55764,1,0,0:0:0:0:
126,139,56029,1,0,0:0:0:0:
126,139,56117,1,8,0:0:0:0:
150,100,56470,1,4,0:0:0:0:
157,61,56735,1,8,0:0:0:0:
157,61,56823,1,0,0:0:0:0:
128,117,56999,1,8,0:0:0:0:
126,122,57176,1,0,0:0:0:0:
126,125,57441,1,0,0:0:0:0:
194,41,57617,1,8,0:0:0:0:
194,41,57705,1,0,0:0:0:0:
150,100,57882,1,0,0:0:0:0:
150,100,58146,1,0,0:0:0:0:
194,41,58323,1,8,0:0:0:0:
194,41,58411,1,0,0:0:0:0:
149,107,58588,1,0,0:0:0:0:
66,148,58676,1,8,0:0:0:0:
194,41,58852,1,0,0:0:0:0:
115,184,59029,1,8,0:0:0:0:
115,184,59117,1,0,0:0:0:0:
131,65,59293,1,0,0:0:0:0:
157,61,59558,1,8,0:0:0:0:
157,61,59646,1,0,0:0:0:0:
128,117,59823,1,8,0:0:0:0:
126,122,59999,1,0,0:0:0:0:
126,125,60264,1,0,0:0:0:0:
126,126,60441,1,8,0:0:0:0:
126,126,60529,1,0,0:0:0:0:
150,100,60705,1,0,0:0:0:0:
156,96,60970,1,0,0:0:0:0:
176,186,61146,1,8,0:0:0:0:
176,186,61235,1,0,0:0:0:0:
149,107,61411,1,0,0:0:0:0:
158,55,61499,1,8,0:0:0:0:
104,74,61676,1,0,0:0:0:0:
155,67,61852,1,8,0:0:0:0:
153,81,61941,1,0,0:0:0:0:
155,78,62029,1,8,0:0:0:0:
141,70,62117,1,0,0:0:0:0:
157,61,62382,1,8,0:0:0:0:
157,61,62470,1,0,0:0:0:0:
128,117,62646,1,8,0:0:0:0:
126,122,62823,1,0,0:0:0:0:
141,70,63088,1,0,0:0:0:0:
137,67,63264,1,8,0:0:0:0:
133,92,63352,1,0,0:0:0:0:
150,100,63529,1,0,0:0:0:0:
150,100,63705,1,8,0:0:0:0:
150,100,63793,1,0,0:0:0:0:
150,105,63970,5,8,0:0:0:0:
150,105,64058,1,0,0:0:0:0:
149,107,64235,1,0,0:0:0:0:
159,122,64323,1,8,0:0:0:0:
153,95,64411,1,8,0:0:0:0:
154,117,64499,1,0,0:0:0:0:
158,100,64676,1,8,0:0:0:0:
157,104,64764,1,0,0:0:0:0:
154,83,64852,1,8,0:0:0:0:
148,112,64941,1,0,0:0:0:0:
141,93,65117,5,0,0:0:0:0:
141,93,65205,1,0,0:0:0:0:
141,93,65293,1,8,0:0:0:0:
140,93,65470,1,8,0:0:0:0:
140,93,65646,1,0,0:0:0:0:
141,93,65823,1,0,0:0:0:0:
141,71,65911,1,0,0:0:0:0:
141,72,65999,1,8,0:0:0:0:
141,72,66176,1,8,0:0:0:0:
141,72,66352,1,0,0:0:0:0:
141,72,66441,1,0,0:0:0:0:
141,72,66529,1,8,0:0:0:0:
141,75,66617,1,8,0:0:0:0:
141,77,66705,1,0,0:0:0:0:
141,77,66882,1,8,0:0:0:0:
141,77,67058,1,0,0:0:0:0:
171,169,67235,5,12,0:0:0:0:
171,169,67411,1,12,0:0:0:0:
112,134,67764,1,4,0:0:0:0:
158,176,68117,1,0,0:0:0:0:
184,160,68293,1,8,0:0:0:0:
222,190,68382,1,0,0:0:0:0:
184,160,68470,1,0,0:0:0:0:
201,138,68646,1,0,0:0:0:0:
201,138,68823,1,8,0:0:0:0:
141,166,68999,1,8,0:0:0:0:
210,203,69176,1,0,0:0:0:0:
302,193,69352,1,0,0:0:0:0:
302,193,69529,1,8,0:0:0:0:
170,19,69705,1,8,0:0:0:0:
181,153,69793,1,8,0:0:0:0:
211,216,69882,1,0,0:0:0:0:
125,132,70058,1,8,0:0:0:0:
125,132,70235,1,8,0:0:0:0:
182,102,70588,1,0,0:0:0:0:
181,153,70764,1,8,0:0:0:0:
146,58,70852,1,0,0:0:0:0:
182,158,70941,1,0,0:0:0:0:
220,107,71117,1,8,0:0:0:0:
220,107,71293,1,0,0:0:0:0:
141,166,71470,1,0,0:0:0:0:
221,112,71646,1,8,0:0:0:0:
141,166,71823,1,8,0:0:0:0:
200,137,71999,1,0,0:0:0:0:
164,59,72176,1,0,0:0:0:0:
151,111,72264,1,0,0:0:0:0:
171,102,72352,1,8,0:0:0:0:
169,190,72529,1,8,0:0:0:0:
177,166,72617,1,8,0:0:0:0:
135,106,72705,1,0,0:0:0:0:
177,107,72882,1,8,0:0:0:0:
134,97,73058,1,8,0:0:0:0:
154,72,73411,1,0,0:0:0:0:
175,62,73588,1,8,0:0:0:0:
184,63,73676,1,0,0:0:0:0:
175,62,73764,1,0,0:0:0:0:
218,128,73941,1,8,0:0:0:0:
218,128,74117,1,0,0:0:0:0:
150,78,74205,1,8,0:0:0:0:
146,64,74293,1,0,0:0:0:0:
149,84,74470,1,8,0:0:0:0:
159,92,74823,1,8,0:0:0:0:
178,46,74911,1,0,0:0:0:0:
116,24,74999,1,0,0:0:0:0:
157,49,75088,1,8,0:0:0:0:
188,175,75176,1,0,0:0:0:0:
221,137,75352,1,8,0:0:0:0:
193,29,75529,1,0,0:0:0:0:
133,96,75705,1,0,0:0:0:0:
137,93,75882,1,8,0:0:0:0:
181,33,76235,1,0,0:0:0:0:
146,48,76411,1,8,0:0:0:0:
211,70,76588,1,0,0:0:0:0:
198,113,76764,1,8,0:0:0:0:
159,66,76852,1,8,0:0:0:0:
211,70,76941,1,0,0:0:0:0:
176,122,77029,1,0,0:0:0:0:
189,41,77205,1,0,0:0:0:0:
165,60,77293,1,8,0:0:0:0:
175,46,77646,1,0,0:0:0:0:
141,118,77823,1,0,0:0:0:0:
216,96,77911,1,0,0:0:0:0:
216,97,77999,1,8,0:0:0:0:
301,190,78176,1,8,0:0:0:0:
301,190,78264,1,0,0:0:0:0:
200,178,78352,1,8,0:0:0:0:
142,126,78529,1,0,0:0:0:0:
159,66,78705,1,8,0:0:0:0:
176,24,79058,1,0,0:0:0:0:
204,77,79235,1,8,0:0:0:0:
206,77,79411,1,0,0:0:0:0:
148,62,79499,1,0,0:0:0:0:
146,78,79588,1,8,0:0:0:0:
117,120,79764,1,0,0:0:0:0:
159,112,79941,1,8,0:0:0:0:
151,115,80029,1,8,0:0:0:0:
142,97,80117,1,0,0:0:0:0:
220,142,80293,1,0,0:0:0:0:
220,142,80470,1,8,0:0:0:0:
165,49,80646,1,0,0:0:0:0:
201,184,80735,1,0,0:0:0:0:
165,49,80823,1,8,0:0:0:0:
170,170,80999,1,8,0:0:0:0:
220,142,81088,1,8,0:0:0:0:
170,170,81176,1,0,0:0:0:0:
138,102,81352,1,0,0:0:0:0:
169,127,81529,1,8,0:0:0:0:
138,98,81882,1,0,0:0:0:0:
146,62,82235,1,0,0:0:0:0:
146,66,82411,1,8,0:0:0:0:
171,68,82499,1,0,0:0:0:0:
147,69,82588,1,0,0:0:0:0:
165,69,82764,1,0,0:0:0:0:
166,72,82941,1,8,0:0:0:0:
133,133,83117,1,8,0:0:0:0:
159,45,83293,1,0,0:0:0:0:
169,84,83382,1,8,0:0:0:0:
169,84,83470,1,0,0:0:0:0:
159,47,83646,1,8,0:0:0:0:
164,56,83823,1,8,0:0:0:0:
151,127,84176,1,0,0:0:0:0:
213,128,84352,1,8,0:0:0:0:
101,150,84441,1,8,0:0:0:0:
112,155,84529,1,8,0:0:0:0:
164,56,84705,1,0,0:0:0:0:
155,63,85058,1,0,0:0:0:0:
155,63,85235,1,8,0:0:0:0:
156,66,85411,1,0,0:0:0:0:
156,66,85588,1,8,0:0:0:0:
156,61,85676,1,8,0:0:0:0:
156,67,85764,1,0,0:0:0:0:
155,63,85941,1,8,0:0:0:0:
156,71,86117,1,0,0:0:0:0:
155,63,86205,1,0,0:0:0:0:
169,29,86293,1,8,0:0:0:0:
169,29,86470,1,0,0:0:0:0:
186,96,86646,1,8,0:0:0:0:
186,96,86823,1,0,0:0:0:0:
186,120,86999,1,0,0:0:0:0:
109,101,87176,1,8,0:0:0:0:
156,81,87529,1,0,0:0:0:0:
162,82,87705,1,0,0:0:0:0:
148,61,87793,1,8,0:0:0:0:
148,60,87882,1,0,0:0:0:0:
142,101,88058,1,8,0:0:0:0:
142,102,88235,1,0,0:0:0:0:
156,61,88411,1,8,0:0:0:0:
151,99,88499,1,0,0:0:0:0:
161,83,88588,1,8,0:0:0:0:
183,151,88764,1,0,0:0:0:0:
183,151,88941,1,8,0:0:0:0:
116,82,89117,1,0,0:0:0:0:
116,82,89205,1,0,0:0:0:0:
116,82,89293,1,8,0:0:0:0:
116,82,89470,1,8,0:0:0:0:
116,82,89558,1,8,0:0:0:0:
116,82,89646,1,0,0:0:0:0:
170,68,89823,1,8,0:0:0:0:
170,68,89999,1,8,0:0:0:0:
170,72,90352,1,0,0:0:0:0:
170,68,90705,1,0,0:0:0:0:
170,72,90882,1,8,0:0:0:0:
170,72,90970,1,0,0:0:0:0:
170,72,91058,1,0,0:0:0:0:
170,72,91235,1,0,0:0:0:0:
170,72,91411,1,8,0:0:0:0:
127,168,91588,1,0,0:0:0:0:
170,72,91764,1,8,0:0:0:0:
173,161,91941,1,8,0:0:0:0:
146,57,92117,5,0,0:0:0:0:
147,61,92205,1,0,0:0:0:0:
165,86,92293,1,8,0:0:0:0:
182,92,92382,1,8,0:0:0:0:
165,89,92470,1,0,0:0:0:0:
132,167,92646,1,0,0:0:0:0:
132,167,92823,1,8,0:0:0:0:
151,91,93176,1,0,0:0:0:0:
173,161,93529,1,0,0:0:0:0:
173,161,93705,1,8,0:0:0:0:
173,161,93793,1,0,0:0:0:0:
173,161,93882,1,0,0:0:0:0:
173,161,94058,1,0,0:0:0:0:
173,161,94235,1,8,0:0:0:0:
127,168,94411,1,0,0:0:0:0:
173,168,94588,1,8,0:0:0:0:
173,168,94764,1,8,0:0:0:0:
167,88,94941,1,0,0:0:0:0:
167,88,95029,1,0,0:0:0:0:
173,161,95117,1,8,0:0:0:0:
187,65,95205,1,8,0:0:0:0:
173,166,95293,1,0,0:0:0:0:
132,167,95470,1,0,0:0:0:0:
132,167,95646,1,8,0:0:0:0:
173,168,95999,1,0,0:0:0:0:
173,166,96352,1,0,0:0:0:0:
154,102,96529,1,8,0:0:0:0:
154,102,96705,1,0,0:0:0:0:
130,82,96793,1,8,0:0:0:0:
130,82,96882,1,0,0:0:0:0:
173,97,97058,1,0,0:0:0:0:
171,96,97235,1,8,0:0:0:0:
171,96,97411,1,0,0:0:0:0:
181,79,97676,1,0,0:0:0:0:
181,79,97764,1,8,0:0:0:0:
176,78,97941,1,8,0:0:0:0:
176,79,98117,1,0,0:0:0:0:
173,43,98205,1,8,0:0:0:0:
164,73,98293,1,0,0:0:0:0:
181,79,98470,1,8,0:0:0:0:
142,138,98558,1,8,0:0:0:0:
142,138,98646,1,8,0:0:0:0:
171,97,98823,1,0,0:0:0:0:
146,32,99176,1,0,0:0:0:0:
146,32,99352,1,8,0:0:0:0:
146,32,99529,1,0,0:0:0:0:
126,103,99617,1,8,0:0:0:0:
126,103,99705,1,0,0:0:0:0:
153,67,99882,1,0,0:0:0:0:
154,69,100058,1,8,0:0:0:0:
151,91,100235,1,0,0:0:0:0:
148,67,100499,1,0,0:0:0:0:
148,67,100588,1,8,0:0:0:0:
218,87,100764,1,8,0:0:0:0:
157,78,100941,1,0,0:0:0:0:
156,86,101029,1,8,0:0:0:0:
151,91,101117,1,0,0:0:0:0:
183,83,101293,1,8,0:0:0:0:
218,87,101646,1,0,0:0:0:0:
218,87,101823,1,8,0:0:0:0:
218,87,101911,1,8,0:0:0:0:
203,98,101999,1,8,0:0:0:0:
148,217,102088,1,8,0:0:0:0:
163,211,102176,1,0,0:0:0:0:
203,98,102352,1,0,0:0:0:0:
218,87,102529,1,8,0:0:0:0:
203,98,102617,1,8,0:0:0:0:
164,36,102705,1,8,0:0:0:0:
164,211,102793,1,8,0:0:0:0:
203,98,102882,1,0,0:0:0:0:
203,98,103058,1,8,0:0:0:0:
218,87,103411,1,8,0:0:0:0:
172,72,103764,1,0,0:0:0:0:
172,72,104117,1,12,0:0:0:0:
