osu file format v14

[General]
AudioFilename: audio.mp3
AudioLeadIn: 0
PreviewTime: 140712
Countdown: 0
SampleSet: Soft
StackLeniency: 0.7
Mode: 0
LetterboxInBreaks: 0
WidescreenStoryboard: 0

[Editor]
Bookmarks: 5985,27803,36531,53985,62712,73622,95440,104167,121622,141258,165258,173985,180531
DistanceSpacing: 1.4
BeatDivisor: 4
GridSize: 32
TimelineZoom: 1.9

[Metadata]
Title:Holy Night
TitleUnicode:ホーリーナイト
Artist:Aisaka Taiga (CV: Kugimiya Rie) & Kawashima Ami (CV: Kitamura Eri)
ArtistUnicode:逢坂大河 (CV: 釘宮理恵) & 川嶋亜美 (CV: 喜多村英梨)
Creator:Iceluin
Version:Normal
Source:Toradora!
Tags:Dora- doraemonelf christmas xmas とらドラ!anime japanese aisaka taiga kawashima ami
BeatmapID:2233556
BeatmapSetID:1066764

[Difficulty]
HPDrainRate:4
CircleSize:3
OverallDifficulty:4
ApproachRate:5
SliderMultiplier:1.2
SliderTickRate:1

[Events]
//Background and Video events
0,0,"taiga best waifu.png",0,0
//Break Periods
2,30185,35058
2,97822,102694
2,167640,172785
//Storyboard Layer 0 (Background)
//Storyboard Layer 1 (Fail)
//Storyboard Layer 2 (Pass)
//Storyboard Layer 3 (Foreground)
//Storyboard Layer 4 (Overlay)
//Storyboard Sound Samples

[TimingPoints]
1622,545.454545454546,4,2,1,45,1,0
9258,-100,4,2,3,45,0,0
10349,-100,4,2,4,45,0,0
11440,-100,4,2,5,45,0,0
12531,-100,4,2,1,45,0,0
13622,-100,4,2,5,45,0,0
14712,-100,4,2,6,45,0,0
16894,-100,4,2,7,45,0,0
17985,-100,4,2,5,45,0,0
19076,-100,4,2,4,45,0,0
21258,-100,4,2,7,45,0,0
23440,-100,4,2,5,50,0,0
25622,-100,4,2,5,60,0,0
26712,-100,4,2,8,60,0,0
27803,-100,4,2,9,75,0,0
29985,-100,4,2,11,75,0,0
36258,-100,4,2,1,75,0,0
36531,-100,4,2,2,65,0,0
37076,-100,4,2,1,65,0,0
53985,-100,4,2,16,55,0,0
54531,-100,4,2,5,55,0,0
55076,-100,4,2,17,55,0,0
55622,-100,4,2,18,55,0,0
56712,-100,4,2,5,55,0,0
57258,-100,4,2,19,55,0,0
58894,-100,4,2,5,55,0,0
59440,-100,4,2,18,55,0,0
59985,-100,4,2,5,55,0,0
60531,-100,4,2,17,55,0,0
61076,-100,4,2,5,55,0,0
61621,-100,4,2,19,55,0,0
62167,-100,4,2,3,55,0,0
62712,-100,4,2,16,65,0,0
63258,-100,4,2,8,65,0,0
64076,-100,4,2,1,65,0,0
65439,-100,4,2,8,65,0,0
66530,-100,4,2,1,65,0,0
67621,-100,4,2,8,65,0,0
68712,-100,4,2,1,65,0,0
73076,-100,4,2,9,65,0,0
73622,-100,4,2,20,80,0,1
74712,-100,4,2,21,80,0,1
75803,-100,4,2,22,80,0,1
76349,-100,4,2,9,80,0,1
76894,-100,4,2,21,80,0,1
77439,-100,4,2,11,80,0,1
79076,-100,4,2,10,80,0,1
79621,-100,4,2,9,80,0,1
80712,-100,4,2,14,80,0,1
81258,-100,4,2,10,80,0,1
82075,-100,4,2,9,80,0,1
82349,-100,4,2,23,80,0,1
83440,-100,4,2,21,80,0,1
84531,-100,4,2,22,80,0,1
85076,-100,4,2,9,80,0,1
85622,-100,4,2,21,80,0,1
86167,-100,4,2,11,80,0,1
86712,-100,4,2,14,80,0,1
87802,-100,4,2,5,80,0,1
88894,-100,4,2,22,80,0,1
89985,-100,4,2,5,80,0,1
91076,-100,4,2,24,90,0,1
91621,-100,4,2,5,90,0,1
92167,-100,4,2,10,90,0,1
92712,-100,4,2,5,90,0,1
93258,-100,4,2,25,80,0,1
93803,-100,4,2,5,80,0,1
94349,-100,4,2,26,80,0,1
94894,-100,4,2,5,80,0,1
95440,-100,4,2,9,75,0,0
97622,-100,4,2,11,75,0,0
103894,-100,4,2,1,75,0,0
104167,-100,4,2,1,60,0,0
105803,-100,4,2,27,60,0,0
107985,-100,4,2,5,60,0,0
114530,-100,4,2,27,60,0,0
116712,-100,4,2,5,60,0,0
118894,-100,4,2,27,60,0,0
121076,-100,4,2,5,60,0,0
121622,-100,4,2,16,55,0,0
122167,-100,4,2,5,55,0,0
122712,-100,4,2,17,55,0,0
123257,-100,4,2,18,55,0,0
124349,-100,4,2,5,55,0,0
124894,-100,4,2,19,55,0,0
126530,-100,4,2,5,55,0,0
127076,-100,4,2,18,55,0,0
127621,-100,4,2,5,55,0,0
128167,-100,4,2,17,55,0,0
128712,-100,4,2,5,55,0,0
129257,-100,4,2,19,55,0,0
129803,-100,4,2,3,55,0,0
130349,-100,4,2,16,60,0,0
130894,-100,4,2,8,60,0,0
131712,-100,4,2,1,60,0,0
133076,-100,4,2,8,60,0,0
134167,-100,4,2,1,60,0,0
135258,-100,4,2,8,60,0,0
136348,-100,4,2,1,60,0,0
136895,-100,4,2,1,65,0,0
140713,-100,4,2,9,65,0,0
141258,-100,4,2,20,80,0,1
142348,-100,4,2,21,80,0,1
143440,-100,4,2,22,80,0,1
143985,-100,4,2,9,80,0,1
144531,-100,4,2,21,80,0,1
145076,-100,4,2,11,80,0,1
146712,-100,4,2,10,80,0,1
147257,-100,4,2,9,80,0,1
148348,-100,4,2,14,80,0,1
148894,-100,4,2,10,80,0,1
149711,-100,4,2,9,80,0,1
149985,-100,4,2,23,80,0,1
151076,-100,4,2,21,80,0,1
152167,-100,4,2,22,80,0,1
152712,-100,4,2,9,80,0,1
153258,-100,4,2,21,80,0,1
153803,-100,4,2,11,80,0,1
154349,-100,4,2,14,80,0,1
155439,-100,4,2,5,80,0,1
156530,-100,4,2,22,80,0,1
157621,-100,4,2,5,80,0,1
158712,-100,4,2,24,90,0,1
159257,-100,4,2,5,90,0,1
159803,-100,4,2,10,90,0,1
160348,-100,4,2,5,90,0,1
160894,-100,4,2,25,80,0,1
161439,-100,4,2,5,80,0,1
161985,-100,4,2,26,80,0,1
162530,-100,4,2,5,80,0,1
164712,-100,4,2,12,100,0,1
165258,-100,4,2,9,75,0,0
167440,-100,4,2,11,75,0,0
173985,-100,4,2,28,100,0,0
180531,-100,4,2,99,50,0,0

[Colours]
Combo1 : 219,32,11
Combo2 : 215,133,53
Combo3 : 84,84,169
Combo4 : 0,179,89

[HitObjects]
93,89,1622,6,0,B|123:82|123:82|153:89,1,60,2|2,0:2|0:2,0:0:0:0:
318,254,2712,2,0,B|346:260|346:260|376:253,1,60,2|0,0:2|0:0,0:0:0:0:
436,193,3258,2,0,P|442:163|436:133,1,60,2|0,0:2|0:0,0:0:0:0:
378,73,3803,5,2,0:2:0:0:
125,255,4894,1,2,0:2:0:0:
258,357,5440,2,0,P|288:363|318:357,1,60,0|0,0:0|0:0,0:0:0:0:
389,316,5985,5,6,0:2:0:0:
389,316,6258,2,0,B|407:255|407:255|389:202,1,120,2|0,0:2|0:0,0:0:0:0:
445,43,7349,2,0,P|387:28|330:44,1,120,2|0,0:2|0:0,0:0:0:0:
264,95,8167,2,0,B|236:101|236:101|206:94,1,60,2|0,0:2|0:0,0:0:0:0:
138,43,8712,2,0,B|108:36|108:36|80:42,1,60,2|0,0:2|0:0,0:0:0:0:
12,93,9258,2,0,B|-6:145|-6:145|13:207,1,120,10|0,0:2|0:0,0:0:0:0:
151,302,10349,6,0,B|158:332|158:332|152:360,2,60,10|0|2,0:2|0:0|0:2,0:0:0:0:
93,240,11167,1,0,0:0:0:0:
93,240,11440,2,0,P|151:255|208:239,1,120,10|2,0:2|0:2,0:0:0:0:
367,289,12531,1,10,0:2:0:0:
467,153,13076,1,2,0:2:0:0:
367,16,13622,1,10,0:2:0:0:
205,68,14167,2,0,P|175:74|145:68,1,60,2|0,0:2|0:0,0:0:0:0:
84,11,14712,5,10,0:2:0:0:
84,11,14985,2,0,P|99:69|83:126,1,120,2|0,0:2|0:0,0:0:0:0:
26,283,16076,2,0,B|87:301|87:301|140:283,1,120,2|0,0:2|0:0,0:0:0:0:
214,242,16894,2,0,P|244:236|274:242,1,60,10|0,0:2|0:0,0:0:0:0:
346,282,17440,2,0,P|375:287|404:281,1,60,2|0,0:2|0:0,0:0:0:0:
478,241,17985,2,0,P|495:185|478:128,1,120,10|0,0:2|0:0,0:0:0:0:
321,66,19076,6,0,B|241:46|207:76|218:151|132:170|25:81|125:-35|182:21,1,360,10|0,0:2|0:0,0:0:0:0:
291,150,21258,1,10,0:2:0:0:
291,150,21531,2,0,B|266:303|266:303|261:351|307:380|345:377|367:340,1,300,2|0,0:2|0:0,0:0:0:0:
505,257,23440,6,0,B|385:310|385:204|265:257,1,240,10|10,0:2|0:2,0:0:0:0:
6,50,25622,2,0,B|126:103|126:-3|246:50,1,240,10|14,0:2|0:2,0:0:0:0:
441,272,27803,5,12,3:2:0:0:
256,192,28076,12,8,29985,3:2:0:0:
129,259,36258,5,10,0:3:0:0:
129,259,36531,6,0,P|159:265|189:259,1,60,6|2,3:2|0:2,0:0:0:0:
263,223,37076,1,2,1:2:0:0:
263,223,37349,2,0,P|319:206|376:223,1,120,2|2,0:2|3:2,0:0:0:0:
452,259,38167,1,0,1:0:0:0:
481,93,38712,2,0,B|451:100|451:100|421:93,1,60,2|2,3:2|0:2,0:0:0:0:
346,57,39258,1,2,1:2:0:0:
346,57,39531,2,0,B|286:37|286:37|230:56,1,120,2|2,0:2|0:2,0:0:0:0:
157,93,40349,1,0,1:0:0:0:
263,223,40894,6,0,P|273:251|272:282,1,60,2|2,3:2|0:2,0:0:0:0:
212,344,41440,2,0,P|182:349|153:343,1,60,2|2,1:2|0:2,0:0:0:0:
77,307,41985,1,2,3:2:0:0:
77,307,42258,1,2,3:2:0:0:
135,149,42803,1,2,0:2:0:0:
135,149,43076,2,0,B|135:121|153:92|153:92|135:63|135:35,1,120,2|2,3:2|1:2,0:0:0:0:
303,36,44167,2,0,B|303:62|285:91|285:91|303:120|303:148,1,120,2|0,3:2|1:0,0:0:0:0:
398,285,45258,5,2,3:2:0:0:
264,375,45803,1,2,1:2:0:0:
174,241,46349,2,0,P|117:223|60:240,1,120,2|2,3:2|1:2,0:0:0:0:
0,180,47167,1,2,0:2:0:0:
0,180,47440,2,0,B|-7:150|-7:150|0:120,1,60,2|2,3:2|0:2,0:0:0:0:
60,63,47985,1,2,1:2:0:0:
60,63,48258,2,0,P|116:81|173:64,1,120,2|2,0:2|0:2,0:0:0:0:
241,16,49076,1,0,1:0:0:0:
390,93,49622,6,0,B|420:100|420:100|448:94,1,60,2|2,3:2|0:2,0:0:0:0:
510,150,50167,2,0,B|528:203|528:203|508:263,1,120,0|2,1:0|3:2,0:0:0:0:
448,323,50985,1,2,3:2:0:0:
448,323,51258,2,0,B|418:316|418:316|389:323,1,60,2|2,1:2|0:2,0:0:0:0:
311,353,51803,2,0,B|191:406|191:300|71:353,1,240,2|2,3:2|3:2,0:0:0:0:
1,200,53440,1,0,1:0:0:0:
79,51,53985,6,0,P|109:46|138:52,1,60,10|0,3:2|0:0,0:0:0:0:
217,78,54531,1,10,0:2:0:0:
382,50,55076,2,0,P|387:80|381:109,1,60,10|0,3:2|0:0,0:0:0:0:
355,188,55622,1,2,1:2:0:0:
383,353,56167,2,0,P|353:358|324:352,1,60,10|0,3:2|0:0,0:0:0:0:
246,321,56712,2,0,P|216:316|187:321,1,60,10|0,0:2|3:0,0:0:0:0:
123,376,57258,2,0,B|143:316|143:316|124:260,1,120,10|0,3:2|1:0,0:0:0:0:
68,103,58349,6,0,P|124:84|180:101,1,120,2|10,3:2|0:2,0:0:0:0:
250,157,59167,1,0,3:0:0:0:
250,157,59440,2,0,P|306:174|362:155,1,120,10|10,1:2|0:2,0:0:0:0:
362,323,60531,2,0,P|305:305|249:324,2,120,10|10|10,3:2|0:2|1:2,0:0:0:0:
506,237,62167,1,8,0:2:0:0:
362,154,62712,6,0,B|355:124|355:124|362:94,1,60,10|2,3:2|0:2,0:0:0:0:
300,37,63258,2,0,B|244:18|244:18|187:38,1,120,8|0,1:2|0:0,0:0:0:0:
125,95,64076,1,6,3:3:0:0:
125,95,64349,2,0,B|132:125|132:125|125:155,1,60,6|2,1:3|0:2,0:0:0:0:
66,213,64894,2,0,P|48:269|65:326,1,120,2|8,3:2|1:2,0:0:0:0:
223,270,65985,2,0,B|280:250|280:250|336:269,1,120,2|4,0:2|1:3,0:0:0:0:
494,325,67076,6,0,P|512:269|495:212,1,120,2|10,3:2|1:2,0:0:0:0:
434,153,67894,1,2,0:2:0:0:
434,153,68167,2,0,B|377:173|377:173|321:154,1,120,2|10,0:2|1:3,0:0:0:0:
256,99,68985,1,2,0:2:0:0:
256,99,69258,2,0,B|297:155|256:219|256:219|299:283|256:339,1,240,2|0,3:2|3:0,0:0:0:0:
195,369,70622,1,0,3:0:0:0:
195,369,70894,1,4,1:3:0:0:
33,323,71440,6,0,B|-8:267|33:203|33:203|-10:139|32:83,1,240,2|8,3:2|3:3,0:0:0:0:
169,17,73076,2,0,B|199:10|199:10|227:17,1,60,2|2,1:2|1:2,0:0:0:0:
288,83,73622,5,14,3:2:0:0:
288,83,73894,2,0,B|378:121|378:45|468:83,1,180,2|8,0:2|3:2,0:0:0:0:
511,148,74985,2,0,L|511:268,1,120,2|0,3:2|0:0,0:0:0:0:
462,336,75803,2,0,P|432:342|402:336,1,60,10|0,3:2|0:0,0:0:0:0:
332,291,76349,2,0,P|302:285|273:291,1,60,2|0,1:2|3:0,0:0:0:0:
202,336,76894,2,0,B|146:355|146:355|89:335,1,120,10|0,3:2|1:0,0:0:0:0:
16,291,77712,1,0,0:0:0:0:
16,291,77985,6,0,L|25:231,1,60,10|0,3:2|0:0,0:0:0:0:
83,171,78531,2,0,L|73:111,1,60,2|0,1:2|0:0,0:0:0:0:
132,51,79076,2,0,B|188:32|188:32|245:52,1,120,10|2,3:2|1:2,0:0:0:0:
410,10,80167,1,10,3:2:0:0:
497,150,80712,1,10,1:2:0:0:
390,278,81258,1,10,3:2:0:0:
235,216,81803,2,0,B|205:209|205:209|177:216,1,60,2|2,3:2|1:2,0:0:0:0:
106,262,82349,5,14,3:2:0:0:
106,262,82622,2,0,B|137:213|137:213|106:94,1,180,2|8,0:2|3:2,0:0:0:0:
176,40,83712,2,0,P|232:21|288:38,1,120,2|0,3:2|0:0,0:0:0:0:
351,94,84531,2,0,B|381:101|381:101|409:94,1,60,10|0,3:2|0:0,0:0:0:0:
472,149,85076,2,0,B|479:179|479:179|472:207,1,60,2|0,1:2|0:0,0:0:0:0:
409,264,85622,2,0,B|353:245|353:245|296:265,1,120,10|8,3:2|1:2,0:0:0:0:
233,322,86440,1,2,0:2:0:0:
233,322,86712,6,0,B|286:202|180:202|233:82,1,240,10|8,3:2|3:2,0:0:0:0:
282,24,88076,1,0,3:0:0:0:
282,24,88349,1,0,1:0:0:0:
436,90,88894,1,10,3:2:0:0:
436,90,89167,2,0,B|475:144|438:196|438:196|439:261,1,180,2|8,0:2|3:2,0:0:0:0:
385,327,90258,1,0,3:0:0:0:
385,327,90531,1,0,1:0:0:0:
228,265,91076,6,0,B|172:246|172:246|115:266,1,120,14|8,3:2|1:2,0:0:0:0:
114,97,92167,2,0,B|170:116|170:116|227:96,1,120,10|8,3:2|1:2,0:0:0:0:
375,16,93258,2,0,P|431:-2|487:17,1,120,14|8,3:2|1:2,0:0:0:0:
487,185,94349,2,0,P|430:202|374:183,1,120,14|8,3:2|1:2,0:0:0:0:
227,95,95440,5,14,3:2:0:0:
256,192,95712,12,8,97622,3:2:0:0:
391,125,103894,5,10,0:3:0:0:
391,125,104167,6,0,P|408:181|391:238,1,120,6|2,3:2|3:2,0:0:0:0:
284,368,105258,1,0,3:0:0:0:
224,211,105803,1,8,3:2:0:0:
120,344,106349,2,0,B|64:363|64:363|7:343,1,120,2|2,3:2|3:2,0:0:0:0:
64,184,107440,2,0,B|83:128|83:128|63:71,1,120,0|8,3:0|3:2,0:0:0:0:
232,69,108531,6,0,P|216:126|232:183,1,120,2|2,3:2|3:2,0:0:0:0:
293,246,109349,1,0,0:0:0:0:
293,246,109622,2,0,B|322:253|322:253|352:246,1,60,2|2,3:2|0:2,0:0:0:0:
509,183,110440,1,0,0:0:0:0:
509,183,110712,2,0,P|525:126|509:69,1,120,2|2,3:2|3:2,0:0:0:0:
444,14,111531,1,0,0:0:0:0:
444,14,111803,2,0,L|324:14,1,120,2|8,3:2|3:2,0:0:0:0:
236,158,112894,5,2,3:2:0:0:
157,10,113440,1,2,3:2:0:0:
69,154,113985,2,0,B|50:210|50:210|70:267,1,120,2|10,3:2|3:2,0:0:0:0:
145,317,114803,1,0,0:0:0:0:
145,317,115076,2,0,L|204:307,1,60,2|0,3:2|0:0,0:0:0:0:
279,356,115622,1,2,3:2:0:0:
279,356,115894,2,0,P|336:372|393:356,1,120,2|2,0:2|0:2,0:0:0:0:
460,306,116712,1,8,3:2:0:0:
336,192,117258,6,0,P|330:162|336:132,1,60,2|2,3:2|0:2,0:0:0:0:
276,74,117803,2,0,B|220:55|220:55|163:75,1,120,0|2,3:0|3:2,0:0:0:0:
101,133,118622,1,0,0:0:0:0:
101,133,118894,2,0,P|107:163|101:193,1,60,10|0,3:2|0:0,0:0:0:0:
163,249,119440,2,0,B|215:289|274:248|274:248|333:289|385:249,1,240,2|2,3:2|3:2,0:0:0:0:
511,138,121076,1,8,1:2:0:0:
384,26,121622,6,0,B|354:19|354:19|326:26,1,60,10|0,3:2|0:0,0:0:0:0:
246,53,122167,1,10,0:2:0:0:
80,25,122712,2,0,B|73:55|73:55|80:83,1,60,10|0,3:2|0:0,0:0:0:0:
107,163,123257,1,2,1:2:0:0:
78,328,123803,2,0,B|108:335|108:335|136:328,1,60,10|0,3:2|0:0,0:0:0:0:
210,288,124349,2,0,B|240:281|240:281|268:288,1,60,10|0,0:2|3:0,0:0:0:0:
342,327,124894,2,0,P|398:344|455:327,1,120,10|0,3:2|1:0,0:0:0:0:
455,158,125985,6,0,B|399:139|399:139|342:159,1,120,2|10,3:2|0:2,0:0:0:0:
270,203,126803,1,0,3:0:0:0:
270,203,127076,2,0,B|214:222|214:222|157:202,1,120,10|10,1:2|0:2,0:0:0:0:
156,33,128167,2,0,B|213:13|213:13|269:32,2,120,10|10|10,3:2|0:2|1:2,0:0:0:0:
11,119,129803,1,8,0:2:0:0:
158,202,130349,6,0,P|164:232|158:262,1,60,10|2,3:2|0:2,0:0:0:0:
216,321,130894,2,0,P|272:337|328:319,1,120,8|0,1:2|0:0,0:0:0:0:
388,260,131712,1,6,3:3:0:0:
388,260,131985,2,0,P|418:254|448:260,1,60,6|2,1:3|0:2,0:0:0:0:
506,200,132531,2,0,B|525:144|525:144|505:87,1,120,2|8,3:2|1:2,0:0:0:0:
346,144,133622,2,0,P|289:160|233:142,1,120,2|4,0:2|1:3,0:0:0:0:
74,86,134713,6,0,B|55:142|55:142|75:199,1,120,2|10,3:2|1:2,0:0:0:0:
139,262,135531,1,2,0:2:0:0:
139,262,135803,2,0,P|196:246|252:264,1,120,2|10,0:2|1:3,0:0:0:0:
316,327,136622,1,2,0:2:0:0:
316,327,136895,2,0,B|279:269|316:207|316:207|316:87,1,240,2|0,3:2|3:0,0:0:0:0:
359,21,138259,1,0,3:0:0:0:
359,21,138531,1,4,1:3:0:0:
509,94,139076,6,0,B|509:206|509:206|546:268|509:326,1,240,2|8,3:2|3:3,0:0:0:0:
351,266,140713,2,0,B|321:259|321:259|293:266,1,60,2|2,1:2|1:2,0:0:0:0:
234,326,141258,5,14,3:2:0:0:
233,325,141530,2,0,B|147:349|147:349|60:325,1,180,2|8,0:2|3:2,0:0:0:0:
1,263,142622,2,0,P|-16:206|0:149,1,120,2|0,3:2|0:0,0:0:0:0:
59,89,143440,2,0,B|89:82|89:82|117:89,1,60,10|0,3:2|0:0,0:0:0:0:
176,149,143985,2,0,B|204:156|204:156|234:149,1,60,2|0,1:2|3:0,0:0:0:0:
294,89,144531,2,0,P|350:70|407:86,1,120,10|0,3:2|1:0,0:0:0:0:
472,148,145349,1,0,0:0:0:0:
472,148,145622,6,0,P|478:178|472:208,1,60,10|0,3:2|0:0,0:0:0:0:
406,258,146167,2,0,P|400:287|406:316,1,60,2|0,1:2|0:0,0:0:0:0:
461,379,146712,2,0,P|404:360|347:376,1,120,10|2,3:2|1:2,0:0:0:0:
188,318,147803,1,10,3:2:0:0:
317,210,148348,1,10,1:2:0:0:
159,152,148894,1,10,3:2:0:0:
288,44,149439,2,0,B|318:37|318:37|346:44,1,60,2|2,3:2|1:2,0:0:0:0:
428,81,149985,5,14,3:2:0:0:
428,81,150258,2,0,B|391:174|465:174|428:267,1,180,2|8,0:2|3:2,0:0:0:0:
371,313,151348,2,0,B|315:332|315:332|258:312,1,120,2|0,3:2|0:0,0:0:0:0:
194,255,152167,2,0,P|164:249|134:255,1,60,10|0,3:2|0:0,0:0:0:0:
72,198,152712,2,0,P|66:169|72:140,1,60,2|0,1:2|0:0,0:0:0:0:
135,84,153258,2,0,P|191:101|247:82,1,120,10|8,3:2|1:2,0:0:0:0:
310,27,154076,1,2,0:2:0:0:
310,27,154349,6,0,B|286:84|320:136|320:136|301:157|301:157|335:211|310:267,1,240,10|8,3:2|3:2,0:0:0:0:
269,319,155712,1,0,3:0:0:0:
269,319,155985,1,0,1:0:0:0:
116,249,156530,1,10,3:2:0:0:
116,249,156803,2,0,B|77:195|114:143|114:143|113:78,1,180,2|8,0:2|3:2,0:0:0:0:
170,15,157894,1,0,3:0:0:0:
170,15,158167,1,0,1:0:0:0:
322,85,158712,6,0,P|378:103|434:86,1,120,14|8,3:2|1:2,0:0:0:0:
434,254,159803,2,0,P|378:234|321:252,1,120,10|8,3:2|1:2,0:0:0:0:
179,341,160894,2,0,B|122:361|122:361|66:342,1,120,14|8,3:2|1:2,0:0:0:0:
65,173,161985,2,0,B|122:153|122:153|178:172,1,120,10|8,3:2|1:2,0:0:0:0:
321,252,163076,6,0,P|447:154|305:100,1,360,0|6,0:0|0:2,0:0:0:0:
178,172,165258,5,12,3:2:0:0:
256,192,165531,12,8,167440,3:2:0:0:
211,357,173985,6,0,B|221:310|208:275|208:275|128:325|48:244|48:244|128:228|213:159|213:159|144:150|128:100|128:100|208:85|256:12|256:12|304:85|384:100|384:100|367:150|298:159|298:159|384:228|464:244|464:244|384:325|304:275|304:275|291:310|301:358,1,1440,14|0,0:2|0:0,0:0:0:0:
