osu file format v14

[General]
AudioFilename: audio.mp3
AudioLeadIn: 0
PreviewTime: 140712
Countdown: 0
SampleSet: Soft
StackLeniency: 0.7
Mode: 0
LetterboxInBreaks: 0
WidescreenStoryboard: 1

[Editor]
Bookmarks: 5985,27803,36531,53985,62712,73622,95440,104167,121622,141258,165258,173985,180531
DistanceSpacing: 1.3
BeatDivisor: 4
GridSize: 32
TimelineZoom: 2

[Metadata]
Title:Holy Night
TitleUnicode:ホーリーナイト
Artist:Aisaka Taiga (CV: Kugimiya Rie) & Kawashima Ami (CV: Kitamura Eri)
ArtistUnicode:逢坂大河 (CV: 釘宮理恵) & 川嶋亜美 (CV: 喜多村英梨)
Creator:Iceluin
Version:Hard
Source:Toradora!
Tags:Dora- doraemonelf christmas xmas とらドラ!anime japanese aisaka taiga kawashima ami
BeatmapID:2239088
BeatmapSetID:1066764

[Difficulty]
HPDrainRate:6
CircleSize:4
OverallDifficulty:5
ApproachRate:7
SliderMultiplier:1.5
SliderTickRate:1

[Events]
//Background and Video events
0,0,"taiga best waifu.png",0,0
//Break Periods
2,97822,102722
//Storyboard Layer 0 (Background)
//Storyboard Layer 1 (Fail)
//Storyboard Layer 2 (Pass)
//Storyboard Layer 3 (Foreground)
//Storyboard Layer 4 (Overlay)
//Storyboard Sound Samples

[TimingPoints]
1622,545.454545454546,4,2,1,45,1,0
1894,-133.333333333333,4,2,1,45,0,0
7076,-133.333333333333,4,2,2,45,0,0
9258,-133.333333333333,4,2,3,45,0,0
10349,-133.333333333333,4,2,4,45,0,0
11440,-133.333333333333,4,2,5,45,0,0
12531,-133.333333333333,4,2,1,45,0,0
13621,-133.333333333333,4,2,5,45,0,0
14712,-133.333333333333,4,2,6,45,0,0
15803,-133.333333333333,4,2,5,45,0,0
16894,-133.333333333333,4,2,7,45,0,0
17985,-133.333333333333,4,2,5,45,0,0
19076,-133.333333333333,4,2,4,45,0,0
21257,-133.333333333333,4,2,7,45,0,0
23440,-133.333333333333,4,2,5,50,0,0
25622,-133.333333333333,4,2,5,60,0,0
26712,-133.333333333333,4,2,8,60,0,0
26849,-133.333333333333,4,2,1,60,0,0
27258,-133.333333333333,4,2,5,60,0,0
27395,-133.333333333333,4,2,1,60,0,0
27803,-100,4,2,9,75,0,0
28894,-100,4,2,10,75,0,0
29440,-100,4,2,11,75,0,0
31076,-100,4,2,10,75,0,0
31622,-100,4,2,1,75,0,0
32167,-100,4,2,12,75,0,0
32712,-100,4,2,1,75,0,0
33258,-100,4,2,10,75,0,0
33803,-100,4,2,13,75,0,0
34076,-100,4,2,14,75,0,0
35440,-100,4,2,15,75,0,0
35712,-100,4,2,1,75,0,0
36531,-100,4,2,2,65,0,0
37076,-100,4,2,1,65,0,0
53984,-100,4,2,16,55,0,0
54531,-100,4,2,5,55,0,0
55076,-100,4,2,17,55,0,0
55623,-100,4,2,18,55,0,0
56712,-100,4,2,5,55,0,0
57258,-100,4,2,19,55,0,0
58894,-100,4,2,5,55,0,0
59440,-100,4,2,18,55,0,0
59985,-100,4,2,5,55,0,0
60531,-100,4,2,17,55,0,0
61076,-100,4,2,5,55,0,0
61621,-100,4,2,19,55,0,0
62167,-100,4,2,3,55,0,0
62712,-100,4,2,16,65,0,0
63258,-100,4,2,8,65,0,0
64075,-100,4,2,1,65,0,0
65439,-100,4,2,8,65,0,0
66257,-100,4,2,1,65,0,0
67621,-100,4,2,8,65,0,0
68712,-100,4,2,1,65,0,0
69803,-100,4,2,8,65,0,0
70349,-100,4,2,1,65,0,0
71985,-100,4,2,8,65,0,0
72531,-100,4,2,1,65,0,0
73076,-100,4,2,9,65,0,0
73622,-100,4,2,20,80,0,1
74167,-100,4,2,9,80,0,1
74712,-100,4,2,21,80,0,1
75803,-100,4,2,22,80,0,1
76349,-100,4,2,9,80,0,1
76894,-100,4,2,21,80,0,1
77439,-100,4,2,11,80,0,1
79076,-100,4,2,10,80,0,1
79621,-100,4,2,9,80,0,1
80712,-100,4,2,14,80,0,1
81258,-100,4,2,10,80,0,1
81531,-100,4,2,9,80,0,1
82349,-100,4,2,23,80,0,1
82894,-100,4,2,9,80,0,1
83440,-100,4,2,21,80,0,1
84531,-100,4,2,22,80,0,1
85076,-100,4,2,9,80,0,1
85622,-100,4,2,21,80,0,1
86167,-100,4,2,11,80,0,1
86712,-100,4,2,14,80,0,1
87802,-100,4,2,5,80,0,1
88621,-100,4,2,9,80,0,1
88894,-100,4,2,22,80,0,1
89985,-100,4,2,5,80,0,1
91076,-100,4,2,24,90,0,1
91621,-100,4,2,5,90,0,1
92167,-100,4,2,10,90,0,1
92712,-100,4,2,5,90,0,1
93258,-100,4,2,25,80,0,1
93803,-100,4,2,5,80,0,1
94349,-100,4,2,26,80,0,1
94894,-100,4,2,5,80,0,1
95440,-100,4,2,9,75,0,0
97622,-100,4,2,11,75,0,0
103622,-100,4,2,1,75,0,0
104167,-100,4,2,1,60,0,0
105803,-100,4,2,27,60,0,0
107985,-100,4,2,5,60,0,0
114530,-100,4,2,27,60,0,0
116712,-100,4,2,5,60,0,0
118894,-100,4,2,27,60,0,0
120803,-100,4,2,5,60,0,0
121349,-100,4,2,1,60,0,0
121622,-100,4,2,16,55,0,0
122167,-100,4,2,5,55,0,0
122712,-100,4,2,17,55,0,0
123257,-100,4,2,18,55,0,0
124349,-100,4,2,5,55,0,0
124894,-100,4,2,19,55,0,0
126530,-100,4,2,5,55,0,0
127076,-100,4,2,18,55,0,0
127621,-100,4,2,5,55,0,0
128167,-100,4,2,17,55,0,0
128712,-100,4,2,5,55,0,0
129257,-100,4,2,19,55,0,0
129803,-100,4,2,3,55,0,0
130349,-100,4,2,16,60,0,0
130894,-100,4,2,8,60,0,0
131711,-100,4,2,1,60,0,0
133075,-100,4,2,8,60,0,0
133893,-100,4,2,1,60,0,0
135257,-100,4,2,8,60,0,0
136348,-100,4,2,1,60,0,0
136894,-100,4,2,1,65,0,0
137440,-100,4,2,8,65,0,0
137985,-100,4,2,1,65,0,0
139621,-100,4,2,8,65,0,0
140167,-100,4,2,1,65,0,0
140712,-100,4,2,9,65,0,0
141258,-100,4,2,20,80,0,1
141803,-100,4,2,9,80,0,1
142349,-100,4,2,21,80,0,1
143440,-100,4,2,22,80,0,1
143986,-100,4,2,9,80,0,1
144531,-100,4,2,21,80,0,1
145076,-100,4,2,11,80,0,1
146712,-100,4,2,10,80,0,1
147257,-100,4,2,9,80,0,1
148349,-100,4,2,14,80,0,1
148894,-100,4,2,10,80,0,1
149167,-100,4,2,9,80,0,1
149985,-100,4,2,23,80,0,1
150531,-100,4,2,9,80,0,1
151077,-100,4,2,21,80,0,1
152167,-100,4,2,22,80,0,1
152712,-100,4,2,9,80,0,1
153258,-100,4,2,21,80,0,1
153803,-100,4,2,11,80,0,1
154349,-100,4,2,14,80,0,1
155439,-100,4,2,5,80,0,1
156258,-100,4,2,9,80,0,1
156531,-100,4,2,22,80,0,1
157621,-100,4,2,5,80,0,1
158713,-100,4,2,24,90,0,1
159258,-100,4,2,5,90,0,1
159804,-100,4,2,10,90,0,1
160349,-100,4,2,5,90,0,1
160894,-100,4,2,25,80,0,1
161439,-100,4,2,5,80,0,1
161986,-100,4,2,26,80,0,1
162531,-100,4,2,5,80,0,1
164712,-100,4,2,12,100,0,1
165258,-100,4,2,9,75,0,0
166349,-100,4,2,10,75,0,0
166894,-100,4,2,11,75,0,0
168530,-100,4,2,10,75,0,0
169076,-100,4,2,1,75,0,0
169622,-100,4,2,12,75,0,0
170167,-100,4,2,1,75,0,0
170712,-100,4,2,10,75,0,0
171257,-100,4,2,13,75,0,0
171530,-100,4,2,14,75,0,0
172894,-100,4,2,11,50,0,0
173440,-100,4,2,1,80,0,0
173985,-133.333333333333,4,2,28,100,0,0
180531,-133.333333333333,4,2,99,50,0,0

[Colours]
Combo1 : 219,32,11
Combo2 : 215,133,53
Combo3 : 84,84,169
Combo4 : 0,179,89

[HitObjects]
101,136,1622,5,2,0:2:0:0:
101,136,1894,2,0,B|155:151|155:151|209:136,1,112.500004291535,2|0,0:2|0:0,0:0:0:0:
275,74,2712,2,0,B|282:45|282:45|275:19,1,56.2500021457673,2|0,0:2|0:0,0:0:0:0:
365,19,3258,2,0,B|358:45|358:45|365:74,1,56.2500021457673,2|0,0:2|0:0,0:0:0:0:
430,136,3803,5,2,0:2:0:0:
432,228,4076,1,0,0:0:0:0:
367,291,4349,1,0,0:0:0:0:
278,293,4622,1,0,0:0:0:0:
213,228,4894,1,2,0:2:0:0:
213,228,5440,2,0,B|188:219|158:228,1,56.2500021457673,0|0,0:0|0:0,0:0:0:0:
78,271,5985,5,6,0:2:0:0:
78,271,6258,2,0,B|42:187|114:187|78:102,1,168.750006437302,2|8,0:2|0:2,0:0:0:0:
27,35,7349,2,0,P|80:18|133:34,1,112.500004291535,2|0,0:2|0:0,0:0:0:0:
206,85,8167,2,0,B|234:92|234:92|261:85,1,56.2500021457673,2|0,0:2|0:0,0:0:0:0:
334,33,8712,2,0,B|362:25|362:25|389:32,1,56.2500021457673,2|0,0:2|0:0,0:0:0:0:
461,85,9258,2,0,B|479:140|479:140|461:196,1,112.500004291535,10|0,0:2|0:0,0:0:0:0:
390,248,10076,1,0,0:0:0:0:
317,194,10349,6,0,B|292:185|262:194,1,56.2500021457673,10|0,0:2|0:0,0:0:0:0:
189,248,10894,1,2,0:2:0:0:
116,197,11167,1,0,0:0:0:0:
42,248,11440,2,0,B|26:300|26:300|44:355,1,112.500004291535,10|2,0:2|0:2,0:0:0:0:
189,248,12531,2,0,B|205:300|205:300|187:355,2,112.500004291535,10|2|10,0:2|0:2|0:2,0:0:0:0:
43,146,14167,2,0,B|36:118|36:118|43:91,1,56.2500021457673,2|0,0:2|0:0,0:0:0:0:
116,39,14712,5,10,0:2:0:0:
116,39,14985,2,0,B|179:38|179:38|217:64|217:64|277:64,1,168.750006437302,2|8,0:2|0:2,0:0:0:0:
350,11,16076,2,0,P|403:-6|456:10,1,112.500004291535,2|0,0:2|0:0,0:0:0:0:
511,80,16894,2,0,B|520:105|511:135,1,56.2500021457673,10|0,0:2|0:0,0:0:0:0:
449,201,17440,2,0,B|440:231|449:256,1,56.2500021457673,2|0,0:2|0:0,0:0:0:0:
503,328,17985,2,0,P|450:345|397:329,1,112.500004291535,10|0,0:2|0:0,0:0:0:0:
324,277,18803,1,2,0:2:0:0:
244,319,19076,6,0,P|165:337|252:240,1,337.500012874604,10|0,0:2|0:0,0:0:0:0:
324,277,20985,2,0,L|351:272,2,28.1250010728836,2|2|10,0:2|0:2|0:2,0:0:0:0:
246,232,21531,2,0,B|233:181|246:128|319:144|336:45|262:0|195:44|206:91,1,281.250010728836,2|0,0:2|0:0,0:0:0:0:
329,207,23440,6,0,P|382:224|435:208,1,112.500004291535,10|8,0:2|0:2,0:0:0:0:
489,36,24531,2,0,P|436:19|383:34,1,112.500004291535,10|8,0:2|0:2,0:0:0:0:
256,162,25622,2,0,P|203:178|150:163,1,112.500004291535,10|8,0:2|0:2,0:0:0:0:
18,18,26712,1,14,0:2:0:0:
18,18,26849,1,8,0:3:0:0:
18,18,26985,1,8,0:3:0:0:
83,90,27258,1,12,0:2:0:0:
83,90,27395,1,4,0:3:0:0:
83,90,27531,1,4,0:3:0:0:
149,162,27803,6,0,B|132:268|132:268|155:304,1,150,12|0,3:2|1:0,0:0:0:0:
229,369,28622,1,0,0:0:0:0:
301,304,28894,2,0,P|338:296|376:304,1,75,8|0,3:2|0:0,0:0:0:0:
445,238,29440,2,0,B|454:202|454:202|445:166,1,75,0|0,1:0|3:0,0:0:0:0:
511,94,29985,6,0,P|443:66|375:95,1,150,8|0,3:2|1:0,0:0:0:0:
301,157,30803,1,0,3:0:0:0:
301,157,30940,1,0,3:0:0:0:
301,157,31076,2,0,P|264:165|226:157,1,75,8|0,3:2|3:0,0:0:0:0:
153,94,31622,2,0,P|116:86|80:94,1,75,0|0,1:0|3:0,0:0:0:0:
5,157,32167,6,0,B|-24:232|34:232|5:307,1,150,8|0,3:2|1:0,0:0:0:0:
80,366,32985,1,0,0:0:0:0:
154,302,33258,2,0,B|190:293|190:293|226:302,1,75,8|0,3:2|3:0,0:0:0:0:
312,333,33803,1,8,1:2:0:0:
374,257,34076,1,8,0:2:0:0:
320,174,34349,6,0,B|247:196|247:196|174:174,1,150,0|0,3:0|1:0,0:0:0:0:
86,211,35167,1,0,3:0:0:0:
86,211,35303,1,0,3:0:0:0:
86,211,35440,2,0,B|77:175|77:175|86:139,1,75,8|0,3:2|1:0,0:0:0:0:
161,75,35985,1,8,0:3:0:0:
197,81,36122,1,8,0:3:0:0:
234,87,36258,1,10,0:3:0:0:
309,24,36531,6,0,L|383:35,1,75,6|2,3:2|0:2,0:0:0:0:
456,99,37076,1,2,1:2:0:0:
456,99,37349,2,0,B|427:174|485:174|456:249,1,150,2|2,0:2|3:2,0:0:0:0:
387,313,38167,1,0,1:0:0:0:
301,266,38440,1,0,0:0:0:0:
231,335,38712,6,0,P|194:343|156:335,1,75,2|2,3:2|0:2,0:0:0:0:
89,266,39258,1,2,1:2:0:0:
89,266,39531,2,0,P|61:198|90:130,1,150,2|2,0:2|0:2,0:0:0:0:
158,62,40349,1,0,1:0:0:0:
247,101,40622,1,0,0:0:0:0:
331,52,40894,6,0,P|368:44|406:52,1,75,2|2,3:2|0:2,0:0:0:0:
403,149,41440,2,0,P|366:157|328:149,1,75,2|2,1:2|0:2,0:0:0:0:
247,101,41985,1,2,3:2:0:0:
246,101,42258,2,0,B|221:153|249:201|249:201|237:227|212:222,1,150,2|2,3:2|0:2,0:0:0:0:
116,204,43076,6,0,P|79:196|43:204,1,75,2|2,3:2|0:2,0:0:0:0:
6,295,43622,2,0,B|49:313|81:294|81:294|113:313|156:295,1,150,2|2,1:2|3:2,0:0:0:0:
235,345,44440,1,0,3:0:0:0:
319,297,44712,2,0,P|355:289|391:297,1,75,0|0,1:0|0:0,0:0:0:0:
475,249,45258,6,0,B|497:176|497:176|475:103,1,150,2|2,3:2|1:2,0:0:0:0:
293,34,46349,2,0,B|271:107|271:107|293:180,1,150,2|2,3:2|1:2,0:0:0:0:
224,248,47167,1,2,0:2:0:0:
153,180,47440,6,0,B|117:171|117:171|81:180,2,75,2|2|2,3:2|0:2|1:2,0:0:0:0:
224,248,48258,2,0,P|291:275|359:248,1,150,2|2,0:2|0:2,0:0:0:0:
427,176,49076,1,0,1:0:0:0:
381,90,49349,1,0,0:0:0:0:
285,106,49622,6,0,B|249:115|249:115|213:106,1,75,2|2,3:2|0:2,0:0:0:0:
141,38,50167,2,0,P|169:106|140:174,1,150,0|2,1:0|3:2,0:0:0:0:
80,249,50985,1,2,3:2:0:0:
133,329,51258,2,0,P|169:337|205:329,1,75,2|2,1:2|0:2,0:0:0:0:
284,270,51803,6,0,B|359:241|359:299|434:270,1,150,2|0,3:2|1:0,0:0:0:0:
503,207,52622,1,0,3:0:0:0:
467,116,52894,2,0,P|431:108|395:116,1,75,2|0,3:2|1:0,0:0:0:0:
318,177,53440,1,0,1:0:0:0:
282,171,53577,1,0,1:0:0:0:
245,165,53713,1,4,0:3:0:0:
169,226,53984,6,0,P|115:242|56:224,1,112.5,10|0,3:2|0:0,0:0:0:0:
23,196,54531,1,10,0:2:0:0:
114,23,55076,2,0,P|167:6|226:24,1,112.5,10|0,3:2|0:0,0:0:0:0:
260,53,55623,1,2,1:2:0:0:
169,226,56167,5,10,3:2:0:0:
230,302,56440,1,0,0:0:0:0:
318,262,56712,2,0,B|354:253|354:253|390:262,1,75,10|0,0:2|3:0,0:0:0:0:
468,202,57258,2,0,P|496:134|468:66,1,150,10|0,3:2|1:0,0:0:0:0:
390,7,58076,1,0,0:0:0:0:
312,66,58349,6,0,B|239:88|239:88|166:66,1,150,2|10,3:2|0:2,0:0:0:0:
90,125,59167,1,0,3:0:0:0:
162,189,59440,2,0,P|190:256|162:324,1,150,10|10,1:2|0:2,0:0:0:0:
20,189,60531,6,0,P|-9:256|19:324,2,150,10|10|10,3:2|0:2|1:2,0:0:0:0:
90,125,61894,1,0,0:0:0:0:
162,189,62167,2,0,P|198:197|234:189,1,75,8|2,0:2|0:2,0:0:0:0:
264,165,62576,1,2,0:2:0:0:
264,165,62712,6,0,P|300:156|336:164,1,75,10|2,3:2|0:2,0:0:0:0:
419,215,63258,2,0,B|455:224|455:224|491:215,1,75,8|0,1:2|0:0,0:0:0:0:
491,117,63803,2,0,B|455:108|455:108|419:117,1,75,0|6,0:0|3:3,0:0:0:0:
336,164,64349,1,6,1:3:0:0:
419,215,64622,1,2,0:2:0:0:
337,262,64894,6,0,B|280:261|280:261|257:278|257:278|192:278,1,150,2|8,3:2|1:2,0:0:0:0:
157,86,65985,2,0,B|193:77|193:77|229:86,1,75,2|0,0:2|3:0,0:0:0:0:
297,156,66531,2,0,B|333:165|333:165|369:156,1,75,4|0,1:3|0:0,0:0:0:0:
440,88,67076,6,0,P|412:155|440:223,1,150,2|10,3:2|1:2,0:0:0:0:
511,289,67894,1,2,0:2:0:0:
440,356,68167,2,0,B|365:385|365:327|290:356,1,150,2|10,0:2|1:3,0:0:0:0:
221,289,68985,1,2,0:2:0:0:
271,205,69258,6,0,P|280:169|272:133,1,75,2|0,3:2|3:0,0:0:0:0:
174,132,69803,2,0,P|165:168|173:204,1,75,8|0,1:2|0:0,0:0:0:0:
221,289,70349,2,0,P|229:325|220:361,1,75,0|0,3:0|3:0,0:0:0:0:
123,361,70894,2,0,P|114:324|123:288,1,75,4|0,1:3|0:0,0:0:0:0:
173,204,71440,5,2,3:2:0:0:
221,289,71712,1,0,3:0:0:0:
271,205,71985,1,8,1:2:0:0:
319,290,72258,1,0,0:0:0:0:
369,206,72531,5,8,3:3:0:0:
381,170,72667,1,8,0:3:0:0:
382,132,72803,1,8,3:3:0:0:
370,97,72940,1,0,3:0:0:0:
348,67,73076,2,0,L|310:72,3,37.5,2|0|2|0,1:2|1:0|1:2|1:0,0:0:0:0:
282,47,73622,6,0,P|246:38|210:46,1,75,14|2,3:2|0:2,0:0:0:0:
126,97,74167,2,0,L|126:172,1,75,0|0,1:0|0:0,0:0:0:0:
99,213,74576,1,0,0:0:0:0:
99,213,74712,1,8,3:2:0:0:
159,289,74985,2,0,B|229:317|229:259|304:288,1,150,2|0,3:2|0:0,0:0:0:0:
389,241,75803,6,0,P|425:231|461:240,1,75,10|0,3:2|0:0,0:0:0:0:
460,337,76349,2,0,P|423:346|387:337,1,75,2|0,1:2|3:0,0:0:0:0:
304,288,76894,2,0,B|275:229|312:182|312:182|305:165|286:156,1,150,10|0,3:2|1:0,0:0:0:0:
217,86,77712,1,0,0:0:0:0:
286,17,77985,6,0,B|322:8|322:8|358:17,1,75,10|0,3:2|0:0,0:0:0:0:
427,86,78531,2,0,B|418:122|418:122|427:158,1,75,2|0,1:2|0:0,0:0:0:0:
462,192,78940,1,0,0:0:0:0:
462,192,79076,2,0,P|490:259|462:327,1,150,10|2,3:2|1:2,0:0:0:0:
276,265,80167,5,10,3:2:0:0:
462,192,80712,1,10,1:2:0:0:
277,130,81258,1,10,3:2:0:0:
351,65,81531,1,0,1:0:0:0:
258,34,81803,1,2,3:2:0:0:
258,34,81940,1,0,3:0:0:0:
258,34,82076,1,2,1:2:0:0:
184,99,82349,6,0,B|148:108|148:108|112:99,1,75,14|2,3:2|0:2,0:0:0:0:
37,163,82894,2,0,B|28:199|28:199|37:235,1,75,0|0,1:0|0:0,0:0:0:0:
62,277,83303,1,0,0:0:0:0:
62,277,83440,1,8,3:2:0:0:
145,227,83712,2,0,B|218:205|218:205|291:227,1,150,2|0,3:2|0:0,0:0:0:0:
361,291,84531,6,0,P|370:328|361:364,1,75,10|0,3:2|0:0,0:0:0:0:
458,363,85076,2,0,P|449:326|458:290,1,75,2|0,1:2|0:0,0:0:0:0:
503,204,85622,2,0,P|531:137|503:69,1,150,10|8,3:2|1:2,0:0:0:0:
425,10,86439,1,2,0:2:0:0:
332,52,86712,6,0,B|154:51|154:51|116:52|82:95|109:136|120:143,1,300,10|8,3:2|3:2,0:0:0:0:
194,204,88076,1,0,3:0:0:0:
270,142,88349,2,0,B|306:133|306:133|342:142,1,75,0|2,1:0|0:2,0:0:0:0:
386,164,88758,1,2,0:2:0:0:
386,164,88894,5,10,3:2:0:0:
465,106,89167,2,0,B|522:218|408:218|465:331,1,225,2|8,0:2|3:2,0:0:0:0:
378,373,90258,1,0,3:0:0:0:
292,325,90531,2,0,B|256:316|256:316|220:325,1,75,0|0,1:0|0:0,0:0:0:0:
133,277,91076,6,0,P|104:209|132:141,1,150,14|8,3:2|1:2,0:0:0:0:
211,83,91894,1,0,0:0:0:0:
296,129,92167,2,0,P|333:138|369:129,1,75,10|0,3:2|3:0,0:0:0:0:
446,188,92712,2,0,P|454:224|446:260,1,75,8|0,1:2|0:0,0:0:0:0:
371,323,93258,6,0,B|301:351|301:293|226:322,1,150,14|8,3:2|1:2,0:0:0:0:
139,368,94076,1,0,0:0:0:0:
66,302,94349,2,0,B|57:266|57:266|66:230,1,75,14|0,3:2|3:0,0:0:0:0:
139,164,94894,2,0,B|175:155|175:155|211:164,1,75,8|0,1:2|0:0,0:0:0:0:
284,229,95440,5,14,3:2:0:0:
256,192,95576,12,8,97622,3:2:0:0:
281,46,103622,5,8,0:3:0:0:
245,40,103758,1,8,0:3:0:0:
208,34,103894,1,10,0:3:0:0:
125,85,104167,6,0,P|151:155|126:224,1,150,6|2,3:2|3:2,0:0:0:0:
55,289,104985,2,0,B|128:267|128:267|201:289,1,150,2|2,0:2|0:2,0:0:0:0:
282,337,105803,1,8,3:2:0:0:
282,337,106349,6,0,B|355:359|355:359|428:337,1,150,2|2,3:2|3:2,0:0:0:0:
502,277,107167,2,0,B|473:202|531:202|502:127,1,150,2|2,0:2|0:2,0:0:0:0:
425,73,107985,1,8,3:2:0:0:
425,73,108531,6,0,B|389:64|389:64|353:73,1,75,2|0,3:2|0:0,0:0:0:0:
273,131,109076,2,0,B|237:140|237:140|201:131,1,75,2|0,3:2|0:0,0:0:0:0:
120,73,109622,1,2,3:2:0:0:
120,73,109894,1,2,0:2:0:0:
11,235,110440,1,0,0:0:0:0:
11,235,110712,6,0,B|2:271|2:271|11:307,2,75,2|0|2,3:2|0:0|3:2,0:0:0:0:
88,175,111531,1,0,0:0:0:0:
164,235,111803,2,0,B|234:262|234:204|309:233,1,150,2|8,3:2|3:2,0:0:0:0:
479,329,112894,5,2,3:2:0:0:
309,233,113440,1,2,3:2:0:0:
477,133,113985,2,0,B|418:132|418:132|386:116|386:116|327:117,1,150,2|10,3:2|3:2,0:0:0:0:
257,52,114803,1,0,0:0:0:0:
183,116,115076,6,0,P|146:124|110:116,1,75,2|0,3:2|0:0,0:0:0:0:
48,191,115622,1,2,3:2:0:0:
110,265,115894,2,0,B|180:238|180:296|255:267,1,150,2|2,0:2|0:2,0:0:0:0:
334,210,116712,1,8,3:2:0:0:
334,210,117258,6,0,P|370:201|406:209,1,75,2|2,3:2|0:2,0:0:0:0:
475,278,117803,2,0,P|449:208|474:139,1,150,0|2,3:0|3:2,0:0:0:0:
410,64,118622,1,0,0:0:0:0:
329,118,118894,2,0,P|292:126|256:118,1,75,10|0,3:2|0:0,0:0:0:0:
185,51,119440,6,0,P|211:121|186:190,1,150,2|0,3:2|3:0,0:0:0:0:
110,250,120258,1,2,0:2:0:0:
41,180,120531,2,0,P|32:143|40:107,1,75,2|0,3:2|1:0,0:0:0:0:
112,39,121076,1,8,1:2:0:0:
148,45,121213,1,0,1:0:0:0:
185,51,121349,1,4,1:3:0:0:
277,18,121622,6,0,B|333:4|333:4|389:18,1,112.5,10|0,3:2|0:0,0:0:0:0:
429,39,122167,1,10,0:2:0:0:
484,225,122712,2,0,B|428:239|428:239|372:225,1,112.5,10|0,3:2|0:0,0:0:0:0:
332,204,123257,1,2,1:2:0:0:
179,325,123803,5,10,3:2:0:0:
110,250,124076,1,0,0:0:0:0:
186,189,124349,2,0,B|195:153|195:153|186:117,1,75,10|0,0:2|3:0,0:0:0:0:
114,49,124894,2,0,B|184:70|184:70|257:48,1,150,10|0,3:2|1:0,0:0:0:0:
348,13,125712,1,0,0:0:0:0:
422,74,125985,6,0,P|450:141|421:209,1,150,2|10,3:2|0:2,0:0:0:0:
363,287,126803,1,0,3:0:0:0:
276,235,127076,2,0,B|203:213|203:213|132:234,1,150,10|10,1:2|0:2,0:0:0:0:
132,39,128167,6,0,B|202:60|202:60|275:38,2,150,10|10|10,3:2|0:2|1:2,0:0:0:0:
59,104,129530,1,0,0:0:0:0:
132,161,129803,2,0,P|140:197|132:233,1,75,8|2,0:2|0:2,0:0:0:0:
112,278,130212,1,2,0:2:0:0:
112,278,130349,6,0,P|103:314|111:350,1,75,10|2,3:2|0:2,0:0:0:0:
209,350,130894,2,0,P|218:314|210:278,1,75,8|0,1:2|0:0,0:0:0:0:
282,212,131439,2,0,B|318:203|318:203|354:212,1,75,0|6,0:0|3:3,0:0:0:0:
414,133,131985,1,6,1:3:0:0:
357,50,132258,1,2,0:2:0:0:
262,80,132530,6,0,B|205:79|205:79|182:96|182:96|117:96,1,150,2|8,3:2|1:2,0:0:0:0:
81,287,133621,2,0,B|117:296|117:296|153:287,1,75,2|0,0:2|3:0,0:0:0:0:
236,233,134167,2,0,B|272:224|272:224|308:233,1,75,4|0,1:3|0:0,0:0:0:0:
378,301,134712,6,0,P|350:234|378:166,1,150,2|10,3:2|1:2,0:0:0:0:
454,104,135530,1,2,0:2:0:0:
378,41,135803,2,0,B|303:70|303:12|228:41,1,150,2|10,0:2|1:3,0:0:0:0:
150,92,136621,1,2,0:2:0:0:
198,176,136894,6,0,B|207:212|207:212|198:248,1,75,2|0,3:2|3:0,0:0:0:0:
99,248,137440,2,0,B|90:212|90:212|99:176,1,75,8|0,1:2|0:0,0:0:0:0:
150,92,137985,2,0,B|159:56|159:56|150:20,1,75,0|0,3:0|3:0,0:0:0:0:
51,19,138531,2,0,B|42:55|42:55|51:91,1,75,4|0,1:3|0:0,0:0:0:0:
99,175,139076,5,2,3:2:0:0:
150,92,139348,1,0,3:0:0:0:
198,176,139621,1,8,1:2:0:0:
249,93,139894,1,0,0:0:0:0:
297,177,140167,5,8,3:3:0:0:
333,189,140303,1,8,0:3:0:0:
371,190,140439,1,8,3:3:0:0:
406,178,140576,1,0,3:0:0:0:
436,156,140712,2,0,L|472:162,3,37.5,2|0|2|0,1:2|1:0|1:2|1:0,0:0:0:0:
502,185,141258,6,0,P|511:221|503:257,1,75,14|2,3:2|0:2,0:0:0:0:
436,328,141803,2,0,B|400:337|400:337|364:328,1,75,0|0,1:0|0:0,0:0:0:0:
318,306,142212,1,0,0:0:0:0:
318,306,142349,1,8,3:2:0:0:
238,362,142622,2,0,B|181:362|181:362|158:345|158:345|93:345,1,150,2|0,3:2|0:0,0:0:0:0:
14,288,143440,6,0,P|4:252|13:216,1,75,10|0,3:2|0:0,0:0:0:0:
93,160,143986,2,0,P|130:151|166:160,1,75,2|0,1:2|3:0,0:0:0:0:
244,216,144531,2,0,P|314:242|383:217,1,150,10|0,3:2|1:0,0:0:0:0:
460,159,145349,1,0,0:0:0:0:
382,99,145622,6,0,B|373:63|373:63|382:27,1,75,10|0,3:2|0:0,0:0:0:0:
284,26,146168,2,0,B|293:62|293:62|284:98,1,75,2|0,1:2|0:0,0:0:0:0:
247,132,146577,1,0,0:0:0:0:
247,132,146712,2,0,B|174:154|174:154|101:132,1,150,10|2,3:2|1:2,0:0:0:0:
3,301,147804,5,10,3:2:0:0:
103,132,148349,1,10,1:2:0:0:
199,303,148894,1,10,3:2:0:0:
249,218,149167,1,0,1:0:0:0:
297,303,149440,1,2,3:2:0:0:
297,303,149576,1,0,3:0:0:0:
297,303,149712,1,2,1:2:0:0:
347,218,149985,6,0,P|383:208|419:217,1,75,14|2,3:2|0:2,0:0:0:0:
490,150,150531,2,0,P|499:114|491:78,1,75,0|0,1:0|0:0,0:0:0:0:
468,34,150940,1,0,0:0:0:0:
468,34,151077,1,8,3:2:0:0:
384,83,151349,2,0,B|314:111|314:53|239:82,1,150,2|0,3:2|0:0,0:0:0:0:
168,149,152167,6,0,B|132:158|132:158|96:149,1,75,10|0,3:2|0:0,0:0:0:0:
95,246,152712,2,0,B|131:237|131:237|167:246,1,75,2|0,1:2|0:0,0:0:0:0:
238,314,153258,2,0,B|311:336|311:336|384:314,1,150,10|8,3:2|1:2,0:0:0:0:
451,246,154076,1,2,0:2:0:0:
408,158,154349,6,0,P|399:77|479:168,1,300,10|8,3:2|3:2,0:0:0:0:
451,246,155712,1,0,3:0:0:0:
355,226,155986,2,0,B|319:217|319:217|283:226,1,75,0|2,1:0|0:2,0:0:0:0:
239,250,156395,1,2,0:2:0:0:
239,250,156531,5,10,3:2:0:0:
160,307,156803,2,0,B|103:195|217:195|160:82,1,225,2|8,0:2|3:2,0:0:0:0:
241,31,157895,1,0,3:0:0:0:
315,92,158167,2,0,P|351:102|387:93,1,75,0|0,1:0|0:0,0:0:0:0:
459,27,158713,6,0,P|430:95|458:163,1,150,14|8,3:2|1:2,0:0:0:0:
511,242,159531,1,0,0:0:0:0:
457,323,159804,2,0,P|420:332|384:323,1,75,10|0,3:2|3:0,0:0:0:0:
301,273,160349,2,0,P|265:265|229:273,1,75,8|0,1:2|0:0,0:0:0:0:
162,345,160894,6,0,B|184:272|184:272|162:199,1,150,14|8,3:2|1:2,0:0:0:0:
95,129,161713,1,0,0:0:0:0:
162,58,161986,2,0,B|198:49|198:49|234:58,1,75,10|0,3:2|3:0,0:0:0:0:
314,113,162531,2,0,B|350:122|350:122|386:113,1,75,8|0,1:2|0:0,0:0:0:0:
459,48,163076,6,0,B|410:112|459:173|459:173|476:195|456:215|456:215|486:309|447:382|340:382|310:345,1,450,0|6,0:0|0:2,0:0:0:0:
134,273,165258,6,0,B|156:200|156:200|134:127,1,150,12|0,3:2|1:0,0:0:0:0:
207,63,166076,1,0,0:0:0:0:
277,129,166349,2,0,P|314:137|352:129,1,75,8|0,3:2|0:0,0:0:0:0:
440,93,166894,2,0,B|431:129|431:129|440:165,1,75,0|0,1:0|3:0,0:0:0:0:
474,257,167440,6,0,B|404:285|404:227|329:256,1,150,8|0,3:2|1:0,0:0:0:0:
249,312,168258,1,0,3:0:0:0:
249,312,168394,1,0,3:0:0:0:
249,312,168530,2,0,P|212:320|174:312,1,75,8|0,3:2|3:0,0:0:0:0:
85,349,169076,2,0,B|94:313|94:313|85:277,1,75,0|0,1:0|3:0,0:0:0:0:
23,199,169622,6,0,P|-6:131|22:63,1,150,8|0,3:2|1:0,0:0:0:0:
103,12,170439,1,0,0:0:0:0:
185,64,170712,2,0,B|221:73|221:73|257:64,1,75,8|0,3:2|3:0,0:0:0:0:
339,115,171257,1,8,1:2:0:0:
424,67,171530,1,8,0:2:0:0:
508,115,171803,6,0,B|530:188|530:188|508:261,1,150,0|0,3:0|1:0,0:0:0:0:
436,325,172622,1,0,3:0:0:0:
436,325,172757,1,0,3:0:0:0:
436,325,172894,2,0,L|398:319,3,37.5,8|0|0|0,1:2|1:0|1:0|1:0,0:0:0:0:
367,339,173440,2,0,L|330:334,1,37.5,8|8,1:3|1:3,0:0:0:0:
297,353,173712,1,8,1:3:0:0:
214,353,173985,6,0,B|223:316|211:283|211:283|135:330|59:253|59:253|135:238|215:172|215:172|150:164|135:116|135:116|211:102|256:33|256:33|302:102|378:116|378:116|362:164|296:172|296:172|378:238|454:253|454:253|378:330|302:283|302:283|289:316|297:353,1,1350.00005149841,14|0,0:2|0:0,0:0:0:0:
