osu file format v14

[General]
AudioFilename: audio.mp3
AudioLeadIn: 0
PreviewTime: 140200
Countdown: 0
SampleSet: Soft
StackLeniency: 0.7
Mode: 3
LetterboxInBreaks: 0
SpecialStyle: 0
WidescreenStoryboard: 0

[Editor]
DistanceSpacing: 1.2
BeatDivisor: 4
GridSize: 4
TimelineZoom: 1.9

[Metadata]
Title:Holy Night
TitleUnicode:ホーリーナイト
Artist:Aisaka Taiga (CV: Kugimiya Rie) & Kawashima Ami (CV: Kitamura Eri)
ArtistUnicode:逢坂大河 (CV: 釘宮理恵) & 川嶋亜美 (CV: 喜多村英梨)
Creator:- Aries -
Version:Normal
Source:とらドラ!
Tags:anime japanese Toradora! christmas xmas FAMoss
BeatmapID:1464947
BeatmapSetID:692322

[Difficulty]
HPDrainRate:7.5
CircleSize:4
OverallDifficulty:7.5
ApproachRate:5
SliderMultiplier:1.4
SliderTickRate:1

[Events]
//Background and Video events
0,0,"holy night bg.jpg",0,0
//Break Periods
//Storyboard Layer 0 (Background)
//Storyboard Layer 1 (Fail)
//Storyboard Layer 2 (Pass)
//Storyboard Layer 3 (Foreground)
//Storyboard Layer 4 (Overlay)
//Storyboard Sound Samples
Sample,3837,0,"sparkle.wav",70
Sample,7110,0,"D5S_s.wav",70
Sample,9291,0,"D5S_s.wav",70
Sample,11473,0,"G4S_s.wav",70
Sample,13655,0,"A5S_s.wav",70
Sample,15837,0,"D5S_s.wav",70
Sample,18019,0,"D5S_s.wav",70
Sample,20200,0,"B4S_s.wav",70
Sample,22382,0,"F#4S_Gb4S_s.wav",70
Sample,23473,0,"G5S_s.wav",70
Sample,24019,0,"G4S_s.wav",70
Sample,24564,0,"D6S_s.wav",70
Sample,24564,0,"A5S_s.wav",70
Sample,25110,0,"D4S_s.wav",70
Sample,25655,0,"F#5S_Gb5S_s.wav",70
Sample,26200,0,"A4S_s.wav",70
Sample,26746,0,"E5S_s.wav",70
Sample,27291,0,"LR_Tom Normal.wav",50
Sample,27291,0,"E4S_s.wav",70
Sample,27837,0,"LR_NBell_D6.wav",70
Sample,28928,0,"LR_NBell_A6.wav",70
Sample,30019,0,"LR_NBell_E6.wav",70
Sample,31110,0,"LR_NBell_A6.wav",70
Sample,32200,0,"LR_NBell_C6.wav",70
Sample,33291,0,"LR_NBell_A6.wav",70
Sample,33837,0,"LR_NBell_G6.wav",70
Sample,34110,0,"LR_NBell_F#6.wav",70
Sample,34382,0,"LR_NBell_F#6.wav",70
Sample,35473,0,"LR_NBell_G#6.wav",70
Sample,36019,0,"LR_Tom Normal.wav",50
Sample,36291,0,"LR_Tom Hit.wav",70
Sample,53473,0,"LR_Tom Normal.wav",50
Sample,53610,0,"LR_Tom Normal.wav",50
Sample,54019,0,"F#5S_Gb5S_s.wav",70
Sample,54564,0,"F#5S_Gb5S_s.wav",70
Sample,54564,0,"D#5S_Eb5S_s.wav",70
Sample,55110,0,"G#5S_Ab5S_s.wav",70
Sample,55110,0,"D#5S_Eb5S_s.wav",70
Sample,55655,0,"D#5S_Eb5S_s.wav",70
Sample,55655,0,"G#5S_Ab5S_s.wav",70
Sample,56200,0,"D#5S_Eb5S_s.wav",70
Sample,56200,0,"G#5S_Ab5S_s.wav",70
Sample,56746,0,"LR_Chm High Long.wav",50
Sample,56746,0,"G#5S_Ab5S_s.wav",70
Sample,57291,0,"F5S.wav",70
Sample,57837,0,"G#4S_Ab4S_s.wav",70
Sample,58382,0,"F5S_s.wav",70
Sample,58382,0,"C#5S_Db5S_s.wav",70
Sample,58928,0,"G#5S_Ab5S_s.wav",70
Sample,59200,0,"F#5S_Gb5S_s.wav",70
Sample,59473,0,"F5S_s.wav",70
Sample,60019,0,"C#5S_Db5S_s.wav",70
Sample,60564,0,"A#4S_Bb4S.wav",70
Sample,60564,0,"F5S.wav",70
Sample,61110,0,"D#5S_Eb5S_s.wav",70
Sample,61655,0,"D#5S_Eb5S_s.wav",70
Sample,61655,0,"C#4S_Db4S_s.wav",70
Sample,73110,0,"G5S_s.wav",70
Sample,73110,0,"G6S_s.wav",70
Sample,73382,0,"A5S_s.wav",70
Sample,73382,0,"A6S_s.wav",70
Sample,73655,0,"B6S_s.wav",70
Sample,73928,0,"D5S.wav",70
Sample,75019,0,"D6S_s.wav",70
Sample,75019,0,"D5S_s.wav",70
Sample,75564,0,"D6S_s.wav",70
Sample,75837,0,"A5S_s.wav",70
Sample,75837,0,"A6S_s.wav",70
Sample,76110,0,"G5S_s.wav",70
Sample,76110,0,"G6S_s.wav",70
Sample,76382,0,"F#5S_Gb5S_s.wav",70
Sample,76382,0,"F#6S_Gb6S_s.wav",70
Sample,76655,0,"A5S_s.wav",70
Sample,76655,0,"A6S_s.wav",70
Sample,76928,0,"D5S_s.wav",70
Sample,76928,0,"D6S_s.wav",70
Sample,77746,0,"A5S_s.wav",70
Sample,78019,0,"G6S_s.wav",70
Sample,78019,0,"G5S_s.wav",70
Sample,78291,0,"G6S_s.wav",70
Sample,78291,0,"G5S_s.wav",45
Sample,78564,0,"G6S_s.wav",70
Sample,78564,0,"G5S_s.wav",70
Sample,78837,0,"G5S_s.wav",70
Sample,79110,0,"F#5S_Gb5S_s.wav",70
Sample,79110,0,"F#6S_Gb6S_s.wav",70
Sample,79655,0,"E6S_s.wav",70
Sample,79655,0,"E5S_s.wav",70
Sample,80200,0,"F#6S_Gb6S_s.wav",70
Sample,80200,0,"F#5S_Gb5S_s.wav",70
Sample,80746,0,"A6S_s.wav",70
Sample,80746,0,"A5S_s.wav",70
Sample,81291,0,"F#4S_Gb4S_s.wav",70
Sample,81291,0,"A6S_s.wav",70
Sample,81837,0,"G6S_s.wav",70
Sample,81837,0,"G5S_s.wav",70
Sample,82110,0,"A6S_s.wav",70
Sample,82382,0,"B6S_s.wav",70
Sample,82655,0,"D6S.wav",70
Sample,82655,0,"D5S.wav",70
Sample,83746,0,"D5S_s.wav",70
Sample,83746,0,"D6S_s.wav",70
Sample,84564,0,"A5S_s.wav",70
Sample,84564,0,"A6S_s.wav",70
Sample,84837,0,"G5S_s.wav",70
Sample,84837,0,"G6S_s.wav",70
Sample,85110,0,"F#5S_Gb5S_s.wav",70
Sample,85110,0,"F#6S_Gb6S_s.wav",70
Sample,85382,0,"E5S_s.wav",70
Sample,85382,0,"E6S_s.wav",70
Sample,85655,0,"A4S_s.wav",70
Sample,85655,0,"D6S_s.wav",70
Sample,86473,0,"A5S_s.wav",70
Sample,86473,0,"A4S_s.wav",57
Sample,86746,0,"E5S_s.wav",70
Sample,86746,0,"G5S_s.wav",70
Sample,87019,0,"F#6S_Gb6S.wav",70
Sample,88655,0,"F#5S_Gb5S_s.wav",70
Sample,88791,0,"F#6S_Gb6S_s.wav",70
Sample,88928,0,"F#5S_Gb5S_s.wav",70
Sample,88928,0,"F#6S_Gb6S_s.wav",70
Sample,89200,0,"A5S.wav",70
Sample,89200,0,"A6S.wav",70
Sample,91110,0,"B5S_s.wav",70
Sample,92200,0,"A6S_s.wav",70
Sample,92200,0,"A5S_s.wav",70
Sample,93291,0,"F#6S_Gb6S_s.wav",70
Sample,94382,0,"A4S_s.wav",70
Sample,94382,0,"E6S_s.wav",70
Sample,95473,0,"LR_NBell_D6.wav",70
Sample,96564,0,"LR_NBell_A6.wav",70
Sample,97655,0,"LR_NBell_E6.wav",70
Sample,98746,0,"LR_NBell_A6.wav",70
Sample,99837,0,"LR_NBell_C6.wav",70
Sample,100928,0,"LR_NBell_A6.wav",70
Sample,101746,0,"LR_NBell_F#6.wav",70
Sample,102019,0,"LR_NBell_F#6.wav",70
Sample,103110,0,"LR_NBell_G#6.wav",70
Sample,103655,0,"LR_Tom Normal.wav",50
Sample,103928,0,"LR_Tom Hit.wav",70
Sample,108019,0,"LR_Chm High Long.wav",50
Sample,112382,0,"LR_Chm High Long.wav",50
Sample,116746,0,"LR_Chm High Long.wav",50
Sample,121655,0,"F#5S_Gb5S_s.wav",70
Sample,122200,0,"F#5S_Gb5S_s.wav",70
Sample,122200,0,"D#5S_Eb5S_s.wav",70
Sample,122746,0,"G#5S_Ab5S_s.wav",70
Sample,122746,0,"D#5S_Eb5S_s.wav",70
Sample,123291,0,"D#5S_Eb5S_s.wav",70
Sample,123291,0,"G#5S_Ab5S_s.wav",70
Sample,123837,0,"G#5S_Ab5S_s.wav",70
Sample,124382,0,"LR_Chm High Long.wav",50
Sample,124382,0,"G#5S_Ab5S_s.wav",70
Sample,124928,0,"F5S.wav",70
Sample,125473,0,"G#4S_Ab4S_s.wav",70
Sample,126019,0,"F5S_s.wav",70
Sample,126019,0,"C#5S_Db5S_s.wav",70
Sample,126564,0,"G#5S_Ab5S_s.wav",70
Sample,126837,0,"F#5S_Gb5S_s.wav",70
Sample,127110,0,"F5S_s.wav",70
Sample,127655,0,"C#5S_Db5S_s.wav",70
Sample,128200,0,"A#4S_Bb4S.wav",70
Sample,128200,0,"F5S.wav",70
Sample,128746,0,"D#5S_Eb5S_s.wav",70
Sample,129291,0,"D#5S_Eb5S_s.wav",70
Sample,129291,0,"C#4S_Db4S_s.wav",70
Sample,140746,0,"G5S_s.wav",70
Sample,140746,0,"G6S_s.wav",70
Sample,141019,0,"A5S_s.wav",70
Sample,141019,0,"A6S_s.wav",70
Sample,141291,0,"B6S_s.wav",70
Sample,141564,0,"D5S.wav",70
Sample,142655,0,"D6S_s.wav",70
Sample,142655,0,"D5S_s.wav",70
Sample,143200,0,"D6S_s.wav",70
Sample,143473,0,"A5S_s.wav",70
Sample,143473,0,"A6S_s.wav",70
Sample,143746,0,"G5S_s.wav",70
Sample,143746,0,"G6S_s.wav",70
Sample,144019,0,"F#5S_Gb5S_s.wav",70
Sample,144019,0,"F#6S_Gb6S_s.wav",70
Sample,144291,0,"A5S_s.wav",70
Sample,144291,0,"A6S_s.wav",70
Sample,144564,0,"D5S_s.wav",70
Sample,144564,0,"D6S_s.wav",70
Sample,145382,0,"A5S_s.wav",70
Sample,145655,0,"G6S_s.wav",70
Sample,145655,0,"G5S_s.wav",70
Sample,145928,0,"G6S_s.wav",70
Sample,145928,0,"G5S_s.wav",45
Sample,146200,0,"G6S_s.wav",70
Sample,146200,0,"G5S_s.wav",70
Sample,146473,0,"G5S_s.wav",70
Sample,146746,0,"F#5S_Gb5S_s.wav",70
Sample,146746,0,"F#6S_Gb6S_s.wav",70
Sample,147291,0,"E6S_s.wav",70
Sample,147291,0,"E5S_s.wav",70
Sample,147837,0,"F#6S_Gb6S_s.wav",70
Sample,147837,0,"F#5S_Gb5S_s.wav",70
Sample,148382,0,"A6S_s.wav",70
Sample,148382,0,"A5S_s.wav",70
Sample,148928,0,"F#4S_Gb4S_s.wav",70
Sample,148928,0,"A6S_s.wav",70
Sample,149473,0,"G6S_s.wav",70
Sample,149473,0,"G5S_s.wav",70
Sample,149746,0,"A6S_s.wav",70
Sample,150019,0,"B6S_s.wav",70
Sample,150291,0,"D6S.wav",70
Sample,150291,0,"D5S.wav",70
Sample,151382,0,"D5S_s.wav",70
Sample,151382,0,"D6S_s.wav",70
Sample,152200,0,"A5S_s.wav",70
Sample,152200,0,"A6S_s.wav",70
Sample,152473,0,"G5S_s.wav",70
Sample,152473,0,"G6S_s.wav",70
Sample,152746,0,"F#5S_Gb5S_s.wav",70
Sample,152746,0,"F#6S_Gb6S_s.wav",70
Sample,153019,0,"E5S_s.wav",70
Sample,153019,0,"E6S_s.wav",70
Sample,153291,0,"A4S_s.wav",70
Sample,153291,0,"D6S_s.wav",70
Sample,154110,0,"A5S_s.wav",70
Sample,154110,0,"A4S_s.wav",57
Sample,154382,0,"E5S_s.wav",70
Sample,154382,0,"G5S_s.wav",70
Sample,154655,0,"F#6S_Gb6S.wav",70
Sample,156291,0,"F#5S_Gb5S_s.wav",70
Sample,156428,0,"F#6S_Gb6S_s.wav",70
Sample,156564,0,"F#5S_Gb5S_s.wav",70
Sample,156564,0,"F#6S_Gb6S_s.wav",70
Sample,156837,0,"A5S.wav",70
Sample,156837,0,"A6S.wav",70
Sample,158746,0,"B5S_s.wav",70
Sample,159837,0,"A6S_s.wav",70
Sample,159837,0,"A5S_s.wav",70
Sample,160928,0,"F#6S_Gb6S_s.wav",70
Sample,162019,0,"A4S_s.wav",70
Sample,162019,0,"E6S_s.wav",70
Sample,162837,0,"sparkle.wav",70
Sample,165291,0,"LR_NBell_D6.wav",70
Sample,166382,0,"LR_NBell_A6.wav",70
Sample,167473,0,"LR_NBell_E6.wav",70
Sample,168564,0,"LR_NBell_A6.wav",70
Sample,169655,0,"LR_NBell_C6.wav",70
Sample,170746,0,"LR_NBell_A6.wav",70
Sample,171564,0,"LR_NBell_F#6.wav",70
Sample,171837,0,"LR_NBell_F#6.wav",70
Sample,172928,0,"LR_NBell_E6.wav",70
Sample,173746,0,"LR_Tom Hit.wav",70
Sample,174019,0,"sparkle.wav",70

[TimingPoints]
1655,545.454545454546,4,2,1,70,1,0
27836,-100,4,2,1,70,0,1
36564,-100,4,2,1,70,0,0
73655,-100,4,2,1,70,0,1
95200,-100,4,2,1,70,0,0
95473,-100,4,2,1,70,0,1
104200,-100,4,2,1,70,0,0
141291,-100,4,2,1,70,0,1
163109,-100,4,2,1,70,0,0
165291,-100,4,2,1,70,0,1
174018,-100,4,2,1,70,0,0

[HitObjects]
64,192,1109,5,0,0:0:0:70:LR_NBell_G6.wav
192,192,1382,1,0,0:0:0:70:LR_NBell_A6.wav
320,192,1655,1,0,0:0:0:70:G4S.wav
448,192,1655,1,0,0:0:0:70:LR_NBell_B6.wav
64,192,1927,1,0,0:0:0:70:LR_NBell_D6.wav
448,192,2200,1,0,0:0:0:70:G5S_s.wav
448,192,2473,1,0,0:0:0:70:B5S_s.wav
64,192,2745,1,0,0:0:0:70:F#4S_Gb4S.wav
192,192,2745,1,0,0:0:0:70:LR_NBell_D6.wav
320,192,3018,1,0,0:0:0:70:LR_NBell_A6.wav
192,192,3291,1,0,0:0:0:70:LR_NBell_G6.wav
64,192,3564,1,0,0:0:0:70:LR_NBell_F#6.wav
320,192,3836,1,0,0:0:0:70:E4S.wav
448,192,3836,1,0,0:0:0:70:LR_NBell_E6.wav
64,192,4109,1,0,0:0:0:70:B4S_s.wav
192,192,4382,1,0,0:0:0:70:E5S_s.wav
320,192,4655,1,0,0:0:0:70:G5S_s.wav
64,192,4927,1,0,0:0:0:70:A4S_s.wav
192,192,4927,1,0,0:0:0:70:LR_NBell_A6.wav
320,192,6018,1,4,0:0:0:0:
448,192,6018,1,0,0:0:0:70:G5S_s.wav
192,192,6564,1,0,0:0:0:70:G4S_s.wav
448,192,7109,1,0,0:0:0:50:LR_Chm High Long.wav
320,192,7655,1,0,0:0:0:70:G4S_s.wav
64,192,8200,1,0,0:0:0:70:A5S_s.wav
448,192,8745,1,0,0:0:0:70:F#5S_Gb5S_s.wav
64,192,9291,1,0,0:0:0:50:LR_Chm High Long.wav
192,192,9564,1,0,0:0:0:0:
320,192,9836,1,0,0:0:0:70:D4S_s.wav
448,192,10382,1,0,0:0:0:70:G5S_s.wav
192,192,10927,1,0,0:0:0:70:G5S_s.wav
64,192,11473,1,0,0:0:0:50:LR_Chm High Long.wav
320,192,12018,1,0,0:0:0:70:E5S_s.wav
448,192,12564,1,0,0:0:0:70:F#5S_Gb5S.wav
192,192,13109,1,0,0:0:0:70:A5S_s.wav
448,192,13655,1,0,0:0:0:50:LR_Chm High Long.wav
192,192,13927,1,0,0:0:0:0:
320,192,14200,1,0,0:0:0:70:G5S_s.wav
64,192,14473,1,0,0:0:0:0:
448,192,14745,1,0,0:0:0:70:G5S_s.wav
192,192,15291,1,0,0:0:0:70:G4S_s.wav
64,192,15836,1,0,0:0:0:50:LR_Chm High Long.wav
448,192,16382,1,0,0:0:0:70:G4S_s.wav
64,192,16927,1,0,0:0:0:70:A5S_s.wav
320,192,17473,1,0,0:0:0:0:
192,192,18018,128,0,18564:0:0:0:50:LR_Chm High Long.wav
320,192,18564,128,0,19109:0:0:0:70:A4S_s.wav
64,192,19109,1,0,0:0:0:70:E5S_s.wav
448,192,19655,1,0,0:0:0:70:E4S_s.wav
192,192,20200,1,0,0:0:0:50:LR_Chm High Long.wav
320,192,20473,1,0,0:0:0:0:
64,192,20745,1,0,0:0:0:70:G4S_s.wav
320,192,21291,1,0,0:0:0:70:F#5S_Gb5S_s.wav
64,192,21836,1,0,0:0:0:70:A4S_s.wav
192,192,22109,1,0,0:0:0:0:
320,192,22382,1,0,0:0:0:50:LR_Chm High Long.wav
448,192,22655,1,0,0:0:0:0:
192,192,22927,1,0,0:0:0:70:C#4S_Db4S_s.wav
320,192,23200,1,0,0:0:0:0:
64,192,23473,1,0,0:0:0:50:LR_Chm High Long.wav
448,192,23745,1,0,0:0:0:0:
320,192,24018,1,0,0:0:0:50:LR_Chm High Long.wav
192,192,24291,1,0,0:0:0:0:
64,192,24564,1,0,0:0:0:50:LR_Chm High Long.wav
320,192,24836,1,0,0:0:0:0:
192,192,25109,1,0,0:0:0:50:LR_Chm High Long.wav
320,192,25382,1,0,0:0:0:0:
448,192,25655,1,0,0:0:0:50:LR_Chm High Long.wav
64,192,25927,1,0,0:0:0:0:
320,192,26200,1,0,0:0:0:50:LR_Chm High Long.wav
192,192,26473,1,0,0:0:0:0:
64,192,26745,1,0,0:0:0:70:LR_Tom Hit.wav
192,192,26882,1,0,0:0:0:70:LR_Tom Hit.wav
320,192,27018,1,0,0:0:0:70:LR_Tom Hit.wav
448,192,27291,1,0,0:0:0:50:LR_Chm High Long.wav
320,192,27427,1,0,0:0:0:50:LR_Tom Normal.wav
192,192,27564,1,0,0:0:0:50:LR_Tom Normal.wav
64,192,27836,1,6,0:0:0:0:
448,192,27836,1,0,0:0:0:70:LR_Tom Hit.wav
320,192,28109,1,2,0:0:0:0:
192,192,28382,1,8,0:0:0:0:
448,192,28655,1,8,0:0:0:0:
320,192,28791,1,0,0:0:0:0:
64,192,28927,1,2,0:0:0:0:
448,192,29200,1,2,0:0:0:0:
192,192,29473,1,8,0:0:0:0:
320,192,29745,1,2,0:0:0:0:
64,192,30018,1,2,0:0:0:0:
448,192,30291,1,2,0:0:0:0:
320,192,30564,1,8,0:0:0:0:
64,192,30836,1,2,0:0:0:0:
192,192,30973,1,2,0:0:0:0:
448,192,31109,1,2,0:0:0:0:
64,192,31382,1,2,0:0:0:0:
320,192,31655,1,8,0:0:0:0:
192,192,31927,1,2,0:0:0:0:
448,192,32200,1,2,0:0:0:0:
64,192,32473,1,2,0:0:0:0:
192,192,32745,1,8,0:0:0:0:
320,192,33018,1,2,0:0:0:0:
192,192,33155,1,0,0:0:0:0:
64,192,33291,1,2,0:0:0:0:
448,192,33564,1,2,0:0:0:0:
192,192,33836,1,8,0:0:0:0:
320,192,34109,1,2,0:0:0:0:
64,192,34382,1,2,0:0:0:0:
448,192,34655,1,2,0:0:0:0:
320,192,34927,1,8,0:0:0:0:
64,192,35200,1,2,0:0:0:0:
192,192,35336,1,2,0:0:0:0:
320,192,35473,1,2,0:0:0:0:
64,192,35745,1,8,0:0:0:0:
448,192,36018,1,2,0:0:0:0:
320,192,36155,1,0,0:0:0:70:LR_Tom Hit.wav
192,192,36291,1,8,0:0:0:0:
64,192,36564,1,4,0:0:0:0:
448,192,36564,1,2,0:0:0:0:
320,192,36836,1,2,0:0:0:0:
64,192,37109,1,8,0:0:0:0:
192,192,37109,1,0,0:0:0:0:
448,192,37382,1,2,0:0:0:0:
192,192,37655,1,2,0:0:0:0:
192,192,37927,1,2,0:0:0:0:
320,192,38200,1,8,0:0:0:0:
448,192,38200,1,0,0:0:0:0:
64,192,38473,1,2,0:0:0:0:
448,192,38745,1,2,0:0:0:0:
192,192,39018,1,2,0:0:0:0:
320,192,39291,1,8,0:0:0:0:
448,192,39291,1,0,0:0:0:0:
64,192,39564,1,2,0:0:0:0:
320,192,39836,1,2,0:0:0:0:
320,192,40109,1,2,0:0:0:0:
64,192,40382,1,8,0:0:0:0:
192,192,40382,1,0,0:0:0:0:
448,192,40655,1,2,0:0:0:0:
320,192,40927,1,2,0:0:0:0:
64,192,41200,1,2,0:0:0:0:
192,192,41473,1,8,0:0:0:0:
448,192,41473,1,0,0:0:0:0:
320,192,41745,1,2,0:0:0:0:
64,192,42018,1,2,0:0:0:0:
64,192,42291,1,2,0:0:0:0:
192,192,42564,1,8,0:0:0:0:
448,192,42564,1,0,0:0:0:0:
64,192,42836,1,2,0:0:0:0:
192,192,43109,1,2,0:0:0:0:
448,192,43382,1,2,0:0:0:0:
64,192,43655,1,8,0:0:0:0:
320,192,43655,1,0,0:0:0:0:
192,192,43927,1,2,0:0:0:0:
448,192,44200,1,2,0:0:0:0:
448,192,44473,1,2,0:0:0:0:
192,192,44745,1,8,0:0:0:0:
320,192,44745,1,0,0:0:0:0:
448,192,45018,1,2,0:0:0:0:
192,192,45291,1,2,0:0:0:0:
192,192,45564,1,2,0:0:0:0:
320,192,45836,1,8,0:0:0:0:
448,192,45836,1,0,0:0:0:0:
64,192,46109,1,2,0:0:0:0:
320,192,46382,1,2,0:0:0:0:
320,192,46655,1,2,0:0:0:0:
64,192,46927,1,8,0:0:0:0:
192,192,46927,1,0,0:0:0:0:
448,192,47200,1,2,0:0:0:0:
64,192,47473,1,2,0:0:0:0:
64,192,47745,1,2,0:0:0:0:
320,192,48018,1,8,0:0:0:0:
448,192,48018,1,0,0:0:0:0:
192,192,48291,1,2,0:0:0:0:
448,192,48564,1,2,0:0:0:0:
448,192,48836,1,2,0:0:0:0:
64,192,49109,1,8,0:0:0:0:
192,192,49109,1,0,0:0:0:0:
448,192,49382,1,2,0:0:0:0:
320,192,49655,1,2,0:0:0:0:
320,192,49927,1,2,0:0:0:0:
192,192,50200,1,8,0:0:0:0:
448,192,50200,1,0,0:0:0:0:
64,192,50473,1,2,0:0:0:0:
192,192,50745,1,2,0:0:0:0:
192,192,51018,1,2,0:0:0:0:
320,192,51291,1,8,0:0:0:0:
448,192,51291,1,0,0:0:0:0:
64,192,51564,1,2,0:0:0:0:
192,192,51700,1,2,0:0:0:0:
320,192,51836,1,2,0:0:0:0:
320,192,52109,1,2,0:0:0:0:
64,192,52382,1,8,0:0:0:0:
192,192,52382,1,0,0:0:0:0:
448,192,52655,1,2,0:0:0:0:
192,192,52927,1,2,0:0:0:0:
320,192,53200,1,8,0:0:0:0:
448,192,53200,1,0,0:0:0:0:
64,192,53473,1,8,0:0:0:0:
448,192,53609,1,8,0:0:0:0:
320,192,53745,1,0,0:0:0:70:LR_Tom Hit.wav
64,192,54018,1,6,0:0:0:0:
192,192,54018,1,0,0:0:0:70:D#5S_Eb5S_s.wav
448,192,54291,1,0,0:0:0:0:
64,192,54564,1,0,0:0:0:50:LR_Chm High Long.wav
192,192,54836,1,2,0:0:0:0:
448,192,55109,128,2,55655:0:0:0:0:
192,192,55655,1,8,0:0:0:0:
320,192,55927,1,2,0:0:0:0:
448,192,56200,1,2,0:0:0:0:
64,192,56473,1,0,0:0:0:70:A#5S_Bb5S_s.wav
320,192,56745,1,8,0:0:0:0:
192,192,57018,1,0,0:0:0:70:F#5S_Gb5S_s.wav
448,192,57291,1,2,0:0:0:0:
64,192,57564,128,0,57836:0:0:0:0:
192,192,57836,128,8,58109:0:0:0:0:
320,192,58109,128,2,58382:0:0:0:0:
64,192,58382,1,2,0:0:0:0:
448,192,58655,128,0,58927:0:0:0:70:F#5S_Gb5S_s.wav
320,192,58927,128,0,59200:0:0:0:50:LR_Chm High Long.wav
192,192,59200,128,2,59473:0:0:0:0:
448,192,59473,1,8,0:0:0:0:
320,192,59745,128,0,60018:0:0:0:0:
192,192,60018,128,0,60291:0:0:0:70:F4S_s.wav
64,192,60291,128,2,60564:0:0:0:0:
448,192,60564,1,2,0:0:0:0:
192,192,60836,128,0,61109:0:0:0:0:
320,192,61109,128,0,61382:0:0:0:50:LR_Chm High Long.wav
448,192,61382,128,2,61655:0:0:0:0:
64,192,61655,1,8,0:0:0:0:
192,192,61927,1,0,0:0:0:0:
448,192,62200,1,0,0:0:0:0:
320,192,62473,1,0,0:0:0:0:
192,192,62745,1,6,0:0:0:0:
320,192,63018,1,2,0:0:0:0:
64,192,63291,1,8,0:0:0:0:
448,192,63291,1,0,0:0:0:70:LR_Tom Hit.wav
192,192,63564,1,0,0:0:0:0:
192,192,63836,1,2,0:0:0:0:
320,192,64109,1,2,0:0:0:0:
448,192,64109,1,0,0:0:0:50:LR_Tom Normal.wav
64,192,64382,1,8,0:0:0:0:
192,192,64382,1,0,0:0:0:70:LR_Tom Hit.wav
320,192,64655,1,0,0:0:0:0:
448,192,64927,1,2,0:0:0:0:
192,192,65200,1,2,0:0:0:0:
320,192,65473,1,8,0:0:0:0:
448,192,65473,1,0,0:0:0:70:LR_Tom Hit.wav
64,192,65745,1,0,0:0:0:0:
192,192,66018,1,2,0:0:0:0:
320,192,66291,1,2,0:0:0:0:
448,192,66291,1,0,0:0:0:50:LR_Tom Normal.wav
64,192,66564,1,8,0:0:0:0:
192,192,66564,1,0,0:0:0:70:LR_Tom Hit.wav
448,192,66836,1,0,0:0:0:0:
192,192,67109,1,2,0:0:0:0:
320,192,67382,1,2,0:0:0:0:
64,192,67655,1,8,0:0:0:0:
448,192,67655,1,0,0:0:0:70:LR_Tom Hit.wav
320,192,67927,1,0,0:0:0:0:
320,192,68200,1,2,0:0:0:0:
64,192,68473,1,2,0:0:0:0:
192,192,68473,1,0,0:0:0:50:LR_Tom Normal.wav
320,192,68745,1,8,0:0:0:0:
448,192,68745,1,0,0:0:0:70:LR_Tom Hit.wav
192,192,69018,1,0,0:0:0:0:
64,192,69291,1,2,0:0:0:0:
320,192,69564,1,2,0:0:0:0:
64,192,69836,1,8,0:0:0:0:
192,192,69836,1,0,0:0:0:70:LR_Tom Hit.wav
448,192,70109,1,0,0:0:0:0:
64,192,70382,1,2,0:0:0:0:
320,192,70655,1,2,0:0:0:0:
448,192,70655,1,0,0:0:0:50:LR_Tom Normal.wav
64,192,70927,1,8,0:0:0:0:
192,192,70927,1,0,0:0:0:70:LR_Tom Hit.wav
448,192,71200,1,0,0:0:0:0:
192,192,71473,1,2,0:0:0:0:
64,192,71745,1,2,0:0:0:0:
320,192,72018,1,8,0:0:0:0:
448,192,72018,1,0,0:0:0:0:
192,192,72291,1,0,0:0:0:0:
320,192,72564,1,2,0:0:0:0:
448,192,72564,1,0,0:0:0:0:
192,192,72700,1,2,0:0:0:0:
64,192,72836,1,2,0:0:0:0:
448,192,73109,1,8,0:0:0:0:
320,192,73245,1,8,0:0:0:0:
64,192,73382,1,8,0:0:0:0:
192,192,73518,1,8,0:0:0:0:
320,192,73655,1,6,0:0:0:0:
448,192,73655,1,0,0:0:0:70:B5S_s.wav
192,192,73927,1,0,0:0:0:70:D6S.wav
448,192,74064,1,0,0:0:0:0:
320,192,74200,1,8,0:0:0:0:
64,192,74336,1,0,0:0:0:0:
448,192,74473,1,0,0:0:0:0:
320,192,74609,1,0,0:0:0:0:
64,192,74745,128,2,75018:0:0:0:0:
448,192,75018,1,2,0:0:0:0:
320,192,75291,1,8,0:0:0:0:
64,192,75427,1,0,0:0:0:0:
448,192,75564,1,2,0:0:0:0:
192,192,75700,1,0,0:0:0:0:
448,192,75836,128,2,76109:0:0:0:0:
320,192,76109,1,2,0:0:0:0:
192,192,76382,1,8,0:0:0:0:
448,192,76518,1,0,0:0:0:0:
64,192,76655,1,2,0:0:0:0:
320,192,76791,1,2,0:0:0:0:
192,192,76927,128,2,77473:0:0:0:0:
448,192,77200,1,2,0:0:0:0:
320,192,77473,128,8,78018:0:0:0:0:
64,192,77745,1,2,0:0:0:0:
448,192,78018,128,2,79109:0:0:0:0:
192,192,78291,1,2,0:0:0:0:
64,192,78564,1,8,0:0:0:0:
320,192,78836,1,0,0:0:0:70:G6S_s.wav
64,192,79109,128,2,80200:0:0:0:0:
320,192,79382,1,2,0:0:0:0:
192,192,79655,1,8,0:0:0:0:
448,192,79927,1,2,0:0:0:0:
320,192,80200,128,2,80745:0:0:0:0:
192,192,80473,1,2,0:0:0:0:
448,192,80745,128,8,81291:0:0:0:0:
192,192,81018,1,2,0:0:0:0:
320,192,81155,1,2,0:0:0:0:
64,192,81291,128,2,81564:0:0:0:0:
192,192,81564,1,8,0:0:0:0:
320,192,81564,1,0,0:0:0:0:
64,192,81836,1,2,0:0:0:0:
320,192,82109,1,8,0:0:0:0:
448,192,82109,1,0,0:0:0:70:A5S_s.wav
64,192,82382,1,6,0:0:0:0:
192,192,82382,1,0,0:0:0:70:B5S_s.wav
448,192,82655,1,2,0:0:0:0:
64,192,82791,1,0,0:0:0:0:
320,192,82927,1,8,0:0:0:0:
192,192,83064,1,0,0:0:0:0:
448,192,83200,1,0,0:0:0:0:
64,192,83336,1,0,0:0:0:0:
320,192,83473,128,2,83745:0:0:0:0:
192,192,83745,1,2,0:0:0:0:
64,192,84018,1,8,0:0:0:0:
448,192,84155,1,0,0:0:0:0:
320,192,84291,1,0,0:0:0:70:D6S_s.wav
192,192,84427,1,0,0:0:0:0:
448,192,84564,128,2,84836:0:0:0:0:
64,192,84836,1,2,0:0:0:0:
192,192,85109,1,8,0:0:0:0:
320,192,85245,1,0,0:0:0:0:
64,192,85382,1,2,0:0:0:0:
448,192,85518,1,0,0:0:0:0:
192,192,85655,128,2,86200:0:0:0:0:
320,192,85927,1,2,0:0:0:0:
448,192,86200,128,8,86745:0:0:0:0:
192,192,86473,1,2,0:0:0:0:
64,192,86745,128,2,87018:0:0:0:0:
448,192,87018,1,0,0:0:0:70:F#5S_Gb5S.wav
320,192,87155,1,0,0:0:0:0:
192,192,87291,1,8,0:0:0:0:
64,192,87564,1,0,0:0:0:0:
448,192,87700,1,2,0:0:0:0:
192,192,87836,1,2,0:0:0:0:
320,192,87973,1,0,0:0:0:0:
64,192,88109,1,2,0:0:0:0:
192,192,88245,1,0,0:0:0:0:
448,192,88382,1,8,0:0:0:0:
64,192,88518,1,0,0:0:0:0:
192,192,88655,1,0,0:0:0:70:F#6S_Gb6S_s.wav
448,192,88791,1,0,0:0:0:51:F#5S_Gb5S_s.wav
320,192,88927,128,2,89200:0:0:0:0:
192,192,89200,1,2,0:0:0:0:
448,192,89473,1,8,0:0:0:0:
64,192,89745,1,2,0:0:0:0:
320,192,89882,1,2,0:0:0:0:
192,192,90018,1,2,0:0:0:0:
320,192,90291,1,2,0:0:0:0:
448,192,90564,1,8,0:0:0:0:
320,192,90700,1,0,0:0:0:0:
64,192,90836,1,2,0:0:0:0:
448,192,90973,1,0,0:0:0:0:
192,192,91109,1,6,0:0:0:0:
320,192,91109,1,0,0:0:0:70:G6S_s.wav
448,192,91382,1,0,0:0:0:0:
320,192,91518,1,0,0:0:0:0:
64,192,91655,1,8,0:0:0:0:
192,192,91927,1,2,0:0:0:0:
320,192,92064,1,0,0:0:0:0:
448,192,92200,1,2,0:0:0:0:
64,192,92473,1,2,0:0:0:0:
192,192,92609,1,0,0:0:0:0:
448,192,92745,1,8,0:0:0:0:
320,192,92882,1,0,0:0:0:0:
64,192,93018,1,2,0:0:0:0:
320,192,93291,1,6,0:0:0:0:
448,192,93291,1,0,0:0:0:70:A4S_s.wav
64,192,93564,1,0,0:0:0:0:
192,192,93700,1,0,0:0:0:0:
320,192,93836,1,8,0:0:0:0:
448,192,94109,1,2,0:0:0:0:
320,192,94245,1,8,0:0:0:0:
192,192,94382,1,2,0:0:0:0:
320,192,94655,1,2,0:0:0:0:
64,192,94927,1,8,0:0:0:0:
192,192,95064,1,0,0:0:0:0:
320,192,95200,1,2,0:0:0:0:
64,192,95473,1,4,0:0:0:0:
448,192,95473,1,0,0:0:0:70:LR_Tom Hit.wav
320,192,95745,1,2,0:0:0:0:
64,192,96018,1,8,0:0:0:0:
192,192,96018,1,0,0:0:0:0:
448,192,96291,1,8,0:0:0:0:
192,192,96564,128,2,97655:0:0:0:0:
320,192,96836,1,2,0:0:0:0:
64,192,97109,1,8,0:0:0:0:
448,192,97109,1,0,0:0:0:0:
320,192,97382,1,2,0:0:0:0:
448,192,97655,128,2,98745:0:0:0:0:
64,192,97927,1,2,0:0:0:0:
192,192,98200,1,8,0:0:0:0:
320,192,98200,1,0,0:0:0:0:
64,192,98473,1,2,0:0:0:0:
192,192,98609,1,2,0:0:0:0:
320,192,98745,128,2,99836:0:0:0:0:
448,192,99018,1,2,0:0:0:0:
64,192,99291,1,8,0:0:0:0:
192,192,99291,1,0,0:0:0:0:
448,192,99564,1,2,0:0:0:0:
64,192,99836,128,2,100927:0:0:0:0:
192,192,100109,1,2,0:0:0:0:
320,192,100382,1,8,0:0:0:0:
448,192,100382,1,0,0:0:0:0:
192,192,100655,1,2,0:0:0:0:
448,192,100927,128,2,101473:0:0:0:0:
64,192,101200,1,2,0:0:0:0:
192,192,101473,128,8,101745:0:0:0:0:
320,192,101473,1,0,0:0:0:70:LR_NBell_G6.wav
64,192,101745,128,2,102018:0:0:0:0:
320,192,102018,128,2,103109:0:0:0:0:
448,192,102291,1,2,0:0:0:0:
64,192,102564,1,8,0:0:0:0:
192,192,102564,1,0,0:0:0:0:
448,192,102836,1,2,0:0:0:0:
192,192,102973,1,2,0:0:0:0:
64,192,103109,128,2,103655:0:0:0:0:
192,192,103382,1,8,0:0:0:0:
448,192,103382,1,0,0:0:0:0:
448,192,103655,1,2,0:0:0:0:
320,192,103791,1,0,0:0:0:70:LR_Tom Hit.wav
192,192,103927,1,8,0:0:0:0:
320,192,104200,1,4,0:0:0:0:
448,192,104200,1,2,0:0:0:0:
192,192,104473,1,0,0:0:0:50:LR_HiHat Click.wav
448,192,104745,1,2,0:0:0:0:
64,192,105018,1,0,0:0:0:50:LR_HiHat Click.wav
320,192,105291,1,2,0:0:0:0:
192,192,105564,1,0,0:0:0:50:LR_HiHat Click.wav
320,192,105836,1,2,0:0:0:0:
448,192,106109,1,0,0:0:0:50:LR_HiHat Click.wav
64,192,106382,1,2,0:0:0:0:
320,192,106655,1,0,0:0:0:50:LR_HiHat Click.wav
192,192,106927,1,2,0:0:0:0:
448,192,107200,1,0,0:0:0:50:LR_HiHat Click.wav
192,192,107473,1,2,0:0:0:0:
320,192,107745,1,0,0:0:0:50:LR_HiHat Click.wav
64,192,108018,1,2,0:0:0:0:
320,192,108291,1,0,0:0:0:50:LR_HiHat Click.wav
192,192,108564,1,2,0:0:0:0:
448,192,108836,1,0,0:0:0:50:LR_HiHat Click.wav
320,192,109109,1,2,0:0:0:0:
64,192,109382,1,0,0:0:0:50:LR_HiHat Click.wav
320,192,109655,1,2,0:0:0:0:
192,192,109927,1,0,0:0:0:50:LR_HiHat Click.wav
448,192,110200,1,2,0:0:0:0:
192,192,110473,1,0,0:0:0:50:LR_HiHat Click.wav
320,192,110745,1,2,0:0:0:0:
192,192,111018,1,0,0:0:0:50:LR_HiHat Click.wav
448,192,111291,1,2,0:0:0:0:
192,192,111564,1,0,0:0:0:50:LR_HiHat Click.wav
320,192,111836,1,2,0:0:0:0:
64,192,112109,1,0,0:0:0:50:LR_HiHat Click.wav
320,192,112382,1,2,0:0:0:0:
192,192,112655,1,0,0:0:0:50:LR_HiHat Click.wav
448,192,112927,1,2,0:0:0:0:
448,192,113200,1,0,0:0:0:50:LR_HiHat Click.wav
192,192,113473,1,2,0:0:0:0:
192,192,113745,1,0,0:0:0:50:LR_HiHat Click.wav
320,192,114018,1,2,0:0:0:0:
320,192,114291,1,0,0:0:0:50:LR_HiHat Click.wav
64,192,114564,1,2,0:0:0:0:
64,192,114836,1,0,0:0:0:50:LR_HiHat Click.wav
320,192,115109,1,2,0:0:0:0:
320,192,115382,1,0,0:0:0:50:LR_HiHat Click.wav
64,192,115655,1,2,0:0:0:0:
64,192,115927,1,0,0:0:0:50:LR_HiHat Click.wav
192,192,116200,1,2,0:0:0:0:
192,192,116473,1,0,0:0:0:50:LR_HiHat Click.wav
448,192,116745,1,2,0:0:0:0:
448,192,117018,1,0,0:0:0:50:LR_HiHat Click.wav
64,192,117291,1,2,0:0:0:0:
64,192,117564,1,0,0:0:0:50:LR_HiHat Click.wav
320,192,117836,1,2,0:0:0:0:
320,192,118109,1,0,0:0:0:50:LR_HiHat Click.wav
192,192,118382,1,2,0:0:0:0:
192,192,118655,1,0,0:0:0:50:LR_HiHat Click.wav
448,192,118927,1,2,0:0:0:0:
448,192,119200,1,0,0:0:0:50:LR_HiHat Click.wav
64,192,119473,1,2,0:0:0:0:
64,192,119745,1,0,0:0:0:50:LR_HiHat Click.wav
320,192,120018,1,2,0:0:0:0:
320,192,120291,1,0,0:0:0:50:LR_HiHat Click.wav
192,192,120564,1,2,0:0:0:0:
64,192,120836,1,8,0:0:0:0:
448,192,120836,1,0,0:0:0:0:
320,192,121109,1,8,0:0:0:0:
192,192,121245,1,8,0:0:0:0:
64,192,121382,1,0,0:0:0:70:LR_Tom Hit.wav
320,192,121655,1,6,0:0:0:0:
448,192,121655,1,0,0:0:0:70:D#5S_Eb5S_s.wav
64,192,121927,1,0,0:0:0:0:
448,192,122200,1,0,0:0:0:50:LR_Chm High Long.wav
320,192,122473,1,2,0:0:0:0:
64,192,122745,128,2,123291:0:0:0:0:
448,192,123291,1,8,0:0:0:0:
320,192,123564,1,2,0:0:0:0:
64,192,123836,1,2,0:0:0:0:
192,192,123836,1,0,0:0:0:70:D#5S_Eb5S_s.wav
320,192,124109,1,0,0:0:0:70:A#5S_Bb5S_s.wav
64,192,124382,1,8,0:0:0:0:
448,192,124655,1,0,0:0:0:70:F#5S_Gb5S_s.wav
320,192,124927,1,2,0:0:0:0:
192,192,125200,128,0,125473:0:0:0:0:
448,192,125473,128,8,125745:0:0:0:0:
64,192,125745,128,2,126018:0:0:0:0:
192,192,126018,1,2,0:0:0:0:
320,192,126291,128,0,126564:0:0:0:70:F#5S_Gb5S_s.wav
64,192,126564,128,0,126836:0:0:0:50:LR_Chm High Long.wav
448,192,126836,128,2,127109:0:0:0:0:
320,192,127109,1,8,0:0:0:0:
64,192,127382,128,0,127655:0:0:0:0:
320,192,127655,128,0,127927:0:0:0:70:F4S_s.wav
192,192,127927,128,2,128200:0:0:0:0:
64,192,128200,1,2,0:0:0:0:
448,192,128473,128,0,128745:0:0:0:0:
192,192,128745,128,0,129018:0:0:0:50:LR_Chm High Long.wav
320,192,129018,128,2,129291:0:0:0:0:
448,192,129291,1,8,0:0:0:0:
64,192,129564,1,0,0:0:0:0:
320,192,129836,1,0,0:0:0:0:
192,192,130109,1,0,0:0:0:0:
448,192,130382,1,6,0:0:0:0:
64,192,130655,1,2,0:0:0:0:
192,192,130927,1,8,0:0:0:0:
448,192,130927,1,0,0:0:0:70:LR_Tom Hit.wav
320,192,131200,1,0,0:0:0:0:
320,192,131473,1,2,0:0:0:0:
64,192,131745,1,2,0:0:0:0:
192,192,131745,1,0,0:0:0:50:LR_Tom Normal.wav
320,192,132018,1,8,0:0:0:0:
448,192,132018,1,0,0:0:0:70:LR_Tom Hit.wav
192,192,132291,1,0,0:0:0:0:
64,192,132564,1,2,0:0:0:0:
448,192,132836,1,2,0:0:0:0:
192,192,133109,1,8,0:0:0:0:
320,192,133109,1,0,0:0:0:70:LR_Tom Hit.wav
64,192,133382,1,0,0:0:0:0:
192,192,133655,1,2,0:0:0:0:
320,192,133927,1,2,0:0:0:0:
448,192,133927,1,0,0:0:0:50:LR_Tom Normal.wav
64,192,134200,1,8,0:0:0:0:
192,192,134200,1,0,0:0:0:70:LR_Tom Hit.wav
320,192,134473,1,0,0:0:0:0:
448,192,134745,1,2,0:0:0:0:
64,192,135018,1,2,0:0:0:0:
320,192,135291,1,8,0:0:0:0:
448,192,135291,1,0,0:0:0:70:LR_Tom Hit.wav
192,192,135564,1,0,0:0:0:0:
192,192,135836,1,2,0:0:0:0:
320,192,136109,1,2,0:0:0:0:
448,192,136109,1,0,0:0:0:50:LR_Tom Normal.wav
64,192,136382,1,8,0:0:0:0:
192,192,136382,1,0,0:0:0:70:LR_Tom Hit.wav
320,192,136655,1,0,0:0:0:0:
448,192,136927,1,2,0:0:0:0:
192,192,137200,1,2,0:0:0:0:
320,192,137473,1,8,0:0:0:0:
448,192,137473,1,0,0:0:0:70:LR_Tom Hit.wav
64,192,137745,1,0,0:0:0:0:
448,192,138018,1,2,0:0:0:0:
64,192,138291,1,2,0:0:0:0:
192,192,138291,1,0,0:0:0:50:LR_Tom Normal.wav
320,192,138564,1,8,0:0:0:0:
448,192,138564,1,0,0:0:0:70:LR_Tom Hit.wav
64,192,138836,1,0,0:0:0:0:
320,192,139109,1,2,0:0:0:0:
192,192,139382,1,2,0:0:0:0:
64,192,139655,1,8,0:0:0:0:
448,192,139655,1,0,0:0:0:0:
320,192,139927,1,0,0:0:0:0:
64,192,140200,1,2,0:0:0:0:
192,192,140200,1,0,0:0:0:0:
320,192,140336,1,2,0:0:0:0:
448,192,140473,1,2,0:0:0:0:
320,192,140745,1,8,0:0:0:0:
64,192,140882,1,8,0:0:0:0:
448,192,141018,1,8,0:0:0:0:
320,192,141155,1,8,0:0:0:0:
64,192,141291,1,6,0:0:0:0:
192,192,141291,1,0,0:0:0:70:B5S_s.wav
320,192,141564,1,0,0:0:0:70:D6S.wav
64,192,141700,1,0,0:0:0:0:
448,192,141836,1,8,0:0:0:0:
320,192,141973,1,0,0:0:0:0:
64,192,142109,1,0,0:0:0:0:
192,192,142245,1,0,0:0:0:0:
448,192,142382,128,2,142655:0:0:0:0:
64,192,142655,1,2,0:0:0:0:
192,192,142927,1,8,0:0:0:0:
448,192,143064,1,0,0:0:0:0:
64,192,143200,1,2,0:0:0:0:
320,192,143336,1,0,0:0:0:0:
64,192,143473,128,2,143745:0:0:0:0:
192,192,143745,1,2,0:0:0:0:
320,192,144018,1,8,0:0:0:0:
64,192,144155,1,0,0:0:0:0:
448,192,144291,1,2,0:0:0:0:
192,192,144427,1,2,0:0:0:0:
320,192,144564,128,2,145109:0:0:0:0:
64,192,144836,1,2,0:0:0:0:
448,192,144973,1,0,0:0:0:0:
192,192,145109,128,8,145655:0:0:0:0:
448,192,145382,1,2,0:0:0:0:
64,192,145655,128,2,146745:0:0:0:0:
448,192,145927,1,2,0:0:0:0:
192,192,146200,1,8,0:0:0:0:
320,192,146473,1,0,0:0:0:70:G6S_s.wav
448,192,146745,128,2,147836:0:0:0:0:
192,192,147018,1,2,0:0:0:0:
64,192,147291,1,8,0:0:0:0:
320,192,147564,1,2,0:0:0:0:
192,192,147836,128,2,148382:0:0:0:0:
448,192,148109,1,2,0:0:0:0:
64,192,148382,128,8,148927:0:0:0:0:
192,192,148655,1,2,0:0:0:0:
320,192,148791,1,2,0:0:0:0:
448,192,148927,128,2,149200:0:0:0:0:
64,192,149200,1,8,0:0:0:0:
192,192,149200,1,0,0:0:0:0:
448,192,149473,1,2,0:0:0:0:
64,192,149745,1,8,0:0:0:0:
192,192,149745,1,0,0:0:0:70:A5S_s.wav
320,192,150018,1,6,0:0:0:0:
448,192,150018,1,0,0:0:0:70:B5S_s.wav
64,192,150291,1,2,0:0:0:0:
448,192,150427,1,0,0:0:0:0:
192,192,150564,1,8,0:0:0:0:
320,192,150700,1,0,0:0:0:0:
64,192,150836,1,0,0:0:0:0:
448,192,150973,1,0,0:0:0:0:
320,192,151109,128,2,151382:0:0:0:0:
192,192,151382,1,2,0:0:0:0:
448,192,151655,1,8,0:0:0:0:
64,192,151791,1,0,0:0:0:0:
192,192,151927,1,0,0:0:0:70:D6S_s.wav
320,192,152064,1,0,0:0:0:0:
64,192,152200,128,2,152473:0:0:0:0:
448,192,152473,1,2,0:0:0:0:
320,192,152745,1,8,0:0:0:0:
192,192,152882,1,0,0:0:0:0:
448,192,153018,1,2,0:0:0:0:
64,192,153155,1,0,0:0:0:0:
320,192,153291,128,2,153836:0:0:0:0:
192,192,153564,1,2,0:0:0:0:
64,192,153836,128,8,154382:0:0:0:0:
320,192,154109,1,2,0:0:0:0:
448,192,154382,128,2,154655:0:0:0:0:
64,192,154655,1,0,0:0:0:70:F#5S_Gb5S.wav
192,192,154791,1,0,0:0:0:0:
320,192,154927,1,8,0:0:0:0:
448,192,155200,1,0,0:0:0:0:
64,192,155336,1,2,0:0:0:0:
320,192,155473,1,2,0:0:0:0:
192,192,155609,1,0,0:0:0:0:
448,192,155745,1,2,0:0:0:0:
320,192,155882,1,0,0:0:0:0:
64,192,156018,1,8,0:0:0:0:
192,192,156155,1,0,0:0:0:0:
320,192,156291,1,0,0:0:0:70:F#6S_Gb6S_s.wav
448,192,156427,1,0,0:0:0:51:F#5S_Gb5S_s.wav
192,192,156564,128,2,156836:0:0:0:0:
320,192,156836,1,2,0:0:0:0:
64,192,157109,1,8,0:0:0:0:
448,192,157382,1,2,0:0:0:0:
192,192,157518,1,2,0:0:0:0:
320,192,157655,1,2,0:0:0:0:
192,192,157927,1,2,0:0:0:0:
320,192,158200,1,8,0:0:0:0:
192,192,158336,1,0,0:0:0:0:
64,192,158473,1,2,0:0:0:0:
448,192,158609,1,0,0:0:0:0:
192,192,158745,1,6,0:0:0:0:
320,192,158745,1,0,0:0:0:70:G6S_s.wav
64,192,159018,1,0,0:0:0:0:
192,192,159155,1,0,0:0:0:0:
448,192,159291,1,8,0:0:0:0:
320,192,159564,1,2,0:0:0:0:
192,192,159700,1,0,0:0:0:0:
64,192,159836,1,2,0:0:0:0:
448,192,160109,1,2,0:0:0:0:
320,192,160245,1,0,0:0:0:0:
64,192,160382,1,8,0:0:0:0:
192,192,160518,1,0,0:0:0:0:
448,192,160655,1,2,0:0:0:0:
64,192,160927,1,6,0:0:0:0:
192,192,160927,1,0,0:0:0:70:A4S_s.wav
448,192,161200,1,0,0:0:0:0:
320,192,161336,1,0,0:0:0:0:
192,192,161473,1,8,0:0:0:0:
64,192,161745,1,2,0:0:0:0:
192,192,161882,1,8,0:0:0:0:
320,192,162018,1,2,0:0:0:0:
192,192,162291,1,2,0:0:0:0:
448,192,162564,1,8,0:0:0:0:
320,192,162700,1,0,0:0:0:0:
192,192,162836,1,2,0:0:0:0:
64,192,163109,1,0,0:0:0:0:
320,192,163382,1,0,0:0:0:0:
192,192,163655,1,0,0:0:0:0:
448,192,164064,128,0,164473:0:0:0:0:
64,192,164473,128,0,164745:0:0:0:0:
192,192,164745,128,0,165291:0:0:0:50:LR_Chm High Long.wav
320,192,165291,1,6,0:0:0:0:
448,192,165291,1,0,0:0:0:70:LR_Tom Hit.wav
64,192,165564,1,2,0:0:0:0:
192,192,165836,1,8,0:0:0:0:
448,192,165836,1,0,0:0:0:0:
320,192,166109,1,8,0:0:0:0:
448,192,166382,128,2,167473:0:0:0:0:
192,192,166655,1,2,0:0:0:0:
64,192,166927,1,8,0:0:0:0:
320,192,166927,1,0,0:0:0:0:
192,192,167200,1,2,0:0:0:0:
64,192,167473,128,2,168564:0:0:0:0:
320,192,167745,1,2,0:0:0:0:
192,192,168018,1,8,0:0:0:0:
448,192,168018,1,0,0:0:0:0:
320,192,168291,1,2,0:0:0:0:
192,192,168427,1,2,0:0:0:0:
448,192,168564,128,2,169655:0:0:0:0:
192,192,168836,1,2,0:0:0:0:
64,192,169109,1,8,0:0:0:0:
320,192,169109,1,0,0:0:0:0:
192,192,169382,1,2,0:0:0:0:
320,192,169655,128,2,170745:0:0:0:0:
64,192,169927,1,2,0:0:0:0:
192,192,170200,1,8,0:0:0:0:
448,192,170200,1,0,0:0:0:0:
64,192,170473,1,2,0:0:0:0:
192,192,170745,128,2,171291:0:0:0:0:
320,192,171018,1,2,0:0:0:0:
64,192,171291,128,8,171564:0:0:0:0:
448,192,171291,1,0,0:0:0:70:LR_NBell_G6.wav
320,192,171564,128,2,171836:0:0:0:0:
448,192,171836,128,2,172927:0:0:0:0:
64,192,172109,1,2,0:0:0:0:
192,192,172382,1,8,0:0:0:0:
320,192,172382,1,0,0:0:0:0:
64,192,172655,1,2,0:0:0:0:
320,192,172791,1,8,0:0:0:0:
64,192,172927,1,2,0:0:0:0:
320,192,173064,1,8,0:0:0:0:
192,192,173200,1,8,0:0:0:0:
448,192,173336,1,8,0:0:0:0:
320,192,173473,1,8,0:0:0:0:
192,192,173609,1,8,0:0:0:0:
320,192,173745,1,2,0:0:0:0:
192,192,174018,1,6,0:0:0:0:
448,192,174018,128,0,180564:0:0:0:70:LR_NBell_D6.wav
