osu file format v14

[General]
AudioFilename: audio.mp3
AudioLeadIn: 0
PreviewTime: 47441
Countdown: 0
SampleSet: Soft
StackLeniency: 0.7
Mode: 0
LetterboxInBreaks: 0
WidescreenStoryboard: 1

[Editor]
DistanceSpacing: 0.1
BeatDivisor: 4
GridSize: 32
TimelineZoom: 2.999999

[Metadata]
Title:FORWARD!
TitleUnicode:FORWARD!
Artist:Airots
ArtistUnicode:Airots
Creator:My Angel Rize
Version:Insane
Source:我が姫君に栄冠を
Tags:Waga Himegimi ni Eikan o 鈴湯 Suzuyu 中恵光城 Nakae Mitsuki ういにゃす Uinyasu UiNA みなとそふと Minato Soft Visual novel Eroge エロゲ Japanese Video game pop jpop j-pop OP Opening
BeatmapID:3337091
BeatmapSetID:1464897

[Difficulty]
HPDrainRate:6
CircleSize:4
OverallDifficulty:7
ApproachRate:9
SliderMultiplier:1.7
SliderTickRate:1

[Events]
//Background and Video events
0,0,"cxAlLfs.jpeg",0,0
//Break Periods
//Storyboard Layer 0 (Background)
//Storyboard Layer 1 (Fail)
//Storyboard Layer 2 (Pass)
//Storyboard Layer 3 (Foreground)
//Storyboard Layer 4 (Overlay)
//Storyboard Sound Samples

[TimingPoints]
894,454.545454545455,3,2,2,80,1,0
9075,454.545454545455,4,2,2,80,1,0
10893,517.241379310345,4,2,2,80,1,0
12961,689.655172413793,4,2,2,80,1,0
15025,344.827586206897,4,2,2,80,1,0
20887,-80,4,2,2,80,0,0
21749,-100,4,2,2,80,0,0
26059,-117.647058823529,4,2,2,60,0,0
35542,-100,4,2,2,70,0,0
37093,-200,4,2,2,70,0,0
37438,-100,4,2,2,70,0,0
38128,-80,4,2,2,70,0,0
38473,-100,4,2,2,70,0,0
48128,-117.647058823529,4,2,2,60,0,0
49507,-80,4,2,2,60,0,0
50542,-117.647058823529,4,2,2,60,0,0
52093,-100,4,2,2,60,0,0
53473,-80,4,2,2,70,0,0
53990,-100,4,2,2,70,0,0
59162,-125,4,2,2,60,0,0
60887,-125,4,2,2,65,0,0
61231,-125,4,2,2,70,0,0
61576,-125,4,2,2,75,0,0
61921,-76.9230769230769,4,2,2,80,0,1
62438,-90.9090909090909,4,2,2,80,0,1
72611,-90.9090909090909,4,2,2,80,0,0
72956,-76.9230769230769,4,2,2,80,0,1
73473,-90.9090909090909,4,2,2,80,0,1
81489,-90.9090909090909,4,2,2,5,0,1
81576,344.827586206897,3,2,2,80,1,0
81576,-90.9090909090909,3,2,2,80,0,0
82093,-83.3333333333333,3,2,2,80,0,0
82610,-76.9230769230769,3,2,2,80,0,0
83127,-71.4285714285714,3,2,2,80,0,0
83644,-166.666666666667,3,2,2,60,0,0
84334,-200,3,2,2,60,0,0
84679,-100,3,2,2,70,0,0
86748,344.827586206897,6,2,2,60,1,0
86748,-166.666666666667,6,2,2,60,0,0
88816,344.827586206897,3,2,2,70,1,0

[Colours]
Combo1 : 28,141,255
Combo2 : 255,124,62
Combo3 : 255,130,255
Combo4 : 130,255,130

[HitObjects]
13,145,15025,6,0,P|13:191|111:246,1,170,4|0,0:0|1:2,0:0:0:0:
224,154,15542,1,0,0:0:0:0:
224,154,15714,2,0,P|190:209|201:260,1,85,0|0,0:0|0:0,0:0:0:0:
281,378,16059,1,0,1:0:0:0:
328,210,16231,6,0,L|264:305,1,85,4|0,0:2|0:0,0:0:0:0:
493,225,16576,2,0,L|440:305,1,85,0|0,0:0|1:0,0:0:0:0:
404,126,16921,2,0,P|402:93|453:47,1,85,0|0,0:0|0:0,0:0:0:0:
404,210,17266,1,0,0:0:0:0:
494,151,17438,1,0,1:0:0:0:
380,232,17611,5,4,1:0:0:0:
380,232,17956,1,0,0:0:0:0:
259,312,18128,1,0,1:0:0:0:
179,191,18300,5,0,1:0:0:0:
134,373,18473,1,0,1:0:0:0:
0,241,18645,1,0,1:0:0:0:
202,183,18818,1,0,1:0:0:0:
134,373,18990,6,0,P|70:371|25:275,1,170,4|0,0:0|0:0,0:0:0:0:
198,318,19507,2,0,L|99:273,1,85,4|0,1:2|0:0,0:0:0:0:
358,282,19852,2,0,L|284:362,1,85,0|0,0:0|3:0,0:0:0:0:
385,154,20197,2,0,L|438:248,1,85,4|0,1:0|0:0,0:0:0:0:
308,86,20542,6,0,P|341:86|374:4,1,127.5,2|0,0:0|0:0,0:0:0:0:
291,10,20887,2,0,L|114:10,1,159.375,4|0,0:2|0:0,0:0:0:0:
131,94,21231,5,0,3:0:0:0:
46,183,21404,1,0,0:0:0:0:
11,65,21576,1,4,1:0:0:0:
77,275,21749,6,0,L|110:373,1,85,6|0,0:0|0:0,0:0:0:0:
141,182,22093,1,0,0:0:0:0:
0,322,22266,1,0,1:0:0:0:
0,322,22438,2,0,L|180:261,1,170,4|0,1:0|3:0,0:0:0:0:
270,359,22956,1,0,1:0:0:0:
376,322,23128,1,0,3:0:0:0:
483,286,23300,6,0,P|473:224|386:250,1,170,4|0,0:0|1:0,0:0:0:0:
344,166,23818,1,0,0:0:0:0:
376,322,23990,1,0,1:0:0:0:
442,207,24162,1,0,0:0:0:0:
249,246,24335,1,0,1:0:0:0:
453,175,24507,6,0,B|480:94|480:94|389:62,1,170,2|0,0:0|0:0,0:0:0:0:
263,137,25025,1,0,1:0:0:0:
263,137,25197,2,0,L|352:169,1,85,0|4,0:0|3:0,0:0:0:0:
39,171,25542,1,0,3:0:0:0:
39,171,25628,1,0,3:0:0:0:
39,171,25714,1,0,3:0:0:0:
127,190,25887,1,0,3:0:0:0:
187,123,26059,6,0,P|186:75|88:72,1,144.500002756119,4|0,0:0|3:0,0:0:0:0:
51,101,26576,2,0,P|38:141|44:190,1,72.2500013780594,0|0,3:0|0:0,0:0:0:0:
127,190,26921,2,0,P|98:158|53:139,1,72.2500013780594,0|0,3:0|3:0,0:0:0:0:
12,212,27266,2,0,P|53:203|92:173,1,72.2500013780594,0|0,3:0|3:0,0:0:0:0:
208,198,27611,6,0,P|243:175|292:168,1,72.2500013780594,0|0,3:0|0:0,0:0:0:0:
302,262,27956,2,0,P|264:242|234:204,1,72.2500013780594,0|0,3:0|0:0,0:0:0:0:
311,149,28300,2,0,P|313:191|294:236,1,72.2500013780594,0|0,3:0|0:0,0:0:0:0:
241,348,28645,1,0,3:0:0:0:
241,348,28818,6,0,P|182:327|172:248,1,144.500002756119,4|0,1:0|3:0,0:0:0:0:
139,189,29335,2,0,P|168:243|167:277,1,72.2500013780594,0|0,3:0|0:0,0:0:0:0:
241,348,29680,6,0,L|152:374,1,72.2500013780594,2|0,3:0|0:0,0:0:0:0:
381,348,30025,2,0,L|292:374,1,72.2500013780594,2|0,3:0|0:0,0:0:0:0:
512,364,30369,2,0,L|423:390,1,72.2500013780594,2|0,3:0|0:0,0:0:0:0:
498,232,30714,6,0,L|350:275,1,144.500002756119,0|2,3:0|3:0,0:0:0:0:
273,296,31231,1,0,3:0:0:0:
188,321,31404,1,2,3:0:0:0:
102,345,31576,6,0,P|94:285|188:249,1,144.500002756119,4|0,1:0|3:0,0:0:0:0:
158,141,32093,2,0,P|190:170|224:173,1,72.2500013780594,0|0,3:0|0:0,0:0:0:0:
251,58,32438,2,0,P|260:109|282:135,1,72.2500013780594,0|0,3:0|0:0,0:0:0:0:
375,65,32783,2,0,P|345:107|342:141,1,72.2500013780594,0|0,3:0|0:0,0:0:0:0:
454,144,33128,5,2,3:0:0:0:
393,212,33300,1,0,3:0:0:0:
423,298,33473,1,0,0:0:0:0:
302,194,33645,2,0,L|210:168,2,72.2500013780594,2|0|0,3:0|0:0|0:0,0:0:0:0:
184,228,34162,1,2,3:0:0:0:
86,201,34335,5,4,1:0:0:0:
226,240,34680,1,0,1:0:0:0:
187,380,35025,1,0,1:0:0:0:
47,341,35369,1,0,1:0:0:0:
225,239,35542,6,0,L|403:139,1,170,4|0,0:0|0:0,0:0:0:0:
264,319,36059,1,0,1:0:0:0:
264,319,36231,2,0,L|353:269,1,85,4|0,0:2|1:0,0:0:0:0:
373,155,36576,1,0,0:0:0:0:
456,303,36749,1,0,1:0:0:0:
353,118,36921,1,0,1:0:0:0:
348,109,37007,1,0,1:0:0:0:
343,100,37093,6,0,B|329:69|329:69|372:82,1,63.75,4|0,1:0|0:0,0:0:0:0:
428,124,37438,6,0,P|448:125|411:40,1,170,4|0,1:0|0:0,0:0:0:0:
343,100,37956,1,0,0:0:0:0:
343,100,38128,6,0,P|268:82|159:164,1,212.5,4|0,1:2|0:0,0:0:0:0:
115,59,38645,5,0,0:0:0:0:
4,119,38818,1,0,1:0:0:0:
115,239,38990,2,0,P|116:196|61:148,1,85,0|0,0:0|0:0,0:0:0:0:
4,119,39335,1,0,0:0:0:0:
3,234,39507,2,0,P|46:235|94:180,1,85,0|0,1:0|0:0,0:0:0:0:
257,173,39852,6,0,P|312:195|322:316,1,170,2|0,0:0|1:0,0:0:0:0:
386,159,40369,2,0,L|491:201,1,85,0|0,0:0|0:0,0:0:0:0:
388,67,40714,1,0,0:0:0:0:
512,110,40887,1,0,1:0:0:0:
311,46,41059,6,0,P|241:67|218:174,1,170,2|0,0:0|0:0,0:0:0:0:
234,266,41576,1,0,1:0:0:0:
317,293,41749,1,0,0:0:0:0:
276,176,41921,5,0,3:0:0:0:
317,293,42093,1,0,3:0:0:0:
118,306,42266,5,0,1:0:0:0:
234,266,42438,1,0,0:0:0:0:
392,360,42611,6,0,B|483:329|483:329|460:257,1,170,6|0,0:0|1:0,0:0:0:0:
317,293,43128,2,0,P|291:293|243:235,1,85,0|0,0:0|0:0,0:0:0:0:
300,146,43473,2,0,P|326:146|374:204,1,85,0|0,0:0|1:0,0:0:0:0:
165,143,43818,6,0,L|138:54,1,85,2|0,0:0|0:0,0:0:0:0:
187,223,44162,1,0,0:0:0:0:
84,165,44335,2,0,L|60:84,1,85,0|0,1:0|0:0,0:0:0:0:
6,192,44680,1,0,3:0:0:0:
165,143,44852,1,0,3:0:0:0:
127,305,45025,1,0,1:0:0:0:
261,160,45197,1,0,0:0:0:0:
261,160,45283,1,0,0:0:0:0:
261,160,45369,6,0,P|296:167|356:282,1,170,6|0,0:0|1:0,0:0:0:0:
240,237,45887,1,0,0:0:0:0:
343,357,46059,2,0,P|296:344|277:285,1,85,0|0,0:0|0:0,0:0:0:0:
426,239,46404,2,0,P|391:273|330:260,1,85,0|0,1:0|0:0,0:0:0:0:
447,143,46749,5,4,1:0:0:0:
361,278,46921,1,0,3:0:0:0:
361,112,47093,5,4,1:0:0:0:
438,334,47266,1,0,3:0:0:0:
270,145,47438,6,0,L|305:244,1,85,0|0,1:0|0:0,0:0:0:0:
85,185,47783,2,0,L|132:319,1,127.5,0|0,1:0|0:0,0:0:0:0:
154,374,48128,6,0,P|187:361|167:251,2,144.500002756119,4|0|0,3:2|0:0|0:0,0:0:0:0:
154,158,49162,1,0,0:0:0:0:
154,158,49507,6,0,P|236:190|260:15,1,318.75,4|0,1:0|3:0,0:0:0:0:
154,158,50369,1,0,0:0:0:0:
155,68,50542,5,0,0:0:0:0:
73,180,50714,2,0,P|38:149|28:99,1,72.2500013780594,4|0,0:0|0:0,0:0:0:0:
155,271,51059,6,0,P|213:275|275:192,1,144.500002756119
186,207,51576,2,0,P|158:252|155:303,1,72.2500013780594,0|0,0:0|3:0,0:0:0:0:
349,342,51921,5,0,3:0:0:0:
349,342,52093,2,0,P|327:243|234:222,1,170,4|0,0:0|0:0,0:0:0:0:
224,363,52611,2,0,P|268:330|278:281,1,85,4|0,0:0|0:0,0:0:0:0:
277,140,52956,1,0,0:0:0:0:
369,142,53128,1,0,3:0:0:0:
416,63,53300,1,8,3:0:0:0:
417,221,53473,6,0,P|391:221|336:59,1,212.5,4|0,0:0|0:0,0:0:0:0:
275,261,53990,6,0,P|222:261|152:168,1,170,0|0,1:0|0:0,0:0:0:0:
35,146,54507,1,0,0:0:0:0:
202,98,54680,1,0,1:0:0:0:
35,17,54852,6,0,L|83:183,1,170,6|0,0:0|0:0,0:0:0:0:
202,303,55369,2,0,L|102:331,1,85,0|0,1:0|0:0,0:0:0:0:
313,168,55714,2,0,L|213:196,1,85
464,299,56059,1,0,1:0:0:0:
350,328,56231,1,0,0:0:0:0:
503,187,56404,6,0,P|458:196|413:72,1,170,6|0,0:0|1:0,0:0:0:0:
368,253,56921,1,0,0:0:0:0:
368,253,57093,1,0,0:0:0:0:
188,215,57266,1,0,0:0:0:0:
310,78,57438,1,0,1:0:0:0:
368,253,57611,6,0,L|271:233,1,85,6|0,0:0|0:0,0:0:0:0:
72,200,57956,1,0,1:0:0:0:
276,156,58128,1,0,1:0:0:0:
138,0,58300,1,0,1:0:0:0:
189,217,58473,1,0,1:0:0:0:
212,308,58818,5,4,0:2:0:0:
76,296,59162,5,4,0:2:0:0:
316,236,59507,1,0,0:0:0:0:
142,381,59852,5,0,0:0:0:0:
210,143,60197,1,0,0:0:0:0:
277,327,60542,6,0,L|215:308,3,34,0|0|0|0,1:0|3:0|3:0|3:0,0:0:0:0:
142,381,60887,2,0,L|80:362,3,34,0|0|0|0,1:0|3:0|3:0|3:0,0:0:0:0:
244,317,61231,5,0,1:0:0:0:
283,330,61318,1,0,3:0:0:0:
323,318,61404,1,0,3:0:0:0:
349,285,61490,1,0,3:0:0:0:
351,243,61576,1,0,3:0:0:0:
329,208,61662,1,0,3:0:0:0:
290,192,61749,1,0,3:0:0:0:
250,201,61835,1,0,3:0:0:0:
221,232,61921,6,0,L|462:232,1,220.999989883423,6|0,0:0|1:0,0:0:0:0:
288,105,62438,2,0,B|296:116|296:116|412:116,1,93.5000028533936,0|2,3:0|0:0,0:0:0:0:
286,31,62783,1,0,0:0:0:0:
167,136,62956,1,0,1:0:0:0:
38,16,63128,1,0,3:0:0:0:
38,16,63214,1,0,3:0:0:0:
38,16,63300,6,0,P|70:68|63:125,1,93.5000028533936,0|0,1:0|0:0,0:0:0:0:
154,256,63645,2,0,P|92:257|47:223,1,93.5000028533936,0|0,1:0|0:0,0:0:0:0:
264,296,63990,2,0,P|222:340|165:348,1,93.5000028533936,2|0,0:0|0:0,0:0:0:0:
276,135,64335,2,0,P|335:149|370:194,1,93.5000028533936,0|0,1:0|0:0,0:0:0:0:
365,277,64593,1,0,0:0:0:0:
365,277,64680,6,0,P|400:277|445:147,1,187.000005706787,6|0,0:0|1:0,0:0:0:0:
512,283,65197,2,0,L|427:230,1,93.5000028533936,0|2,0:0|0:0,0:0:0:0:
340,376,65542,1,0,0:0:0:0:
220,301,65714,1,2,1:3:0:0:
224,160,65887,1,0,3:0:0:0:
238,167,65973,1,0,3:0:0:0:
252,174,66059,5,4,1:0:0:0:
339,219,66231,1,0,0:0:0:0:
340,70,66404,5,0,1:0:0:0:
340,250,66576,1,0,0:0:0:0:
463,29,66749,6,0,P|436:94|380:118,1,93.5000028533936,2|0,3:0|3:0,0:0:0:0:
166,213,67093,5,0,1:3:0:0:
118,219,67180,1,0,3:0:0:0:
79,191,67266,1,2,3:0:0:0:
68,144,67352,1,2,3:0:0:0:
88,100,67438,6,0,B|150:148|150:148|86:244,1,187.000005706787,6|0,0:0|1:0,0:0:0:0:
227,354,67956,2,0,L|121:354,1,93.5000028533936,0|0,3:0|0:0,0:0:0:0:
334,357,68300,2,0,P|348:357|390:292,1,93.5000028533936,0|0,0:0|1:0,0:0:0:0:
391,119,68645,1,2,3:0:0:0:
391,142,68731,1,2,3:0:0:0:
391,167,68818,6,0,P|420:172|465:28,1,187.000005706787,4|0,1:0|1:0,0:0:0:0:
392,255,69335,1,0,0:0:0:0:
392,255,69507,2,0,L|505:224,1,93.5000028533936
232,151,69852,2,0,L|345:120,1,93.5000028533936,0|0,1:0|3:0,0:0:0:0:
196,353,70197,5,4,0:0:0:0:
104,329,70369,1,0,3:0:0:0:
272,374,70542,5,0,1:0:0:0:
104,329,70714,1,0,0:0:0:0:
304,382,70887,5,2,1:3:0:0:
253,202,71059,1,2,1:3:0:0:
14,374,71231,6,0,L|214:316,1,187.000005706787,6|0,0:0|1:0,0:0:0:0:
142,184,71749,2,0,P|116:237|127:293,1,93.5000028533936,0|0,0:0|1:0,0:0:0:0:
226,14,72093,5,0,3:0:0:0:
234,35,72180,1,0,3:0:0:0:
243,59,72266,2,0,L|268:118,3,46.7500014266968,0|0|0|0,1:0|3:0|3:0|3:0,0:0:0:0:
301,177,72611,5,0,1:0:0:0:
324,141,72697,1,0,1:0:0:0:
366,149,72783,1,0,1:0:0:0:
375,190,72869,1,0,1:0:0:0:
341,215,72956,6,0,L|536:83,1,220.999989883423,4|0,0:0|1:0,0:0:0:0:
387,288,73473,2,0,B|387:275|387:275|478:215,1,93.5000028533936,0|2,3:0|0:0,0:0:0:0:
387,373,73818,1,0,0:0:0:0:
255,257,73990,1,0,1:0:0:0:
95,356,74162,1,0,3:0:0:0:
95,356,74249,1,0,3:0:0:0:
95,356,74335,6,0,P|145:316|138:256,1,93.5000028533936,0|0,1:0|0:0,0:0:0:0:
95,193,74680,2,0,P|45:233|52:293,1,93.5000028533936,0|0,1:0|0:0,0:0:0:0:
126,108,75025,2,0,P|62:100|24:148,1,93.5000028533936,2|0,0:0|0:0,0:0:0:0:
255,257,75369,2,0,P|292:205|270:149,1,93.5000028533936,0|0,1:0|0:0,0:0:0:0:
280,73,75628,1,0,0:0:0:0:
280,73,75714,6,0,P|346:86|396:-11,1,187.000005706787,6|0,0:0|1:0,0:0:0:0:
399,167,76231,2,0,L|503:170,1,93.5000028533936,0|2,3:0|0:0,0:0:0:0:
322,334,76576,1,0,0:0:0:0:
412,336,76749,1,0,3:0:0:0:
315,243,76921,6,0,P|261:271|251:335,1,93.5000028533936,2|0,3:0|0:0,0:0:0:0:
303,99,77266,2,0,P|280:155|218:172,1,93.5000028533936,0|0,3:0|1:0,0:0:0:0:
99,253,77611,2,0,P|47:253|26:111,1,187.000005706787,2|0,3:0|0:0,0:0:0:0:
117,173,78128,1,0,1:0:0:0:
0,143,78300,1,0,0:0:0:0:
179,361,78473,6,0,L|83:336,1,93.5000028533936,4|0,0:0|0:0,0:0:0:0:
351,211,78818,2,0,L|377:306,1,93.5000028533936,0|0,1:0|0:0,0:0:0:0:
179,361,79162,1,0,1:0:0:0:
227,161,79335,1,0,0:0:0:0:
376,302,79507,1,0,1:0:0:0:
131,207,79680,6,0,P|114:146|227:79,1,187.000005706787,4|0,1:0|0:0,0:0:0:0:
243,264,80197,2,0,L|129:300,1,93.5000028533936,0|0,1:0|0:0,0:0:0:0:
394,356,80542,2,0,L|280:392,1,93.5000028533936,0|0,1:0|0:0,0:0:0:0:
499,177,80887,2,0,L|385:213,1,93.5000028533936,0|0,1:0|0:0,0:0:0:0:
133,132,81231,6,0,L|284:179,1,140.25000428009,0|0,1:0|0:0,0:0:0:0:
346,149,81576,6,0,P|268:172|245:276,1,187.000005706787,4|0,1:0|0:0,0:0:0:0:
440,156,82093,2,0,P|412:64|290:37,1,203.999993774414,0|0,1:0|0:0,0:0:0:0:
192,340,82610,6,0,P|259:341|331:212,1,220.999989883423,4|0,1:0|0:0,0:0:0:0:
130,279,83127,2,0,P|132:230|-21:223,1,237.999992736817,0|0,1:0|0:0,0:0:0:0:
220,373,83644,6,0,B|317:401|317:327|433:368,1,204,4|4,0:0|0:0,0:0:0:0:
419,363,84679,6,0,L|460:187,1,170,4|0,1:0|0:0,0:0:0:0:
349,277,85196,2,0,L|390:101,1,170,0|0,1:2|0:0,0:0:0:0:
278,324,85713,6,0,L|102:283,1,170,4|0,1:0|0:0,0:0:0:0:
239,228,86231,2,0,L|63:187,1,170,4|0,1:0|0:0,0:0:0:0:
321,211,86748,6,0,P|383:170|259:149,1,305.999990661621,4|0,0:0|0:0,0:0:0:0:
296,309,88127,2,0,L|336:293,7,25.4999992218018,0|0|0|0|0|0|0|0,3:0|3:0|3:0|3:0|3:0|3:0|3:0|3:0,0:0:0:0:
388,261,88816,6,0,L|412:139,1,85,4|0,1:0|0:0,0:0:0:0:
470,279,89160,1,0,1:0:0:0:
255,232,89333,1,4,0:0:0:0:
