osu file format v14

[General]
AudioFilename: audio.mp3
AudioLeadIn: 0
PreviewTime: 50952
Countdown: 0
SampleSet: Soft
StackLeniency: 0.7
Mode: 0
LetterboxInBreaks: 0
WidescreenStoryboard: 0

[Editor]
DistanceSpacing: 1.2
BeatDivisor: 4
GridSize: 32
TimelineZoom: 1.8

[Metadata]
Title:Heart wa Oteage (TV Size)
TitleUnicode:ハートはお手上げ (TV Size)
Artist:Airi Suzuki
ArtistUnicode:鈴木愛理
Creator:Yogurtt
Version:Affection
Source:かぐや様は告らせたい-ウルトラロマンティック-
Tags:koldnoodl amateurre Kaguya-sama wa Kokurasetai: Ultra Romantic Love Is War Tensai-tachi no Renai Zunousen 3rd Season 3 three anime ending ed japanese pop jpop j-pop female vocals vocalist Shinomiya Kaguya 四宮 かぐや Kaguya-sama: Love Is War -Ultra Romantic- Ultra Romantic sama
BeatmapID:3574265
BeatmapSetID:1747427

[Difficulty]
HPDrainRate:6
CircleSize:4
OverallDifficulty:8
ApproachRate:8.3
SliderMultiplier:1.7
SliderTickRate:1

[Events]
//Background and Video events
Video,-163,"video.mp4"
0,0,"backakgorund.jpg",0,0
//Break Periods
//Storyboard Layer 0 (Background)
//Storyboard Layer 1 (Fail)
//Storyboard Layer 2 (Pass)
//Storyboard Layer 3 (Foreground)
//Storyboard Layer 4 (Overlay)
//Storyboard Sound Samples

[TimingPoints]
337,384.615384615385,4,2,1,60,1,0
529,-125,4,2,1,60,0,0
3413,382.165605095541,4,2,1,60,1,0
3795,379.746835443038,4,2,1,60,1,0
4364,382.165605095541,4,2,1,60,1,0
4937,382.165605095541,4,2,1,60,1,0
5319,-100,4,2,1,80,0,0
5701,-100,4,2,1,70,0,0
5892,375,4,2,1,70,1,0
6267,382.165605095541,4,2,1,80,1,9
6458,382.165605095541,4,2,1,80,1,1
8942,375,4,2,1,80,1,1
9317,382.165605095541,4,2,1,80,1,9
9508,382.165605095541,4,2,1,80,1,1
26132,-126.582278481013,4,2,1,60,0,0
26705,-125,4,2,1,60,0,0
38552,-142.857142857143,4,2,1,50,0,0
44476,-111.111111111111,4,2,1,50,0,0
47724,-111.111111111111,4,2,1,70,0,0
50591,371.517027863777,4,2,1,70,1,0
50591,-111.111111111111,4,2,1,70,0,0
51148,399.334442595674,4,2,1,80,1,0
51148,-83.3333333333333,4,2,1,80,0,0
51547,370.37037037037,4,2,1,70,1,0
52102,408.163265306122,4,2,1,80,1,1
52102,-97.0873786407767,4,2,1,80,0,1
52510,379.746835443038,4,2,1,80,1,1
52699,379.746835443038,4,2,1,80,1,1
53648,382.165605095541,4,2,1,80,1,1
53839,382.165605095541,4,2,1,80,1,1
55176,-95.2380952380952,4,2,1,80,0,1
63775,-95.2380952380952,4,2,1,80,0,0
64348,-100,4,2,1,80,0,1
70463,-104.166666666667,4,2,1,80,0,1
79826,394.736842105263,4,2,1,80,1,0
80615,363.636363636364,4,2,1,80,1,0
80978,382.165605095541,4,2,1,50,1,0
81360,379.746835443038,4,2,1,70,1,0
84777,385.852090032154,4,2,1,70,1,0
85934,385.852090032154,4,2,1,70,1,0

[Colours]
Combo1 : 227,160,70
Combo2 : 223,68,68
Combo3 : 222,201,201
Combo4 : 235,120,192

[HitObjects]
90,88,337,5,2,1:2:0:0:
239,134,529,2,0,P|208:137|146:156,1,68,2|0,2:0|2:0,2:0:0:0:
315,178,913,2,0,P|330:113|293:58,1,136,2|0,1:2|2:0,2:0:0:0:
241,219,1490,1,8,2:3:0:0:
241,219,1683,2,0,P|249:251|252:285,1,68,2|0,2:0|1:2,2:0:0:0:
426,207,2067,5,0,2:0:0:0:
388,124,2260,1,2,2:0:0:0:
512,197,2452,1,0,1:2:0:0:
389,303,2644,1,8,2:0:0:0:
426,207,2837,5,8,2:3:0:0:
268,268,3029,1,8,2:3:0:0:
482,361,3221,1,4,2:3:0:0:
372,326,3413,6,0,P|363:243|348:137,1,170,6|8,1:2|2:0,2:0:0:0:
454,99,3984,2,0,P|448:141|443:183,1,85,2|0,1:2|2:0,2:0:0:0:
185,69,4364,2,0,P|227:74|269:79,1,85,2|8,1:2|2:0,2:0:0:0:
351,157,4746,2,0,B|257:155|283:217|157:211,1,170,6|0,1:2|1:0,2:0:0:0:
94,193,5319,5,10,2:1:0:0:
94,193,5701,5,0,1:2:0:0:
52,101,5892,1,8,2:3:0:0:
222,188,6079,1,8,2:0:0:0:
173,315,6267,6,0,P|131:316|75:334,1,85,6|0,1:2|2:0,2:0:0:0:
156,126,6649,1,0,1:2:0:0:
0,231,6840,2,0,P|42:230|98:212,1,85,10|0,2:0|2:0,2:0:0:0:
243,98,7222,1,0,1:2:0:0:
160,291,7413,1,0,1:2:0:0:
370,356,7604,1,8,2:0:0:0:
278,278,7795,6,0,P|263:232|296:109,1,170,2|0,1:2|1:2,2:0:0:0:
451,142,8368,2,0,L|349:163,1,85,10|0,2:0|2:0,2:0:0:0:
203,95,8750,1,0,1:2:0:0:
388,171,8942,1,0,1:2:0:0:
306,29,9129,1,8,2:0:0:0:
285,237,9317,6,0,P|232:248|131:182,1,170,2|0,1:2|1:2,2:0:0:0:
100,106,9890,1,8,2:0:0:0:
33,215,10081,1,0,2:0:0:0:
188,125,10272,5,2,1:2:0:0:
15,4,10463,1,2,1:2:0:0:
136,192,10654,1,10,2:0:0:0:
24,323,10845,6,0,P|90:289|214:280,1,170,2|0,1:2|1:2,2:0:0:0:
211,103,11418,2,0,P|209:140|182:196,1,85,10|0,2:0|2:0,2:0:0:0:
334,287,11800,2,0,P|302:266|267:215,1,85,2|0,1:2|1:2,2:0:0:0:
346,150,12183,1,8,2:0:0:0:
443,223,12374,6,0,P|467:277|426:388,1,170,6|0,1:2|1:2,2:0:0:0:
354,162,12947,1,8,2:0:0:0:
485,93,13138,2,0,P|473:51|469:9,1,85,2|0,1:2|2:0,2:0:0:0:
361,174,13520,5,0,1:2:0:0:
381,13,13711,1,8,2:0:0:0:
262,151,13902,2,0,P|273:192|277:234,1,85,6|0,1:2|2:0,2:0:0:0:
204,71,14285,5,0,1:2:0:0:
368,186,14476,1,8,2:0:0:0:
200,251,14667,2,0,P|231:298|348:267,1,170,2|0,1:2|1:2,2:0:0:0:
262,151,15240,1,8,2:0:0:0:
106,297,15431,6,0,P|113:244|104:182,1,85,6|0,1:2|2:0,2:0:0:0:
76,95,15813,1,0,1:2:0:0:
110,212,16004,1,8,2:0:0:0:
22,356,16195,2,0,P|23:313|17:271,1,85,2|0,1:2|2:0,2:0:0:0:
92,112,16578,2,0,P|50:118|7:116,1,85,2|8,1:2|2:0,2:0:0:0:
129,281,16960,6,0,P|180:253|297:249,1,170,6|0,1:2|1:2,2:0:0:0:
367,199,17533,1,8,2:0:0:0:
319,340,17724,1,0,1:2:0:0:
289,155,17915,1,2,2:0:0:0:
441,243,18106,2,0,P|492:225|519:190,1,85,2|8,1:2|2:0,2:0:0:0:
456,76,18488,6,0,P|452:124|433:180,1,85,2|0,1:2|2:0,2:0:0:0:
341,274,18871,6,0,P|351:315|354:357,1,85,2|8,1:2|2:0,2:0:0:0:
185,197,19253,6,0,P|181:245|162:301,1,85,2|0,1:2|2:0,2:0:0:0:
18,339,19635,5,2,1:2:0:0:
97,229,19826,1,8,2:0:0:0:
258,291,20017,1,0,1:2:0:0:
211,108,20208,6,0,P|169:118|127:121,1,85,6|0,1:2|2:0,2:0:0:0:
187,14,20590,1,10,2:0:0:0:
295,51,20781,1,2,1:2:0:0:
295,51,20877,1,0,1:2:0:0:
295,51,20972,2,0,P|297:93|308:134,1,85,8|0,2:0|1:2,2:0:0:0:
408,113,21355,2,0,P|405:155|395:197,1,85,10|0,2:0|2:0,2:0:0:0:
429,286,21737,2,0,P|470:296|512:299,1,85,8|0,2:0|1:2,2:0:0:0:
367,365,22119,6,0,P|328:330|193:341,1,170,8|10,2:0|2:0,2:0:0:0:
133,370,22692,1,2,1:2:0:0:
311,291,22883,1,10,2:0:0:0:
194,147,23074,1,0,1:2:0:0:
215,326,23265,6,0,P|221:278|239:227,1,85,10|0,2:0|2:0,2:0:0:0:
182,126,23648,1,10,2:0:0:0:
275,162,23839,2,0,P|237:216|126:198,1,170,2|0,2:0|1:2,2:0:0:0:
50,255,24412,2,0,P|55:216|61:150,1,85,14|0,2:0|2:0,2:0:0:0:
39,35,24794,5,8,2:0:0:0:
130,104,24985,1,0,1:0:0:0:
227,67,25176,1,8,2:0:0:0:
227,67,25272,1,8,2:0:0:0:
227,67,25367,1,8,2:0:0:0:
316,131,25558,2,0,P|307:157|305:197,1,42.5,2|0,1:2|1:2,2:0:0:0:
304,254,25750,5,6,1:2:0:0:
304,254,26132,2,0,P|362:240|470:239,1,134.3,6|0,1:2|2:0,2:0:0:0:
469,133,26705,2,0,P|402:148|334:149,1,136,2|0,3:2|3:0,2:0:0:0:
280,81,27278,1,2,1:2:0:0:
129,194,27469,1,8,2:3:0:0:
231,181,27660,1,2,1:2:0:0:
231,181,27851,6,0,P|221:212|218:345,1,136,2|0,3:2|3:2,2:0:0:0:
108,173,28425,2,0,P|108:206|116:239,1,68,2|0,2:0|3:2,2:0:0:0:
310,212,28807,2,0,P|276:211|243:203,1,68,2|0,1:2|3:0,2:0:0:0:
63,350,29189,1,2,1:2:0:0:
63,350,29380,6,0,P|126:332|224:341,1,136,2|2,3:2|3:2,2:0:0:0:
303,384,29953,1,0,2:0:0:0:
386,343,30144,1,0,3:0:0:0:
326,193,30336,2,0,P|325:226|337:259,1,68,2|0,1:2|3:0,2:0:0:0:
475,374,30718,1,2,1:2:0:0:
475,374,30909,6,0,P|486:341|485:228,1,136,2|0,3:2|3:2,2:0:0:0:
428,141,31482,2,0,P|392:194|311:181,1,136,2|0,1:2|2:0,2:0:0:0:
261,124,32055,1,0,3:0:0:0:
221,290,32246,6,0,P|271:269|303:266,1,68,2|0,1:2|3:2,2:0:0:0:
117,273,32629,2,0,P|86:288|53:296,1,68,2|2,2:0|3:2,2:0:0:0:
181,203,33011,2,0,P|165:172|157:139,1,68,2|0,2:0|3:2,2:0:0:0:
209,63,33393,1,2,1:2:0:0:
71,172,33584,1,0,3:0:0:0:
267,249,33775,1,2,1:2:0:0:
267,249,33966,6,0,P|254:305|251:393,1,136,2|2,3:2|2:0,2:0:0:0:
135,224,34539,2,0,P|78:229|47:173,1,102,2|0,2:0|2:0,2:0:0:0:
71,172,34922,2,0,P|75:120|70:83,1,68,2|0,1:2|3:0,2:0:0:0:
183,148,35304,1,2,1:2:0:0:
156,0,35495,6,0,P|152:52|167:149,1,136,2|0,3:2|2:0,2:0:0:0:
276,107,36068,2,0,P|265:174|269:241,1,136,2|2,1:2|2:0,2:0:0:0:
441,194,36641,1,2,3:2:0:0:
441,194,36832,2,0,P|407:195|373:190,1,68,2|0,1:2|3:0,2:0:0:0:
292,126,37215,5,2,2:0:0:0:
346,30,37406,1,0,3:0:0:0:
182,117,37597,1,2,1:2:0:0:
350,212,37788,2,0,P|332:264|325:359,1,136,2|8,3:2|2:0,2:0:0:0:
324,344,38552,6,0,P|289:366|175:248,1,238,2|0,2:0|2:0,2:0:0:0:
207,136,39507,2,0,P|220:163|224:193,1,59.4999999999999,2|2,2:0|2:0,2:0:0:0:
223,192,39794,1,0,2:0:0:0:
223,192,39890,1,0,2:0:0:0:
356,218,40081,6,0,P|397:223|444:115,1,178.5,2|2,2:0|2:0,2:0:0:0:
378,69,40845,2,0,L|386:31,2,29.75,2|0|0,2:0|2:0|2:0,2:0:0:0:
304,100,41227,2,0,L|296:62,2,29.75,2|0|0,2:0|2:0|2:0,2:0:0:0:
212,52,41609,5,2,2:0:0:0:
188,41,41800,1,0,2:0:0:0:
159,55,41992,1,0,2:0:0:0:
128,45,42183,2,0,P|83:54|2:51,1,119,2|2,2:0|2:0,2:0:0:0:
109,157,42756,2,0,L|116:128,2,29.75,2|0|0,2:0|2:0|2:0,2:0:0:0:
97,236,43138,5,2,2:0:0:0:
195,213,43329,1,2,2:0:0:0:
164,352,43520,1,2,2:0:0:0:
49,312,43711,1,2,2:0:0:0:
149,373,43902,5,8,2:0:0:0:
184,190,44093,1,2,1:2:0:0:
337,277,44285,1,8,2:3:0:0:
280,155,44476,6,0,P|277:96|292:-2,1,153,6|0,1:2|1:2,2:0:0:0:
118,160,45049,2,0,P|155:166|193:165,1,76.5000000000001,8|0,2:0|2:0,2:0:0:0:
366,130,45431,1,2,1:2:0:0:
198,59,45622,1,2,1:2:0:0:
251,238,45813,5,8,2:0:0:0:
251,238,45909,1,8,2:0:0:0:
251,238,46004,2,0,P|209:284|98:263,1,153,6|0,1:2|1:2,2:0:0:0:
351,154,46578,2,0,P|344:191|345:229,1,76.5000000000001,8|0,2:0|2:0,2:0:0:0:
171,207,46960,1,2,1:2:0:0:
342,68,47151,1,2,1:2:0:0:
215,5,47342,1,10,2:0:0:0:
247,133,47533,1,2,1:2:0:0:
424,98,47724,6,0,P|461:104|499:103,1,76.5000000000001,6|0,1:2|2:0,2:0:0:0:
356,36,48106,1,10,2:0:0:0:
451,202,48297,2,0,P|399:197|348:303,1,153,2|0,1:2|1:2,2:0:0:0:
264,146,48871,1,10,2:0:0:0:
414,353,49062,6,0,P|420:315|419:277,1,76.5000000000001,6|0,1:2|2:0,2:0:0:0:
400,123,49444,1,8,2:3:0:0:
221,232,49635,1,10,2:0:0:0:
322,89,49826,6,0,P|253:99|188:75,1,114.75,2|0,1:2|2:0,2:0:0:0:
172,61,50208,2,0,P|181:111|160:157,1,76.5000000000001,2|8,1:2|2:0,2:0:0:0:
71,253,50591,2,0,P|61:322|139:347,1,153,6|0,1:2|1:2,2:0:0:0:
259,375,51148,6,0,B|252:339|252:339|259:312|259:312|251:260,1,102,10|0,2:1|2:0,2:0:0:0:
227,152,51547,5,8,2:0:0:0:
424,249,51732,1,8,2:3:0:0:
374,102,51917,1,4,2:3:0:0:
277,299,52102,2,0,P|215:308|163:218,1,175.14794,6|0,1:2|1:2,2:0:0:0:
399,223,52699,2,0,P|383:280|389:333,1,85,10|0,2:0|2:0,2:0:0:0:
239,232,53078,1,2,1:2:0:0:
389,82,53268,1,2,1:2:0:0:
266,16,53458,1,10,2:0:0:0:
491,194,53648,6,0,P|406:192|327:162,1,170,2|0,1:2|1:2,2:0:0:0:
157,247,54221,2,0,P|196:232|238:231,1,85,10|0,2:0|2:0,2:0:0:0:
278,56,54603,1,2,1:2:0:0:
155,101,54794,1,2,1:2:0:0:
287,38,54985,1,10,2:0:0:0:
149,121,55176,6,0,P|83:153|10:90,1,178.5,2|0,1:2|1:2,2:0:0:0:
131,30,55749,1,10,2:0:0:0:
224,81,55940,1,0,2:0:0:0:
50,172,56131,5,2,1:2:0:0:
238,63,56323,1,2,1:2:0:0:
30,0,56514,1,10,2:0:0:0:
162,144,56705,6,0,P|151:201|151:319,1,178.5,2|0,1:2|1:2,2:0:0:0:
63,380,57278,2,0,P|63:337|57:295,1,89.25,10|0,2:0|2:0,2:0:0:0:
318,261,57660,2,0,P|275:261|233:255,1,89.25,2|0,1:2|1:2,2:0:0:0:
174,162,58042,1,10,2:0:0:0:
332,352,58233,6,0,P|385:326|380:205,1,178.5,6|2,1:2|1:2,2:0:0:0:
184,176,58807,1,10,2:0:0:0:
318,261,58998,6,0,P|318:198|335:143,1,89.25,2|0,1:2|2:0,2:0:0:0:
385,106,59380,1,2,1:2:0:0:
195,192,59571,1,10,2:0:0:0:
256,22,59762,6,0,P|262:63|260:106,1,89.25,2|0,1:2|2:0,2:0:0:0:
206,212,60144,1,2,1:2:0:0:
108,48,60335,1,10,2:0:0:0:
322,176,60526,6,0,P|389:154|377:54,1,178.5,2|2,1:2|1:2,2:0:0:0:
256,22,61100,1,10,2:0:0:0:
231,155,61291,6,0,P|246:206|249:258,1,89.25,6|0,1:2|2:0,2:0:0:0:
97,321,61673,1,2,1:2:0:0:
249,241,61864,1,10,2:0:0:0:
110,205,62055,2,0,P|95:154|92:102,1,89.25,2|0,2:0|1:2,2:0:0:0:
188,302,62437,2,0,P|182:344|169:384,1,89.25,2|8,1:2|2:0,2:0:0:0:
12,122,62819,6,0,P|50:57|153:72,1,178.5,6|0,1:2|1:2,2:0:0:0:
85,235,63393,2,0,P|42:240|2:253,1,89.25,10|0,2:0|2:0,2:0:0:0:
91,122,63775,5,8,2:0:0:0:
259,166,63966,1,8,2:3:0:0:
188,302,64157,1,8,2:0:0:0:
403,236,64348,2,0,B|430:183|430:183|413:68,1,170,6|0,1:2|1:2,2:0:0:0:
372,320,64921,2,0,L|487:303,1,85,14|0,2:0|2:0,2:0:0:0:
245,129,65303,1,2,1:2:0:0:
347,170,65495,1,2,1:2:0:0:
100,309,65686,1,10,2:0:0:0:
202,268,65877,6,0,P|231:225|216:102,1,170,2|0,1:2|1:2,2:0:0:0:
19,115,66450,2,0,L|124:90,1,85,10|0,2:0|2:0,2:0:0:0:
189,21,66832,1,2,1:2:0:0:
101,95,67023,1,2,1:2:0:0:
273,195,67214,1,10,2:0:0:0:
136,372,67405,6,0,P|107:329|122:206,1,170,2|0,1:2|1:2,2:0:0:0:
288,170,67979,1,10,2:0:0:0:
189,105,68170,1,0,2:0:0:0:
285,273,68361,5,2,1:2:0:0:
386,209,68552,1,2,1:2:0:0:
204,126,68743,1,10,2:0:0:0:
375,291,68934,6,0,P|453:259|439:150,1,170,6|0,1:2|1:2,2:0:0:0:
326,94,69507,1,10,2:0:0:0:
285,273,69698,2,0,P|298:334|297:376,1,85,0|0,2:0|1:2,2:0:0:0:
386,209,70081,1,2,1:2:0:0:
386,209,70176,1,0,1:2:0:0:
386,209,70272,1,8,2:0:0:0:
216,330,70463,6,0,P|138:298|140:241,1,122.4,6|0,1:2|2:0,2:0:0:0:
116,242,70845,2,0,P|126:200|129:158,1,81.5999999999998,2|8,1:2|2:0,2:0:0:0:
253,73,71227,6,0,P|242:114|239:156,1,81.5999999999998,2|0,1:2|2:0,2:0:0:0:
104,217,71609,1,2,1:2:0:0:
49,58,71800,1,10,2:0:0:0:
212,234,71991,6,0,P|253:244|295:247,1,81.5999999999998,6|0,1:2|2:0,2:0:0:0:
384,191,72374,1,2,1:2:0:0:
315,359,72565,1,10,2:0:0:0:
470,212,72756,6,0,B|482:132|412:130|434:42,1,163.2,6|2,1:2|1:2,2:0:0:0:
512,75,73329,1,10,2:0:0:0:
384,191,73520,6,0,P|294:171|293:91,1,163.2,6|2,1:2|1:2,2:0:0:0:
347,34,74093,1,10,2:0:0:0:
197,125,74284,2,0,P|155:143|100:147,1,81.5999999999998,6|0,1:2|2:0,2:0:0:0:
0,209,74667,2,0,P|38:226|80:231,1,81.5999999999998,2|8,1:2|2:0,2:0:0:0:
144,373,75049,6,0,P|157:311|174:272,1,81.5999999999998,6|0,1:2|2:0,2:0:0:0:
239,206,75431,1,2,1:2:0:0:
77,231,75622,1,10,2:0:0:0:
338,239,75813,5,6,1:2:0:0:
155,158,76004,1,2,2:0:0:0:
276,107,76195,5,2,1:2:0:0:
302,314,76386,1,8,2:0:0:0:
302,314,76482,1,8,2:0:0:0:
302,314,76577,2,0,P|373:317|419:237,1,163.2,6|2,1:2|1:2,2:0:0:0:
332,181,77151,1,10,2:0:0:0:
448,48,77342,1,6,1:2:0:0:
361,7,77533,5,2,2:0:0:0:
467,73,77724,1,2,1:2:0:0:
315,209,77915,1,8,2:0:0:0:
381,92,78106,6,0,P|330:83|276:52,1,81.5999999999998,2|0,1:2|2:0,2:0:0:0:
303,182,78488,6,0,P|264:198|222:204,1,81.5999999999998,2|8,1:2|2:0,2:0:0:0:
28,208,78870,6,0,P|79:199|133:168,1,81.5999999999998,2|0,1:2|2:0,2:0:0:0:
106,298,79253,6,0,P|144:314|186:320,1,81.5999999999998,2|8,1:2|2:0,2:0:0:0:
273,362,79539,5,8,2:0:0:0:
273,362,79635,2,0,P|269:338|269:310,1,40.7999999999999,8|8,2:0|2:0,2:0:0:0:
73,42,80615,5,0,3:0:0:0:
186,82,80796,2,0,L|124:98,1,42.5,0|0,1:0|1:0,2:0:0:0:
15,149,80978,2,0,L|101:169,1,85,6|8,1:2|2:0,2:0:0:0:
179,188,81264,5,8,2:0:0:0:
192,205,81360,2,0,P|196:257|168:317,1,85,14|2,1:2|1:2,2:0:0:0:
131,356,81739,1,10,2:0:0:0:
287,192,81929,1,2,1:2:0:0:
287,192,82024,1,0,1:2:0:0:
287,192,82119,2,0,P|330:162|395:156,1,85,8|2,2:0|1:2,2:0:0:0:
236,117,82499,2,0,P|188:94|151:40,1,85,10|0,2:0|2:0,2:0:0:0:
216,264,82878,2,0,P|210:305|221:346,1,85,8|0,2:0|1:2,2:0:0:0:
456,261,83258,6,0,P|414:255|286:303,1,170,8|10,2:0|2:0,2:0:0:0:
221,346,83828,1,2,1:2:0:0:
236,117,84018,1,10,2:0:0:0:
295,226,84208,6,0,P|371:261|455:260,1,170,6|0,1:2|1:2,2:0:0:0:
506,182,84777,1,8,2:0:0:0:
453,20,84969,6,0,P|417:96|418:180,1,170,6|8,1:2|2:3,2:0:0:0:
455,260,85548,1,4,2:3:0:0:
308,148,85741,6,0,P|249:159|235:277,1,170,6|0,1:2|1:2,2:0:0:0:
282,328,86319,1,8,2:0:0:0:
103,237,86512,1,6,1:2:0:0:
224,137,86705,1,8,2:3:0:0:
215,117,86802,1,4,2:3:0:0:
20,216,86995,1,4,2:3:0:0:
29,196,87091,1,10,2:0:0:0:
164,336,87284,5,6,1:2:0:0:
