osu file format v14

[General]
AudioFilename: audio.mp3
AudioLeadIn: 0
PreviewTime: 51101
Countdown: 0
SampleSet: Soft
StackLeniency: 0.4
Mode: 0
LetterboxInBreaks: 0
WidescreenStoryboard: 1

[Editor]
Bookmarks: 84208,87284
DistanceSpacing: 1.4
BeatDivisor: 4
GridSize: 8
TimelineZoom: 0.9999999

[Metadata]
Title:Heart wa Oteage (TV Size)
TitleUnicode:ハートはお手上げ (TV Size)
Artist:Airi Suzuki
ArtistUnicode:鈴木愛理
Creator:SupaV
Version:Reciprocation
Source:かぐや様は告らせたい-ウルトラロマンティック-
Tags:arutama midorijeon nakazawa soue Kaguya-sama wa Kokurasetai: Ultra Romantic Kaguya Wants to be Confessed To -Ultra Romantic- Love Is War Tensai-tachi no Renai Zunousen shinomiya miyuki shirogane 3rd third Season 3 three anime ending ed japanese pop jpop j-pop female vocals vocalist
BeatmapID:4013891
BeatmapSetID:1826381

[Difficulty]
HPDrainRate:5.6
CircleSize:4.2
OverallDifficulty:8.5
ApproachRate:9.1
SliderMultiplier:1.88
SliderTickRate:1

[Events]
//Background and Video events
0,0,"well it happened ig.jpg",0,0
Video,0,"confessed.mp4"
//Break Periods
//Storyboard Layer 0 (Background)
//Storyboard Layer 1 (Fail)
//Storyboard Layer 2 (Pass)
//Storyboard Layer 3 (Foreground)
//Storyboard Layer 4 (Overlay)
//Storyboard Sound Samples

[TimingPoints]
337,384.615384615385,4,2,1,60,1,0
337,-166.666666666667,4,2,1,60,0,0
525,-166.666666666667,4,2,2,60,0,0
3413,382.165605095541,4,2,2,70,1,0
3413,-83.3333333333333,4,2,2,70,0,0
3700,-83.3333333333333,4,2,2,5,0,0
3795,379.746835443038,4,2,1,60,1,0
4364,382.165605095541,4,2,1,60,1,0
4459,-100,4,2,1,60,0,0
4555,-100,4,2,1,60,0,0
4650,-100,4,2,1,60,0,0
4746,-76.9230769230769,4,2,1,70,0,0
5319,-62.5,4,2,1,70,0,0
5606,-62.5,4,2,1,5,0,0
5701,-62.5,4,2,1,70,0,0
5892,375,4,2,1,70,1,0
6267,382.165605095541,4,2,1,80,1,0
6267,-83.3333333333333,4,2,1,80,0,0
6458,382.165605095541,4,2,1,80,1,0
6840,-76.9230769230769,4,2,1,80,0,0
7126,-76.9230769230769,4,2,1,80,0,0
7222,-76.9230769230769,4,2,1,80,0,0
7795,-83.3333333333333,4,2,1,80,0,0
8368,-100,4,2,1,80,0,0
8942,375,4,2,1,80,1,0
9317,382.165605095541,4,2,1,80,1,0
9317,-76.9230769230769,4,2,1,80,0,0
9508,382.165605095541,4,2,1,80,1,0
10845,-83.3333333333333,4,2,1,80,0,0
11992,-100,4,2,1,80,0,0
12087,-100,4,2,1,5,0,0
12183,-100,4,2,1,80,0,0
12278,-100,4,2,1,5,0,0
12374,-76.9230769230769,4,2,2,80,0,0
12660,-90.9090909090909,4,2,2,80,0,0
12756,-90.9090909090909,4,2,2,80,0,0
12851,-90.9090909090909,4,2,2,5,0,0
12947,-90.9090909090909,4,2,2,80,0,0
13138,-68.9655172413793,4,2,2,80,0,0
13425,-90.9090909090909,4,2,2,5,0,0
13520,-90.9090909090909,4,2,2,80,0,0
13616,-90.9090909090909,4,2,2,5,0,0
13711,-90.9090909090909,4,2,2,80,0,0
13807,-90.9090909090909,4,2,2,5,0,0
13902,-62.5,4,2,1,80,0,0
14188,-62.5,4,2,1,5,0,0
14285,-90.9090909090909,4,2,1,80,0,0
14381,-90.9090909090909,4,2,1,5,0,0
14476,-90.9090909090909,4,2,1,80,0,0
14572,-90.9090909090909,4,2,1,5,0,0
14667,-76.9230769230769,4,2,1,80,0,0
15718,-76.9230769230769,4,2,1,5,0,0
15813,-76.9230769230769,4,2,1,80,0,0
16195,-83.3333333333333,4,2,2,80,0,0
16482,-83.3333333333333,4,2,2,5,0,0
16578,-83.3333333333333,4,2,2,80,0,0
16960,-76.9230769230769,4,2,1,80,0,0
17724,-76.9230769230769,4,2,2,80,0,0
18488,-142.857142857143,4,2,2,80,0,0
18775,-142.857142857143,4,2,2,5,0,0
18871,-83.3333333333333,4,2,2,80,0,0
19157,-83.3333333333333,4,2,2,5,0,0
19253,-58.8235294117647,4,2,2,80,0,0
19539,-58.8235294117647,4,2,2,5,0,0
19635,-100,4,2,2,80,0,0
20208,-100,4,2,1,75,0,0
21355,-100,4,2,2,75,0,0
24412,-100,4,2,1,75,0,0
26132,-100,4,2,1,65,0,0
26705,-333.333333333333,4,2,3,65,0,0
27278,-166.666666666667,4,2,3,65,0,0
27565,-166.666666666667,4,2,3,5,0,0
27660,-100,4,2,3,65,0,0
28043,-333.333333333333,4,2,3,65,0,0
28807,-166.666666666667,4,2,3,65,0,0
29093,-166.666666666667,4,2,3,5,0,0
29189,-100,4,2,3,65,0,0
29572,-333.333333333333,4,2,3,65,0,0
30336,-166.666666666667,4,2,3,65,0,0
30622,-166.666666666667,4,2,3,5,0,0
30718,-100,4,2,3,65,0,0
31101,-333.333333333333,4,2,3,65,0,0
31482,-142.857142857143,4,2,3,65,0,0
31864,-250,4,2,3,65,0,0
32246,-100,4,2,3,65,0,0
32629,-250,4,2,3,65,0,0
33393,-100,4,2,3,65,0,0
34158,-250,4,2,3,65,0,0
34922,-166.666666666667,4,2,3,65,0,0
35208,-166.666666666667,4,2,3,5,0,0
35304,-100,4,2,3,65,0,0
35687,-250,4,2,3,65,0,0
36068,-100,4,2,3,65,0,0
36450,-250,4,2,3,65,0,0
36832,-100,4,2,3,65,0,0
37215,-142.857142857143,4,2,3,65,0,0
38170,-142.857142857143,4,2,1,65,0,0
38552,-200,4,2,1,65,0,0
38741,-200,4,2,1,55,0,0
39699,-200,4,2,1,55,0,0
42756,-200,4,2,1,55,0,0
43138,-125,4,2,1,55,0,0
44091,-125,4,2,1,60,0,0
44476,-95.2380952380952,4,2,1,65,0,0
45240,-100,4,2,1,65,0,0
46004,-95.2380952380952,4,2,2,65,0,0
46768,-100,4,2,2,65,0,0
47629,-100,4,2,2,5,0,0
47724,-90.9090909090909,4,2,1,70,0,0
48297,-86.9565217391304,4,2,2,70,0,0
49062,-80,4,2,1,70,0,0
49826,-100,4,2,1,70,0,0
50304,-100,4,2,1,5,0,0
50399,-100,4,2,1,70,0,0
50494,-100,4,2,1,70,0,0
50591,371.517027863777,4,2,1,70,1,0
50591,-76.9230769230769,4,2,1,70,0,0
51148,399.334442595674,4,2,2,80,1,0
51148,-62.5,4,2,2,80,0,0
51447,-62.5,4,2,2,5,0,0
51547,370.37037037037,4,2,1,80,1,0
52102,408.163265306122,4,2,1,80,1,0
52102,-83.3333333333333,4,2,1,80,0,0
52510,379.746835443038,4,2,1,80,1,0
52699,379.746835443038,4,2,1,80,1,0
52699,-76.9230769230769,4,2,1,80,0,0
52983,-76.9230769230769,4,2,1,5,0,0
53078,-76.9230769230769,4,2,1,80,0,0
53648,382.165605095541,4,2,1,80,1,0
53648,-83.3333333333333,4,2,1,80,0,0
53839,382.165605095541,4,2,1,80,1,0
54221,-100,4,2,1,80,0,0
55176,-76.9230769230769,4,2,1,80,0,0
56704,-83.3333333333333,4,2,1,80,0,0
57851,-100,4,2,1,80,0,0
57947,-100,4,2,1,5,0,0
58042,-100,4,2,1,80,0,0
58138,-100,4,2,1,5,0,0
58233,-76.9230769230769,4,2,2,80,0,0
58615,-90.9090909090909,4,2,2,80,0,0
58711,-90.9090909090909,4,2,2,5,0,0
58807,-90.9090909090909,4,2,2,80,0,0
58997,-68.9655172413793,4,2,2,80,0,0
59284,-68.9655172413793,4,2,2,5,0,0
59379,-90.9090909090909,4,2,2,80,0,0
59475,-90.9090909090909,4,2,2,5,0,0
59571,-90.9090909090909,4,2,2,80,0,0
59667,-90.9090909090909,4,2,2,5,0,0
59761,-62.5,4,2,2,80,0,0
60048,-62.5,4,2,2,5,0,0
60144,-90.9090909090909,4,2,2,80,0,0
60240,-90.9090909090909,4,2,2,5,0,0
60336,-90.9090909090909,4,2,2,80,0,0
60432,-90.9090909090909,4,2,2,5,0,0
60526,-76.9230769230769,4,2,2,80,0,0
61577,-76.9230769230769,4,2,2,5,0,0
61673,-76.9230769230769,4,2,2,80,0,0
62054,-83.3333333333333,4,2,2,80,0,0
62342,-83.3333333333333,4,2,2,5,0,0
62438,-83.3333333333333,4,2,2,80,0,0
62819,-76.9230769230769,4,2,1,80,0,0
63393,-76.9230769230769,4,2,2,80,0,0
64348,-83.3333333333333,4,2,1,80,0,0
64921,-76.9230769230769,4,2,2,80,0,0
65208,-76.9230769230769,4,2,2,5,0,0
65304,-76.9230769230769,4,2,2,80,0,0
65877,-83.3333333333333,4,2,2,80,0,0
66450,-100,4,2,2,80,0,0
67405,-76.9230769230769,4,2,2,80,0,0
68933,-83.3333333333333,4,2,2,80,0,0
69698,-100,4,2,2,80,0,0
70080,-100,4,2,2,80,0,0
70176,-100,4,2,2,5,0,0
70272,-100,4,2,2,80,0,0
70368,-100,4,2,2,80,0,0
70462,-76.9230769230769,4,2,1,80,0,0
70749,-76.9230769230769,4,2,1,5,0,0
70844,-90.9090909090909,4,2,1,80,0,0
70940,-90.9090909090909,4,2,1,5,0,0
71036,-90.9090909090909,4,2,1,80,0,0
71132,-90.9090909090909,4,2,1,80,0,0
71226,-68.9655172413793,4,2,1,80,0,0
71513,-68.9655172413793,4,2,1,5,0,0
71608,-90.9090909090909,4,2,1,80,0,0
71705,-90.9090909090909,4,2,1,5,0,0
71801,-90.9090909090909,4,2,1,80,0,0
71897,-90.9090909090909,4,2,1,5,0,0
71990,-62.5,4,2,2,80,0,0
72277,-62.5,4,2,2,5,0,0
72373,-90.9090909090909,4,2,2,80,0,0
72469,-90.9090909090909,4,2,2,5,0,0
72565,-90.9090909090909,4,2,2,80,0,0
72661,-90.9090909090909,4,2,2,5,0,0
72755,-76.9230769230769,4,2,1,80,0,0
73520,-76.9230769230769,4,2,2,70,0,0
73807,-76.9230769230769,4,2,2,5,0,0
73903,-76.9230769230769,4,2,2,70,0,0
74283,-83.3333333333333,4,2,1,70,0,0
74571,-76.9230769230769,4,2,1,5,0,0
74667,-76.9230769230769,4,2,1,70,0,0
75048,-76.9230769230769,4,2,2,70,0,0
75813,-76.9230769230769,4,2,1,70,0,0
76577,-76.9230769230769,4,2,2,80,0,0
77342,-76.9230769230769,4,2,1,80,0,0
78106,-142.857142857143,4,2,1,80,0,0
78393,-142.857142857143,4,2,1,5,0,0
78488,-83.3333333333333,4,2,1,80,0,0
78775,-83.3333333333333,4,2,1,5,0,0
78870,-58.8235294117647,4,2,1,80,0,0
79157,-58.8235294117647,4,2,1,5,0,0
79253,-100,4,2,1,80,0,0
79826,394.736842105263,4,2,1,80,1,0
79826,-333.333333333333,4,2,1,80,0,0
80015,-333.333333333333,4,2,1,75,0,0
80615,363.636363636364,4,2,1,80,1,0
80978,382.165605095541,4,2,2,75,1,0
80978,-125,4,2,2,75,0,0
81264,-125,4,2,2,5,0,0
81360,379.746835443038,4,2,1,75,1,0
82499,-100,4,2,2,75,0,0
84208,-76.9230769230769,4,2,2,75,0,0
84492,-76.9230769230769,4,2,2,5,0,0
84587,-90.9090909090909,4,2,2,75,0,0
84682,-90.9090909090909,4,2,2,5,0,0
84777,385.852090032154,4,2,1,70,1,0
84777,-90.9090909090909,4,2,1,70,0,0
84873,-90.9090909090909,4,2,1,5,0,0
84969,-71.4285714285714,4,2,1,70,0,0
85259,-71.4285714285714,4,2,1,5,0,0
85355,-90.9090909090909,4,2,1,70,0,0
85452,-90.9090909090909,4,2,1,5,0,0
85548,-90.9090909090909,4,2,1,70,0,0
85645,-90.9090909090909,4,2,1,5,0,0
85741,-66.6666666666667,4,2,1,75,0,0
85934,385.852090032154,4,2,1,70,1,0
86030,-100,4,2,1,5,0,0
86126,-90.9090909090909,4,2,1,70,0,0
86223,-90.9090909090909,4,2,1,5,0,0
86319,-90.9090909090909,4,2,1,70,0,0
86416,-90.9090909090909,4,2,1,5,0,0
86512,-90.9090909090909,4,2,2,75,0,0
86609,-90.9090909090909,4,2,2,5,0,0
86705,-90.9090909090909,4,2,1,75,0,0
87091,-66.6666666666667,4,2,1,75,0,0
87188,-90.9090909090909,4,2,1,5,0,0
87284,-66.6666666666667,4,2,1,75,0,0
87380,-66.6666666666667,4,2,1,5,0,0

[Colours]
Combo1 : 26,126,238
Combo2 : 254,175,205
Combo3 : 255,13,19
Combo4 : 139,199,243

[HitObjects]
51,290,337,6,0,P|26:275|-17:284,1,56.3999982788086,10|2,0:1|0:2,0:0:0:0:
70,379,721,1,2,0:2:0:0:
70,379,913,2,0,P|81:322|95:248,1,112.799996557617,10|2,0:1|0:2,0:0:0:0:
33,123,1490,1,10,0:2:0:0:
0,194,1683,6,0,P|63:196|104:153,1,112.799996557617,2|2,0:2|0:2,0:0:0:0:
168,95,2260,1,2,0:2:0:0:
78,0,2452,2,0,P|83:27|88:55,1,56.3999982788086,10|8,0:1|0:1,0:0:0:0:
215,182,2837,5,10,0:2:0:0:
197,263,3029,1,10,0:2:0:0:
179,352,3221,1,10,0:1:0:0:
420,384,3413,6,0,B|376:396|347:367|349:339|357:360|358:326|331:297|284:305,1,169.199994836426,14|0,0:1|0:0,0:0:0:0:
265,319,3795,1,10,0:2:0:0:
423,189,3984,2,0,B|456:228|456:228|437:279,1,94,10|0,0:1|0:0,0:0:0:0:
297,149,4364,2,0,P|298:126|324:99,1,47,10|0,0:1|0:0,0:0:0:0:
319,3,4555,2,0,P|338:15|348:51,1,47,8|0,0:2|0:0,0:0:0:0:
512,128,4746,6,0,P|408:90|259:67,1,244.399988812256,14|8,0:1|0:1,0:0:0:0:
103,186,5319,2,0,B|87:230|151:261|207:233|198:133|122:111,1,225.6,10|0,0:2|0:0,0:0:0:0:
84,45,5701,5,10,0:1:0:0:
183,23,5892,1,10,0:2:0:0:
282,0,6079,1,8,0:2:0:0:
190,248,6267,6,0,B|124:249|103:185|103:185|58:239|-17:203,1,225.599993115235,14|8,0:1|0:1,0:0:0:0:
218,330,6840,2,0,B|310:314|310:314|312:316|312:316|404:299,1,183.299991609192,8|0,0:2|0:0,0:0:0:0:
419,304,7222,1,10,0:1:0:0:
304,223,7413,1,10,0:1:0:0:
127,384,7604,1,10,0:2:0:0:
19,328,7795,6,0,B|-23:304|-22:262|5:236|27:231|13:242|39:234|69:208|70:172|23:132,1,225.599993115235,10|8,0:1|0:1,0:0:0:0:
203,0,8368,2,0,B|162:24|162:24|110:17,1,94,8|0,0:2|0:0,0:0:0:0:
276,129,8750,1,10,0:1:0:0:
338,2,8942,1,10,0:1:0:0:
126,115,9129,1,10,0:2:0:0:
377,238,9317,6,0,B|355:214|323:216|323:216|353:144|441:128|492:194,1,244.399988812256,10|8,0:1|0:1,0:0:0:0:
415,376,9890,1,10,0:2:0:0:
329,298,10081,1,2,0:2:0:0:
329,298,10176,1,2,0:0:0:0:
329,298,10272,1,10,0:1:0:0:
464,211,10463,1,10,0:1:0:0:
302,384,10654,1,10,0:2:0:0:
123,323,10845,6,0,B|67:338|-9:347|-9:347|45:341|69:386,1,225.599993115235,10|8,0:1|0:1,0:0:0:0:
219,244,11418,1,8,0:2:0:0:
153,154,11609,1,2,0:0:0:0:
212,92,11800,1,8,0:1:0:0:
0,19,11992,6,0,L|16:84,1,47,10|0,0:1|0:0,0:0:0:0:
84,45,12183,2,0,L|72:0,1,47,10|0,0:2|0:0,0:0:0:0:
1,224,12374,6,0,B|46:204|85:241|85:241|97:183|167:180,1,183.299991609192,14|0,0:1|0:0,0:0:0:0:
233,208,12756,2,0,L|249:264,1,51.7000015777588,10|0,0:1|0:0,0:0:0:0:
180,309,12947,1,8,0:2:0:0:
388,373,13138,6,0,B|319:398|252:341|252:341|299:339|318:299,1,204.450006239319,10|0,0:1|0:0,0:0:0:0:
339,243,13520,2,0,P|367:250|403:259,1,51.7000015777588,10|0,0:1|0:0,0:0:0:0:
494,191,13711,2,0,P|468:184|443:178,1,51.7000015777588,10|0,0:2|0:0,0:0:0:0:
289,48,13902,6,0,B|327:43|348:2|348:2|306:171,1,225.6,14|0,0:1|0:0,0:0:0:0:
238,211,14285,2,0,P|231:185|225:160,1,51.7000015777588,10|0,0:1|0:0,0:0:0:0:
90,62,14476,2,0,P|96:87|102:112,1,51.7000015777588,10|0,0:2|0:0,0:0:0:0:
0,307,14667,6,0,B|43:276|84:289|104:321|104:343|96:327|96:354|115:387|158:403|203:365,1,244.399988812256,10|10,0:1|0:1,0:0:0:0:
312,243,15240,1,10,0:2:0:0:
512,384,15431,6,0,B|420:367|420:367|417:364|417:364|322:345,1,183.299991609192,14|0,0:1|0:0,0:0:0:0:
305,355,15813,1,10,0:1:0:0:
412,240,16004,1,10,0:2:0:0:
188,160,16195,2,0,P|214:239|231:347,1,169.199994836426,14|0,0:1|0:0,0:0:0:0:
215,363,16578,1,10,0:1:0:0:
0,291,16769,1,8,0:2:0:0:
130,97,16960,6,0,B|150:66|187:68|187:68|152:4|79:-9|29:34,1,244.399988812256,14|10,0:1|0:1,0:0:0:0:
169,207,17533,1,10,0:2:0:0:
56,150,17725,1,14,0:1:0:0:
56,150,17820,1,2,0:0:0:0:
56,150,17916,1,2,0:2:0:0:
247,87,18106,1,10,0:1:0:0:
91,301,18297,1,8,0:2:0:0:
236,384,18488,6,0,P|225:353|240:383,1,98.6999969879151,10|0,0:1|0:0,0:0:0:0:
207,267,18871,6,0,P|206:210|216:266,1,169.199994836426,8|0,0:1|0:0,0:0:0:0:
336,192,19253,6,0,P|355:114|351:195,1,239.700004571915,10|0,0:1|0:0,0:0:0:0:
424,265,19635,2,0,P|448:259|477:252,1,47,10|0,0:1|0:0,0:0:0:0:
512,161,19826,5,10,0:2:0:0:
512,161,19922,1,10,0:2:0:0:
512,161,20017,2,0,P|506:137|499:108,1,47,10|0,0:1|0:0,0:0:0:0:
396,15,20208,5,14,0:1:0:0:
330,75,20399,1,2,0:2:0:0:
416,111,20590,1,10,0:2:0:0:
248,0,20781,2,0,P|239:46|228:106,1,94,10|8,0:1|0:2,0:0:0:0:
349,246,21164,5,10,0:1:0:0:
349,246,21259,1,2,0:0:0:0:
349,246,21355,1,14,0:2:0:0:
382,129,21546,1,0,0:0:0:0:
280,301,21737,5,8,0:2:0:0:
229,168,21928,1,8,0:1:0:0:
148,384,22119,5,8,0:2:0:0:
193,240,22310,1,0,0:0:0:0:
37,211,22501,5,10,0:2:0:0:
116,292,22692,1,10,0:1:0:0:
6,384,22883,2,0,P|14:337|23:291,1,94,10|8,0:2|0:1,0:0:0:0:
141,184,23265,5,10,0:2:0:0:
203,108,23456,1,2,0:2:0:0:
109,77,23647,1,10,0:2:0:0:
248,0,23839,2,0,P|294:9|340:17,1,94,2|8,0:2|0:2,0:0:0:0:
512,1,24221,5,10,0:1:0:0:
512,1,24316,1,2,0:0:0:0:
512,1,24412,1,14,0:2:0:0:
471,123,24603,1,0,0:0:0:0:
285,91,24794,5,8,0:2:0:0:
320,245,24985,1,8,0:1:0:0:
512,316,25176,5,8,0:2:0:0:
508,339,25271,1,8,0:2:0:0:
503,362,25367,1,8,0:3:0:0:
340,156,25558,5,10,0:2:0:0:
284,384,25750,1,10,0:1:0:0:
479,185,26132,6,0,P|494:267|512:375,1,188,14|2,0:1|0:2,0:0:0:0:
430,380,26705,1,10,0:2:0:0:
440,384,26896,1,2,0:2:0:0:
423,298,27087,1,10,0:2:0:0:
286,372,27278,6,0,P|327:377|359:347,1,84.599997418213,10|0,0:1|0:0,0:0:0:0:
350,275,27660,6,0,B|247:298|158:317,1,188,10|2,0:1|0:2,0:0:0:0:
100,357,28234,1,10,0:2:0:0:
100,357,28425,2,0,L|93:384,1,28.1999991394043,2|8,0:2|0:2,0:0:0:0:
0,302,28807,6,0,P|30:266|83:278,1,84.599997418213,10|0,0:1|0:0,0:0:0:0:
141,286,29189,6,0,B|160:182|176:92,1,188,10|2,0:1|0:2,0:0:0:0:
246,35,29762,1,10,0:2:0:0:
235,38,29953,1,2,0:2:0:0:
262,117,30144,1,10,0:2:0:0:
156,0,30336,6,0,P|127:24|77:18,1,84.599997418213,10|0,0:1|0:0,0:0:0:0:
0,0,30718,6,0,P|14:83|34:198,1,188,10|2,0:1|0:2,0:0:0:0:
5,259,31291,1,10,0:2:0:0:
189,288,31482,6,0,P|152:301|84:241,1,131.599995983887,10|2,0:1|0:2,0:0:0:0:
164,202,32055,1,10,0:2:0:0:
240,350,32246,6,0,P|304:335|439:305,1,188,10|2,0:1|0:2,0:0:0:0:
499,340,32820,1,10,0:2:0:0:
499,340,33011,2,0,L|510:290,1,37.6,2|8,0:2|0:2,0:0:0:0:
384,233,33393,5,10,0:1:0:0:
512,130,33584,1,10,0:2:0:0:
461,244,33775,6,0,P|442:146|422:53,1,188,10|2,0:1|0:2,0:0:0:0:
509,19,34348,1,10,0:2:0:0:
509,19,34539,2,0,P|503:42|496:65,1,37.6,2|8,0:2|0:2,0:0:0:0:
364,132,34922,6,0,P|403:137|439:98,1,84.599997418213,10|0,0:1|0:0,0:0:0:0:
430,33,35304,6,0,P|331:15|231:0,1,188,10|2,0:1|0:2,0:0:0:0:
190,50,35877,1,10,0:2:0:0:
0,155,36068,6,0,P|99:137|199:122,1,188,10|2,0:1|0:2,0:0:0:0:
235,181,36641,1,10,0:2:0:0:
448,283,36832,6,0,P|349:265|249:250,1,188,10|2,0:1|0:2,0:0:0:0:
140,267,37405,1,10,0:2:0:0:
226,384,37597,5,10,0:1:0:0:
226,384,37788,2,0,P|221:355|209:306,1,65.7999979919434,8|8,0:2|0:1,0:0:0:0:
269,225,38170,1,8,0:2:0:0:
45,137,38552,6,0,P|21:142|-2:147,2,47,2|2|2,0:2|0:2|0:2,0:0:0:0:
105,85,39125,2,0,P|153:95|199:105,1,94,2|0,0:2|0:0,0:0:0:0:
275,147,39699,1,0,0:0:0:0:
336,78,39890,1,2,0:2:0:0:
336,78,40081,2,0,P|354:44|317:-5,1,94,2|2,0:2|0:2,0:0:0:0:
244,0,40654,2,0,P|214:9|179:18,1,47,2|0,0:2|0:0,0:0:0:0:
123,0,41036,1,0,0:0:0:0:
119,11,41227,1,0,0:0:0:0:
0,122,41609,6,0,P|8:143|15:173,2,47,2|2|2,0:2|0:2|0:2,0:0:0:0:
62,72,42183,2,0,P|101:103|148:97,1,94,2|0,0:2|0:0,0:0:0:0:
225,129,42756,1,0,0:0:0:0:
228,139,42947,1,0,0:0:0:0:
293,54,43138,5,2,0:2:0:0:
410,145,43329,2,0,P|393:79|368:-8,1,150.4,2|2,0:2|0:2,0:0:0:0:
506,130,43902,1,8,0:2:0:0:
340,216,44093,1,10,0:3:0:0:
492,109,44285,1,10,0:2:0:0:
512,351,44476,6,0,P|459:292|339:315,1,197.39999397583,14|10,0:1|0:1,0:0:0:0:
217,384,45049,1,10,0:2:0:0:
217,384,45240,2,0,P|226:342|238:284,1,94,2|8,0:2|0:1,0:0:0:0:
275,171,45622,1,10,0:1:0:0:
346,320,45813,1,8,0:2:0:0:
148,234,46004,6,0,P|111:161|175:73,1,197.39999397583,14|10,0:1|0:1,0:0:0:0:
337,0,46578,1,10,0:2:0:0:
273,132,46769,2,0,P|263:88|250:33,1,94,2|8,0:2|0:1,0:0:0:0:
353,167,47151,1,8,0:1:0:0:
512,45,47342,2,0,P|451:28|397:94,1,141,8|0,0:2|0:0,0:0:0:0:
402,105,47724,6,0,B|463:121|532:131|532:131|489:128|456:162,1,206.800006311035,14|10,0:1|0:2,0:0:0:0:
233,241,48297,2,0,B|191:192|134:223|134:223|107:286|38:263,1,216.200004123688,14|10,0:1|0:1,0:0:0:0:
220,384,48871,1,10,0:2:0:0:
312,125,49062,6,0,B|331:231|331:231|330:235|330:235|353:365,1,235,14|8,0:1|0:3,0:0:0:0:
512,207,49635,1,10,0:2:0:0:
422,89,49826,2,0,B|394:130|394:130|416:180,1,94,10|0,0:1|0:0,0:0:0:0:
360,296,50208,2,0,P|383:293|401:278,1,47,10|0,0:1|0:0,0:0:0:0:
486,289,50399,2,0,P|498:269|499:246,1,47,8|0,0:2|0:0,0:0:0:0:
274,180,50591,6,0,P|359:193|531:237,1,244.399988812256,14|8,0:1|0:1,0:0:0:0:
512,53,51148,2,0,B|543:18|495:-34|433:-29|404:66|466:115,1,225.6,14|0,0:2|0:0,0:0:0:0:
512,180,51547,5,10,0:1:0:0:
413,202,51732,1,10,0:2:0:0:
314,225,51917,1,8,0:2:0:0:
125,77,52102,6,0,B|158:47|199:49|221:77|226:99|215:85|221:109|247:145|292:140|324:108,1,225.599993115235,14|8,0:1|0:1,0:0:0:0:
0,0,52699,2,0,B|17:89|17:89|15:93|15:93|32:185,1,183.299991609192,8|0,0:2|0:0,0:0:0:0:
20,209,53078,1,10,0:1:0:0:
165,134,53268,1,10,0:1:0:0:
292,361,53458,1,8,0:2:0:0:
396,321,53648,6,0,P|316:248|208:290,1,225.599993115235,10|8,0:1|0:1,0:0:0:0:
36,384,54221,2,0,B|10:349|10:349|31:304,1,94,8|0,0:2|0:0,0:0:0:0:
142,208,54603,1,10,0:1:0:0:
184,363,54794,1,10,0:1:0:0:
35,207,54985,1,10,0:2:0:0:
234,84,55176,6,0,B|305:80|329:143|329:143|369:88|449:121,1,244.399988812256,10|8,0:1|0:1,0:0:0:0:
296,293,55749,1,10,0:2:0:0:
251,179,55940,1,2,0:2:0:0:
251,179,56036,1,2,0:0:0:0:
251,179,56131,1,10,0:1:0:0:
190,360,56323,1,10,0:1:0:0:
351,209,56514,1,10,0:2:0:0:
512,384,56705,6,0,B|457:362|381:353|381:353|435:358|459:314,1,225.599993115235,10|8,0:1|0:1,0:0:0:0:
370,190,57278,1,8,0:2:0:0:
427,97,57469,1,0,0:0:0:0:
498,140,57660,1,8,0:1:0:0:
235,0,57851,6,0,L|224:57,1,47,10|0,0:1|0:0,0:0:0:0:
299,86,58042,2,0,L|307:39,1,47,10|0,0:2|0:0,0:0:0:0:
184,162,58233,6,0,B|198:249|198:249|196:253|196:253|214:351,1,183.299991609192,14|0,0:1|0:0,0:0:0:0:
285,384,58616,2,0,L|294:325,1,51.7000015777588,10|0,0:1|0:0,0:0:0:0:
386,304,58807,1,8,0:2:0:0:
285,163,58998,6,0,B|319:201|387:185|412:136|412:136|377:142|354:119,1,204.450006239319,10|0,0:1|0:0,0:0:0:0:
395,8,59380,2,0,L|402:59,1,51.7000015777588,10|0,0:1|0:0,0:0:0:0:
496,143,59571,2,0,L|488:91,1,51.7000015777588,10|0,0:2|0:0,0:0:0:0:
276,12,59762,6,0,B|243:-16|200:-8|177:24|179:43|186:27|192:48|167:93|123:102|79:66,1,225.6,10|0,0:1|0:0,0:0:0:0:
0,84,60144,2,0,L|11:33,1,51.7000015777588,10|0,0:1|0:0,0:0:0:0:
128,209,60335,2,0,L|139:158,1,51.7000015777588,10|0,0:2|0:0,0:0:0:0:
0,384,60526,6,0,B|68:387|88:314|88:314|134:375|218:341,1,244.399988812256,10|10,0:1|0:1,0:0:0:0:
27,203,61100,1,10,0:2:0:0:
262,84,61291,6,0,B|245:170|245:170|247:172|247:172|226:273,1,183.299991609192,14|0,0:1|0:0,0:0:0:0:
234,287,61673,1,10,0:1:0:0:
357,178,61864,1,10,0:2:0:0:
181,66,62055,2,0,P|99:83|7:110,1,169.199994836426,2|0,0:2|0:0,0:0:0:0:
0,118,62437,1,10,0:1:0:0:
156,229,62628,1,8,0:2:0:0:
330,36,62819,6,0,B|391:9|433:62|433:62|440:152|527:141,1,244.399988812256,14|10,0:1|0:1,0:0:0:0:
307,307,63393,1,14,0:2:0:0:
300,317,63775,5,10,0:2:0:0:
400,339,63966,1,10,0:1:0:0:
512,363,64157,1,10,0:2:0:0:
221,199,64348,6,0,B|260:225|262:261|235:290|210:301|223:288|202:296|177:324|181:366|225:386,1,225.599993115235,14|8,0:1|0:1,0:0:0:0:
0,210,64921,2,0,B|17:122|17:122|15:117|15:117|35:8,1,183.299991609192,12|0,0:2|0:0,0:0:0:0:
33,2,65303,1,10,0:1:0:0:
130,128,65495,1,10,0:1:0:0:
331,16,65686,1,10,0:2:0:0:
404,116,65877,6,0,B|345:87|305:144|305:144|284:75|216:78,1,225.599993115235,10|8,0:1|0:1,0:0:0:0:
428,280,66450,2,0,B|472:292|472:292|519:256,1,94,8|0,0:2|0:0,0:0:0:0:
374,381,66832,1,10,0:1:0:0:
248,268,67023,1,10,0:1:0:0:
455,186,67214,1,10,0:2:0:0:
268,64,67405,6,0,B|311:61|332:15|332:15|294:197,1,244.399988812256,10|8,0:1|0:1,0:0:0:0:
137,60,67979,1,10,0:2:0:0:
205,0,68170,1,2,0:2:0:0:
205,0,68265,1,2,0:0:0:0:
205,0,68361,1,10,0:1:0:0:
51,105,68552,1,10,0:1:0:0:
245,180,68743,1,10,0:2:0:0:
119,348,68934,6,0,B|176:393|242:357|250:311|250:311|219:328|178:309,1,225.599993115235,10|8,0:1|0:1,0:0:0:0:
0,206,69507,1,8,0:2:0:0:
24,384,69698,2,0,P|36:335|48:292,1,94,2|8,0:2|0:1,0:0:0:0:
159,161,70081,6,0,L|174:217,1,47,10|0,0:1|0:0,0:0:0:0:
96,227,70272,2,0,L|83:181,1,47,8|0,0:2|0:0,0:0:0:0:
113,13,70463,6,0,B|70:9|24:-5|24:-5|-27:28|5:84,1,183.299991609192,14|0,0:1|0:0,0:0:0:0:
88,97,70845,2,0,P|116:91|153:82,1,51.7000015777588,10|0,0:1|0:0,0:0:0:0:
195,19,71036,1,8,0:2:0:0:
298,187,71227,6,0,B|266:187|245:225|245:225|264:161|279:86,1,204.450006239319,10|0,0:1|0:0,0:0:0:0:
364,0,71609,2,0,L|351:66,1,51.7000015777588,10|0,0:1|0:0,0:0:0:0:
439,99,71800,2,0,L|448:48,1,51.7000015777588,10|0,0:2|0:0,0:0:0:0:
323,264,71991,6,0,B|357:282|401:273|422:233|420:207|413:223|411:204|434:172|477:164|517:187,1,225.6,14|0,0:1|0:0,0:0:0:0:
501,305,72374,2,0,P|495:278|486:240,1,51.7000015777588,10|0,0:1|0:0,0:0:0:0:
333,139,72565,2,0,P|339:166|348:204,1,51.7000015777588,10|0,0:2|0:0,0:0:0:0:
211,382,72756,6,0,B|143:402|108:330|108:330|47:288|-15:339,1,244.399988812256,14|10,0:1|0:1,0:0:0:0:
167,207,73329,1,10,0:2:0:0:
0,72,73520,6,0,B|21:162|21:162|20:167|20:167|44:265,1,183.299991609192,14|0,0:1|0:0,0:0:0:0:
45,271,73902,1,10,0:1:0:0:
193,123,74093,1,10,0:2:0:0:
365,343,74284,2,0,P|287:312|202:298,1,169.199994836426,14|0,0:1|0:0,0:0:0:0:
185,309,74667,1,10,0:1:0:0:
331,149,74858,1,8,0:2:0:0:
486,384,75049,6,0,B|534:359|532:312|505:286|483:281|497:292|470:286|441:258|437:214|485:181,1,244.399988812256,14|10,0:1|0:1,0:0:0:0:
378,19,75622,1,10,0:2:0:0:
255,156,75813,1,14,0:1:0:0:
255,156,75909,1,2,0:2:0:0:
255,156,76004,1,2,0:2:0:0:
189,0,76195,1,10,0:1:0:0:
385,159,76386,1,8,0:2:0:0:
66,120,76577,6,0,B|108:157|168:143|203:78|203:78|160:88|125:49,1,244.399988812256,14|10,0:1|0:1,0:0:0:0:
0,235,77151,1,10,0:2:0:0:
188,371,77342,1,14,0:1:0:0:
188,371,77437,1,0,0:0:0:0:
188,371,77533,1,2,0:2:0:0:
248,161,77724,1,10,0:1:0:0:
57,384,77915,1,8,0:2:0:0:
293,351,78106,6,0,P|304:320|289:350,1,98.6999969879151,10|0,0:1|0:0,0:0:0:0:
193,280,78489,6,0,P|194:223|184:279,1,169.199994836426,8|0,0:1|0:0,0:0:0:0:
76,190,78871,6,0,P|57:112|61:193,1,239.700004571915,10|0,0:1|0:0,0:0:0:0:
43,295,79253,2,0,L|99:279,1,47,10|0,0:1|0:0,0:0:0:0:
210,184,79444,5,10,0:2:0:0:
241,190,79539,1,8,0:2:0:0:
273,197,79635,1,10,0:2:0:0:
305,204,79730,1,8,0:2:0:0:
338,211,79826,1,0,0:0:0:0:
393,30,80796,5,8,0:1:0:0:
388,37,80887,1,8,0:1:0:0:
384,43,80978,2,0,B|395:86|395:86|393:90|393:90|409:156,1,112.8,14|0,0:2|0:0,0:0:0:0:
401,181,81360,5,14,0:1:0:0:
334,253,81549,1,2,0:2:0:0:
423,295,81739,1,10,0:2:0:0:
262,384,81929,2,0,P|253:340|240:275,1,94,10|8,0:1|0:2,0:0:0:0:
202,120,82309,5,10,0:1:0:0:
202,120,82404,1,2,0:0:0:0:
202,120,82499,1,14,0:2:0:0:
323,168,82690,1,0,0:0:0:0:
77,295,82878,5,8,0:2:0:0:
238,219,83069,1,8,0:1:0:0:
0,117,83258,5,8,0:2:0:0:
155,226,83449,1,8,0:1:0:0:
152,234,83543,1,8,0:1:0:0:
150,242,83638,5,10,0:2:0:0:
189,331,83828,1,10,0:1:0:0:
108,384,84018,1,10,0:2:0:0:
282,201,84208,6,0,B|334:197|352:249|352:249|383:203|450:227,1,183.299991609192,14|0,0:1|0:0,0:0:0:0:
494,178,84587,2,0,P|506:200|508:225,1,51.7000015777588,8|0,0:1|0:0,0:0:0:0:
429,343,84777,2,0,P|416:320|414:295,1,51.7000015777588,8|0,0:2|0:0,0:0:0:0:
374,124,84969,6,0,B|390:1|390:1|387:48|422:67,1,197.39999397583,14|0,0:1|0:0,0:0:0:0:
509,1,85355,2,0,P|482:-2|458:8,1,51.7000015777588,8|0,0:1|0:0,0:0:0:0:
296,125,85548,2,0,P|269:128|245:118,1,51.7000015777588,8|0,0:2|0:0,0:0:0:0:
19,0,85741,6,0,B|36:103|36:103|34:106|34:106|56:218,1,211.500008068085,14|0,0:1|0:0,0:0:0:0:
0,313,86126,2,0,P|25:316|49:307,1,51.7000015777588,8|0,0:1|0:0,0:0:0:0:
186,173,86319,2,0,P|163:161|137:161,1,51.7000015777588,8|0,0:2|0:0,0:0:0:0:
282,384,86512,6,0,P|287:354|292:317,1,51.7000015777588,14|0,0:1|0:0,0:0:0:0:
385,199,86705,1,8,0:3:0:0:
428,183,86801,1,8,0:3:0:0:
472,194,86897,1,8,0:1:0:0:
504,227,86994,1,8,0:1:0:0:
512,273,87091,6,0,B|476:283|476:283|439:261,1,70.5000026893617,10|0,0:2|0:0,0:0:0:0:
286,42,87284,2,0,B|316:20|316:20|358:28,1,70.5000026893617,10|0,0:2|0:0,0:0:0:0:
