osu file format v14

[General]
AudioFilename: audio.mp3
AudioLeadIn: 0
PreviewTime: 51048
Countdown: 0
SampleSet: Soft
StackLeniency: 0.5
Mode: 0
LetterboxInBreaks: 0
WidescreenStoryboard: 0

[Editor]
DistanceSpacing: 1.2
BeatDivisor: 8
GridSize: 4
TimelineZoom: 1.8

[Metadata]
Title:Heart wa Oteage (TV Size)
TitleUnicode:ハートはお手上げ (TV Size)
Artist:Airi Suzuki
ArtistUnicode:鈴木愛理
Creator:Hydraduck
Version:Feelings
Source:かぐや様は告らせたい-ウルトラロマンティック-
Tags:hydralix pop jpop j-pop ending ed japanese female vocalist anime kaguya sama Kaguya-sama wa Kokurasetai: Ultra Romantic Love Is War Tensai-tachi no Renai Zunousen 3rd third three season
BeatmapID:3738407
BeatmapSetID:1821917

[Difficulty]
HPDrainRate:5
CircleSize:4
OverallDifficulty:8
ApproachRate:8.8
SliderMultiplier:1.7
SliderTickRate:1

[Events]
//Background and Video events
Video,-163,"video.mp4"
0,0,"bg.jpg",0,0
//Break Periods
//Storyboard Layer 0 (Background)
//Storyboard Layer 1 (Fail)
//Storyboard Layer 2 (Pass)
//Storyboard Layer 3 (Foreground)
//Storyboard Layer 4 (Overlay)
//Storyboard Sound Samples

[TimingPoints]
337,384.615384615385,4,2,22,50,1,0
337,-133.333333333333,4,2,22,50,0,0
3413,382.165605095541,4,2,22,60,1,0
3413,-100,4,2,22,60,0,0
3795,379.746835443038,4,2,22,50,1,0
3795,-100,4,2,22,60,0,0
4364,382.165605095541,4,2,22,50,1,0
4364,-100,4,2,22,60,0,0
4937,382.165605095541,4,2,22,60,1,0
4937,-100,4,2,22,60,0,0
5892,375,4,2,22,60,1,0
6267,382.165605095541,4,2,22,60,1,8
6267,-95.2380952380952,4,2,22,65,0,8
6458,382.165605095541,4,2,22,65,1,1
6458,-95.2380952380952,4,2,22,65,0,1
8942,375,4,2,22,65,1,1
8942,-95.2380952380952,4,2,22,65,0,1
9317,382.165605095541,4,2,22,65,1,9
9317,-95.2380952380952,4,2,22,65,0,9
9508,382.165605095541,4,2,22,65,1,1
9508,-95.2380952380952,4,2,22,65,0,1
12660,-95.2380952380952,4,2,22,5,0,1
12756,-95.2380952380952,4,2,22,65,0,1
13138,-95.2380952380952,4,2,22,45,0,1
13425,-95.2380952380952,4,2,22,5,0,1
13520,-95.2380952380952,4,2,22,65,0,1
13902,-95.2380952380952,4,2,22,45,0,1
14189,-95.2380952380952,4,2,22,5,0,1
14285,-95.2380952380952,4,2,22,65,0,1
14667,-95.2380952380952,4,2,22,45,0,1
14858,-95.2380952380952,4,2,22,65,0,1
15431,-95.2380952380952,4,2,22,45,0,1
15813,-95.2380952380952,4,2,22,65,0,1
16195,-95.2380952380952,4,2,22,45,0,1
16386,-95.2380952380952,4,2,22,65,0,1
16864,-95.2380952380952,4,2,22,5,0,1
16960,-95.2380952380952,4,2,22,45,0,1
17151,-95.2380952380952,4,2,22,65,0,1
17724,-95.2380952380952,4,2,22,45,0,1
17915,-95.2380952380952,4,2,22,65,0,1
18393,-95.2380952380952,4,2,22,5,0,1
18488,-95.2380952380952,4,2,22,65,0,1
20208,-86.9565217391304,4,2,22,75,0,1
25797,-86.9565217391304,4,2,22,5,0,1
26132,-117.647058823529,4,2,22,45,0,0
30622,-117.647058823529,4,2,22,5,0,0
30718,-117.647058823529,4,2,22,55,0,0
35208,-117.647058823529,4,2,22,5,0,0
35304,-117.647058823529,4,2,22,55,0,0
38552,-142.857142857143,4,2,22,40,0,0
44476,-105.263157894737,4,2,22,60,0,0
47629,-105.263157894737,4,2,22,5,0,0
47724,-105.263157894737,4,2,22,60,0,0
50591,371.517027863777,4,2,22,60,1,0
50591,-100,4,2,22,60,0,0
51148,399.334442595674,4,2,22,60,1,0
51148,-100,4,2,22,60,0,0
51547,370.37037037037,4,2,22,60,1,0
51547,-100,4,2,22,60,0,0
52102,408.163265306122,4,2,22,65,1,1
52102,-95.2380952380952,4,2,22,65,0,1
52510,379.746835443038,4,2,22,65,1,1
52510,-95.2380952380952,4,2,22,65,0,1
52699,379.746835443038,4,2,22,65,1,1
52699,-95.2380952380952,4,2,22,65,0,1
53648,382.165605095541,4,2,22,65,1,1
53648,-95.2380952380952,4,2,22,65,0,1
53839,382.165605095541,4,2,22,65,1,1
53839,-95.2380952380952,4,2,22,65,0,1
58520,-95.2380952380952,4,2,22,5,0,1
58616,-95.2380952380952,4,2,22,65,0,1
58998,-95.2380952380952,4,2,22,45,0,1
59284,-95.2380952380952,4,2,22,5,0,1
59380,-95.2380952380952,4,2,22,65,0,1
59762,-95.2380952380952,4,2,22,45,0,1
60049,-95.2380952380952,4,2,22,5,0,1
60144,-95.2380952380952,4,2,22,65,0,1
60526,-95.2380952380952,4,2,22,45,0,1
60717,-95.2380952380952,4,2,22,65,0,1
61291,-95.2380952380952,4,2,22,45,0,1
61482,-95.2380952380952,4,2,22,65,0,1
63106,-95.2380952380952,4,2,22,5,0,1
63202,-95.2380952380952,4,2,22,65,0,1
70749,-95.2380952380952,4,2,22,5,0,1
70845,-95.2380952380952,4,2,22,65,0,1
71227,-95.2380952380952,4,2,22,45,0,1
71514,-95.2380952380952,4,2,22,5,0,1
71609,-95.2380952380952,4,2,22,65,0,1
71991,-95.2380952380952,4,2,22,45,0,1
72278,-95.2380952380952,4,2,22,5,0,1
72374,-95.2380952380952,4,2,22,65,0,1
72756,-95.2380952380952,4,2,22,45,0,1
73138,-95.2380952380952,4,2,22,65,0,1
73520,-95.2380952380952,4,2,22,45,0,1
73711,-95.2380952380952,4,2,22,65,0,1
74284,-95.2380952380952,4,2,22,45,0,1
74475,-95.2380952380952,4,2,22,65,0,1
75813,-95.2380952380952,4,2,22,45,0,1
76004,-95.2380952380952,4,2,22,65,0,1
79635,-207.46887966805,4,2,22,50,0,1
79826,394.736842105263,4,2,22,50,1,0
80615,363.636363636364,4,2,22,50,1,0
80978,382.165605095541,4,2,22,50,1,0
81360,379.746835443038,4,2,22,50,1,0
81360,-95.2380952380952,4,2,22,70,0,1
84208,-105.263157894737,4,2,22,60,0,0
84777,385.852090032154,4,2,22,60,1,0
84777,-105.263157894737,4,2,22,60,0,0
85934,385.852090032154,4,2,22,60,1,0
85934,-105.263157894737,4,2,22,60,0,0
86898,-105.263157894737,4,2,22,5,0,0
86995,-105.263157894737,4,2,22,60,0,0
87188,-105.263157894737,4,2,22,5,0,0
87284,-105.263157894737,4,2,22,60,0,0

[Colours]
Combo1 : 125,125,125
Combo2 : 228,84,87
Combo3 : 253,125,64
Combo4 : 255,151,255

[HitObjects]
114,55,337,6,0,P|151:60|187:65,2,63.7500024318696,2|2|2,2:2|2:2|3:2,0:0:0:0:
75,130,913,2,0,P|145:138|216:148,1,127.500004863739,2|2,2:2|2:2,0:0:0:0:
201,146,1490,1,10,2:2:0:0:
274,278,1683,2,0,B|253:244|255:220|255:220|284:201|287:166,1,127.500004863739,2|2,2:2|2:2,0:0:0:0:
325,96,2260,1,2,3:2:0:0:
325,96,2452,2,0,P|292:82|258:90,1,63.7500024318696,2|0,2:2|1:2,0:0:0:0:
354,239,2837,1,10,1:2:0:0:
413,124,3029,1,10,1:2:0:0:
413,124,3221,1,2,1:2:0:0:
293,303,3413,6,0,P|233:266|174:292,1,127.5,6|0,2:2|0:0,0:0:0:0:
168,295,3795,1,10,2:2:0:0:
47,192,3984,2,0,P|85:213|134:199,1,85,2|0,1:2|1:2,0:0:0:0:
220,79,4364,1,2,1:2:0:0:
124,205,4555,1,8,2:2:0:0:
70,29,4746,6,0,B|106:33|137:35|137:35|158:70|158:70|193:73|233:81,1,170,6|0,2:2|0:0,0:0:0:0:
377,22,5319,2,0,P|325:26|299:52,1,85,10|0,2:2|0:0,0:0:0:0:
205,164,5701,1,10,1:2:0:0:
383,251,5892,1,10,1:2:0:0:
287,132,6079,1,10,1:2:0:0:
236,327,6267,6,0,B|259:291|309:293|309:293|336:338|387:334,1,178.499994552612,6|0,2:2|0:0,0:0:0:0:
460,188,6840,2,0,P|466:232|474:285,1,89.2499972763062,10|2,3:1|2:2,0:0:0:0:
474,277,7222,1,2,1:2:0:0:
298,209,7413,1,2,2:2:0:0:
448,103,7604,1,10,2:2:0:0:
324,32,7795,6,0,P|311:120|295:226,1,178.499994552612,2|0,2:2|1:2,0:0:0:0:
124,204,8368,2,0,P|168:180|216:194,1,89.2499972763062,8|0,2:2|0:0,0:0:0:0:
205,187,8750,1,2,2:2:0:0:
167,371,8942,1,2,2:2:0:0:
36,227,9129,1,10,2:2:0:0:
188,280,9317,6,0,B|243:289|301:297|301:297|314:332|274:374,1,178.499994552612,2|0,2:2|1:2,0:0:0:0:
100,300,9890,1,10,2:2:0:0:
100,300,10081,1,2,2:2:0:0:
209,192,10272,1,2,2:2:0:0:
62,84,10463,1,2,1:2:0:0:
124,204,10654,1,10,2:2:0:0:
238,54,10845,6,0,P|193:59|145:68,1,89.2499972763062,2|0,2:2|3:2,0:0:0:0:
149,67,11227,1,0,1:2:0:0:
188,280,11418,2,0,B|229:271|260:267|260:267|281:229|281:229|312:227|352:219,1,178.499994552612,8|0,2:2|3:2,0:0:0:0:
209,192,11992,1,2,2:2:0:0:
297,370,12183,1,10,2:2:0:0:
438,233,12374,6,0,P|429:167|421:99,1,133.874995914459,6|0,2:2|0:0,0:0:0:0:
417,81,12756,2,0,P|462:62|512:84,1,89.2499972763062,2|8,2:2|2:2,0:0:0:0:
346,224,13138,2,0,B|312:219|277:213|277:213|273:207|273:207|238:200|194:193,1,133.874995914459,6|0,2:2|0:0,0:0:0:0:
192,194,13520,1,2,1:2:0:0:
86,68,13711,1,10,2:2:0:0:
0,281,13902,6,0,P|45:240|121:258,1,133.874995914459,6|0,2:2|0:0,0:0:0:0:
130,259,14285,1,2,2:2:0:0:
346,224,14476,1,10,2:2:0:0:
169,18,14667,2,0,P|174:60|180:119,1,89.2499972763062,6|0,2:2|0:0,0:0:0:0:
202,314,15049,1,2,2:2:0:0:
297,139,15240,1,10,2:2:0:0:
400,306,15431,6,0,B|344:312|291:318|291:318|271:347|293:386,1,178.499994552612,6|2,2:2|2:2,0:0:0:0:
252,227,16004,1,10,2:2:0:0:
473,261,16195,2,0,P|492:311|473:357,1,89.2499972763062,6|0,2:2|0:0,0:0:0:0:
297,139,16578,2,0,P|371:128|432:120,1,133.874995914459,2|0,2:2|0:0,0:0:0:0:
453,116,16960,6,0,P|472:66|453:20,1,89.2499972763062,6|0,2:2|0:0,0:0:0:0:
243,63,17342,1,2,2:2:0:0:
355,220,17533,1,10,2:2:0:0:
205,316,17724,1,6,1:2:0:0:
297,139,17915,1,2,2:2:0:0:
366,345,18106,2,0,B|295:331|295:331|288:326|288:326|235:319,1,133.874995914459,2|0,2:2|0:0,0:0:0:0:
205,316,18488,6,0,P|216:265|225:216,1,89.2499972763062,6|10,3:1|3:3,0:0:0:0:
222,228,18871,1,4,3:1:0:0:
88,105,19062,1,10,2:2:0:0:
9,309,19253,1,6,3:1:0:0:
161,175,19444,1,2,2:2:0:0:
161,175,19635,1,6,3:1:0:0:
302,297,19826,1,10,2:2:0:0:
302,297,19922,1,0,1:2:0:0:
302,297,20017,1,2,1:2:0:0:
228,108,20208,5,6,2:2:0:0:
137,305,20399,1,2,2:2:0:0:
162,38,20590,5,10,2:2:0:0:
292,177,20781,2,0,P|344:172|390:167,1,97.7500018644333,2|8,1:2|2:2,0:0:0:0:
389,167,21164,1,2,1:2:0:0:
211,340,21355,5,10,2:2:0:0:
228,108,21546,1,2,1:2:0:0:
122,314,21737,5,10,2:2:0:0:
144,114,21928,1,0,1:2:0:0:
33,292,22119,5,10,2:2:0:0:
57,128,22310,1,0,1:2:0:0:
1,205,22501,5,10,2:2:0:0:
1,205,22692,1,2,1:2:0:0:
206,343,22883,6,0,P|201:291|196:245,1,97.7500018644333,10|2,2:2|1:2,0:0:0:0:
320,109,23265,5,10,2:2:0:0:
368,278,23457,1,2,1:2:0:0:
189,170,23648,5,10,2:2:0:0:
292,38,23839,2,0,P|338:29|377:57,1,97.7500018644333,2|8,1:2|2:2,0:0:0:0:
377,57,24221,1,2,1:2:0:0:
455,295,24412,5,14,2:2:0:0:
196,245,24603,1,0,1:2:0:0:
381,61,24794,5,10,2:2:0:0:
283,260,24985,1,0,1:2:0:0:
292,38,25176,6,0,L|306:103,1,48.8750009322167,10|0,2:2|1:2,0:0:0:0:
368,278,25367,1,0,1:2:0:0:
209,19,25558,5,10,2:2:0:0:
457,76,25750,2,0,L|489:85,1,24.4375004661083,10|0,3:3|0:0,0:0:0:0:
480,82,26132,6,0,B|468:144|468:144|472:155|472:155|455:239,1,144.500002756119,8|2,3:3|2:2,0:0:0:0:
472,304,26705,2,0,P|435:306|398:283,1,72.2500013780594,6|2,3:0|2:2,0:0:0:0:
288,211,27087,1,6,3:0:0:0:
346,149,27278,2,0,P|370:173|374:218,1,72.2500013780594,2|4,3:2|3:0,0:0:0:0:
173,234,27660,6,0,B|186:212|202:186|202:186|243:198|293:212,1,144.500002756119,2|2,2:2|2:2,0:0:0:0:
194,318,28234,1,6,3:0:0:0:
111,297,28425,2,0,P|83:260|94:214,1,72.2500013780594,2|4,2:2|3:0,0:0:0:0:
173,234,28807,1,2,3:2:0:0:
173,234,28998,1,6,3:0:0:0:
127,109,29189,6,0,B|132:135|136:163|136:163|167:179|167:179|169:210|173:245,1,144.500002756119,2|2,3:2|2:2,0:0:0:0:
214,107,29762,2,0,P|207:69|202:35,1,72.2500013780594,6|2,3:0|2:2,0:0:0:0:
127,109,30144,1,6,3:0:0:0:
264,184,30336,2,0,P|308:150|366:166,1,108.375002067089,2|0,3:2|0:0,0:0:0:0:
373,160,30718,6,0,B|361:213|361:213|366:219|366:219|345:301,1,144.500002756119,2|2,3:2|2:2,0:0:0:0:
260,300,31291,1,6,3:0:0:0:
374,375,31482,2,0,P|326:384|297:365,1,72.2500013780594,2|4,3:2|3:0,0:0:0:0:
192,240,31864,1,2,2:2:0:0:
192,240,32055,1,6,3:0:0:0:
88,349,32246,6,0,B|130:336|173:322|173:322|191:349|210:375,1,144.500002756119,2|2,3:2|2:2,0:0:0:0:
281,213,32820,1,6,3:0:0:0:
202,174,33011,2,0,P|184:216|204:252,1,72.2500013780594,2|4,2:2|3:0,0:0:0:0:
260,300,33393,1,2,3:2:0:0:
260,300,33584,1,6,3:0:0:0:
400,210,33775,6,0,B|378:180|341:176|341:176|318:219|263:211,1,144.500002756119,2|2,3:2|2:2,0:0:0:0:
202,174,34348,1,6,3:0:0:0:
283,52,34539,2,0,P|277:87|272:129,1,72.2500013780594,2|4,2:2|3:0,0:0:0:0:
102,139,34922,2,0,P|111:192|118:246,1,108.375002067089,2|0,3:2|0:0,0:0:0:0:
114,271,35304,6,0,P|80:287|43:274,1,72.2500013780594,2|4,3:2|3:0,0:0:0:0:
21,363,35686,1,2,2:2:0:0:
21,363,35877,1,6,3:0:0:0:
196,308,36068,2,0,B|220:314|248:319|248:319|270:356|270:356|301:359|339:366,1,144.500002756119,2|2,3:2|2:2,0:0:0:0:
400,327,36641,1,6,3:0:0:0:
337,200,36832,6,0,P|331:233|323:275,1,72.2500013780594,2|4,3:2|3:0,0:0:0:0:
422,237,37215,1,2,2:2:0:0:
422,237,37406,1,6,3:0:0:0:
409,147,37597,2,0,P|450:147|475:168,1,72.2500013780594,2|0,3:2|1:2,0:0:0:0:
481,298,37979,5,0,1:2:0:0:
337,200,38170,1,8,2:2:0:0:
337,200,38552,6,0,B|283:206|283:206|276:209|276:209|215:216,1,118.999996368408,2|2,2:2|2:2,0:0:0:0:
205,130,39125,2,0,B|261:123|261:123|268:120|268:120|322:114,1,118.999996368408,2|2,2:2|2:2,0:0:0:0:
326,119,39890,5,2,2:2:0:0:
326,119,40081,2,0,P|319:82|316:57,2,59.4999981842042,2|2|2,2:2|2:2|2:2,0:0:0:0:
324,202,40654,2,0,B|376:199|399:161|399:161|453:159|478:200,1,178.499994552612,2|2,2:2|2:2,0:0:0:0:
476,196,41609,6,0,P|471:228|465:266,2,59.4999981842042,2|2|2,2:2|2:2|2:2,0:0:0:0:
394,148,42183,2,0,P|384:207|372:288,1,118.999996368408,2|2,2:2|2:2,0:0:0:0:
432,324,42756,1,2,2:2:0:0:
277,384,43138,5,2,2:2:0:0:
277,384,43329,1,2,2:2:0:0:
291,292,43520,1,2,2:2:0:0:
357,351,43711,1,2,2:2:0:0:
111,362,43902,5,8,2:2:0:0:
222,112,44093,1,10,3:3:0:0:
201,327,44285,1,10,2:2:0:0:
25,133,44476,6,0,B|84:125|130:114|130:114|143:142|132:173,1,161.499995687485,6|2,3:2|2:2,0:0:0:0:
294,185,45049,1,10,2:2:0:0:
254,33,45240,2,0,P|209:24|170:47,1,80.7499978437424,2|0,2:2|0:0,0:0:0:0:
209,223,45622,1,2,3:2:0:0:
376,152,45813,1,8,2:2:0:0:
219,318,46004,6,0,B|187:311|157:308|157:308|132:267|132:267|106:264|73:260,1,161.499995687485,6|2,2:2|2:2,0:0:0:0:
128,115,46578,1,10,2:2:0:0:
290,274,46769,2,0,B|352:283|397:288|397:288|408:323|381:346,1,161.499995687485,2|0,2:2|0:0,0:0:0:0:
303,187,47342,2,0,B|364:193|364:193|372:198|372:198|429:207,1,121.124996765614,8|0,2:2|0:0,0:0:0:0:
475,263,47724,6,0,P|497:236|493:183,1,80.7499978437424,6|0,2:2|0:0,0:0:0:0:
317,63,48106,1,10,2:2:0:0:
290,274,48297,2,0,B|245:270|229:234|229:234|188:231|153:272,1,161.499995687485,6|2,3:1|2:2,0:0:0:0:
303,187,48871,1,10,2:2:0:0:
126,96,49062,6,0,P|143:131|129:183,1,80.7499978437424,6|0,2:2|0:0,0:0:0:0:
6,323,49444,1,0,1:2:0:0:
55,140,49635,1,8,2:2:0:0:
175,349,49826,2,0,P|131:343|90:337,1,80.7499978437424,6|0,3:1|0:0,0:0:0:0:
224,174,50208,2,0,P|268:180|309:186,1,80.7499978437424,6|8,3:1|2:2,0:0:0:0:
382,335,50591,6,0,B|345:305|344:263|344:263|387:244|390:192,1,170,6|0,2:2|0:0,0:0:0:0:
339,27,51148,2,0,P|348:63|357:110,1,85,10|0,2:2|0:0,0:0:0:0:
192,260,51547,1,10,1:2:0:0:
268,86,51732,1,10,1:2:0:0:
381,230,51917,1,8,1:2:0:0:
185,349,52102,6,0,B|151:339|123:334|123:334|102:285|102:285|67:279|32:274,1,178.499994552612,6|0,2:2|1:2,0:0:0:0:
224,174,52699,2,0,P|181:178|134:184,1,89.2499972763062,10|2,3:1|2:2,0:0:0:0:
135,183,53078,1,2,1:2:0:0:
267,306,53268,1,2,2:2:0:0:
311,159,53458,1,10,2:2:0:0:
263,384,53648,6,0,B|317:386|342:342|342:342|390:345|418:387,1,178.499994552612,2|0,2:2|1:2,0:0:0:0:
267,224,54221,2,0,P|251:262|272:311,1,89.2499972763062,8|0,2:2|0:0,0:0:0:0:
266,305,54603,1,2,2:2:0:0:
508,384,54794,1,2,2:2:0:0:
341,259,54985,1,10,2:2:0:0:
511,125,55176,6,0,B|497:210|497:210|498:221|498:221|485:305,1,178.499994552612,2|0,2:2|1:2,0:0:0:0:
341,174,55749,1,10,2:2:0:0:
341,174,55940,1,2,2:2:0:0:
447,72,56131,1,2,2:2:0:0:
416,213,56323,1,2,1:2:0:0:
263,139,56514,1,10,2:2:0:0:
409,0,56705,6,0,P|470:-9|497:10,1,89.2499972763062,2|0,2:2|3:2,0:0:0:0:
491,3,57087,1,0,1:2:0:0:
263,139,57278,2,0,B|230:132|197:127|197:127|181:89|181:89|142:82|108:76,1,178.499994552612,8|0,2:2|3:2,0:0:0:0:
147,248,57851,1,2,2:2:0:0:
261,53,58042,1,10,2:2:0:0:
46,12,58233,6,0,P|38:70|28:143,1,133.874995914459,6|0,2:2|0:0,0:0:0:0:
42,163,58616,2,0,P|91:177|129:160,1,89.2499972763062,2|8,2:2|2:2,0:0:0:0:
296,283,58998,2,0,B|221:268|221:268|217:265|217:265|159:254,1,133.874995914459,6|0,2:2|0:0,0:0:0:0:
147,248,59380,1,2,1:2:0:0:
246,107,59571,1,10,2:2:0:0:
323,374,59762,6,0,P|379:335|450:365,1,133.874995914459,6|0,2:2|0:0,0:0:0:0:
455,366,60144,1,2,2:2:0:0:
296,283,60335,1,10,2:2:0:0:
492,187,60526,2,0,P|505:232|481:278,1,89.2499972763062,6|0,2:2|0:0,0:0:0:0:
266,191,60909,1,2,2:2:0:0:
435,114,61100,1,10,2:2:0:0:
296,283,61291,6,0,P|251:275|204:268,1,89.2499972763062,6|0,2:2|0:0,0:0:0:0:
112,83,61673,1,2,2:2:0:0:
266,191,61864,1,10,2:2:0:0:
170,17,62055,2,0,P|104:-9|25:59,1,178.499994552612,2|2,2:2|2:2,0:0:0:0:
6,243,62628,1,10,2:2:0:0:
199,93,62819,6,0,B|261:101|261:101|267:104|267:104|333:114,1,133.874995914459,6|0,2:2|0:0,0:0:0:0:
348,116,63202,1,2,2:2:0:0:
218,338,63393,1,10,2:2:0:0:
218,338,63775,5,10,2:2:0:0:
369,261,63966,1,2,1:2:0:0:
222,175,64157,1,10,1:2:0:0:
359,343,64348,6,0,B|409:347|437:306|437:306|486:307|512:345,1,178.499994552612,6|0,3:2|0:0,0:0:0:0:
301,218,64921,2,0,P|281:257|301:307,1,89.2499972763062,10|2,3:1|2:2,0:0:0:0:
293,299,65303,1,2,1:2:0:0:
512,345,65495,1,2,2:2:0:0:
369,261,65686,1,10,2:2:0:0:
508,135,65877,6,0,B|457:128|401:117|401:117|366:138|376:178,1,178.499994552612,2|0,2:2|1:2,0:0:0:0:
197,39,66450,2,0,P|239:17|288:30,1,89.2499972763062,8|0,2:2|0:0,0:0:0:0:
278,24,66832,1,2,2:2:0:0:
240,202,67023,1,2,2:2:0:0:
111,63,67214,1,10,2:2:0:0:
260,112,67405,6,0,B|288:122|317:131|317:131|336:180|336:180|366:187|406:201,1,178.499994552612,2|0,2:2|1:2,0:0:0:0:
232,293,67979,1,10,2:2:0:0:
232,293,68170,1,2,2:2:0:0:
173,140,68361,1,2,2:2:0:0:
319,258,68552,1,2,1:2:0:0:
146,324,68743,1,10,2:2:0:0:
240,201,68934,6,0,P|235:241|226:304,1,89.2499972763062,2|0,2:2|3:2,0:0:0:0:
228,289,69316,1,0,1:2:0:0:
374,374,69507,2,0,B|351:338|301:340|301:340|274:381|219:375,1,178.499994552612,8|0,2:2|3:2,0:0:0:0:
219,375,70081,1,2,2:2:0:0:
325,169,70272,1,10,2:2:0:0:
146,324,70463,6,0,B|76:310|76:310|73:304|73:304|13:294,1,133.874995914459,6|0,2:2|0:0,0:0:0:0:
2,298,70845,2,0,P|-13:325|7:387,1,89.2499972763062,2|8,2:2|2:2,0:0:0:0:
161,233,71227,2,0,P|154:156|148:97,1,133.874995914459,6|0,2:2|0:0,0:0:0:0:
145,80,71609,1,2,1:2:0:0:
252,249,71800,1,10,2:2:0:0:
184,9,71991,6,0,P|123:-6|66:47,1,133.874995914459,6|0,2:2|0:0,0:0:0:0:
64,62,72374,1,2,2:2:0:0:
76,218,72565,1,10,2:2:0:0:
227,81,72756,2,0,B|289:90|339:98|339:98|352:136|319:167,1,178.499994552612,6|2,2:2|2:2,0:0:0:0:
483,206,73329,1,10,2:2:0:0:
356,22,73520,6,0,P|316:15|265:8,1,89.2499972763062,6|0,2:2|0:0,0:0:0:0:
399,191,73902,1,2,2:2:0:0:
439,33,74093,1,10,2:2:0:0:
346,255,74284,2,0,P|393:277|427:266,1,89.2499972763062,6|0,2:2|0:0,0:0:0:0:
312,175,74667,1,2,2:2:0:0:
457,125,74858,1,10,2:2:0:0:
242,335,75049,6,0,P|251:289|260:243,1,89.2499972763062,6|0,2:2|0:0,0:0:0:0:
194,82,75431,1,2,2:2:0:0:
228,162,75622,1,10,2:2:0:0:
57,301,75813,1,6,2:2:0:0:
92,221,76004,1,2,2:2:0:0:
242,335,76195,2,0,P|287:329|336:323,1,89.2499972763062,2|10,2:2|2:2,0:0:0:0:
141,149,76577,6,0,P|90:135|45:152,1,89.2499972763062,6|0,2:2|0:0,0:0:0:0:
149,319,76960,1,2,2:2:0:0:
177,234,77151,1,10,2:2:0:0:
20,55,77342,1,6,2:2:0:0:
56,136,77533,1,2,2:2:0:0:
237,23,77724,2,0,P|196:4|152:17,1,89.2499972763062,2|10,2:2|2:2,0:0:0:0:
259,247,78106,6,0,P|306:241|356:234,1,89.2499972763062,6|8,3:1|3:3,0:0:0:0:
512,76,78488,1,4,3:1:0:0:
435,226,78679,1,10,3:3:0:0:
303,71,78870,1,6,3:1:0:0:
473,149,79062,1,10,3:3:0:0:
313,319,79253,1,6,3:1:0:0:
214,175,79444,1,10,3:3:0:0:
214,175,79539,1,0,1:2:0:0:
214,175,79635,6,0,B|165:110|39:144|113:229|-4:211,1,248.624992412567,2|0,1:2|1:2,0:0:0:0:
32,48,80978,2,0,P|26:83|16:141,1,85,12|0,1:2|0:0,0:0:0:0:
152,365,81360,5,6,2:2:0:0:
140,226,81549,1,2,1:2:0:0:
59,376,81739,1,10,2:2:0:0:
330,345,81929,2,0,P|287:350|242:356,1,89.2499972763062,2|10,1:2|2:2,0:0:0:0:
241,356,82309,1,2,1:2:0:0:
292,139,82499,5,10,2:2:0:0:
417,336,82689,1,0,1:2:0:0:
368,88,82878,5,10,2:2:0:0:
275,272,83068,1,0,1:2:0:0:
288,54,83258,5,10,2:2:0:0:
367,259,83448,1,0,1:2:0:0:
435,35,83638,5,10,2:2:0:0:
435,35,83828,1,2,1:2:0:0:
211,104,84018,1,10,2:2:0:0:
367,259,84208,6,0,B|404:253|428:250|428:250|447:213|447:213|481:209|516:204,1,161.499995687485,6|0,2:2|1:2,0:0:0:0:
371,172,84777,1,8,1:2:0:0:
361,343,84969,6,0,B|312:346|291:306|291:306|246:310|225:339,1,161.499995687485,6|0,1:2|1:2,0:0:0:0:
367,259,85548,1,8,1:2:0:0:
206,155,85741,6,0,P|221:188|197:251,1,80.7499978437424,6|0,1:2|0:0,0:0:0:0:
40,341,86126,1,0,1:2:0:0:
130,194,86319,1,8,1:2:0:0:
224,339,86512,1,6,1:2:0:0:
47,159,86705,5,8,1:2:0:0:
50,145,86802,2,0,L|57:98,1,40.3749989218712,8|0,1:2|0:0,0:0:0:0:
198,99,86995,5,8,1:2:0:0:
200,115,87091,2,0,L|207:162,1,40.3749989218712,10|0,2:2|0:0,0:0:0:0:
132,381,87284,5,10,3:3:0:0:
