osu file format v14

[General]
AudioFilename: audio.mp3
AudioLeadIn: 0
PreviewTime: 51180
Countdown: 0
SampleSet: Soft
StackLeniency: 0.4
Mode: 0
LetterboxInBreaks: 0
WidescreenStoryboard: 0

[Editor]
Bookmarks: 515,6467,20426,26339,38760,44683,52316,80027,98376,104309,111953,139646,142700,148814,161043,167158,179216,185309,191446,208446,220464,223521
DistanceSpacing: 1
BeatDivisor: 4
GridSize: 32
TimelineZoom: 2

[Metadata]
Title:Heart wa Oteage
TitleUnicode:ハートはお手上げ
Artist:Airi Suzuki
ArtistUnicode:鈴木愛理
Creator:Amateurre
Version:Romantic
Source:かぐや様は告らせたい-ウルトラロマンティック-
Tags:Kaguya-sama wa Kokurasetai: Ultra Romantic Love Is War Tensai-tachi no Renai Zunousen 3rd Season 3 three anime ending ed japanese pop jpop j-pop Shinomiya Kaguya 四宮 かぐや midorijeon shizuku shikibe mayu kazato asa koldnoodl
BeatmapID:3575294
BeatmapSetID:1747913

[Difficulty]
HPDrainRate:5
CircleSize:4
OverallDifficulty:8
ApproachRate:8.3
SliderMultiplier:1.8
SliderTickRate:1

[Events]
//Background and Video events
0,0,"heartoteage.jpg",0,0
//Break Periods
2,179426,183278
//Storyboard Layer 0 (Background)
//Storyboard Layer 1 (Fail)
//Storyboard Layer 2 (Pass)
//Storyboard Layer 3 (Foreground)
//Storyboard Layer 4 (Overlay)
//Storyboard Sound Samples

[TimingPoints]
515,392.156862745098,4,2,2,60,1,0
515,-142.857142857143,4,2,2,60,0,0
2083,379.746835443038,4,2,2,60,1,0
2083,-142.857142857143,4,2,2,60,0,0
3601,382.165605095541,4,2,2,60,1,0
3601,-100,4,2,2,70,0,0
4938,-100,4,2,1,70,0,0
6467,-111.111111111111,4,2,1,80,0,1
12581,-111.111111111111,4,2,2,80,0,1
14110,-111.111111111111,4,2,1,80,0,1
16403,-111.111111111111,4,2,2,80,0,1
17167,-111.111111111111,4,2,1,80,0,1
17903,-111.111111111111,4,2,2,80,0,1
20426,382.165605095541,4,2,1,75,1,0
20426,-111.111111111111,4,2,1,75,0,0
21572,-111.111111111111,4,2,2,75,0,0
24630,-111.111111111111,4,2,1,75,0,0
26349,-142.857142857143,4,2,1,65,0,0
26923,-142.857142857143,4,2,3,65,0,0
38388,-142.857142857143,4,2,1,65,0,0
38770,-166.666666666667,4,2,1,55,0,0
44120,-166.666666666667,4,2,1,60,0,0
44665,-125,4,2,1,65,0,0
46222,-125,4,2,2,65,0,0
47942,-125,4,2,1,70,0,0
48515,-125,4,2,2,70,0,0
49279,-125,4,2,1,70,0,0
51371,382.165605095541,4,2,2,60,1,0
51371,-125,4,2,2,70,0,0
52326,-111.111111111111,4,2,1,80,0,1
52517,382.165605095541,4,2,2,60,1,1
52517,-111.111111111111,4,2,1,80,0,1
58440,-111.111111111111,4,2,2,80,0,1
63026,-111.111111111111,4,2,1,80,0,1
63599,-111.111111111111,4,2,2,80,0,1
64555,-111.111111111111,4,2,1,80,0,1
72198,-111.111111111111,4,2,2,80,0,1
73727,-111.111111111111,4,2,1,80,0,1
74491,-111.111111111111,4,2,2,80,0,1
75255,-111.111111111111,4,2,1,80,0,1
76020,-111.111111111111,4,2,2,80,0,1
76784,-111.111111111111,4,2,1,80,0,1
77548,-111.111111111111,4,2,2,80,0,1
79650,387.096774193548,4,2,2,60,1,0
79650,-111.111111111111,4,2,2,80,0,1
79843,-111.111111111111,4,2,1,80,0,1
80037,382.165605095541,4,2,2,60,1,0
80037,-111.111111111111,4,2,1,75,0,0
81183,-111.111111111111,4,2,2,75,0,0
83094,-111.111111111111,4,2,1,75,0,0
84240,-111.111111111111,4,2,2,75,0,0
84814,-111.111111111111,4,2,1,65,0,0
85966,382.165605095541,4,2,2,60,1,0
85966,-142.857142857143,4,2,1,65,0,0
86157,382.165605095541,4,2,2,60,1,0
86539,-142.857142857143,4,2,3,65,0,0
98004,-142.857142857143,4,2,1,65,0,0
98386,-166.666666666667,4,2,1,55,0,0
102972,-166.666666666667,4,2,1,55,0,0
103736,-166.666666666667,4,2,1,65,0,0
104309,-125,4,2,1,70,0,0
105838,-125,4,2,2,70,0,0
106602,-125,4,2,1,70,0,0
107558,-125,4,2,1,75,0,0
108131,-125,4,2,2,75,0,0
108895,-125,4,2,1,75,0,0
110997,-125,4,2,2,75,0,0
111761,-125,4,2,2,75,0,0
111953,-111.111111111111,4,2,1,80,0,1
112143,-111.111111111111,4,2,1,80,0,1
118066,-111.111111111111,4,2,2,80,0,1
120359,-111.111111111111,4,2,1,80,0,1
121123,-111.111111111111,4,2,2,80,0,1
121668,387.096774193548,4,2,2,60,1,1
121668,-111.111111111111,4,2,2,80,0,1
122635,402.684563758389,4,2,2,60,1,1
122635,-111.111111111111,4,2,1,80,0,1
123037,375,4,2,2,60,1,1
123224,382.165605095541,4,2,2,60,1,1
123224,-111.111111111111,4,2,2,80,0,1
124179,-111.111111111111,4,2,1,80,0,1
124370,382.165605095541,4,2,2,60,1,1
124370,-111.111111111111,4,2,1,80,0,1
131822,-111.111111111111,4,2,2,80,0,1
133350,-111.111111111111,4,2,1,80,0,1
134115,-111.111111111111,4,2,2,80,0,1
134879,-111.111111111111,4,2,1,80,0,1
135643,-111.111111111111,4,2,2,80,0,1
136408,-111.111111111111,4,2,1,80,0,1
137172,-111.111111111111,4,2,2,80,0,1
139656,-111.111111111111,4,2,1,75,0,0
140803,-111.111111111111,4,2,2,75,0,0
141376,-111.111111111111,4,2,1,75,0,0
141758,-111.111111111111,4,2,2,75,0,0
142140,352.941176470588,4,2,1,75,1,0
142140,-111.111111111111,4,2,1,75,0,0
142492,437.956204379562,4,2,2,60,1,0
142710,382.165605095541,4,2,2,60,1,0
142710,-111.111111111111,4,2,1,75,0,0
144047,-111.111111111111,4,2,2,75,0,0
145576,-111.111111111111,4,2,1,75,0,0
147869,-111.111111111111,4,2,2,75,0,0
148251,-111.111111111111,4,2,1,75,0,0
151690,-111.111111111111,4,2,2,75,0,0
153219,-111.111111111111,4,2,1,75,0,0
158569,-111.111111111111,4,2,2,75,0,0
158952,-111.111111111111,4,2,1,75,0,0
160098,-111.111111111111,4,2,2,75,0,0
160480,-111.111111111111,4,2,1,75,0,0
160862,-111.111111111111,4,2,2,75,0,0
161053,-142.857142857143,4,2,1,60,0,0
161436,-142.857142857143,4,2,3,60,0,0
165257,-142.857142857143,4,2,1,65,0,0
165448,-111.111111111111,4,2,1,70,0,0
167073,-111.111111111111,4,2,2,70,0,0
167168,-125,4,2,1,70,0,0
172901,-125,4,2,2,70,0,0
173092,-125,4,2,1,70,0,0
173856,-125,4,2,2,70,0,0
174620,-125,4,2,1,70,0,0
175385,-125,4,2,2,70,0,0
175767,-125,4,2,1,70,0,0
176722,-111.111111111111,4,2,1,70,0,0
178633,-111.111111111111,4,2,1,60,0,0
179226,382.165605095541,4,2,2,60,1,0
179226,-111.111111111111,4,2,1,50,0,0
179417,382.165605095541,4,2,2,60,1,0
183982,382.165605095541,4,2,2,60,1,0
183982,-111.111111111111,4,2,1,60,0,0
184173,-111.111111111111,4,2,1,60,0,0
184555,-111.111111111111,4,2,1,65,0,0
185319,-125,4,2,1,70,0,0
185510,-125,4,2,1,70,0,0
185892,-125,4,2,1,70,0,0
188376,-125,4,2,2,70,0,0
188759,-125,4,2,2,40,0,0
188950,-100,4,2,2,45,0,0
189141,-125,4,2,2,50,0,0
189332,-125,4,2,2,55,0,0
189523,-125,4,2,2,60,0,0
189714,-125,4,2,2,65,0,0
189905,-111.111111111111,4,2,1,70,0,0
190462,392.156862745098,4,2,1,70,1,0
190462,-111.111111111111,4,2,2,70,0,0
191456,382.165605095541,4,2,1,70,1,1
191456,-111.111111111111,4,2,1,70,0,1
191647,382.165605095541,4,2,1,70,1,1
191647,-111.111111111111,4,2,1,70,0,1
192030,-111.111111111111,4,2,2,70,0,1
196017,382.165605095541,4,2,2,70,1,1
196017,-111.111111111111,4,2,2,70,0,1
196208,382.165605095541,4,2,2,70,1,1
196208,-111.111111111111,4,2,2,70,0,1
197565,382.165605095541,4,2,2,60,1,0
197565,-111.111111111111,4,2,1,70,0,1
197756,382.165605095541,4,2,2,60,1,0
197756,-111.111111111111,4,2,1,70,0,1
199093,-111.111111111111,4,2,2,70,0,1
199857,-111.111111111111,4,2,1,70,0,1
200622,-111.111111111111,4,2,2,70,0,1
201386,-111.111111111111,4,2,1,70,0,1
202150,-111.111111111111,4,2,2,70,0,1
202915,-111.111111111111,4,2,1,70,0,1
203679,-111.111111111111,4,2,2,70,0,1
204443,-111.111111111111,4,2,1,70,0,1
206832,-200,4,2,1,70,0,0
206927,-200,4,2,1,40,0,0
207883,-200,4,2,2,65,0,0
208074,-111.111111111111,4,2,2,65,0,0
208456,-111.111111111111,4,2,1,75,0,0
209603,352.941176470588,4,2,2,75,1,0
209603,-111.111111111111,4,2,2,75,0,0
209955,382.165605095541,4,2,2,75,1,0
209955,-111.111111111111,4,2,2,75,0,0
211483,-111.111111111111,4,2,1,75,0,0
212630,-111.111111111111,4,2,2,75,0,0
213012,-111.111111111111,4,2,2,75,0,0
213967,-111.111111111111,4,2,1,75,0,0
214160,363.636363636364,4,2,2,60,1,0
214160,-111.111111111111,4,2,1,75,0,0
214551,382.165605095541,4,2,2,60,1,0
214551,-111.111111111111,4,2,1,75,0,0
214933,-111.111111111111,4,2,2,75,0,0
217608,-111.111111111111,4,2,1,75,0,0
218754,-111.111111111111,4,2,2,75,0,0
219328,-111.111111111111,4,2,1,75,0,0
219805,-111.111111111111,4,2,2,75,0,0
219901,-111.111111111111,4,2,1,75,0,0
220474,-111.111111111111,4,2,2,70,0,0
221238,-111.111111111111,4,2,1,70,0,0
222003,-111.111111111111,4,2,2,70,0,0
222767,-111.111111111111,4,2,1,70,0,0
222958,-111.111111111111,4,2,1,70,0,0

[Colours]
Combo1 : 245,187,129
Combo2 : 253,64,83
Combo3 : 254,220,148
Combo4 : 253,151,153

[HitObjects]
152,325,515,6,0,P|184:315|213:309,2,62.9999980773926,10|2|2,0:1|0:2|0:2,0:0:0:0:
33,379,1103,2,0,P|-4:330|4:269,1,125.999996154785,10|2,0:1|0:2,0:0:0:0:
88,140,1691,2,0,L|102:204,1,62.9999980773926,10|2,0:2|0:2,0:0:0:0:
108,224,1985,1,0,0:0:0:0:
108,224,2083,2,0,P|172:207|231:198,1,125.999996154785,8|2,0:1|0:2,0:0:0:0:
341,216,2652,1,10,0:1:0:0:
301,135,2842,5,8,0:1:0:0:
448,247,3032,1,10,0:2:0:0:
278,319,3222,1,10,0:2:0:0:
333,226,3412,1,10,0:1:0:0:
512,357,3601,6,0,P|418:363|386:272,1,180,14|10,0:1|0:2,0:0:0:0:
312,127,4174,2,0,P|359:140|398:153,1,90,10|0,0:1|0:0,0:0:0:0:
273,244,4556,1,10,0:1:0:0:
482,171,4747,1,8,0:2:0:0:
261,47,4938,6,0,P|271:122|285:225,1,180,14|8,0:1|0:1,0:0:0:0:
252,321,5511,1,10,0:2:0:0:
252,321,5893,5,10,0:1:0:0:
154,301,6085,1,10,0:2:0:0:
56,281,6276,1,8,0:2:0:0:
285,225,6467,6,0,P|373:213|457:204,1,161.999995056153,14|8,0:1|0:1,0:0:0:0:
273,100,7040,2,0,P|236:91|191:83,1,80.9999975280763,8|2,0:2|0:2,0:0:0:0:
171,84,7327,1,2,0:0:0:0:
171,84,7422,1,10,0:1:0:0:
322,21,7613,1,10,0:1:0:0:
221,174,7804,1,10,0:2:0:0:
96,4,7995,6,0,P|60:66|101:166,1,161.999995056153,10|8,0:1|0:1,0:0:0:0:
210,281,8569,2,0,P|165:264|112:247,1,80.9999975280763,8|0,0:2|0:0,0:0:0:0:
45,291,8951,1,10,0:1:0:0:
202,189,9142,1,10,0:1:0:0:
29,300,9333,1,10,0:2:0:0:
273,366,9524,6,0,P|309:304|268:204,1,161.999995056153,10|8,0:1|0:1,0:0:0:0:
180,72,10097,2,0,L|278:46,1,80.9999975280763,10|2,0:2|0:2,0:0:0:0:
284,42,10384,1,2,0:0:0:0:
284,42,10479,1,10,0:1:0:0:
410,202,10671,1,10,0:1:0:0:
259,142,10862,1,10,0:2:0:0:
417,37,11053,6,0,P|423:76|433:116,1,80.9999975280763,10|0,0:1|0:0,0:0:0:0:
349,335,11435,2,0,P|342:295|332:255,1,80.9999975280763,8|8,0:1|0:2,0:0:0:0:
259,142,11817,2,0,P|301:161|334:170,1,80.9999975280763,0|8,0:0|0:1,0:0:0:0:
410,202,12199,1,10,0:1:0:0:
410,202,12390,1,10,0:2:0:0:
164,290,12581,6,0,B|72:261|99:335|2:303,1,161.999995056153,14|10,0:1|0:1,0:0:0:0:
187,195,13155,1,8,0:2:0:0:
275,373,13346,6,0,P|285:316|293:253,1,121.499996292114,10|0,0:1|0:0,0:0:0:0:
298,234,13728,1,10,0:1:0:0:
177,303,13919,1,10,0:2:0:0:
395,280,14110,6,0,P|434:270|474:262,1,80.9999975280763,14|0,0:1|0:0,0:0:0:0:
325,142,14492,1,10,0:1:0:0:
450,63,14683,1,10,0:2:0:0:
412,200,14874,6,0,P|402:239|394:279,1,80.9999975280763,10|0,0:1|0:0,0:0:0:0:
293,349,15257,1,10,0:1:0:0:
213,285,15448,1,10,0:2:0:0:
69,382,15639,6,0,P|16:323|25:245,1,161.999995056153,14|10,0:1|0:1,0:0:0:0:
145,133,16212,1,10,0:2:0:0:
29,72,16403,2,0,P|50:128|58:170,1,80.9999975280763,14|0,0:1|0:0,0:0:0:0:
183,271,16785,2,0,P|193:231|208:194,1,80.9999975280763,10|8,0:1|0:2,0:0:0:0:
445,23,17167,6,0,P|390:79|302:52,1,161.999995056153,14|10,0:1|0:1,0:0:0:0:
217,7,17741,1,10,0:2:0:0:
390,108,17932,1,14,0:1:0:0:
207,194,18123,1,2,0:2:0:0:
269,128,18314,1,10,0:1:0:0:
269,128,18409,1,8,0:1:0:0:
269,128,18505,1,8,0:2:0:0:
415,234,18696,6,0,P|454:223|493:213,1,80.9999975280763,10|0,0:1|0:0,0:0:0:0:
279,357,19078,2,0,P|318:367|357:377,1,80.9999975280763,8|10,0:1|0:2,0:0:0:0:
207,194,19460,2,0,P|246:183|285:173,1,80.9999975280763,10|2,0:1|0:2,0:0:0:0:
135,372,19843,5,10,0:1:0:0:
298,263,20034,1,10,0:2:0:0:
298,263,20129,1,8,0:2:0:0:
298,263,20225,1,10,0:1:0:0:
451,384,20426,6,0,P|456:343|463:304,1,80.9999975280763,14|2,0:1|0:2,0:0:0:0:
361,101,20808,1,10,0:2:0:0:
492,179,20999,1,10,0:1:0:0:
492,179,21095,1,8,0:1:0:0:
492,179,21190,2,0,P|423:192|391:201,1,80.9999975280763,8|10,0:2|0:1,0:0:0:0:
191,294,21572,2,0,P|245:256|314:272,1,121.499996292114,14|0,0:2|0:0,0:0:0:0:
319,275,21954,6,0,P|327:230|336:195,1,80.9999975280763,8|8,0:2|0:1,0:0:0:0:
267,22,22337,2,0,P|259:67|249:101,1,80.9999975280763,8|0,0:2|0:0,0:0:0:0:
142,201,22719,1,10,0:2:0:0:
78,105,22910,1,10,0:1:0:0:
246,190,23101,2,0,P|285:183|326:178,1,80.9999975280763,10|8,0:2|0:1,0:0:0:0:
496,12,23483,5,10,0:2:0:0:
348,98,23674,1,2,0:2:0:0:
512,189,23865,1,10,0:2:0:0:
443,92,24056,2,0,P|433:131|423:181,1,80.9999975280763,2|8,0:2|0:2,0:0:0:0:
401,277,24439,1,10,0:1:0:0:
246,190,24630,6,0,B|157:176|184:236|89:225,1,161.999995056153,14|8,0:2|0:2,0:0:0:0:
7,107,25203,1,8,0:1:0:0:
158,167,25394,1,8,0:2:0:0:
158,167,25489,1,8,0:2:0:0:
158,167,25585,1,8,0:3:0:0:
114,24,25776,5,10,0:2:0:0:
2,213,25967,1,10,0:1:0:0:
257,124,26349,6,0,P|319:115|381:107,1,125.999996154785,14|2,0:1|0:2,0:0:0:0:
479,145,26923,2,0,P|483:113|486:82,1,62.9999980773926,10|2,0:2|0:2,0:0:0:0:
502,5,27305,1,10,0:2:0:0:
388,114,27496,6,0,P|383:145|380:176,1,62.9999980773926,10|8,0:1|0:2,0:0:0:0:
331,258,27878,2,0,P|270:243|208:229,1,125.999996154785,10|2,0:1|0:2,0:0:0:0:
141,294,28451,1,10,0:2:0:0:
141,294,28642,2,0,P|85:307|64:317,1,62.9999980773926,2|8,0:2|0:2,0:0:0:0:
3,182,29025,5,10,0:1:0:0:
99,209,29216,1,10,0:2:0:0:
173,137,29407,2,0,P|183:82|198:-2,1,125.999996154785,10|2,0:1|0:2,0:0:0:0:
92,78,29980,2,0,P|48:90|18:98,1,62.9999980773926,10|2,0:2|0:2,0:0:0:0:
237,190,30362,1,10,0:2:0:0:
328,174,30553,6,0,P|358:182|388:190,1,62.9999980773926,10|8,0:1|0:2,0:0:0:0:
263,297,30935,2,0,P|224:247|244:180,1,125.999996154785,10|2,0:1|0:2,0:0:0:0:
296,65,31509,1,10,0:2:0:0:
166,105,31700,2,0,P|135:111|104:119,1,62.9999980773926,10|8,0:1|0:2,0:0:0:0:
32,64,32082,1,2,0:2:0:0:
32,64,32273,1,10,0:2:0:0:
104,212,32464,6,0,P|92:274|83:336,1,125.999996154785,10|2,0:1|0:2,0:0:0:0:
173,384,33038,1,10,0:2:0:0:
173,384,33229,2,0,P|177:352|183:322,1,62.9999980773926,2|8,0:2|0:2,0:0:0:0:
315,279,33611,5,10,0:1:0:0:
402,313,33802,1,10,0:2:0:0:
482,255,33993,2,0,P|500:202|479:132,1,125.999996154785,10|2,0:1|0:2,0:0:0:0:
422,41,34566,1,10,0:2:0:0:
422,41,34757,2,0,P|476:26|499:22,1,62.9999980773926,2|8,0:2|0:2,0:0:0:0:
351,125,35139,6,0,P|297:110|274:106,1,62.9999980773926,10|8,0:1|0:2,0:0:0:0:
178,43,35522,2,0,P|187:99|195:167,1,125.999996154785,10|2,0:1|0:2,0:0:0:0:
150,233,36095,1,10,0:2:0:0:
295,191,36286,6,0,P|286:247|277:315,1,125.999996154785,10|2,0:1|0:2,0:0:0:0:
333,373,36859,1,10,0:2:0:0:
186,310,37050,6,0,P|126:323|45:347,1,125.999996154785,10|2,0:1|0:2,0:0:0:0:
0,380,37624,1,10,0:2:0:0:
116,278,37815,1,10,0:1:0:0:
0,175,38006,2,0,P|13:222|18:248,1,62.9999980773926,8|8,0:2|0:1,0:0:0:0:
179,140,38388,5,8,0:2:0:0:
385,328,38770,6,0,L|394:386,2,53.9999983520508,2|2|2,0:2|0:2|0:2,0:0:0:0:
372,252,39343,1,2,0:2:0:0:
372,252,39725,1,0,0:0:0:0:
298,279,39916,2,0,P|272:272|245:264,1,53.9999983520508,0|2,0:0|0:2,0:0:0:0:
148,182,40299,6,0,L|139:124,2,53.9999983520508,2|2|2,0:2|0:2|0:2,0:0:0:0:
158,261,40872,1,2,0:2:0:0:
158,261,41254,1,0,0:0:0:0:
92,303,41445,2,0,P|66:310|39:318,1,53.9999983520508
225,330,41827,6,0,P|251:337|278:345,2,53.9999983520508,2|2|2,0:2|0:2|0:2,0:0:0:0:
150,358,42401,1,2,0:2:0:0:
150,358,42783,1,0,0:0:0:0:
92,303,42974,2,0,L|100:249,1,53.9999983520508
49,111,43356,6,0,P|22:117|-3:123,2,53.9999983520508,2|2|2,0:2|0:2|0:2,0:0:0:0:
128,93,43929,1,2,0:2:0:0:
248,187,44120,5,8,0:2:0:0:
258,107,44311,1,10,0:3:0:0:
269,26,44503,1,10,0:2:0:0:
352,184,44694,6,0,P|366:264|374:326,1,144,14|10,0:1|0:1,0:0:0:0:
205,266,45267,1,10,0:2:0:0:
269,384,45458,2,0,P|275:348|282:313,1,72,2|8,0:2|0:1,0:0:0:0:
143,213,45840,2,0,P|107:220|72:226,1,72,10|8,0:1|0:2,0:0:0:0:
1,356,46222,6,0,P|67:364|121:311,1,144,14|10,0:1|0:1,0:0:0:0:
227,185,46796,1,10,0:2:0:0:
301,243,46987,1,2,0:2:0:0:
301,243,47082,1,2,0:0:0:0:
301,243,47178,2,0,P|287:293|279:324,1,72,10|8,0:1|0:1,0:0:0:0:
160,128,47560,2,0,P|174:78|182:47,1,72,8|8,0:2|0:1,0:0:0:0:
372,184,47941,6,0,B|458:179|424:232|530:221,1,144,14|10,0:1|0:2,0:0:0:0:
263,326,48515,2,0,B|177:321|211:374|105:363,1,144,14|10,0:1|0:1,0:0:0:0:
360,364,49089,1,10,0:2:0:0:
277,234,49280,6,0,P|265:161|315:103,1,144,14|8,0:1|0:3,0:0:0:0:
389,39,49853,1,10,0:2:0:0:
222,140,50044,6,0,P|187:129|152:119,1,72,10|0,0:1|0:0,0:0:0:0:
360,225,50426,2,0,P|394:214|429:204,1,72,10|8,0:1|0:2,0:0:0:0:
271,383,50808,2,0,P|257:284|248:230,1,144,14|8,0:1|0:1,0:0:0:0:
233,155,51371,5,14,0:2:0:0:
233,155,51753,5,10,0:1:0:0:
135,175,51944,1,10,0:2:0:0:
37,195,52135,1,8,0:2:0:0:
303,306,52326,6,0,B|394:299|364:342|471:333,1,161.999995056153,14|8,0:1|0:1,0:0:0:0:
233,370,52899,2,0,P|224:333|216:288,1,80.9999975280763,8|2,0:2|0:2,0:0:0:0:
217,268,53185,1,2,0:0:0:0:
217,268,53281,1,10,0:1:0:0:
387,291,53472,1,10,0:1:0:0:
331,142,53663,1,8,0:2:0:0:
142,340,53854,6,0,P|106:278|147:178,1,161.999995056153,10|8,0:1|0:1,0:0:0:0:
212,53,54427,2,0,P|226:98|240:152,1,80.9999975280763,8|0,0:2|0:0,0:0:0:0:
302,223,54809,1,10,0:1:0:0:
115,177,55001,1,10,0:1:0:0:
200,254,55192,1,10,0:2:0:0:
350,131,55383,6,0,P|419:112|505:177,1,161.999995056153,10|8,0:1|0:1,0:0:0:0:
426,314,55956,2,0,L|410:213,1,80.9999975280763,10|2,0:2|0:2,0:0:0:0:
411,208,56243,1,2,0:0:0:0:
411,208,56338,1,10,0:1:0:0:
231,303,56529,1,10,0:1:0:0:
300,202,56720,1,10,0:2:0:0:
371,378,56911,6,0,P|331:368|291:361,1,80.9999975280763,10|0,0:1|0:0,0:0:0:0:
113,243,57294,2,0,P|153:236|193:226,1,80.9999975280763,8|8,0:1|0:2,0:0:0:0:
322,81,57676,2,0,P|310:126|302:159,1,80.9999975280763,0|8,0:0|0:1,0:0:0:0:
276,277,58058,1,10,0:1:0:0:
276,277,58249,1,10,0:2:0:0:
133,159,58440,6,0,B|104:67|178:94|146:-3,1,161.999995056153,14|10,0:1|0:1,0:0:0:0:
212,128,59013,1,8,0:2:0:0:
2,30,59204,6,0,P|59:20|122:12,1,121.499996292114,10|0,0:1|0:0,0:0:0:0:
148,4,59587,1,10,0:1:0:0:
46,149,59778,1,10,0:2:0:0:
222,118,59969,6,0,P|261:125|300:135,1,80.9999975280763,10|0,0:1|0:0,0:0:0:0:
206,231,60351,1,10,0:1:0:0:
393,144,60542,1,10,0:2:0:0:
358,306,60733,6,0,P|348:345|340:385,1,80.9999975280763,10|0,0:1|0:0,0:0:0:0:
452,307,61115,1,10,0:1:0:0:
305,226,61306,1,10,0:2:0:0:
216,384,61497,6,0,P|208:307|198:222,1,161.999995056153,14|10,0:1|0:1,0:0:0:0:
31,94,62071,1,10,0:2:0:0:
198,119,62262,2,0,P|150:137|113:154,1,80.9999975280763,2|8,0:2|0:1,0:0:0:0:
21,204,62644,1,10,0:1:0:0:
127,46,62835,1,8,0:2:0:0:
198,222,63026,6,0,P|292:264|361:223,1,161.999995056153,14|10,0:1|0:1,0:0:0:0:
427,184,63599,1,14,0:2:0:0:
427,184,63981,5,10,0:2:0:0:
418,283,64173,1,10,0:1:0:0:
408,383,64364,1,10,0:2:0:0:
231,291,64555,6,0,B|146:285|164:333|74:317,1,161.999995056153,14|10,0:1|0:1,0:0:0:0:
54,303,65032,1,2,0:0:0:0:
54,303,65128,2,0,P|59:262|64:222,1,80.9999975280763,10|0,0:2|0:0,0:0:0:0:
172,101,65510,1,10,0:1:0:0:
0,19,65701,1,10,0:1:0:0:
76,134,65892,1,10,0:2:0:0:
225,31,66083,6,0,P|302:16|364:64,1,161.999995056153,10|8,0:1|0:1,0:0:0:0:
456,201,66657,2,0,P|462:141|469:106,1,80.9999975280763,8|2,0:2|0:0,0:0:0:0:
474,102,66943,1,2,0:0:0:0:
474,102,67039,1,10,0:1:0:0:
294,167,67230,1,10,0:1:0:0:
364,64,67421,1,10,0:2:0:0:
512,273,67612,6,0,P|434:287|372:239,1,161.999995056153,10|8,0:1|0:1,0:0:0:0:
216,115,68185,2,0,P|210:150|204:195,1,80.9999975280763,10|2,0:2|0:2,0:0:0:0:
205,221,68472,1,2,0:0:0:0:
205,221,68567,1,10,0:1:0:0:
314,164,68759,1,10,0:1:0:0:
259,318,68950,1,10,0:2:0:0:
95,270,69141,6,0,P|55:260|16:252,1,80.9999975280763,10|0,0:1|0:0,0:0:0:0:
275,320,69523,2,0,P|314:310|353:302,1,80.9999975280763,8|8,0:1|0:2,0:0:0:0:
187,384,69905,2,0,P|180:343|174:303,1,80.9999975280763,0|8,0:0|0:1,0:0:0:0:
215,185,70287,1,10,0:1:0:0:
215,185,70478,1,8,0:2:0:0:
6,74,70669,6,0,P|47:115|149:97,1,161.999995056153,14|10,0:1|0:1,0:0:0:0:
86,41,71243,1,8,0:2:0:0:
215,185,71434,6,0,P|221:136|236:56,1,121.499996292114,10|0,0:1|0:0,0:0:0:0:
243,39,71816,1,10,0:1:0:0:
392,170,72007,1,10,0:2:0:0:
346,10,72198,6,0,P|337:49|330:89,1,80.9999975280763,14|0,0:1|0:0,0:0:0:0:
297,217,72580,1,10,0:1:0:0:
463,116,72771,1,10,0:2:0:0:
472,300,72962,6,0,P|409:277|377:270,1,80.9999975280763,10|0,0:1|0:0,0:0:0:0:
220,355,73345,1,10,0:1:0:0:
332,370,73536,1,10,0:2:0:0:
153,259,73727,6,0,P|123:201|163:108,1,161.999995056153,14|10,0:1|0:1,0:0:0:0:
299,144,74300,1,10,0:2:0:0:
249,0,74491,2,0,P|231:72|225:108,1,80.9999975280763,14|0,0:1|0:0,0:0:0:0:
373,190,74873,2,0,P|412:179|451:170,1,80.9999975280763,10|8,0:1|0:2,0:0:0:0:
223,83,75255,6,0,B|131:68|165:124|67:103,1,161.999995056153,14|10,0:1|0:1,0:0:0:0:
220,172,75829,1,10,0:2:0:0:
101,19,76020,1,14,0:1:0:0:
21,180,76211,1,2,0:2:0:0:
154,114,76402,1,10,0:1:0:0:
154,114,76497,1,8,0:1:0:0:
154,114,76593,1,8,0:2:0:0:
286,316,76784,6,0,P|296:235|309:155,1,161.999995056153,14|10,0:1|0:1,0:0:0:0:
378,18,77357,1,10,0:2:0:0:
246,88,77548,1,14,0:1:0:0:
451,230,77739,1,2,0:2:0:0:
400,100,77931,6,0,L|389:159,1,40.4999987640381,10|8,0:1|0:1,0:0:0:0:
366,281,78122,1,8,0:2:0:0:
202,172,78313,6,0,P|132:180|66:190,1,121.499996292114,10|0,0:1|0:0,0:0:0:0:
60,170,78695,2,0,L|71:111,1,40.4999987640381,8|0,0:1|0:0,0:0:0:0:
79,57,78886,1,10,0:2:0:0:
210,182,79077,1,10,0:1:0:0:
325,0,79268,5,2,0:2:0:0:
164,106,79459,1,10,0:1:0:0:
414,185,79650,1,10,0:2:0:0:
414,185,79746,1,10,0:2:0:0:
414,185,79843,1,10,0:3:0:0:
311,89,80037,6,0,P|303:128|298:169,1,80.9999975280763,14|2,0:1|0:2,0:0:0:0:
152,271,80419,1,10,0:2:0:0:
267,362,80610,1,10,0:1:0:0:
267,362,80705,1,2,0:0:0:0:
267,362,80801,2,0,P|254:293|245:261,1,80.9999975280763,8|10,0:2|0:1,0:0:0:0:
18,154,81183,2,0,P|72:192|141:176,1,121.499996292114,14|0,0:2|0:0,0:0:0:0:
146,168,81565,6,0,P|154:123|163:88,1,80.9999975280763,8|8,0:2|0:1,0:0:0:0:
17,269,81947,2,0,P|9:314|-1:348,1,80.9999975280763,8|8,0:2|0:1,0:0:0:0:
155,278,82329,1,10,0:2:0:0:
18,154,82521,1,10,0:1:0:0:
165,286,82712,2,0,P|204:279|245:274,1,80.9999975280763,10|8,0:2|0:1,0:0:0:0:
476,330,83094,5,14,0:2:0:0:
319,226,83285,1,2,0:2:0:0:
426,164,83476,1,10,0:2:0:0:
366,377,83667,2,0,P|374:337|384:298,1,80.9999975280763,10|8,0:1|0:2,0:0:0:0:
486,234,84049,1,10,0:1:0:0:
286,145,84240,6,0,P|258:72|303:-1,1,161.999995056153,14|8,0:2|0:2,0:0:0:0:
199,182,84814,1,8,0:3:0:0:
355,87,85005,1,8,0:2:0:0:
355,87,85100,1,8,0:2:0:0:
355,87,85196,1,4,0:3:0:0:
157,82,85387,5,10,0:2:0:0:
402,174,85578,1,10,0:1:0:0:
182,276,85966,6,0,P|120:285|58:293,1,125.999996154785,14|2,0:1|0:2,0:0:0:0:
0,205,86539,2,0,P|32:209|63:212,1,62.9999980773926,10|2,0:0|0:2,0:0:0:0:
117,154,86921,1,10,0:2:0:0:
190,288,87112,6,0,P|185:319|182:350,1,62.9999980773926,10|10,0:1|0:2,0:0:0:0:
270,384,87494,2,0,P|277:321|285:257,1,125.999996154785,10|2,0:1|0:2,0:0:0:0:
271,175,88067,1,10,0:2:0:0:
271,175,88258,2,0,P|327:188|348:198,1,62.9999980773926,2|8,0:2|0:2,0:0:0:0:
457,221,88641,5,10,0:1:0:0:
509,133,88832,1,10,0:2:0:0:
464,48,89023,2,0,P|401:59|339:70,1,125.999996154785,10|2,0:1|0:2,0:0:0:0:
252,77,89596,1,10,0:2:0:0:
252,77,89787,2,0,P|260:46|268:16,1,62.9999980773926,2|8,0:2|0:2,0:0:0:0:
362,154,90169,6,0,P|354:184|346:214,1,62.9999980773926,10|8,0:1|0:2,0:0:0:0:
422,353,90552,2,0,P|372:314|305:334,1,125.999996154785,10|2,0:1|0:2,0:0:0:0:
239,366,91125,1,8,0:2:0:0:
231,253,91316,2,0,P|237:222|245:191,1,62.9999980773926,10|8,0:1|0:2,0:0:0:0:
140,280,91698,1,2,0:2:0:0:
140,280,91889,1,10,0:2:0:0:
65,217,92080,6,0,P|74:154|86:92,1,125.999996154785,10|2,0:1|0:2,0:0:0:0:
41,17,92654,1,10,0:2:0:0:
41,17,92845,2,0,P|71:10|103:6,1,62.9999980773926,2|8,0:2|0:2,0:0:0:0:
206,77,93227,5,10,0:1:0:0:
301,112,93418,1,10,0:2:0:0:
380,43,93609,2,0,P|404:100|392:161,1,125.999996154785,10|2,0:1|0:2,0:0:0:0:
452,252,94182,1,10,0:2:0:0:
452,252,94373,2,0,P|506:237|529:233,1,62.9999980773926,2|8,0:2|0:2,0:0:0:0:
314,195,94755,6,0,P|283:201|253:211,1,62.9999980773926,8|8,0:1|0:2,0:0:0:0:
178,152,95138,2,0,P|185:89|195:27,1,125.999996154785,10|2,0:1|0:2,0:0:0:0:
266,0,95711,1,10,0:2:0:0:
314,195,95902,6,0,P|305:251|296:319,1,125.999996154785,10|2,0:1|0:2,0:0:0:0:
357,369,96475,1,10,0:2:0:0:
210,272,96666,6,0,P|150:285|69:309,1,125.999996154785,10|2,0:1|0:2,0:0:0:0:
24,342,97240,1,10,0:2:0:0:
140,239,97431,1,10,0:1:0:0:
274,384,97622,2,0,P|287:337|292:311,1,62.9999980773926,8|8,0:2|0:1,0:0:0:0:
287,302,97908,1,8,0:1:0:0:
287,302,98004,1,8,0:2:0:0:
457,121,98386,6,0,L|515:112,2,53.9999983520508,2|2|2,0:2|0:2|0:2,0:0:0:0:
381,134,98959,1,2,0:2:0:0:
381,134,99341,1,0,0:0:0:0:
310,97,99532,2,0,P|304:123|300:150,1,53.9999983520508
286,288,99915,6,0,L|344:297,2,53.9999983520508,2|2|2,0:2|0:2|0:2,0:0:0:0:
210,275,100488,1,2,0:2:0:0:
210,275,100870,1,0,0:0:0:0:
139,312,101061,2,0,P|133:285|129:258,1,53.9999983520508,0|2,0:0|0:2,0:0:0:0:
35,112,101443,6,0,P|42:86|50:59,2,53.9999983520508,2|2|2,0:2|0:2|0:2,0:0:0:0:
97,175,102017,1,2,0:2:0:0:
97,175,102399,1,0,0:0:0:0:
177,142,102590,2,0,L|231:134,1,53.9999983520508
323,237,102972,6,0,P|350:243|375:249,2,53.9999983520508,2|2|2,0:2|0:2|0:2,0:0:0:0:
244,219,103545,1,2,0:2:0:0:
354,90,103736,5,8,0:2:0:0:
366,169,103927,1,10,0:1:0:0:
375,249,104118,1,10,0:2:0:0:
279,139,104309,6,0,P|267:65|315:14,1,144,14|10,0:1|0:1,0:0:0:0:
366,169,104883,1,10,0:2:0:0:
497,85,105074,2,0,P|461:90|426:97,1,72,2|8,0:2|0:1,0:0:0:0:
294,226,105456,2,0,P|258:219|223:213,1,72,10|8,0:1|0:2,0:0:0:0:
46,148,105838,6,0,P|107:104|172:127,1,144,14|10,0:1|0:1,0:0:0:0:
18,238,106411,1,10,0:2:0:0:
106,315,106602,1,6,0:3:0:0:
106,315,106698,1,8,0:3:0:0:
106,315,106793,2,0,P|120:265|128:234,1,72,4|8,0:3|0:1,0:0:0:0:
65,78,107176,2,0,P|51:128|43:159,1,72,8|0,0:2|0:0,0:0:0:0:
235,213,107558,6,0,P|313:199|383:190,1,144,14|10,0:1|0:2,0:0:0:0:
142,44,108131,2,0,P|64:30|-6:21,1,144,14|10,0:1|0:1,0:0:0:0:
167,123,108704,1,10,0:2:0:0:
252,1,108895,6,0,P|258:34|263:72,1,72,14|0,0:1|0:0,0:0:0:0:
229,217,109278,1,8,0:3:0:0:
372,111,109469,1,10,0:2:0:0:
166,122,109660,6,0,P|132:132|98:143,1,72,10|0,0:1|0:0,0:0:0:0:
297,280,110042,2,0,P|331:269|366:259,1,72,10|8,0:1|0:2,0:0:0:0:
145,217,110424,2,0,P|104:274|114:344,1,144,14|8,0:1|0:1,0:0:0:0:
191,381,110997,5,14,0:2:0:0:
191,381,111379,5,10,0:1:0:0:
346,342,111571,1,8,0:2:0:0:
178,384,111762,1,10,0:2:0:0:
275,176,111953,6,0,B|305:87|239:110|265:16,1,161.999995056153,14|8,0:1|0:1,0:0:0:0:
193,139,112525,1,8,0:2:0:0:
346,46,112716,2,0,P|385:54|424:66,1,80.9999975280763,2|8,0:2|0:1,0:0:0:0:
177,150,113098,2,0,P|137:141|98:129,1,80.9999975280763,10|10,0:1|0:2,0:0:0:0:
368,137,113480,6,0,P|348:215|334:295,1,161.999995056153,10|8,0:1|0:1,0:0:0:0:
229,384,114055,2,0,P|224:343|217:303,1,80.9999975280763,8|0,0:2|0:0,0:0:0:0:
177,150,114436,1,10,0:1:0:0:
123,298,114627,1,10,0:1:0:0:
267,229,114818,1,10,0:2:0:0:
368,371,115009,6,0,P|467:368|502:285,1,161.999995056153,10|8,0:1|0:1,0:0:0:0:
349,194,115582,1,10,0:2:0:0:
471,116,115773,1,2,0:2:0:0:
471,116,115869,1,2,0:0:0:0:
471,116,115964,2,0,P|451:183|445:228,1,80.9999975280763,10|10,0:1|0:1,0:0:0:0:
422,297,116348,1,10,0:2:0:0:
267,229,116539,6,0,P|226:235|188:246,1,80.9999975280763,10|0,0:1|0:0,0:0:0:0:
312,379,116921,2,0,P|323:340|329:300,1,80.9999975280763,8|8,0:1|0:2,0:0:0:0:
151,106,117303,2,0,P|139:144|133:184,1,80.9999975280763,0|8,0:0|0:1,0:0:0:0:
217,328,117684,1,10,0:1:0:0:
217,328,117875,1,10,0:2:0:0:
376,217,118066,6,0,P|453:204|512:256,1,161.999995056153,14|10,0:1|0:1,0:0:0:0:
431,285,118641,1,10,0:0:0:0:
300,136,118832,6,0,P|289:194|276:266,1,121.499996292114,10|0,0:1|0:0,0:0:0:0:
274,280,119213,1,10,0:1:0:0:
184,224,119404,1,10,0:0:0:0:
122,384,119595,6,0,P|118:343|111:303,1,80.9999975280763,10|0,0:1|0:0,0:0:0:0:
134,148,119977,1,10,0:1:0:0:
35,230,120168,1,10,0:0:0:0:
274,280,120359,6,0,P|313:269|354:259,1,80.9999975280763,14|0,0:1|0:0,0:0:0:0:
212,353,120741,1,10,0:1:0:0:
287,192,120934,1,10,0:0:0:0:
430,354,121125,6,0,P|439:275|450:193,1,161.999995056153,14|10,0:1|0:1,0:0:0:0:
307,2,121668,1,10,0:0:0:0:
257,111,121861,2,0,P|305:93|342:76,1,80.9999975280763,2|8,0:2|0:1,0:0:0:0:
454,35,122248,1,10,0:1:0:0:
332,192,122442,1,8,0:2:0:0:
183,40,122635,6,0,P|225:106|205:183,1,161.999995056153,14|10,0:1|0:1,0:0:0:0:
140,245,123224,1,14,0:2:0:0:
140,245,123606,5,10,0:2:0:0:
291,293,123797,1,10,0:1:0:0:
129,240,123988,1,10,0:2:0:0:
328,370,124179,6,0,B|309:282|374:310|346:201,1,161.999995056153,14|10,0:1|0:1,0:0:0:0:
327,191,124656,1,2,0:0:0:0:
327,191,124752,2,0,P|322:150|317:110,1,80.9999975280763,10|0,0:2|0:0,0:0:0:0:
433,244,125134,1,10,0:1:0:0:
243,157,125325,1,10,0:1:0:0:
382,52,125516,1,10,0:2:0:0:
227,170,125707,6,0,B|136:157|165:215|68:195,1,161.999995056153,10|8,0:1|0:1,0:0:0:0:
251,277,126280,2,0,P|304:281|347:289,1,80.9999975280763,8|2,0:2|0:0,0:0:0:0:
353,292,126567,1,2,0:0:0:0:
353,292,126662,1,10,0:1:0:0:
233,369,126854,1,10,0:1:0:0:
158,216,127045,1,10,0:2:0:0:
46,378,127236,6,0,P|-8:313|16:230,1,161.999995056153,10|8,0:1|0:1,0:0:0:0:
139,139,127809,1,10,0:2:0:0:
20,50,128000,1,2,0:2:0:0:
71,188,128191,1,10,0:1:0:0:
231,137,128382,1,10,0:1:0:0:
231,137,128478,1,8,0:1:0:0:
231,137,128573,1,10,0:2:0:0:
301,251,128764,6,0,P|290:314|284:349,1,80.9999975280763,10|0,0:1|0:0,0:0:0:0:
148,227,129147,2,0,P|187:220|227:213,1,80.9999975280763,8|8,0:1|0:2,0:0:0:0:
438,358,129529,2,0,P|398:364|358:371,1,80.9999975280763,0|8,0:0|0:1,0:0:0:0:
305,254,129911,1,10,0:1:0:0:
305,254,130102,1,10,0:2:0:0:
124,383,130293,6,0,B|111:295|165:319|146:221,1,161.999995056153,14|10,0:1|0:1,0:0:0:0:
206,360,130866,1,8,0:2:0:0:
66,260,131057,6,0,P|57:201|92:152,1,121.499996292114,10|0,0:1|0:0,0:0:0:0:
111,143,131440,1,10,0:1:0:0:
258,206,131631,1,10,0:2:0:0:
230,48,131822,6,0,P|213:106|206:137,1,80.9999975280763,14|0,0:1|0:0,0:0:0:0:
166,223,132204,1,10,0:1:0:0:
105,129,132395,1,10,0:2:0:0:
269,203,132586,6,0,P|308:195|348:188,1,80.9999975280763,10|0,0:1|0:0,0:0:0:0:
509,153,132968,1,10,0:1:0:0:
360,92,133159,1,10,0:2:0:0:
419,308,133350,6,0,B|388:225|457:239|423:148,1,161.999995056153,14|10,0:1|0:1,0:0:0:0:
304,32,133924,1,10,0:2:0:0:
512,36,134115,2,0,P|454:50|427:60,1,80.9999975280763,14|0,0:1|0:0,0:0:0:0:
270,167,134497,2,0,P|308:179|348:188,1,80.9999975280763,10|8,0:1|0:2,0:0:0:0:
512,336,134879,6,0,P|455:281|377:289,1,161.999995056153,14|10,0:1|0:1,0:0:0:0:
229,381,135452,1,10,0:2:0:0:
150,195,135643,1,14,0:1:0:0:
293,296,135834,1,2,0:2:0:0:
124,384,136026,1,10,0:1:0:0:
124,384,136121,1,8,0:1:0:0:
124,384,136217,1,8,0:2:0:0:
15,201,136408,6,0,P|30:119|44:41,1,161.999995056153,14|10,0:1|0:1,0:0:0:0:
198,134,136981,1,10,0:2:0:0:
156,7,137172,1,14,0:1:0:0:
29,194,137363,1,2,0:2:0:0:
253,148,137554,6,0,L|193:136,1,40.4999987640381,10|8,0:1|0:1,0:0:0:0:
115,123,137745,1,8,0:2:0:0:
295,248,137936,6,0,P|356:235|413:223,1,121.499996292114,10|0,0:1|0:0,0:0:0:0:
433,229,138319,2,0,L|446:168,1,40.4999987640381,8|0,0:1|0:0,0:0:0:0:
458,112,138510,1,10,0:2:0:0:
512,272,138701,1,10,0:1:0:0:
349,147,138892,5,2,0:2:0:0:
484,15,139083,1,10,0:1:0:0:
441,189,139274,1,10,0:2:0:0:
435,218,139370,1,8,0:2:0:0:
429,248,139465,1,10,0:2:0:0:
423,278,139561,1,8,0:2:0:0:
418,308,139656,6,0,P|379:296|339:289,1,80.9999975280763,14|2,0:1|0:2,0:0:0:0:
204,217,140038,1,10,0:2:0:0:
239,384,140229,2,0,P|254:325|259:289,1,80.9999975280763,10|8,0:1|0:2,0:0:0:0:
164,134,140612,1,8,0:1:0:0:
164,134,140707,1,8,0:1:0:0:
164,134,140803,1,14,0:2:0:0:
291,212,140994,1,2,0:2:0:0:
142,281,141185,1,10,0:2:0:0:
52,59,141376,6,0,P|42:96|33:137,1,80.9999975280763,14|8,0:1|0:2,0:0:0:0:
128,370,141758,2,0,P|138:333|147:291,1,80.9999975280763,14|0,0:1|0:0,0:0:0:0:
6,234,142140,6,0,P|77:220|174:197,1,161.999995056153,14|8,0:1|0:2,0:0:0:0:
194,182,142601,1,8,0:2:0:0:
194,182,142710,6,0,B|189:88|248:131|226:9,2,161.999995056153,14|8|8,0:1|0:2|0:1,0:0:0:0:
360,279,143665,1,10,0:1:0:0:
289,166,143856,1,10,0:2:0:0:
133,321,144047,2,0,P|190:274|289:306,1,161.999995056153,14|8,0:1|0:1,0:0:0:0:
425,347,144620,2,0,P|392:370|353:373,1,80.9999975280763,8|0,0:2|0:0,0:0:0:0:
332,365,144907,1,8,0:2:0:0:
332,365,145002,1,10,0:1:0:0:
474,249,145194,1,10,0:1:0:0:
300,149,145385,1,10,0:2:0:0:
362,266,145576,6,0,P|371:227|383:189,1,80.9999975280763,14|0,0:1|0:0,0:0:0:0:
272,51,145958,1,10,0:1:0:0:
212,190,146149,1,8,0:2:0:0:
87,118,146340,1,2,0:2:0:0:
87,118,146436,1,8,0:2:0:0:
87,118,146531,2,0,P|155:104|199:91,1,80.9999975280763,8|10,0:1|0:1,0:0:0:0:
300,149,146913,1,8,0:2:0:0:
168,330,147104,6,0,P|159:291|148:251,1,80.9999975280763,14|0,0:1|0:0,0:0:0:0:
272,51,147487,2,0,P|281:90|291:129,1,80.9999975280763,10|8,0:1|0:2,0:0:0:0:
400,236,147869,2,0,B|315:203|330:281|229:235,1,161.999995056153,14|10,0:1|0:3,0:0:0:0:
177,147,148442,1,8,0:2:0:0:
177,147,148633,1,8,0:2:0:0:
31,274,148824,6,0,P|-8:206|16:131,1,161.999995056153,14|8,0:1|0:2,0:0:0:0:
149,26,149397,1,2,0:2:0:0:
6,21,149588,2,0,P|50:44|80:74,1,80.9999975280763,10|10,0:1|0:1,0:0:0:0:
148,122,149971,1,10,0:2:0:0:
316,0,150162,6,0,P|256:43|263:141,1,161.999995056153,10|8,0:1|0:1,0:0:0:0:
300,256,150735,1,8,0:2:0:0:
138,227,150926,1,2,0:2:0:0:
138,227,151022,1,2,0:0:0:0:
138,227,151117,2,0,P|203:208|229:200,1,80.9999975280763,10|10,0:1|0:1,0:0:0:0:
343,110,151499,1,10,0:2:0:0:
511,276,151690,6,0,B|421:257|449:325|353:306,1,161.999995056153,14|8,0:1|0:1,0:0:0:0:
468,364,152264,1,8,0:2:0:0:
281,260,152455,1,2,0:2:0:0:
281,260,152550,1,2,0:0:0:0:
281,260,152646,2,0,P|274:310|279:346,1,80.9999975280763,10|10,0:1|0:1,0:0:0:0:
379,220,153028,1,10,0:2:0:0:
182,282,153219,6,0,P|149:277|103:262,1,80.9999975280763,14|0,0:1|0:0,0:0:0:0:
11,139,153601,1,10,0:1:0:0:
119,184,153792,1,8,0:2:0:0:
24,328,153983,2,0,P|17:288|4:249,1,80.9999975280763,10|8,0:1|0:2,0:0:0:0:
92,97,154366,1,10,0:1:0:0:
223,214,154557,1,8,0:2:0:0:
223,214,154652,1,8,0:2:0:0:
223,214,154748,1,8,0:3:0:0:
223,214,154843,1,8,0:3:0:0:
223,214,154939,6,0,B|316:206|281:273|387:250,1,161.999995056153,14|8,0:1|0:2,0:0:0:0:
498,170,155512,1,10,0:1:0:0:
498,170,155608,1,10,0:1:0:0:
498,170,155703,2,0,P|435:151|413:140,1,80.9999975280763,10|10,0:2|0:1,0:0:0:0:
273,75,156085,1,10,0:2:0:0:
390,22,156276,1,10,0:1:0:0:
333,147,156467,6,0,P|310:212|305:240,1,80.9999975280763,8|8,0:2|0:1,0:0:0:0:
159,113,156850,2,0,P|169:73|184:36,1,80.9999975280763,8|10,0:2|0:1,0:0:0:0:
201,20,157136,1,10,0:1:0:0:
201,20,157232,1,10,0:2:0:0:
244,148,157423,1,10,0:1:0:0:
87,200,157614,2,0,P|60:155|66:117,1,80.9999975280763,10|8,0:2|0:2,0:0:0:0:
73,111,157901,1,8,0:2:0:0:
73,111,157996,6,0,P|54:197|44:280,1,161.999995056153,14|8,0:1|0:2,0:0:0:0:
213,384,158569,2,0,P|223:303|241:224,1,161.999995056153,14|8,0:1|0:3,0:0:0:0:
128,280,159143,1,8,0:2:0:0:
273,141,159334,6,0,P|335:222|310:281,1,161.999995056153,14|8,0:1|0:1,0:0:0:0:
301,293,159811,1,8,0:1:0:0:
301,293,159907,1,8,0:2:0:0:
182,168,160098,6,0,B|167:80|224:108|203:10,1,161.999995056153,14|8,0:1|0:3,0:0:0:0:
103,82,160671,2,0,L|16:104,1,80.9999975280763,4|8,0:3|0:3,0:0:0:0:
264,142,161053,6,0,P|337:122|396:110,1,125.999996154785,14|8,0:1|0:2,0:0:0:0:
488,34,161627,1,10,0:1:0:0:
475,113,161818,2,0,P|470:140|465:175,2,62.9999980773926,10|2|10,0:1|0:2|0:2,0:0:0:0:
374,31,162391,6,0,P|312:44|251:61,1,125.999996154785,10|8,0:1|0:1,0:0:0:0:
181,25,162964,1,8,0:2:0:0:
82,95,163155,2,0,P|30:86|9:85,2,62.9999980773926,10|10|2,0:1|0:1|0:2,0:0:0:0:
150,134,163729,1,10,0:2:0:0:
0,228,163920,6,0,P|41:198|117:222,1,125.999996154785,10|0,0:1|0:0,0:0:0:0:
169,266,164493,1,8,0:2:0:0:
252,225,164684,2,0,P|247:193|242:162,2,62.9999980773926,10|8|2,0:1|0:1|0:2,0:0:0:0:
266,317,165257,1,10,0:2:0:0:
182,104,165448,6,0,P|142:109|103:118,1,80.9999975280763,10|0,0:1|0:0,0:0:0:0:
333,185,165831,2,0,P|372:194|413:199,1,80.9999975280763,10|8,0:1|0:2,0:0:0:0:
304,10,166213,2,0,P|288:47|279:86,1,80.9999975280763,10|0,0:1|0:0,0:0:0:0:
247,168,166595,1,10,0:1:0:0:
48,48,166786,5,8,0:2:0:0:
48,48,166881,1,8,0:3:0:0:
48,48,166977,1,6,0:3:0:0:
48,48,167073,1,8,0:3:0:0:
48,48,167168,2,0,P|14:109|34:176,1,144,12|0,0:1|0:0,0:0:0:0:
123,234,167741,1,10,0:1:0:0:
0,301,167932,2,0,B|84:286|55:347|145:329,2,144,8|0|0,0:2|0:0|0:0,0:0:0:0:
143,344,168888,1,8,0:2:0:0:
222,292,169079,2,0,P|230:327|232:362,1,72,8|8,0:1|0:1,0:0:0:0:
123,234,169461,6,0,P|114:198|112:163,1,72,10|10,0:2|0:1,0:0:0:0:
121,136,169748,1,2,0:0:0:0:
121,136,169843,2,0,P|183:123|207:116,1,72,2|10,0:2|0:1,0:0:0:0:
287,14,170225,6,0,B|258:99|310:68|273:168,1,144,12|0,0:1|0:0,0:0:0:0:
372,85,170799,1,8,0:1:0:0:
228,231,170990,2,0,P|286:193|352:216,1,144,8|0,0:2|0:0,0:0:0:0:
351,215,171563,1,8,0:1:0:0:
472,169,171754,6,0,P|465:198|459:239,1,72,10|10,0:1|0:3,0:0:0:0:
460,268,172041,1,8,0:3:0:0:
460,268,172136,1,10,0:2:0:0:
283,321,172327,1,10,0:3:0:0:
283,321,172423,1,8,0:3:0:0:
283,321,172518,1,10,0:2:0:0:
397,348,172709,1,4,0:3:0:0:
350,236,172901,1,8,0:3:0:0:
144,372,173092,6,0,P|157:296|169:230,1,144,14|10,0:1|0:1,0:0:0:0:
240,82,173665,1,10,0:2:0:0:
73,162,173856,2,0,P|128:155|163:146,1,72,14|0,0:1|0:0,0:0:0:0:
336,77,174238,1,10,0:1:0:0:
197,0,174429,1,10,0:2:0:0:
302,160,174620,6,0,P|361:152|415:145,1,108,14|0,0:1|0:0,0:0:0:0:
420,151,175002,1,10,0:1:0:0:
300,258,175194,1,10,0:2:0:0:
493,384,175385,2,0,P|528:326|504:244,1,144,14|8,0:1|0:3,0:0:0:0:
502,240,175862,1,8,0:3:0:0:
502,240,175958,1,8,0:2:0:0:
174,384,176149,1,8,0:1:0:0:
415,304,176531,5,10,0:2:0:0:
221,260,176722,2,0,P|182:249|142:240,1,80.9999975280763,10|10,0:2|0:1,0:0:0:0:
300,258,177104,5,10,0:2:0:0:
120,315,177295,2,0,P|80:323|41:334,1,80.9999975280763,10|8,0:2|0:1,0:0:0:0:
229,165,177678,6,0,P|250:62|210:12,1,161.999995056153,10|8,0:1|0:1,0:0:0:0:
166,94,178251,1,10,0:2:0:0:
484,37,179226,5,6,0:2:0:0:
234,44,183982,5,8,0:2:0:0:
270,138,184173,1,8,0:2:0:0:
270,138,184268,1,8,0:2:0:0:
270,138,184364,1,4,0:3:0:0:
151,86,184555,6,0,P|100:75|61:66,1,80.9999975280763,10|0,0:1|0:0,0:0:0:0:
361,127,184937,2,0,P|412:116|451:107,1,80.9999975280763,10|2,0:1|0:2,0:0:0:0:
257,228,185319,6,0,P|239:319|231:380,1,144,14|2,0:1|0:2,0:0:0:0:
330,307,185892,1,8,0:1:0:0:
330,307,186083,2,0,B|365:301|401:297,1,72,2|8,0:2|0:1,0:0:0:0:
498,365,186466,2,0,B|462:368|426:374,1,72,2|10,0:2|0:1,0:0:0:0:
350,223,186848,6,0,P|336:154|374:95,1,144,2|2,0:2|0:2,0:0:0:0:
493,189,187421,1,10,0:1:0:0:
493,189,187612,2,0,P|458:183|423:171,1,72,2|8,0:2|0:1,0:0:0:0:
379,100,187994,1,2,0:2:0:0:
379,100,188185,1,10,0:1:0:0:
270,240,188376,5,14,0:2:0:0:
270,240,188759,5,10,0:2:0:0:
154,211,188950,1,10,0:2:0:0:
38,182,189141,1,10,0:2:0:0:
176,130,189332,1,8,0:2:0:0:
135,292,189523,1,10,0:2:0:0:
3,97,189714,1,8,0:2:0:0:
183,215,189905,6,0,P|253:200|350:183,1,161.999995056153,14|10,0:1|0:1,0:0:0:0:
447,141,190462,2,0,L|436:221,1,80.9999975280763,14|0,0:2|0:0,0:0:0:0:
371,382,190854,5,10,0:2:0:0:
356,283,191050,1,10,0:1:0:0:
342,184,191246,1,10,0:2:0:0:
512,50,191456,6,0,P|451:94|364:77,1,161.999995056153,14|10,0:1|0:1,0:0:0:0:
348,60,191933,1,2,0:0:0:0:
348,60,192029,2,0,P|291:76|261:91,1,80.9999975280763,14|0,0:2|0:0,0:0:0:0:
100,152,192411,1,10,0:1:0:0:
276,189,192602,1,10,0:1:0:0:
179,69,192793,1,10,0:2:0:0:
62,238,192984,6,0,P|13:175|28:98,1,161.999995056153,10|8,0:1|0:1,0:0:0:0:
198,153,193557,2,0,P|190:193|184:233,1,80.9999975280763,8|2,0:2|0:0,0:0:0:0:
188,261,193844,1,2,0:0:0:0:
188,261,193939,1,8,0:1:0:0:
100,152,194131,1,10,0:1:0:0:
37,322,194322,1,10,0:2:0:0:
287,275,194513,6,0,P|363:257|460:244,1,161.999995056153,10|8,0:1|0:1,0:0:0:0:
372,66,195087,2,0,P|366:101|360:146,1,80.9999975280763,10|2,0:2|0:2,0:0:0:0:
362,172,195373,1,2,0:0:0:0:
362,172,195469,1,10,0:1:0:0:
482,86,195660,1,10,0:1:0:0:
272,124,195851,1,10,0:2:0:0:
446,245,196017,6,0,P|456:205|464:166,1,80.9999975280763,10|0,0:1|0:0,0:0:0:0:
290,45,196399,2,0,P|280:84|272:123,1,80.9999975280763,8|8,0:1|0:2,0:0:0:0:
329,327,196781,2,0,P|339:287|347:248,1,80.9999975280763,0|8,0:0|0:1,0:0:0:0:
387,112,197163,1,10,0:1:0:0:
387,112,197354,1,8,0:2:0:0:
485,368,197565,6,0,P|444:327|342:345,1,161.999995056153,14|10,0:1|0:1,0:0:0:0:
281,384,198138,1,8,0:2:0:0:
135,291,198329,6,0,P|141:242|156:162,1,121.499996292114,10|0,0:1|0:0,0:0:0:0:
163,145,198711,1,10,0:1:0:0:
54,233,198902,1,10,0:2:0:0:
241,230,199093,6,0,P|280:221|320:214,1,80.9999975280763,14|0,0:1|0:0,0:0:0:0:
428,246,199475,1,10,0:1:0:0:
342,123,199666,1,10,0:2:0:0:
299,305,199857,6,0,P|282:370|279:402,1,80.9999975280763,14|0,0:1|0:0,0:0:0:0:
241,230,200240,1,10,0:1:0:0:
381,339,200431,1,10,0:2:0:0:
501,201,200622,6,0,P|509:115|461:53,1,161.999995056153,14|10,0:1|0:1,0:0:0:0:
299,144,201195,1,10,0:2:0:0:
359,0,201386,2,0,P|377:72|383:108,1,80.9999975280763,14|0,0:1|0:0,0:0:0:0:
230,209,201768,2,0,P|219:170|210:131,1,80.9999975280763,10|8,0:1|0:2,0:0:0:0:
101,19,202150,6,0,B|193:4|159:60|257:39,1,161.999995056153,14|10,0:1|0:1,0:0:0:0:
433,141,202724,1,10,0:2:0:0:
246,215,202915,1,14,0:1:0:0:
313,116,203106,1,2,0:2:0:0:
456,229,203297,1,10,0:1:0:0:
456,229,203392,1,8,0:1:0:0:
456,229,203488,1,8,0:2:0:0:
368,38,203679,6,0,P|355:117|345:198,1,161.999995056153,14|10,0:1|0:1,0:0:0:0:
209,334,204252,1,10,0:2:0:0:
431,382,204443,1,14,0:1:0:0:
389,277,204634,1,2,0:2:0:0:
313,384,204826,6,0,L|302:325,1,40.4999987640381,10|8,0:1|0:1,0:0:0:0:
286,252,205017,1,8,0:2:0:0:
121,384,205208,6,0,P|113:314|103:248,1,121.499996292114,10|0,0:1|0:0,0:0:0:0:
119,241,205590,2,0,L|108:182,1,40.4999987640381,8|0,0:1|0:0,0:0:0:0:
94,119,205781,1,10,0:2:0:0:
26,258,205972,1,10,0:1:0:0:
211,315,206163,5,2,0:2:0:0:
10,164,206354,1,10,0:1:0:0:
208,79,206545,5,10,0:2:0:0:
204,98,206641,1,8,0:2:0:0:
200,118,206736,1,10,0:2:0:0:
196,138,206832,2,0,B|252:111|296:148|278:174|322:213|383:183,1,202.5,8|0,0:2|0:0,0:0:0:0:
498,239,207883,5,8,0:1:0:0:
498,239,207978,1,8,0:1:0:0:
498,239,208074,2,0,P|456:250|416:262,1,80.9999975280763,14|0,0:2|0:0,0:0:0:0:
287,295,208456,6,0,P|292:254|299:215,1,80.9999975280763,14|2,0:1|0:2,0:0:0:0:
412,278,208838,1,10,0:2:0:0:
445,67,209029,1,10,0:1:0:0:
445,67,209125,1,2,0:0:0:0:
445,67,209220,2,0,P|435:106|429:146,1,80.9999975280763,8|10,0:2|0:1,0:0:0:0:
299,214,209603,2,0,P|245:176|176:192,1,121.499996292114,14|0,0:2|0:0,0:0:0:0:
170,201,209955,6,0,P|130:210|90:217,1,80.9999975280763,8|8,0:2|0:1,0:0:0:0:
255,44,210337,2,0,P|300:52|334:62,1,80.9999975280763,8|8,0:2|0:1,0:0:0:0:
105,117,210719,1,10,0:2:0:0:
147,47,210910,1,10,0:1:0:0:
286,132,211101,2,0,P|293:171|298:212,1,80.9999975280763,10|8,0:2|0:1,0:0:0:0:
240,376,211483,5,14,0:2:0:0:
170,201,211674,1,2,0:2:0:0:
310,296,211865,1,10,0:2:0:0:
101,382,212056,2,0,P|63:367|14:352,1,80.9999975280763,2|8,0:2|0:2,0:0:0:0:
203,299,212439,1,10,0:1:0:0:
52,180,212630,6,0,P|23:99|59:36,1,161.999995056153,14|8,0:2|0:2,0:0:0:0:
221,103,213203,1,8,0:1:0:0:
157,10,213394,2,0,P|145:48|136:88,1,80.9999975280763,8|8,0:2|0:1,0:0:0:0:
264,191,213776,1,10,0:2:0:0:
264,191,213872,1,10,0:2:0:0:
264,191,213967,1,10,0:3:0:0:
90,258,214160,1,8,0:2:0:0:
90,258,214250,1,8,0:2:0:0:
90,258,214341,1,8,0:1:0:0:
135,88,214551,6,0,P|147:126|156:166,1,80.9999975280763,14|2,0:2|0:2,0:0:0:0:
186,291,214933,1,14,0:2:0:0:
342,210,215124,1,2,0:2:0:0:
342,210,215219,1,2,0:0:0:0:
342,210,215315,2,0,P|272:194|250:184,1,80.9999975280763,10|10,0:2|0:1,0:0:0:0:
67,344,215697,2,0,P|107:351|146:364,1,80.9999975280763,10|0,0:2|0:0,0:0:0:0:
381,384,216079,6,0,P|376:337|374:303,1,80.9999975280763,8|8,0:2|0:1,0:0:0:0:
249,118,216461,2,0,P|254:165|255:198,1,80.9999975280763,8|8,0:2|0:1,0:0:0:0:
280,299,216843,1,10,0:2:0:0:
430,223,217035,1,10,0:1:0:0:
264,308,217226,2,0,P|212:298|178:288,1,80.9999975280763,10|8,0:2|0:1,0:0:0:0:
27,175,217608,5,14,0:2:0:0:
187,102,217799,1,10,0:1:0:0:
46,31,217990,1,10,0:2:0:0:
114,144,218181,2,0,P|130:201|134:243,1,80.9999975280763,2|8,0:2|0:2,0:0:0:0:
220,30,218563,1,10,0:1:0:0:
276,162,218754,2,0,P|341:208|426:182,1,161.999995056153,14|8,0:2|0:2,0:0:0:0:
476,135,219328,1,8,0:3:0:0:
338,230,219519,1,8,0:2:0:0:
338,230,219614,1,8,0:3:0:0:
338,230,219710,1,4,0:3:0:0:
360,97,219901,5,10,0:2:0:0:
470,283,220092,1,10,0:1:0:0:
470,283,220474,6,0,B|382:271|408:339|312:315,1,161.999995056153,14|8,0:1|0:1,0:0:0:0:
254,272,221047,1,8,0:2:0:0:
83,384,221238,6,0,P|130:360|134:234,1,161.999995056153,14|8,0:1|0:1,0:0:0:0:
107,196,221812,1,8,0:2:0:0:
259,26,222003,6,0,P|242:97|224:192,1,161.999995056153,14|8,0:1|0:1,0:0:0:0:
251,261,222576,1,8,0:2:0:0:
446,224,222767,1,14,0:1:0:0:
338,200,222958,5,8,0:3:0:0:
338,200,223054,1,8,0:3:0:0:
359,290,223245,1,8,0:1:0:0:
359,290,223340,1,10,0:2:0:0:
150,260,223531,5,10,0:2:0:0:
