osu file format v14

[General]
AudioFilename: audio.mp3
AudioLeadIn: 0
PreviewTime: -1
Countdown: 1
SampleSet: None
StackLeniency: 0.7
Mode: 0
LetterboxInBreaks: 0
WidescreenStoryboard: 1

[Editor]
Bookmarks: 13766,37766,61766,73766,97766,99266
DistanceSpacing: 1.7
BeatDivisor: 4
GridSize: 4
TimelineZoom: 1.5

[Metadata]
Title:Bomb Rush Blush
TitleUnicode:Bomb Rush Blush
Artist:Aioli
ArtistUnicode:Aioli
Creator:Chriz
Version:Splash! 2021 ver.
Source:Splatoon
Tags:Callie Marie
BeatmapID:3089938
BeatmapSetID:791011

[Difficulty]
HPDrainRate:6
CircleSize:5
OverallDifficulty:8
ApproachRate:8
SliderMultiplier:1.7
SliderTickRate:1

[Events]
//Background and Video events
0,0,"tztztztztz.jpg",0,0
//Break Periods
2,61965,67016
//Storyboard Layer 0 (Background)
//Storyboard Layer 1 (Fail)
//Storyboard Layer 2 (Pass)
//Storyboard Layer 3 (Foreground)
//Storyboard Layer 4 (Overlay)
//Storyboard Sound Samples

[TimingPoints]
266,375,4,1,0,40,1,0
15266,-83.3333333333333,4,1,0,40,0,0
15641,-76.9230769230769,4,1,0,40,0,0
16016,-71.4285714285714,4,1,0,40,0,0
16391,-66.6666666666667,4,1,0,40,0,0
16766,-100,4,1,0,40,0,0
21266,-83.3333333333333,4,1,0,40,0,0
21641,-76.9230769230769,4,1,0,40,0,0
22016,-71.4285714285714,4,1,0,40,0,0
22391,-66.6666666666667,4,1,0,40,0,0
22766,-100,4,1,0,40,0,0
37766,-100,4,1,0,40,0,1
40766,-66.6666666666667,4,1,0,40,0,1
41891,-100,4,1,0,40,0,1
52766,-66.6666666666667,4,1,0,40,0,1
54266,-100,4,1,0,40,0,1
61766,-100,4,1,0,40,0,0
75266,-83.3333333333333,4,1,0,40,0,0
75641,-76.9230769230769,4,1,0,40,0,0
76016,-71.4285714285714,4,1,0,40,0,0
76391,-66.6666666666667,4,1,0,40,0,0
76766,-100,4,1,0,40,0,0
81266,-83.3333333333333,4,1,0,40,0,0
81641,-76.9230769230769,4,1,0,40,0,0
82016,-71.4285714285714,4,1,0,40,0,0
82391,-66.6666666666667,4,1,0,40,0,0
82766,-100,4,1,0,40,0,0
97766,-100,4,1,0,40,0,1
100766,-66.6666666666667,4,1,0,40,0,1
101891,-100,4,1,0,40,0,1
112766,-66.6666666666667,4,1,0,40,0,1
114266,-100,4,1,0,40,0,1
121766,-100,4,1,0,40,0,0

[HitObjects]
172,133,266,6,0,P|161:174|172:241,1,85
141,47,641,2,0,P|111:77|87:140,1,85
217,69,1016,1,0,0:0:0:0:
77,193,1203,1,0,0:0:0:0:
34,187,1297,1,0,0:0:0:0:
24,145,1391,1,0,0:0:0:0:
103,277,1578,1,0,0:0:0:0:
40,335,1766,5,0,0:0:0:0:
160,376,1953,1,0,0:0:0:0:
174,248,2141,2,0,P|216:249|255:265,1,85
310,364,2703,5,0,0:0:0:0:
429,320,2890,1,0,0:0:0:0:
474,200,3078,1,0,0:0:0:0:
452,79,3453,5,0,0:0:0:0:
328,113,3641,1,0,0:0:0:0:
362,235,3828,1,0,0:0:0:0:
245,210,4203,5,0,0:0:0:0:
217,85,4390,1,0,0:0:0:0:
314,2,4578,1,0,0:0:0:0:
183,0,4953,5,0,0:0:0:0:
111,105,5140,1,0,0:0:0:0:
6,31,5328,1,0,0:0:0:0:
0,158,5703,5,0,0:0:0:0:
69,265,5890,1,0,0:0:0:0:
6,377,6078,1,0,0:0:0:0:
148,250,6266,1,0,0:0:0:0:
201,315,6453,1,0,0:0:0:0:
169,344,6547,1,0,0:0:0:0:
126,338,6641,1,0,0:0:0:0:
148,250,6828,1,0,0:0:0:0:
235,383,7016,1,0,0:0:0:0:
293,230,7203,1,0,0:0:0:0:
325,305,7391,2,0,P|314:256|282:221,1,85
388,366,7766,5,0,0:0:0:0:
388,366,7953,1,0,0:0:0:0:
404,239,8141,1,0,0:0:0:0:
503,317,8328,1,0,0:0:0:0:
512,192,8703,5,0,0:0:0:0:
418,103,8891,1,0,0:0:0:0:
290,112,9078,1,0,0:0:0:0:
240,0,9453,5,0,0:0:0:0:
290,113,9640,1,0,0:0:0:0:
364,9,9828,1,0,0:0:0:0:
240,0,10203,5,0,0:0:0:0:
165,100,10391,1,0,0:0:0:0:
37,113,10578,1,0,0:0:0:0:
114,16,10953,5,0,0:0:0:0:
37,113,11141,1,0,0:0:0:0:
129,202,11328,1,0,0:0:0:0:
8,242,11703,5,0,0:0:0:0:
129,202,11891,1,0,0:0:0:0:
237,268,12078,1,0,0:0:0:0:
167,294,12266,6,0,L|126:306,1,42.5
274,201,12453,1,0,0:0:0:0:
315,275,12641,1,0,0:0:0:0:
358,348,12828,1,0,0:0:0:0:
443,152,13016,1,0,0:0:0:0:
472,296,13203,1,0,0:0:0:0:
496,261,13297,1,0,0:0:0:0:
481,222,13391,1,0,0:0:0:0:
449,77,13578,1,0,0:0:0:0:
465,116,13672,1,0,0:0:0:0:
443,152,13766,5,0,0:0:0:0:
370,196,13953,1,0,0:0:0:0:
291,163,14141,1,0,0:0:0:0:
247,90,14328,1,0,0:0:0:0:
271,8,14516,2,0,P|318:35|380:18,1,85
203,173,14891,5,0,0:0:0:0:
157,27,15078,1,0,0:0:0:0:
11,138,15266,6,0,L|111:65,1,101.999996887207
39,269,15641,2,0,L|101:170,1,110.499994941712
143,360,16016,2,0,L|161:212,1,118.999996368408
308,349,16391,2,0,L|242:219,1,127.500004863739
177,91,16766,6,0,L|206:183,1,85
334,235,17141,1,0,0:0:0:0:
384,313,17328,1,0,0:0:0:0:
512,202,17516,5,0,0:0:0:0:
450,257,17703,1,0,0:0:0:0:
396,190,17891,1,0,0:0:0:0:
462,137,18078,1,0,0:0:0:0:
294,169,18266,5,0,0:0:0:0:
457,61,18453,1,0,0:0:0:0:
415,69,18547,1,0,0:0:0:0:
390,104,18641,1,0,0:0:0:0:
512,202,18828,5,0,0:0:0:0:
396,190,19016,1,0,0:0:0:0:
294,169,19203,1,0,0:0:0:0:
390,104,19391,5,0,0:0:0:0:
212,20,19578,1,0,0:0:0:0:
200,60,19672,1,0,0:0:0:0:
225,95,19766,5,0,0:0:0:0:
135,251,19953,1,0,0:0:0:0:
107,126,20141,1,0,0:0:0:0:
256,219,20328,1,0,0:0:0:0:
70,203,20516,2,0,P|54:241|61:283,1,85
156,332,20891,5,0,0:0:0:0:
33,368,21078,1,0,0:0:0:0:
250,377,21266,6,0,L|128:344,1,101.999996887207
349,291,21641,2,0,L|210:363,1,110.499994941712
459,228,22016,2,0,L|375:311,1,118.999996368408
454,74,22391,2,0,L|429:227,1,127.500004863739
427,373,22766,5,0,0:0:0:0:
512,290,22953,1,0,0:0:0:0:
433,199,23141,1,0,0:0:0:0:
454,74,23328,1,0,0:0:0:0:
349,218,23516,2,0,P|349:175|390:128,1,85
331,9,23891,2,0,P|330:51|289:98,1,85
122,59,24266,5,0,0:0:0:0:
186,34,24453,1,0,0:0:0:0:
80,158,24641,5,0,0:0:0:0:
17,134,24828,1,0,0:0:0:0:
195,200,25016,5,0,0:0:0:0:
14,274,25203,1,0,0:0:0:0:
42,254,25297,1,0,0:0:0:0:
75,265,25391,1,0,0:0:0:0:
196,328,25578,1,0,0:0:0:0:
166,313,25672,1,0,0:0:0:0:
140,334,25766,5,0,0:0:0:0:
90,379,25953,1,0,0:0:0:0:
14,274,26141,1,0,0:0:0:0:
51,330,26328,1,0,0:0:0:0:
194,196,26516,1,0,0:0:0:0:
148,246,26703,1,0,0:0:0:0:
292,290,26891,1,0,0:0:0:0:
242,243,27078,1,0,0:0:0:0:
272,361,27266,5,0,0:0:0:0:
367,276,27453,1,0,0:0:0:0:
360,242,27547,1,0,0:0:0:0:
330,224,27641,1,0,0:0:0:0:
442,366,27828,2,0,P|435:318|454:257,1,85
491,164,28203,1,0,0:0:0:0:
364,143,28391,1,0,0:0:0:0:
384,17,28578,1,0,0:0:0:0:
512,26,28766,5,0,0:0:0:0:
447,48,28953,1,0,0:0:0:0:
320,40,29141,1,0,0:0:0:0:
384,17,29328,1,0,0:0:0:0:
248,39,29516,5,0,0:0:0:0:
183,17,29703,1,0,0:0:0:0:
56,25,29891,1,0,0:0:0:0:
120,48,30078,1,0,0:0:0:0:
0,71,30266,1,0,0:0:0:0:
37,193,30453,1,0,0:0:0:0:
50,161,30547,1,0,0:0:0:0:
37,129,30641,1,0,0:0:0:0:
0,384,30828,1,0,0:0:0:0:
0,384,31203,5,0,0:0:0:0:
91,261,31391,1,0,0:0:0:0:
0,384,31578,1,0,0:0:0:0:
91,261,31766,2,0,P|131:248|194:270,1,85
242,309,32141,1,0,0:0:0:0:
124,349,32328,1,0,0:0:0:0:
130,354,32703,5,0,0:0:0:0:
245,313,32891,1,0,0:0:0:0:
355,355,33078,1,0,0:0:0:0:
468,309,33266,5,0,0:0:0:0:
417,174,33453,1,0,0:0:0:0:
468,309,33641,5,0,0:0:0:0:
417,174,33828,1,0,0:0:0:0:
508,43,34016,5,0,0:0:0:0:
478,47,34109,1,0,0:0:0:0:
461,71,34203,5,0,0:0:0:0:
431,76,34297,1,0,0:0:0:0:
406,58,34391,5,0,0:0:0:0:
376,60,34484,1,0,0:0:0:0:
353,79,34578,5,0,0:0:0:0:
323,84,34672,1,0,0:0:0:0:
301,62,34766,5,0,0:0:0:0:
117,152,35141,1,0,0:0:0:0:
301,62,35516,5,0,0:0:0:0:
117,152,35891,1,0,0:0:0:0:
314,74,36266,5,0,0:0:0:0:
125,160,36453,1,0,0:0:0:0:
314,74,36641,5,0,0:0:0:0:
125,160,36828,1,0,0:0:0:0:
314,74,37016,5,0,0:0:0:0:
314,74,37391,5,0,0:0:0:0:
266,56,37484,1,0,0:0:0:0:
217,39,37578,1,0,0:0:0:0:
168,21,37672,1,0,0:0:0:0:
120,3,37766,6,0,L|3:44,1,85
197,163,38141,2,0,L|305:117,1,85
100,93,38516,2,0,L|-17:134,1,85
8,243,38891,1,0,0:0:0:0:
39,368,39078,1,0,0:0:0:0:
161,303,39266,2,0,P|167:259|156:213,1,85
222,340,39641,1,0,0:0:0:0:
78,301,39828,2,0,P|122:295|168:306,1,85
349,362,40203,1,0,0:0:0:0:
241,209,40391,1,0,0:0:0:0:
222,340,40578,1,0,0:0:0:0:
357,263,40766,6,0,L|222:200,1,127.500004863739
416,320,41141,2,0,L|255:247,1,127.500004863739
473,375,41516,2,0,L|312:302,1,127.500004863739
441,159,41891,2,0,P|456:199|449:255,1,85
365,184,42266,5,0,0:0:0:0:
419,92,42453,1,0,0:0:0:0:
327,51,42641,1,0,0:0:0:0:
274,138,42828,1,0,0:0:0:0:
441,159,43016,5,0,0:0:0:0:
287,221,43203,1,0,0:0:0:0:
243,64,43391,1,0,0:0:0:0:
413,8,43578,5,0,0:0:0:0:
348,119,43766,1,0,0:0:0:0:
196,124,43953,2,0,P|171:90|167:49,1,85
121,216,44328,1,0,0:0:0:0:
90,23,44516,1,0,0:0:0:0:
121,216,44703,1,0,0:0:0:0:
90,23,44891,2,0,P|59:50|48:91,1,85
55,260,45266,1,0,0:0:0:0:
0,136,45453,2,0,P|12:176|1:216,1,85
48,331,45828,1,0,0:0:0:0:
167,375,46016,1,0,0:0:0:0:
285,328,46203,1,0,0:0:0:0:
308,202,46391,2,0,L|270:121,1,85
177,30,46766,5,0,0:0:0:0:
162,89,46953,1,0,0:0:0:0:
294,263,47141,5,0,0:0:0:0:
308,202,47328,1,0,0:0:0:0:
241,15,47516,5,0,0:0:0:0:
227,75,47703,1,0,0:0:0:0:
345,304,47891,5,0,0:0:0:0:
362,244,48078,1,0,0:0:0:0:
305,0,48266,5,0,0:0:0:0:
291,60,48453,1,0,0:0:0:0:
203,144,48641,1,0,0:0:0:0:
52,167,48828,1,0,0:0:0:0:
128,15,49016,5,0,0:0:0:0:
56,171,49203,1,0,0:0:0:0:
116,274,49391,1,0,0:0:0:0:
174,304,49578,1,0,0:0:0:0:
278,317,49766,6,0,L|383:348,1,85
512,204,50141,2,0,L|407:235,1,85
238,332,50516,2,0,L|343:363,1,85
441,311,50891,1,0,0:0:0:0:
512,204,51078,1,0,0:0:0:0:
395,159,51266,2,0,P|386:117|392:75,1,85
346,224,51641,1,0,0:0:0:0:
468,119,51828,2,0,P|428:132|395:159,1,85
287,286,52203,1,0,0:0:0:0:
231,97,52391,1,0,0:0:0:0:
258,202,52578,1,0,0:0:0:0:
328,63,52766,6,0,L|463:12,1,127.500004863739
231,97,53141,2,0,L|365:175,1,127.500004863739
144,73,53516,6,0,L|87:221,1,127.500004863739
121,0,53891,2,0,L|-16:44,1,127.500004863739
25,139,54266,5,0,0:0:0:0:
80,253,54453,1,0,0:0:0:0:
193,240,54641,1,0,0:0:0:0:
230,169,54828,1,0,0:0:0:0:
230,99,55016,5,0,0:0:0:0:
291,210,55203,1,0,0:0:0:0:
222,317,55391,1,0,0:0:0:0:
330,384,55578,5,0,0:0:0:0:
411,320,55766,1,0,0:0:0:0:
499,374,55953,2,0,P|510:333|508:291,1,85
475,126,56328,1,0,0:0:0:0:
433,220,56516,1,0,0:0:0:0:
508,291,56703,2,0,P|471:312|430:321,1,85
253,384,57078,1,0,0:0:0:0:
57,316,57266,5,0,0:0:0:0:
253,384,57641,1,0,0:0:0:0:
57,316,58016,5,0,0:0:0:0:
93,370,58203,1,0,0:0:0:0:
253,384,58391,5,0,0:0:0:0:
195,355,58578,1,0,0:0:0:0:
68,251,58766,5,0,0:0:0:0:
166,91,59141,1,0,0:0:0:0:
68,251,59516,5,0,0:0:0:0:
166,91,59891,1,0,0:0:0:0:
76,257,60266,5,0,0:0:0:0:
174,99,60453,1,0,0:0:0:0:
72,254,60641,5,0,0:0:0:0:
170,94,60828,1,0,0:0:0:0:
1,68,61016,5,0,0:0:0:0:
177,103,61203,5,0,0:0:0:0:
207,99,61296,1,0,0:0:0:0:
224,75,61390,5,0,0:0:0:0:
254,70,61484,1,0,0:0:0:0:
279,88,61578,5,0,0:0:0:0:
309,86,61671,1,0,0:0:0:0:
332,67,61765,5,0,0:0:0:0:
4,38,67766,5,0,0:0:0:0:
106,112,67953,1,0,0:0:0:0:
226,69,68141,2,0,P|260:94|284:128,2,85
212,222,68703,5,0,0:0:0:0:
338,208,68891,1,0,0:0:0:0:
365,82,69078,2,0,P|382:43|412:12,1,85
493,151,69453,5,0,0:0:0:0:
445,269,69640,1,0,0:0:0:0:
318,287,69828,2,0,P|322:329|340:367,1,85
167,289,70203,5,0,0:0:0:0:
60,360,70391,1,0,0:0:0:0:
9,243,70578,2,0,P|0:201|2:159,1,85
119,1,70953,5,0,0:0:0:0:
84,124,71141,1,0,0:0:0:0:
165,221,71328,2,0,P|206:230|248:227,1,85
452,86,71703,5,0,0:0:0:0:
349,162,71891,1,0,0:0:0:0:
240,94,72078,1,0,0:0:0:0:
344,20,72266,5,0,0:0:0:0:
313,86,72453,1,0,0:0:0:0:
346,238,72641,5,0,0:0:0:0:
349,162,72828,1,0,0:0:0:0:
425,345,73016,5,0,0:0:0:0:
231,300,73203,1,0,0:0:0:0:
270,280,73297,1,0,0:0:0:0:
305,302,73391,1,0,0:0:0:0:
43,319,73578,1,0,0:0:0:0:
82,339,73672,1,0,0:0:0:0:
117,317,73766,5,0,0:0:0:0:
151,239,73953,1,0,0:0:0:0:
113,162,74141,1,0,0:0:0:0:
151,86,74328,1,0,0:0:0:0:
223,40,74516,2,0,P|246:74|249:116,1,85
65,239,74891,1,0,0:0:0:0:
64,86,75078,1,0,0:0:0:0:
273,230,75266,6,0,L|179:158,1,101.999996887207
358,277,75641,2,0,L|263:332,1,110.499994941712
435,242,76016,2,0,L|308:147,1,118.999996368408
512,288,76391,2,0,L|389:359,1,127.500004863739
177,340,76766,6,0,L|327:326,1,85
77,242,77141,1,0,0:0:0:0:
4,199,77328,1,0,0:0:0:0:
124,68,77516,5,0,0:0:0:0:
70,132,77703,1,0,0:0:0:0:
4,78,77891,1,0,0:0:0:0:
57,11,78078,1,0,0:0:0:0:
169,155,78266,5,0,0:0:0:0:
153,0,78453,1,0,0:0:0:0:
190,21,78547,1,0,0:0:0:0:
202,63,78641,1,0,0:0:0:0:
169,155,78828,5,0,0:0:0:0:
253,150,79016,1,0,0:0:0:0:
338,146,79203,1,0,0:0:0:0:
211,229,79391,5,0,0:0:0:0:
368,73,79578,1,0,0:0:0:0:
369,115,79672,1,0,0:0:0:0:
338,146,79766,5,0,0:0:0:0:
395,40,79953,1,0,0:0:0:0:
452,203,80141,1,0,0:0:0:0:
512,90,80328,1,0,0:0:0:0:
438,335,80516,2,0,P|411:302|405:261,1,85
512,370,80891,5,0,0:0:0:0:
452,203,81078,1,0,0:0:0:0:
267,347,81266,6,0,L|389:314,1,101.999996887207
209,284,81641,2,0,L|296:173,1,110.499994941712
128,265,82016,2,0,L|148:109,1,118.999996368408
44,291,82391,2,0,L|-5:150,1,127.500004863739
0,0,82766,5,0,0:0:0:0:
57,103,82953,1,0,0:0:0:0:
16,215,83141,1,0,0:0:0:0:
55,326,83328,1,0,0:0:0:0:
157,135,83516,2,0,P|157:177|198:224,1,85
135,343,83891,2,0,P|134:301|93:253,1,85
126,69,84266,5,0,0:0:0:0:
165,13,84453,1,0,0:0:0:0:
299,130,84641,1,0,0:0:0:0:
343,179,84828,1,0,0:0:0:0:
458,53,85016,5,0,0:0:0:0:
441,226,85203,1,0,0:0:0:0:
414,202,85297,1,0,0:0:0:0:
418,168,85391,1,0,0:0:0:0:
445,330,85578,1,0,0:0:0:0:
438,297,85672,1,0,0:0:0:0:
406,287,85766,5,0,0:0:0:0:
343,311,85953,1,0,0:0:0:0:
217,362,86141,1,0,0:0:0:0:
280,338,86328,1,0,0:0:0:0:
149,384,86516,5,0,0:0:0:0:
107,332,86703,1,0,0:0:0:0:
23,225,86891,1,0,0:0:0:0:
66,277,87078,1,0,0:0:0:0:
43,154,87266,5,0,0:0:0:0:
135,267,87453,1,0,0:0:0:0:
126,232,87547,1,0,0:0:0:0:
97,213,87641,1,0,0:0:0:0:
42,354,87828,2,0,P|43:312|83:264,1,85
208,218,88203,1,0,0:0:0:0:
247,345,88391,1,0,0:0:0:0:
367,299,88579,1,0,0:0:0:0:
329,178,88766,5,0,0:0:0:0:
261,171,88953,1,0,0:0:0:0:
413,145,89141,1,0,0:0:0:0:
471,110,89328,1,0,0:0:0:0:
306,111,89516,5,0,0:0:0:0:
238,103,89703,1,0,0:0:0:0:
390,78,89891,1,0,0:0:0:0:
448,43,90078,1,0,0:0:0:0:
244,31,90266,5,0,0:0:0:0:
183,136,90453,1,0,0:0:0:0:
217,130,90547,1,0,0:0:0:0:
238,103,90641,1,0,0:0:0:0:
282,233,90828,1,0,0:0:0:0:
287,235,91203,5,0,0:0:0:0:
104,139,91391,1,0,0:0:0:0:
291,238,91578,1,0,0:0:0:0:
108,142,91766,2,0,P|127:179|187:208,1,85
296,244,92141,1,0,0:0:0:0:
113,301,92328,1,0,0:0:0:0:
346,356,92703,5,0,0:0:0:0:
454,306,92891,1,0,0:0:0:0:
407,197,93078,1,0,0:0:0:0:
202,364,93266,5,0,0:0:0:0:
372,279,93453,1,0,0:0:0:0:
205,369,93641,5,0,0:0:0:0:
376,284,93828,1,0,0:0:0:0:
155,305,94016,5,0,0:0:0:0:
136,280,94109,1,0,0:0:0:0:
141,251,94203,5,0,0:0:0:0:
123,227,94297,1,0,0:0:0:0:
93,222,94391,5,0,0:0:0:0:
73,199,94484,1,0,0:0:0:0:
70,169,94578,5,0,0:0:0:0:
53,146,94672,1,0,0:0:0:0:
22,146,94766,5,0,0:0:0:0:
199,46,95141,1,0,0:0:0:0:
22,146,95516,5,0,0:0:0:0:
199,46,95891,1,0,0:0:0:0:
26,150,96266,5,0,0:0:0:0:
203,50,96453,1,0,0:0:0:0:
31,156,96641,5,0,0:0:0:0:
208,56,96828,1,0,0:0:0:0:
36,160,97016,5,0,0:0:0:0:
36,160,97391,5,0,0:0:0:0:
80,133,97484,1,0,0:0:0:0:
124,108,97578,1,0,0:0:0:0:
169,82,97672,1,0,0:0:0:0:
212,60,97766,6,0,L|329:101,1,85
476,219,98141,2,0,L|368:173,1,85
306,0,98516,2,0,L|423:41,1,85
496,93,98891,1,0,0:0:0:0:
476,219,99078,1,0,0:0:0:0:
344,247,99266,2,0,P|323:207|317:160,1,85
481,223,99641,1,0,0:0:0:0:
497,370,99828,2,0,P|476:330|470:283,1,85
512,159,100203,1,0,0:0:0:0:
405,250,100391,1,0,0:0:0:0:
415,376,100578,1,0,0:0:0:0:
217,325,100766,6,0,L|389:366,1,127.500004863739
127,297,101141,2,0,L|255:418,1,127.500004863739
65,235,101516,2,0,L|115:404,1,127.500004863739
12,285,101891,2,0,P|-3:245|4:189,1,85
185,113,102266,5,0,0:0:0:0:
93,59,102453,1,0,0:0:0:0:
52,151,102641,1,0,0:0:0:0:
139,204,102828,1,0,0:0:0:0:
160,37,103016,5,0,0:0:0:0:
222,191,103203,1,0,0:0:0:0:
65,235,103391,1,0,0:0:0:0:
9,65,103578,5,0,0:0:0:0:
119,129,103766,1,0,0:0:0:0:
251,83,103953,2,0,P|260:41|248:2,1,85
119,129,104328,1,0,0:0:0:0:
308,144,104516,1,0,0:0:0:0:
123,133,104703,1,0,0:0:0:0:
312,148,104891,2,0,P|340:117|349:77,1,85
490,256,105266,1,0,0:0:0:0:
418,177,105453,2,0,P|415:134|434:98,1,85
512,0,105828,1,0,0:0:0:0:
495,150,106016,1,0,0:0:0:0:
405,263,106203,1,0,0:0:0:0:
262,286,106391,2,0,L|155:300,1,85
12,311,106766,5,0,0:0:0:0:
48,252,106953,1,0,0:0:0:0:
59,83,107141,5,0,0:0:0:0:
23,24,107328,1,0,0:0:0:0:
101,178,107516,5,0,0:0:0:0:
137,237,107703,1,0,0:0:0:0:
212,61,107891,5,0,0:0:0:0:
248,2,108078,1,0,0:0:0:0:
184,188,108266,5,0,0:0:0:0:
139,243,108453,1,0,0:0:0:0:
139,336,108641,1,0,0:0:0:0:
243,380,108828,1,0,0:0:0:0:
374,344,109016,5,0,0:0:0:0:
293,240,109203,1,0,0:0:0:0:
337,138,109391,1,0,0:0:0:0:
435,115,109578,1,0,0:0:0:0:
485,153,109766,6,0,L|378:177,1,85
210,259,110141,2,0,L|321:233,1,85
466,240,110516,2,0,L|359:264,1,85
292,349,110891,1,0,0:0:0:0:
166,378,111078,1,0,0:0:0:0:
43,353,111266,2,0,P|63:315|94:286,1,85
210,259,111641,1,0,0:0:0:0:
91,138,111828,2,0,P|111:175|142:204,1,85
237,22,112203,1,0,0:0:0:0:
112,28,112391,1,0,0:0:0:0:
0,35,112578,1,0,0:0:0:0:
293,20,112766,6,0,L|139:26,1,127.500004863739
365,18,113141,2,0,L|211:24,1,127.500004863739
437,16,113516,6,0,L|283:22,1,127.500004863739
509,14,113891,2,0,L|355:20,1,127.500004863739
204,122,114266,5,0,0:0:0:0:
325,199,114453,1,0,0:0:0:0:
434,165,114641,1,0,0:0:0:0:
476,98,114828,1,0,0:0:0:0:
454,37,115016,5,0,0:0:0:0:
428,161,115203,1,0,0:0:0:0:
511,259,115391,1,0,0:0:0:0:
431,349,115578,5,0,0:0:0:0:
310,317,115765,1,0,0:0:0:0:
428,272,115953,2,0,P|468:258|510:258,1,85
81,349,116328,1,0,0:0:0:0:
202,317,116515,1,0,0:0:0:0:
84,272,116703,2,0,P|43:258|1:258,1,85
156,378,117078,1,0,0:0:0:0:
108,187,117266,5,0,0:0:0:0:
156,378,117641,1,0,0:0:0:0:
108,187,118016,5,0,0:0:0:0:
173,212,118203,1,0,0:0:0:0:
156,378,118391,5,0,0:0:0:0:
211,340,118578,1,0,0:0:0:0:
108,187,118766,5,0,0:0:0:0:
156,378,119141,1,0,0:0:0:0:
108,187,119516,5,0,0:0:0:0:
156,378,119891,1,0,0:0:0:0:
113,191,120266,5,0,0:0:0:0:
161,382,120453,1,0,0:0:0:0:
116,193,120641,5,0,0:0:0:0:
164,384,120828,1,0,0:0:0:0:
0,310,121016,5,0,0:0:0:0:
122,197,121203,5,0,0:0:0:0:
105,170,121296,1,0,0:0:0:0:
113,142,121390,5,0,0:0:0:0:
97,115,121484,1,0,0:0:0:0:
67,109,121578,5,0,0:0:0:0:
50,84,121671,1,0,0:0:0:0:
49,55,121765,5,0,0:0:0:0:
