osu file format v14

[General]
AudioFilename: audio.mp3
AudioLeadIn: 0
PreviewTime: -1
Countdown: 1
SampleSet: Normal
StackLeniency: 0.7
Mode: 0
LetterboxInBreaks: 0
WidescreenStoryboard: 0

[Editor]
DistanceSpacing: 2
BeatDivisor: 4
GridSize: 4
TimelineZoom: 1

[Metadata]
Title:Bomb Rush Blush
TitleUnicode:Bomb Rush Blush
Artist:Aioli
ArtistUnicode:Aioli
Creator:Chriz
Version:Splash! 2017 ver.
Source:Splatoon
Tags:Callie Marie
BeatmapID:1659625
BeatmapSetID:791011

[Difficulty]
HPDrainRate:6
CircleSize:4
OverallDifficulty:8
ApproachRate:8
SliderMultiplier:1.6
SliderTickRate:1

[Events]
//Background and Video events
0,0,"tztztztztz.jpg",0,0
//Break Periods
2,61966,67016
//Storyboard Layer 0 (Background)
//Storyboard Layer 1 (Fail)
//Storyboard Layer 2 (Pass)
//Storyboard Layer 3 (Foreground)
//Storyboard Layer 4 (Overlay)
//Storyboard Sound Samples

[TimingPoints]
266,375,4,1,0,40,1,0
15266,-66.6666666666667,4,1,0,40,0,0
16766,-100,4,1,0,40,0,0
21266,-66.6666666666667,4,1,0,40,0,0
22766,-100,4,1,0,40,0,0
37766,-100,4,1,0,40,0,1
40766,-66.6666666666667,4,1,0,40,0,1
41891,-100,4,1,0,40,0,1
52766,-66.6666666666667,4,1,0,40,0,1
54266,-100,4,1,0,40,0,1
61766,-100,4,1,0,40,0,0
75266,-66.6666666666667,4,1,0,40,0,0
76766,-100,4,1,0,40,0,0
81266,-66.6666666666667,4,1,0,40,0,0
82766,-100,4,1,0,40,0,0
97766,-100,4,1,0,40,0,1
100766,-66.6666666666667,4,1,0,40,0,1
101891,-100,4,1,0,40,0,1
112766,-66.6666666666667,4,1,0,40,0,1
114266,-100,4,1,0,40,0,1
121766,-100,4,1,0,40,0,0

[HitObjects]
256,192,266,5,0,0:0:0:0:
256,192,641,1,0,0:0:0:0:
256,32,1016,1,0,0:0:0:0:
312,88,1203,1,0,0:0:0:0:
339,116,1296,1,0,0:0:0:0:
367,145,1390,1,0,0:0:0:0:
424,88,1578,1,0,0:0:0:0:
424,248,1766,5,0,0:0:0:0:
320,308,1953,1,0,0:0:0:0:
216,248,2141,2,0,L|132:192,1,80
216,248,2703,5,0,0:0:0:0:
320,308,2891,1,0,0:0:0:0:
424,248,3078,1,0,0:0:0:0:
424,128,3453,5,0,0:0:0:0:
320,68,3640,1,0,0:0:0:0:
216,128,3828,1,0,0:0:0:0:
216,128,4203,5,0,0:0:0:0:
320,68,4391,1,0,0:0:0:0:
424,128,4578,1,0,0:0:0:0:
424,288,4953,5,0,0:0:0:0:
320,228,5140,1,0,0:0:0:0:
216,288,5328,1,0,0:0:0:0:
216,288,5703,5,0,0:0:0:0:
320,228,5891,1,0,0:0:0:0:
424,288,6078,1,0,0:0:0:0:
216,168,6266,6,0,L|120:112,1,80
68,268,6641,2,0,L|164:212,1,80
68,84,7016,1,0,0:0:0:0:
420,288,7391,1,0,0:0:0:0:
480,72,7766,5,0,0:0:0:0:
480,72,7953,1,0,0:0:0:0:
396,208,8141,1,0,0:0:0:0:
396,208,8328,1,0,0:0:0:0:
244,156,8703,5,0,0:0:0:0:
244,156,8890,1,0,0:0:0:0:
328,292,9078,1,0,0:0:0:0:
32,172,9453,5,0,0:0:0:0:
32,172,9641,1,0,0:0:0:0:
116,36,9828,1,0,0:0:0:0:
176,184,10203,5,0,0:0:0:0:
176,184,10390,1,0,0:0:0:0:
260,320,10578,1,0,0:0:0:0:
360,196,10953,5,0,0:0:0:0:
360,196,11141,1,0,0:0:0:0:
444,60,11328,1,0,0:0:0:0:
132,128,11703,5,0,0:0:0:0:
132,128,11890,1,0,0:0:0:0:
48,264,12078,1,0,0:0:0:0:
200,212,12266,2,0,L|288:188,1,80
212,292,12641,2,0,L|276:227,1,80
262,355,13016,1,0,0:0:0:0:
418,231,13203,5,0,0:0:0:0:
402,193,13298,1,0,0:0:0:0:
365,178,13391,1,0,0:0:0:0:
350,140,13485,1,0,0:0:0:0:
313,125,13578,1,0,0:0:0:0:
298,87,13673,1,0,0:0:0:0:
261,72,13766,5,0,0:0:0:0:
109,122,13953,1,0,0:0:0:0:
222,235,14141,2,0,L|290:304,1,80
426,230,14516,2,0,L|495:162,1,80
445,60,14891,5,0,0:0:0:0:
355,189,15078,1,0,0:0:0:0:
206,88,15266,2,0,L|107:20,1,120.000004577637
173,226,15641,2,0,L|271:158,1,120.000004577637
107,155,16016,2,0,L|8:87,1,120.000004577637
74,293,16391,2,0,L|172:225,1,120.000004577637
40,192,16766,5,0,0:0:0:0:
472,192,17328,5,0,0:0:0:0:
472,192,17516,1,0,0:0:0:0:
40,192,18078,5,0,0:0:0:0:
136,120,18266,2,0,L|202:75,1,80
267,177,18641,2,0,L|333:221,1,80
431,151,19016,1,0,0:0:0:0:
263,306,19391,5,0,0:0:0:0:
263,306,19766,1,0,0:0:0:0:
263,306,19953,2,0,L|359:242,1,80
390,157,20328,1,0,0:0:0:0:
329,261,20516,1,0,0:0:0:0:
341,38,20891,5,0,0:0:0:0:
341,38,21078,1,0,0:0:0:0:
272,268,21266,2,0,L|356:119,1,120.000004577637
183,266,21641,2,0,L|267:117,1,120.000004577637
94,264,22016,2,0,L|178:115,1,120.000004577637
5,262,22391,2,0,L|89:113,1,120.000004577637
170,37,22766,5,0,0:0:0:0:
273,96,22953,1,0,0:0:0:0:
214,199,23141,1,0,0:0:0:0:
317,258,23328,1,0,0:0:0:0:
376,155,23516,1,0,0:0:0:0:
258,361,23891,1,0,0:0:0:0:
435,52,24266,5,0,0:0:0:0:
296,131,24453,1,0,0:0:0:0:
85,195,24641,5,0,0:0:0:0:
224,274,24828,1,0,0:0:0:0:
435,209,25016,5,0,0:0:0:0:
296,131,25203,1,0,0:0:0:0:
261,151,25296,1,0,0:0:0:0:
226,171,25390,1,0,0:0:0:0:
154,314,25578,1,0,0:0:0:0:
188,293,25671,1,0,0:0:0:0:
223,273,25765,1,0,0:0:0:0:
387,158,25953,6,0,L|319:78,1,80
357,240,26328,2,0,L|305:179,1,80
327,322,26703,2,0,L|275:261,1,80
107,152,27078,1,0,0:0:0:0:
190,289,27266,1,0,0:0:0:0:
186,169,27453,6,0,L|254:249,1,80
216,87,27828,2,0,L|267:147,1,80
246,5,28203,2,0,L|297:65,1,80
458,77,28578,1,0,0:0:0:0:
271,149,28766,6,0,B|125:222|125:222|89:151|166:80,1,320
268,24,29703,1,0,0:0:0:0:
328,215,29891,1,0,0:0:0:0:
359,99,30078,1,0,0:0:0:0:
419,290,30266,1,0,0:0:0:0:
199,194,30641,5,0,0:0:0:0:
392,52,31016,1,0,0:0:0:0:
316,236,31203,1,0,0:0:0:0:
388,93,31391,1,0,0:0:0:0:
312,277,31578,1,0,0:0:0:0:
219,99,31766,5,0,0:0:0:0:
143,283,32140,1,0,0:0:0:0:
143,283,32328,1,0,0:0:0:0:
72,54,32703,2,0,L|141:117,1,80
180,217,33078,1,0,0:0:0:0:
287,98,33266,2,0,L|350:29,1,80
305,236,33641,2,0,L|368:167,1,80
481,140,34016,5,0,0:0:0:0:
427,199,34203,1,0,0:0:0:0:
251,295,34391,1,0,0:0:0:0:
305,236,34578,1,0,0:0:0:0:
429,30,34766,5,0,0:0:0:0:
130,142,35516,1,0,0:0:0:0:
239,257,36266,1,0,0:0:0:0:
299,153,36453,1,0,0:0:0:0:
359,257,36641,1,0,0:0:0:0:
419,153,36828,1,0,0:0:0:0:
479,257,37016,2,0,L|421:356,1,80
239,342,37391,5,0,0:0:0:0:
201,326,37484,1,0,0:0:0:0:
164,311,37578,1,0,0:0:0:0:
127,296,37672,1,0,0:0:0:0:
90,281,37766,5,0,0:0:0:0:
3,147,37953,1,0,0:0:0:0:
183,71,38141,2,0,L|280:39,1,80
458,70,38516,2,0,L|296:124,1,160
230,214,39078,1,0,0:0:0:0:
195,354,39266,2,0,L|80:242,1,160
77,83,39828,5,0,0:0:0:0:
422,285,40203,1,0,0:0:0:0:
336,61,40578,1,0,0:0:0:0:
232,208,40766,2,0,L|129:354,1,120.000004577637
196,104,41141,2,0,L|93:250,1,120.000004577637
160,0,41516,2,0,L|57:146,1,120.000004577637
75,258,41891,5,0,0:0:0:0:
281,137,42078,1,0,0:0:0:0:
235,248,42266,2,0,L|195:330,1,80
350,263,42641,2,0,L|385:191,1,80
431,80,43016,5,0,0:0:0:0:
501,266,43203,1,0,0:0:0:0:
315,336,43391,1,0,0:0:0:0:
245,150,43578,1,0,0:0:0:0:
431,80,43766,2,0,L|508:40,1,80
264,19,44328,5,0,0:0:0:0:
334,205,44516,2,0,L|374:282,1,80
487,306,44891,1,0,0:0:0:0:
254,255,45078,2,0,L|159:232,1,80
217,48,45453,6,0,L|194:143,1,80
157,310,45828,1,0,0:0:0:0:
266,171,46016,1,0,0:0:0:0:
170,346,46203,1,0,0:0:0:0:
333,280,46391,1,0,0:0:0:0:
157,310,46578,2,0,L|41:325,1,80
21,263,46953,5,0,0:0:0:0:
111,84,47141,1,0,0:0:0:0:
133,160,47328,1,0,0:0:0:0:
215,343,47516,1,0,0:0:0:0:
237,267,47703,1,0,0:0:0:0:
294,75,47891,1,0,0:0:0:0:
316,151,48078,1,0,0:0:0:0:
374,343,48266,1,0,0:0:0:0:
436,241,48453,5,0,0:0:0:0:
472,169,48641,1,0,0:0:0:0:
509,96,48828,1,0,0:0:0:0:
472,313,49016,5,0,0:0:0:0:
436,241,49204,1,0,0:0:0:0:
399,168,49391,1,0,0:0:0:0:
362,95,49578,1,0,0:0:0:0:
210,226,49766,5,0,0:0:0:0:
399,168,50141,1,0,0:0:0:0:
359,332,50516,1,0,0:0:0:0:
257,116,50891,1,0,0:0:0:0:
206,224,51078,1,0,0:0:0:0:
138,124,51266,6,0,L|88:56,1,80
27,207,51641,1,0,0:0:0:0:
95,307,51829,2,0,L|145:375,1,80
255,331,52203,1,0,0:0:0:0:
355,263,52391,6,0,L|405:331,1,80
430,143,52766,2,0,L|356:47,1,120.000004577637
355,263,53141,2,0,L|469:228,1,120.000004577637
315,176,53516,2,0,L|241:80,1,120.000004577637
241,297,53891,2,0,L|355:262,1,120.000004577637
469,221,54266,5,0,0:0:0:0:
428,68,54453,1,0,0:0:0:0:
275,109,54641,1,0,0:0:0:0:
316,262,54828,1,0,0:0:0:0:
343,53,55016,5,0,0:0:0:0:
480,132,55203,1,0,0:0:0:0:
401,269,55391,1,0,0:0:0:0:
264,190,55578,1,0,0:0:0:0:
275,109,55766,2,0,L|236:8,1,80
339,221,56328,1,0,0:0:0:0:
273,269,56516,2,0,L|229:367,1,80
449,113,57078,5,0,0:0:0:0:
264,190,57266,1,0,0:0:0:0:
411,327,57641,1,0,0:0:0:0:
156,62,58016,5,0,0:0:0:0:
116,130,58203,1,0,0:0:0:0:
48,275,58391,5,0,0:0:0:0:
116,236,58578,1,0,0:0:0:0:
320,108,58766,5,0,0:0:0:0:
184,193,59141,1,0,0:0:0:0:
320,108,59516,5,0,0:0:0:0:
184,193,59891,1,0,0:0:0:0:
320,108,60266,5,0,0:0:0:0:
184,193,60453,1,0,0:0:0:0:
400,148,60641,5,0,0:0:0:0:
325,290,60828,1,0,0:0:0:0:
475,290,61016,1,0,0:0:0:0:
400,148,61203,5,0,0:0:0:0:
374,115,61298,1,0,0:0:0:0:
335,110,61391,1,0,0:0:0:0:
310,77,61485,1,0,0:0:0:0:
271,72,61578,1,0,0:0:0:0:
246,39,61673,1,0,0:0:0:0:
207,35,61766,5,0,0:0:0:0:
424,248,67766,5,0,0:0:0:0:
320,308,67953,1,0,0:0:0:0:
216,248,68141,2,0,L|132:192,1,80
216,248,68703,5,0,0:0:0:0:
320,188,68891,1,0,0:0:0:0:
424,248,69078,1,0,0:0:0:0:
424,128,69453,5,0,0:0:0:0:
320,188,69640,1,0,0:0:0:0:
216,128,69828,1,0,0:0:0:0:
216,128,70203,5,0,0:0:0:0:
320,188,70391,1,0,0:0:0:0:
424,128,70578,1,0,0:0:0:0:
424,128,70953,5,0,0:0:0:0:
484,232,71140,1,0,0:0:0:0:
424,336,71328,1,0,0:0:0:0:
424,336,71703,5,0,0:0:0:0:
320,276,71890,1,0,0:0:0:0:
216,336,72078,1,0,0:0:0:0:
112,276,72266,2,0,L|34:228,1,80
41,138,72641,2,0,L|119:90,1,80
219,143,73016,1,0,0:0:0:0:
358,221,73203,5,0,0:0:0:0:
396,229,73296,1,0,0:0:0:0:
430,210,73390,1,0,0:0:0:0:
444,173,73484,1,0,0:0:0:0:
430,137,73578,1,0,0:0:0:0:
395,118,73671,1,0,0:0:0:0:
357,127,73765,5,0,0:0:0:0:
243,240,73953,1,0,0:0:0:0:
203,85,74141,2,0,L|179:2,1,80
108,151,74516,2,0,L|84:234,1,80
0,312,74891,5,0,0:0:0:0:
98,379,75078,1,0,0:0:0:0:
337,353,75266,2,0,L|415:230,1,120.000004577637
269,273,75641,2,0,L|347:150,1,120.000004577637
201,193,76016,2,0,L|279:70,1,120.000004577637
133,113,76391,2,0,L|211:-10,1,120.000004577637
472,192,76766,5,0,0:0:0:0:
73,193,77328,5,0,0:0:0:0:
73,193,77516,1,0,0:0:0:0:
472,192,78078,5,0,0:0:0:0:
376,120,78266,2,0,L|280:56,1,80
245,177,78641,2,0,L|149:241,1,80
81,151,79016,1,0,0:0:0:0:
249,323,79391,1,0,0:0:0:0:
417,151,79766,5,0,0:0:0:0:
337,12,79953,1,0,0:0:0:0:
257,151,80141,2,0,L|201:247,1,80
78,301,80516,1,0,0:0:0:0:
257,151,80891,5,0,0:0:0:0:
336,288,81078,1,0,0:0:0:0:
460,81,81266,2,0,L|374:226,1,120.000004577637
419,373,81641,2,0,L|301:252,1,120.000004577637
318,47,82016,2,0,L|232:192,1,120.000004577637
277,339,82391,2,0,L|159:218,1,120.000004577637
256,150,82766,5,0,0:0:0:0:
317,47,82953,1,0,0:0:0:0:
420,108,83141,1,0,0:0:0:0:
359,212,83328,1,0,0:0:0:0:
153,88,83516,1,0,0:0:0:0:
359,212,83891,1,0,0:0:0:0:
153,88,84266,5,0,0:0:0:0:
292,167,84453,1,0,0:0:0:0:
39,267,84641,5,0,0:0:0:0:
178,188,84828,1,0,0:0:0:0:
398,184,85016,5,0,0:0:0:0:
259,263,85203,1,0,0:0:0:0:
224,283,85296,1,0,0:0:0:0:
189,303,85390,1,0,0:0:0:0:
178,188,85578,1,0,0:0:0:0:
213,168,85671,1,0,0:0:0:0:
248,148,85766,2,0,L|324:100,1,80
253,236,86141,2,0,L|329:188,1,80
398,242,86516,1,0,0:0:0:0:
258,324,86703,2,0,L|334:276,1,80
315,105,87079,1,0,0:0:0:0:
258,324,87266,5,0,0:0:0:0:
326,207,87453,1,0,0:0:0:0:
291,187,87546,1,0,0:0:0:0:
256,169,87641,2,0,L|174:123,2,80
398,242,88203,1,0,0:0:0:0:
255,316,88391,1,0,0:0:0:0:
112,242,88578,1,0,0:0:0:0:
257,103,88766,6,0,B|341:84|295:10|279:-14|176:12|132:58|127:149|212:265|333:172|366:114,1,480
397,13,90078,1,0,0:0:0:0:
497,186,90266,1,0,0:0:0:0:
357,127,90453,1,0,0:0:0:0:
357,127,90547,1,0,0:0:0:0:
357,127,90640,5,0,0:0:0:0:
232,313,90828,1,0,0:0:0:0:
150,174,91016,2,0,L|197:256,1,80
276,108,91391,2,0,L|228:190,1,80
139,305,91766,1,0,0:0:0:0:
39,132,92141,5,0,0:0:0:0:
39,132,92328,1,0,0:0:0:0:
270,69,92703,6,0,L|347:48,2,80
156,182,93266,6,0,L|233:161,1,80
76,285,93641,2,0,L|153:264,1,80
233,161,94016,5,0,2:0:0:0:
266,180,94109,1,0,2:0:0:0:
294,151,94203,5,0,2:0:0:0:
322,122,94296,1,0,2:0:0:0:
357,140,94391,1,0,2:0:0:0:
391,160,94484,1,0,2:0:0:0:
418,130,94578,5,0,2:0:0:0:
446,101,94671,1,0,2:0:0:0:
481,121,94766,5,0,2:0:0:0:
31,263,95141,1,0,2:0:0:0:
480,163,95516,1,0,0:0:0:0:
19,60,95891,1,0,0:0:0:0:
478,70,96266,5,0,0:0:0:0:
363,39,96453,1,0,0:0:0:0:
424,144,96641,1,0,0:0:0:0:
363,39,96828,1,0,0:0:0:0:
332,157,97016,2,0,L|306:251,1,80
169,376,97391,5,0,0:0:0:0:
131,360,97484,1,0,0:0:0:0:
94,345,97578,1,0,0:0:0:0:
57,330,97672,1,0,0:0:0:0:
20,315,97766,5,0,0:0:0:0:
79,211,97953,1,0,0:0:0:0:
262,292,98141,2,0,L|168:251,1,80
88,86,98516,2,0,L|234:149,1,160
188,260,99078,1,0,0:0:0:0:
325,145,99266,2,0,L|261:291,1,160
401,212,99828,5,0,0:0:0:0:
41,37,100203,1,0,0:0:0:0:
161,244,100578,1,0,0:0:0:0:
304,134,100766,2,0,L|334:250,1,120.000004577637
202,96,101141,2,0,L|232:212,1,120.000004577637
101,57,101516,2,0,L|131:173,1,120.000004577637
171,327,101891,5,0,0:0:0:0:
202,96,102078,1,0,0:0:0:0:
232,212,102266,2,0,L|260:298,1,80
400,216,102641,2,0,L|318:257,1,80
171,327,103016,5,0,0:0:0:0:
101,141,103203,1,0,0:0:0:0:
287,71,103391,1,0,0:0:0:0:
357,257,103578,1,0,0:0:0:0:
171,327,103766,2,0,L|94:367,1,80
195,147,104328,5,0,0:0:0:0:
357,257,104516,2,0,L|433:297,1,80
427,173,104891,1,0,0:0:0:0:
215,283,105078,2,0,L|129:329,1,80
0,370,105453,6,0,L|23:275,1,80
51,93,105828,1,0,0:0:0:0:
98,287,106016,1,0,0:0:0:0:
155,97,106203,1,0,0:0:0:0:
98,287,106391,1,0,0:0:0:0:
243,151,106578,1,0,0:0:0:0:
98,287,106766,1,0,0:0:0:0:
21,263,106953,5,0,0:0:0:0:
134,97,107141,1,0,0:0:0:0:
171,169,107328,1,0,0:0:0:0:
331,169,107516,1,0,0:0:0:0:
356,92,107703,1,0,0:0:0:0:
491,263,107891,1,0,0:0:0:0:
414,287,108078,2,0,L|317:312,1,80
140,350,108453,5,0,0:0:0:0:
72,305,108641,1,0,0:0:0:0:
55,225,108828,1,0,0:0:0:0:
273,78,109015,5,0,0:0:0:0:
267,160,109203,2,0,L|221:138,1,40
207,215,109390,1,0,0:0:0:0:
133,251,109578,2,0,L|117:199,1,40
80,77,109766,5,0,0:0:0:0:
254,308,110141,1,0,0:0:0:0:
428,77,110516,1,0,0:0:0:0:
254,308,110891,1,0,0:0:0:0:
180,211,111078,1,0,0:0:0:0:
301,195,111266,6,0,L|335:108,1,80
180,211,111641,1,0,0:0:0:0:
227,98,111828,2,0,L|261:11,1,80
106,114,112203,1,0,0:0:0:0:
180,211,112391,6,0,L|232:286,1,80
227,98,112766,2,0,L|156:0,1,120.000004577637
180,211,113141,2,0,L|109:112,1,120.000004577637
227,98,113516,2,0,L|297:0,1,120.000004577637
274,211,113891,2,0,L|344:112,1,120.000004577637
416,17,114266,5,0,0:0:0:0:
468,163,114453,1,0,0:0:0:0:
319,218,114641,1,0,0:0:0:0:
266,68,114828,1,0,0:0:0:0:
401,222,115016,5,0,0:0:0:0:
467,78,115203,1,0,0:0:0:0:
325,13,115391,1,0,0:0:0:0:
256,154,115578,1,0,0:0:0:0:
319,218,115766,2,0,L|221:265,1,80
342,131,116328,1,0,0:0:0:0:
404,192,116516,2,0,L|451:94,1,80
135,109,117078,5,0,0:0:0:0:
137,305,117266,1,0,0:0:0:0:
319,218,117641,1,0,0:0:0:0:
135,109,118016,5,0,0:0:0:0:
135,187,118203,1,0,0:0:0:0:
65,333,118391,5,0,0:0:0:0:
137,305,118578,1,0,0:0:0:0:
281,234,118766,5,0,0:0:0:0:
137,305,119141,1,0,0:0:0:0:
281,234,119516,5,0,0:0:0:0:
137,305,119891,1,0,0:0:0:0:
281,234,120266,5,0,0:0:0:0:
137,305,120453,1,0,0:0:0:0:
148,145,120641,5,0,0:0:0:0:
13,54,120828,1,0,0:0:0:0:
2,216,121016,1,0,0:0:0:0:
137,305,121203,5,0,0:0:0:0:
178,301,121298,1,0,0:0:0:0:
205,272,121391,1,0,0:0:0:0:
246,271,121485,1,0,0:0:0:0:
272,242,121578,1,0,0:0:0:0:
314,241,121673,1,0,0:0:0:0:
339,211,121766,5,0,0:0:0:0:
