osu file format v14

[General]
AudioFilename: audio.mp3
AudioLeadIn: 0
PreviewTime: 176872
Countdown: 0
SampleSet: Drum
StackLeniency: 0.3
Mode: 0
LetterboxInBreaks: 0
EpilepsyWarning: 1
WidescreenStoryboard: 1

[Editor]
Bookmarks: 1778,14750,25129,35507,45886,56264,66642,77021,82210,92588,113345,123723,134102,144480,158750,169129,179507,189886,200264,210642,221021,232696
DistanceSpacing: 1.4
BeatDivisor: 8
GridSize: 16
TimelineZoom: 4.199998

[Metadata]
Title:INTERNET YAMERO
TitleUnicode:INTERNET YAMERO
Artist:Aiobahn feat. KOTOKO
ArtistUnicode:Aiobahn feat. KOTOKO
Creator:NeonMarijuana
Version:nuclei's EXTREME
Source:NEEDY GIRL OVERDOSE
Tags:japanese electronic videogame video game music vgm tohru mitsuhashi インターネットやめろ 前田地生 まろん maron iosys female vocals vocalist streamer synthwave techno eurobeat rawstyle hardstyle hardcore speedcore extratone ame ame-chan amechan omgkawaiiangel angel kangel p-chan pchan wss playground xemono maeda chisei as_chisei overdose overload synthpop denpa arcaea にゃるら nyalra nyarura tenshi muse dash mpg mappers' guild featured artist fa [ drop ] [_drop_] [drop] sanayui not your kitty not_your_kitty setu nuclei
BeatmapID:4497716
BeatmapSetID:2045169

[Difficulty]
HPDrainRate:4.6
CircleSize:4
OverallDifficulty:9.2
ApproachRate:9.6
SliderMultiplier:2.6
SliderTickRate:1

[Events]
//Background and Video events
0,0,"INTERNET YAMERO.jpg",0,0
Video,-200,"INTERNET YAMERO.mp4"
//Break Periods
2,4734,6458
2,7329,9052
2,9923,11647
2,77221,81701
2,144680,158241
2,159112,160836
2,161707,163431
2,164302,166025
2,232896,242566
//Storyboard Layer 0 (Background)
//Storyboard Layer 1 (Fail)
//Storyboard Layer 2 (Pass)
//Storyboard Layer 3 (Foreground)
//Storyboard Layer 4 (Overlay)
//Storyboard Sound Samples

[TimingPoints]
1778,324.324324324324,4,3,99,85,1,0
1778,-66.6666666666667,4,3,99,85,0,0
1859,-66.6666666666667,4,3,69,5,0,0
2102,-66.6666666666667,4,3,99,85,0,0
2183,-66.6666666666667,4,3,69,5,0,0
2426,-66.6666666666667,4,3,99,85,0,0
2507,-66.6666666666667,4,3,69,5,0,0
2588,-66.6666666666667,4,3,99,85,0,0
2669,-66.6666666666667,4,3,69,5,0,0
2750,-66.6666666666667,4,3,99,85,0,0
2832,-66.6666666666667,4,3,69,5,0,0
2913,-66.6666666666667,4,3,99,85,0,0
2994,-66.6666666666667,4,3,69,5,0,0
3075,-66.6666666666667,4,3,99,85,0,0
3156,-66.6666666666667,4,3,69,5,0,0
3237,-66.6666666666667,4,3,99,85,0,0
3318,-66.6666666666667,4,3,69,5,0,0
3561,-66.6666666666667,4,3,99,85,0,0
3642,-66.6666666666667,4,3,69,5,0,0
3723,-66.6666666666667,4,3,99,85,0,0
3805,-66.6666666666667,4,3,69,5,0,0
4048,-66.6666666666667,4,3,99,90,0,0
4129,-66.6666666666667,4,3,69,5,0,0
4210,-66.6666666666667,4,3,99,90,0,0
4291,-66.6666666666667,4,3,69,5,0,0
4372,-33.3333333333333,4,3,1,95,0,0
4534,-33.3333333333333,4,3,69,5,0,0
6967,-33.3333333333333,4,3,1,95,0,0
7129,-33.3333333333333,4,3,69,5,0,0
9561,-33.3333333333333,4,3,1,95,0,0
9723,-33.3333333333333,4,3,69,5,0,0
12156,-33.3333333333333,4,3,1,95,0,0
12318,-33.3333333333333,4,3,69,5,0,0
13453,-33.3333333333333,4,3,1,95,0,0
13615,-33.3333333333333,4,3,69,5,0,0
14102,-33.3333333333333,4,3,1,95,0,0
14183,-33.3333333333333,4,3,69,5,0,0
14345,-33.3333333333333,4,3,1,95,0,0
14386,-33.3333333333333,4,3,69,5,0,0
14426,-33.3333333333333,4,3,1,95,0,0
14467,-33.3333333333333,4,3,69,5,0,0
14588,-33.3333333333333,4,3,1,95,0,0
14669,-33.3333333333333,4,3,69,5,0,0
14750,-33.3333333333333,4,3,1,60,0,0
15399,-133.333333333333,4,3,1,60,0,0
17345,-33.3333333333333,4,3,1,65,0,0
17669,-125,4,3,1,65,0,0
19940,-33.3333333333333,4,3,1,70,0,0
20264,-117.647058823529,4,3,1,70,0,0
21237,-33.3333333333333,4,3,1,75,0,0
21723,-111.111111111111,4,3,1,75,0,0
22534,-33.3333333333333,4,3,1,80,0,0
23183,-33.3333333333333,4,3,1,85,0,0
23832,-33.3333333333333,4,3,1,80,0,0
23913,-33.3333333333333,4,3,69,5,0,0
24156,-33.3333333333333,4,3,1,80,0,0
24237,-33.3333333333333,4,3,69,5,0,0
24480,-33.3333333333333,4,3,1,80,0,0
24561,-33.3333333333333,4,3,69,5,0,0
24805,-33.3333333333333,4,3,1,90,0,0
25129,-66.6666666666667,4,3,2,85,0,1
25453,-83.3333333333333,4,3,2,85,0,1
25777,-66.6666666666667,4,3,2,85,0,1
27156,-66.6666666666667,4,3,69,5,0,1
27399,-66.6666666666667,4,3,2,85,0,1
29021,-83.3333333333333,4,3,2,85,0,1
30318,-66.6666666666667,4,3,2,85,0,1
34210,-66.6666666666667,4,3,2,80,0,1
34615,-66.6666666666667,4,3,69,5,0,1
34696,-66.6666666666667,4,3,2,80,0,1
34777,-66.6666666666667,4,3,69,5,0,1
34859,-66.6666666666667,4,3,2,80,0,1
34940,-66.6666666666667,4,3,69,5,0,1
35183,-133.333333333333,4,3,2,90,0,1
35426,-133.333333333333,4,3,69,5,0,1
35507,-100,4,3,3,60,0,0
36237,-100,4,3,69,5,0,0
36318,-100,4,3,3,60,0,0
36561,-100,4,3,69,5,0,0
36642,-200,4,3,3,60,0,0
37940,-133.333333333333,4,3,3,60,0,0
38264,-133.333333333333,4,3,69,60,0,0
38345,-133.333333333333,4,3,3,60,0,0
38750,-100,4,3,3,60,0,0
38832,-100,4,3,69,5,0,0
38913,-100,4,3,3,60,0,0
39156,-100,4,3,69,5,0,0
39237,-200,4,3,3,60,0,0
40534,-133.333333333333,4,3,3,60,0,0
40859,-133.333333333333,4,3,69,60,0,0
40940,-133.333333333333,4,3,3,60,0,0
41345,-100,4,3,3,60,0,0
41588,-100,4,3,69,5,0,0
41669,-100,4,3,3,60,0,0
41913,-100,4,3,69,5,0,0
41994,-100,4,3,3,60,0,0
42237,-100,4,3,69,5,0,0
42318,-100,4,3,3,60,0,0
42561,-100,4,3,69,5,0,0
42642,-100,4,3,3,60,0,0
43453,-100,4,3,69,60,0,0
43534,-100,4,3,3,60,0,0
44183,-100,4,3,69,5,0,0
44264,-100,4,3,3,60,0,0
44507,-100,4,3,69,5,0,0
44588,-100,4,3,3,60,0,0
44832,-100,4,3,69,5,0,0
44913,-100,4,3,3,60,0,0
45156,-100,4,3,69,5,0,0
45237,-100,4,3,3,60,0,0
45318,-100,4,3,69,5,0,0
45399,-100,4,3,3,60,0,0
45480,-100,4,3,69,5,0,0
45561,-100,4,3,3,60,0,0
45805,-100,4,3,69,5,0,0
45886,-100,4,3,3,65,0,0
46615,-100,4,3,69,5,0,0
46696,-100,4,3,3,65,0,0
46940,-100,4,3,69,5,0,0
47021,-200,4,3,3,65,0,0
48318,-100,4,3,3,65,0,0
49210,-100,4,3,69,5,0,0
49291,-100,4,3,3,65,0,0
49534,-100,4,3,69,5,0,0
49615,-200,4,3,3,65,0,0
50913,-133.333333333333,4,3,3,65,0,0
51723,-100,4,3,3,65,0,0
51967,-100,4,3,69,5,0,0
52048,-100,4,3,3,65,0,0
52291,-100,4,3,69,5,0,0
52372,-100,4,3,3,65,0,0
52615,-100,4,3,69,5,0,0
52696,-100,4,3,3,65,0,0
52940,-100,4,3,69,5,0,0
53021,-100,4,3,3,65,0,0
55210,-100,4,3,69,5,0,0
55291,-100,4,3,3,65,0,0
55534,-100,4,3,69,5,0,0
55615,-100,4,3,3,65,0,0
55696,-100,4,3,69,5,0,0
55777,-100,4,3,3,65,0,0
56264,-100,4,3,3,70,0,0
56994,-100,4,3,69,5,0,0
57075,-100,4,3,3,70,0,0
57399,-200,4,3,3,70,0,0
58696,-133.333333333333,4,3,3,70,0,0
59507,-100,4,3,3,70,0,0
59588,-100,4,3,69,5,0,0
59669,-100,4,3,3,70,0,0
59994,-200,4,3,3,70,0,0
61291,-133.333333333333,4,3,3,70,0,0
62183,-133.333333333333,4,3,69,5,0,0
62264,-133.333333333333,4,3,3,70,0,0
62345,-133.333333333333,4,3,69,5,0,0
62588,-133.333333333333,4,3,3,70,0,0
62669,-133.333333333333,4,3,69,5,0,0
62750,-100,4,3,3,70,0,0
62994,-100,4,3,69,5,0,0
63075,-100,4,3,3,70,0,0
63318,-100,4,3,69,5,0,0
63399,-100,4,3,3,70,0,0
64696,-133.333333333333,4,3,3,70,0,0
64777,-133.333333333333,4,3,69,5,0,0
64859,-133.333333333333,4,3,3,70,0,0
64940,-133.333333333333,4,3,69,5,0,0
65183,-133.333333333333,4,3,3,70,0,0
65264,-133.333333333333,4,3,69,5,0,0
65345,-100,4,3,3,70,0,0
65588,-100,4,3,69,5,0,0
65669,-100,4,3,3,70,0,0
65913,-100,4,3,69,5,0,0
65994,-100,4,3,3,70,0,0
66075,-100,4,3,69,5,0,0
66156,-100,4,3,3,70,0,0
66237,-100,4,3,69,5,0,0
66318,-100,4,3,3,70,0,0
66561,-100,4,3,69,5,0,0
66642,-100,4,3,3,75,0,0
67372,-100,4,3,69,5,0,0
67453,-100,4,3,3,75,0,0
67777,-200,4,3,3,75,0,0
67940,-200,4,3,3,76,0,0
69075,-133.333333333333,4,3,3,76,0,0
69237,-133.333333333333,4,3,3,77,0,0
69886,-100,4,3,3,77,0,0
69967,-100,4,3,69,5,0,0
70048,-100,4,3,3,77,0,0
70372,-200,4,3,3,77,0,0
70534,-200,4,3,3,78,0,0
71669,-133.333333333333,4,3,3,78,0,0
71832,-133.333333333333,4,3,3,79,0,0
73129,-133.333333333333,4,3,3,80,0,0
74426,-133.333333333333,4,3,3,81,0,0
75723,-133.333333333333,4,3,3,82,0,0
76048,-133.333333333333,4,3,3,83,0,0
76372,-133.333333333333,4,3,3,84,0,0
76696,-133.333333333333,4,3,3,85,0,0
77021,-133.333333333333,4,3,3,60,0,0
82210,-133.333333333333,4,3,4,75,0,0
82291,-133.333333333333,4,3,69,75,0,0
82372,-133.333333333333,4,3,4,75,0,0
82615,-133.333333333333,4,3,69,75,0,0
82696,-133.333333333333,4,3,4,75,0,0
82940,-133.333333333333,4,3,69,75,0,0
83021,-133.333333333333,4,3,4,75,0,0
83264,-133.333333333333,4,3,69,75,0,0
83345,-133.333333333333,4,3,4,75,0,0
83588,-133.333333333333,4,3,69,75,0,0
83669,-133.333333333333,4,3,4,75,0,0
83913,-133.333333333333,4,3,69,75,0,0
83994,-133.333333333333,4,3,4,75,0,0
84237,-133.333333333333,4,3,69,75,0,0
84318,-133.333333333333,4,3,4,75,0,0
84561,-133.333333333333,4,3,69,75,0,0
84642,-133.333333333333,4,3,4,75,0,0
84886,-133.333333333333,4,3,69,75,0,0
84967,-133.333333333333,4,3,4,75,0,0
85210,-133.333333333333,4,3,69,75,0,0
85291,-133.333333333333,4,3,4,75,0,0
85534,-133.333333333333,4,3,69,75,0,0
85615,-133.333333333333,4,3,4,75,0,0
85859,-133.333333333333,4,3,69,75,0,0
85940,-133.333333333333,4,3,4,75,0,0
86183,-133.333333333333,4,3,69,75,0,0
86264,-133.333333333333,4,3,4,75,0,0
86507,-133.333333333333,4,3,69,75,0,0
86588,-133.333333333333,4,3,4,75,0,0
86832,-133.333333333333,4,3,69,75,0,0
86913,-133.333333333333,4,3,4,75,0,0
87156,-133.333333333333,4,3,69,75,0,0
87237,-133.333333333333,4,3,4,75,0,0
87399,-66.6666666666667,4,3,4,75,0,0
87480,-66.6666666666667,4,3,69,5,0,0
87561,-66.6666666666667,4,3,4,75,0,0
87805,-66.6666666666667,4,3,69,5,0,0
87886,-66.6666666666667,4,3,4,75,0,0
88129,-66.6666666666667,4,3,69,5,0,0
88210,-66.6666666666667,4,3,4,75,0,0
88453,-66.6666666666667,4,3,69,5,0,0
88534,-66.6666666666667,4,3,4,75,0,0
88777,-66.6666666666667,4,3,69,5,0,0
88859,-66.6666666666667,4,3,4,75,0,0
89102,-66.6666666666667,4,3,69,5,0,0
89183,-66.6666666666667,4,3,4,75,0,0
89426,-66.6666666666667,4,3,69,5,0,0
89507,-66.6666666666667,4,3,4,75,0,0
89750,-66.6666666666667,4,3,69,5,0,0
89832,-66.6666666666667,4,3,4,75,0,0
90075,-66.6666666666667,4,3,69,5,0,0
90156,-66.6666666666667,4,3,4,75,0,0
90399,-66.6666666666667,4,3,69,5,0,0
90480,-66.6666666666667,4,3,4,75,0,0
90723,-66.6666666666667,4,3,69,5,0,0
90805,-66.6666666666667,4,3,4,75,0,0
91048,-66.6666666666667,4,3,69,5,0,0
91129,-66.6666666666667,4,3,4,75,0,0
91372,-66.6666666666667,4,3,69,5,0,0
91453,-66.6666666666667,4,3,4,75,0,0
91696,-66.6666666666667,4,3,69,5,0,0
91777,-66.6666666666667,4,3,4,75,0,0
92021,-66.6666666666667,4,3,69,5,0,0
92102,-66.6666666666667,4,3,4,75,0,0
92345,-66.6666666666667,4,3,69,5,0,0
92426,-66.6666666666667,4,3,4,75,0,0
92588,-66.6666666666667,4,3,4,80,0,0
101669,-66.6666666666667,4,3,4,85,0,0
102642,-66.6666666666667,4,3,4,90,0,0
102886,-66.6666666666667,4,3,4,89,0,0
103048,-66.6666666666667,4,3,69,5,0,0
103129,-76.9230769230769,4,3,4,88,0,0
103291,-76.9230769230769,4,3,69,5,0,0
103372,-90.9090909090909,4,3,4,87,0,0
103534,-90.9090909090909,4,3,69,5,0,0
103615,-100,4,3,4,86,0,0
103777,-100,4,3,69,5,0,0
103859,-111.111111111111,4,3,4,85,0,0
104021,-111.111111111111,4,3,69,5,0,0
104102,-125,4,3,4,84,0,0
104264,-125,4,3,69,5,0,0
104345,-142.857142857143,4,3,4,83,0,0
104507,-142.857142857143,4,3,69,5,0,0
104588,-166.666666666667,4,3,4,82,0,0
104750,-166.666666666667,4,3,69,5,0,0
104832,-200,4,3,4,81,0,0
104994,-200,4,3,69,5,0,0
105075,-200,4,3,4,80,0,0
105237,-66.6666666666667,4,3,4,80,0,0
107588,-66.6666666666667,4,3,4,85,0,0
107994,-66.6666666666667,4,3,4,80,0,0
108156,-66.6666666666667,4,3,4,90,0,0
109453,-66.6666666666667,4,3,4,85,0,0
110750,-66.6666666666667,4,3,4,80,0,0
112048,-66.6666666666667,4,3,4,75,0,0
112210,-66.6666666666667,4,3,4,70,0,0
112372,-66.6666666666667,4,3,4,65,0,0
112534,-66.6666666666667,4,3,4,60,0,0
112696,-66.6666666666667,4,3,4,55,0,0
112859,-66.6666666666667,4,3,4,50,0,0
113021,-66.6666666666667,4,3,4,45,0,0
113183,-66.6666666666667,4,3,4,40,0,0
113345,-57.1428571428571,4,3,5,80,0,0
113426,-57.1428571428571,4,3,69,5,0,0
113507,-57.1428571428571,4,3,5,80,0,0
113588,-57.1428571428571,4,3,69,5,0,0
113832,-57.1428571428571,4,3,5,80,0,0
113913,-57.1428571428571,4,3,69,5,0,0
114156,-57.1428571428571,4,3,5,80,0,0
114237,-57.1428571428571,4,3,69,5,0,0
114480,-57.1428571428571,4,3,5,80,0,0
114561,-57.1428571428571,4,3,69,5,0,0
114642,-57.1428571428571,4,3,97,77,0,0
114723,-57.1428571428571,4,3,97,74,0,0
114805,-57.1428571428571,4,3,97,71,0,0
114886,-57.1428571428571,4,3,97,68,0,0
114967,-57.1428571428571,4,3,97,65,0,0
115048,-57.1428571428571,4,3,97,62,0,0
115129,-57.1428571428571,4,3,97,59,0,0
115210,-57.1428571428571,4,3,97,56,0,0
115291,-57.1428571428571,4,3,97,53,0,0
115372,-57.1428571428571,4,3,97,50,0,0
115453,-66.6666666666667,4,3,97,47,0,0
115534,-66.6666666666667,4,3,97,44,0,0
115615,-66.6666666666667,4,3,5,60,0,0
115696,-66.6666666666667,4,3,69,5,0,0
115777,-66.6666666666667,4,3,5,70,0,0
115859,-66.6666666666667,4,3,69,5,0,0
115940,-57.1428571428571,4,3,5,80,0,0
116021,-57.1428571428571,4,3,69,5,0,0
116102,-57.1428571428571,4,3,5,80,0,0
116183,-57.1428571428571,4,3,69,5,0,0
116426,-57.1428571428571,4,3,5,80,0,0
116507,-57.1428571428571,4,3,69,5,0,0
116750,-57.1428571428571,4,3,5,80,0,0
116832,-57.1428571428571,4,3,69,5,0,0
117075,-57.1428571428571,4,3,5,80,0,0
117156,-57.1428571428571,4,3,69,5,0,0
117237,-57.1428571428571,4,3,97,77,0,0
117318,-57.1428571428571,4,3,97,74,0,0
117399,-57.1428571428571,4,3,97,71,0,0
117480,-57.1428571428571,4,3,97,68,0,0
117561,-57.1428571428571,4,3,97,65,0,0
117642,-57.1428571428571,4,3,97,62,0,0
117723,-57.1428571428571,4,3,97,59,0,0
117805,-57.1428571428571,4,3,97,56,0,0
117886,-57.1428571428571,4,3,97,53,0,0
117967,-57.1428571428571,4,3,97,50,0,0
118048,-66.6666666666667,4,3,97,47,0,0
118129,-66.6666666666667,4,3,97,44,0,0
118210,-66.6666666666667,4,3,5,60,0,0
118291,-66.6666666666667,4,3,69,5,0,0
118372,-66.6666666666667,4,3,5,70,0,0
118453,-66.6666666666667,4,3,69,5,0,0
118534,-57.1428571428571,4,3,5,80,0,0
118615,-57.1428571428571,4,3,69,5,0,0
118696,-57.1428571428571,4,3,5,80,0,0
118777,-57.1428571428571,4,3,69,5,0,0
119021,-57.1428571428571,4,3,5,80,0,0
119102,-57.1428571428571,4,3,69,5,0,0
119345,-57.1428571428571,4,3,5,80,0,0
119426,-57.1428571428571,4,3,69,5,0,0
119669,-57.1428571428571,4,3,5,80,0,0
119750,-57.1428571428571,4,3,69,5,0,0
119832,-57.1428571428571,4,3,97,77,0,0
119913,-57.1428571428571,4,3,97,74,0,0
119994,-57.1428571428571,4,3,97,71,0,0
120075,-57.1428571428571,4,3,97,68,0,0
120156,-57.1428571428571,4,3,97,65,0,0
120237,-57.1428571428571,4,3,97,62,0,0
120318,-57.1428571428571,4,3,97,59,0,0
120399,-57.1428571428571,4,3,97,56,0,0
120480,-57.1428571428571,4,3,97,53,0,0
120561,-57.1428571428571,4,3,97,50,0,0
120642,-66.6666666666667,4,3,97,47,0,0
120723,-66.6666666666667,4,3,97,44,0,0
120805,-66.6666666666667,4,3,5,60,0,0
120886,-66.6666666666667,4,3,69,5,0,0
120967,-66.6666666666667,4,3,5,70,0,0
121048,-66.6666666666667,4,3,69,5,0,0
121129,-57.1428571428571,4,3,5,80,0,0
121210,-57.1428571428571,4,3,69,5,0,0
121291,-57.1428571428571,4,3,5,80,0,0
121372,-57.1428571428571,4,3,69,5,0,0
121615,-57.1428571428571,4,3,5,80,0,0
121696,-57.1428571428571,4,3,69,5,0,0
121940,-57.1428571428571,4,3,5,80,0,0
122021,-57.1428571428571,4,3,69,5,0,0
122264,-57.1428571428571,4,3,5,80,0,0
122345,-57.1428571428571,4,3,69,5,0,0
122426,-57.1428571428571,4,3,97,77,0,0
122507,-57.1428571428571,4,3,97,74,0,0
122588,-57.1428571428571,4,3,97,71,0,0
122669,-57.1428571428571,4,3,97,68,0,0
122750,-57.1428571428571,4,3,97,65,0,0
122832,-57.1428571428571,4,3,97,62,0,0
122913,-57.1428571428571,4,3,97,59,0,0
122994,-57.1428571428571,4,3,97,56,0,0
123075,-57.1428571428571,4,3,97,53,0,0
123156,-57.1428571428571,4,3,97,50,0,0
123237,-66.6666666666667,4,3,97,47,0,0
123318,-66.6666666666667,4,3,97,44,0,0
123399,-66.6666666666667,4,3,5,85,0,0
123480,-66.6666666666667,4,3,69,5,0,0
123561,-66.6666666666667,4,3,5,85,0,0
123642,-66.6666666666667,4,3,69,5,0,0
123723,-66.6666666666667,4,3,5,80,0,1
131507,-66.6666666666667,4,3,5,85,0,0
131588,-66.6666666666667,4,3,69,5,0,0
132156,-66.6666666666667,4,3,5,90,0,0
132237,-66.6666666666667,4,3,69,5,0,0
132805,-66.6666666666667,4,3,5,70,0,0
132886,-66.6666666666667,4,3,69,5,0,0
132967,-66.6666666666667,4,3,5,75,0,0
133048,-66.6666666666667,4,3,69,5,0,0
133129,-66.6666666666667,4,3,5,80,0,0
133210,-66.6666666666667,4,3,69,5,0,0
133291,-66.6666666666667,4,3,5,85,0,0
133372,-66.6666666666667,4,3,69,5,0,0
133453,-66.6666666666667,4,3,5,90,0,0
133777,-66.6666666666667,4,3,5,100,0,0
134102,-66.6666666666667,4,3,6,80,0,1
134426,-40,4,3,6,100,0,1
134669,-40,4,3,69,5,0,1
134750,-40,4,3,6,100,0,1
134994,-40,4,3,69,5,0,1
135075,-40,4,3,6,100,0,1
135318,-40,4,3,69,5,0,1
135399,-40,4,3,6,100,0,1
135642,-40,4,3,69,5,0,1
135723,-40,4,3,6,100,0,1
135967,-40,4,3,69,5,0,1
136048,-40,4,3,6,100,0,1
136291,-40,4,3,69,5,0,1
136372,-40,4,3,6,100,0,1
136615,-40,4,3,69,5,0,1
136696,-40,4,3,6,100,0,1
136940,-40,4,3,69,5,0,1
137021,-40,4,3,6,100,0,1
137264,-40,4,3,69,5,0,1
137345,-40,4,3,6,100,0,1
137588,-40,4,3,69,5,0,1
137669,-40,4,3,6,100,0,1
137913,-40,4,3,69,5,0,1
137994,-40,4,3,6,100,0,1
138237,-40,4,3,69,5,0,1
138318,-40,4,3,6,100,0,1
138561,-40,4,3,69,5,0,1
138642,-40,4,3,6,100,0,1
138886,-40,4,3,69,5,0,1
138967,-40,4,3,6,100,0,1
139291,-200,4,3,6,100,0,1
139940,-133.333333333333,4,3,6,100,0,1
140588,-100,4,3,6,100,0,1
141237,-80,4,3,6,100,0,1
144156,-200,4,3,6,100,0,1
144480,-200,4,3,98,60,0,0
148372,-200,4,3,98,70,0,0
148696,-200,4,3,98,75,0,0
149021,-200,4,3,98,80,0,0
149345,-200,4,3,98,70,0,0
149669,-200,4,3,98,60,0,0
154859,-200,4,3,98,70,0,0
156967,-200,4,3,98,35,0,0
157777,-200,4,3,98,50,0,0
158102,-200,4,3,98,65,0,0
158426,-200,4,3,98,80,0,0
158750,-33.3333333333333,4,3,1,95,0,0
158913,-33.3333333333333,4,3,69,5,0,0
161345,-33.3333333333333,4,3,1,95,0,0
161507,-33.3333333333333,4,3,69,5,0,0
163940,-33.3333333333333,4,3,1,95,0,0
164102,-33.3333333333333,4,3,69,5,0,0
166534,-33.3333333333333,4,3,1,95,0,0
166696,-33.3333333333333,4,3,69,5,0,0
167832,-33.3333333333333,4,3,1,95,0,0
167994,-33.3333333333333,4,3,69,5,0,0
168480,-33.3333333333333,4,3,1,95,0,0
168561,-33.3333333333333,4,3,69,5,0,0
168723,-33.3333333333333,4,3,1,95,0,0
168764,-33.3333333333333,4,3,69,5,0,0
168805,-33.3333333333333,4,3,1,95,0,0
168845,-33.3333333333333,4,3,69,5,0,0
168967,-33.3333333333333,4,3,1,95,0,0
169007,-33.3333333333333,4,3,69,5,0,0
169129,-33.3333333333333,4,3,1,70,0,0
169453,-133.333333333333,4,3,1,70,0,0
171723,-133.333333333333,4,3,1,75,0,0
174318,-133.333333333333,4,3,1,80,0,0
175615,-133.333333333333,4,3,1,85,0,0
176913,-40,4,3,1,90,0,0
177561,-40,4,3,1,95,0,0
178210,-40,4,3,1,90,0,0
178291,-40,4,3,69,5,0,0
178534,-40,4,3,1,93,0,0
178615,-40,4,3,69,5,0,0
178859,-40,4,3,1,96,0,0
178940,-40,4,3,69,5,0,0
179183,-40,4,3,1,100,0,1
179507,-76.9230769230769,4,3,7,95,0,1
179669,-50,4,3,7,95,0,1
179832,-76.9230769230769,4,3,7,95,0,1
179994,-50,4,3,7,95,0,1
180156,-71.4285714285714,4,3,7,95,0,1
180642,-58.8235294117647,4,3,7,95,0,1
180967,-66.6666666666667,4,3,7,95,0,1
183237,-58.8235294117647,4,3,7,95,0,1
183561,-66.6666666666667,4,3,7,95,0,1
184696,-76.9230769230769,4,3,7,95,0,1
184859,-50,4,3,7,95,0,1
185021,-76.9230769230769,4,3,7,95,0,1
185183,-50,4,3,7,95,0,1
185345,-58.8235294117647,4,3,7,95,0,1
185669,-66.6666666666667,4,3,7,95,0,1
185832,-58.8235294117647,4,3,7,95,0,1
186967,-76.9230769230769,4,3,7,95,0,1
187777,-55.5555555555556,4,3,7,95,0,1
188426,-58.8235294117647,4,3,7,95,0,1
188750,-76.9230769230769,4,3,7,95,0,1
189561,-66.6666666666667,4,3,7,100,0,1
189886,-66.6666666666667,4,3,7,95,0,1
190048,-50,4,3,7,95,0,1
190210,-66.6666666666667,4,3,7,95,0,1
190372,-50,4,3,7,95,0,1
190534,-58.8235294117647,4,3,7,95,0,1
190859,-66.6666666666667,4,3,7,95,0,1
191021,-58.8235294117647,4,3,7,95,0,1
192156,-71.4285714285714,4,3,7,95,0,1
193129,-58.8235294117647,4,3,7,95,0,1
193940,-71.4285714285714,4,3,7,95,0,1
194102,-58.8235294117647,4,3,7,95,0,1
195075,-76.9230769230769,4,3,7,95,0,1
195237,-50,4,3,7,95,0,1
195399,-76.9230769230769,4,3,7,95,0,1
195561,-50,4,3,7,95,0,1
195683,-76.9230769230769,4,3,69,5,0,1
195723,-66.6666666666667,4,3,7,95,0,1
196210,-58.8235294117647,4,3,7,95,0,1
196534,-76.9230769230769,4,3,7,95,0,1
196696,-58.8235294117647,4,3,7,95,0,1
197345,-71.4285714285714,4,3,7,95,0,1
198805,-58.8235294117647,4,3,7,95,0,1
199129,-71.4285714285714,4,3,7,95,0,1
199615,-66.6666666666667,4,3,7,95,0,1
199940,-58.8235294117647,4,3,7,100,0,1
200264,-66.6666666666667,4,3,2,95,0,1
202291,-66.6666666666667,4,3,69,5,0,1
202534,-66.6666666666667,4,3,2,95,0,1
207480,-66.6666666666667,4,3,69,5,0,1
207723,-66.6666666666667,4,3,2,95,0,1
210318,-66.6666666666667,4,3,2,100,0,1
210642,-66.6666666666667,4,3,2,95,0,1
212669,-66.6666666666667,4,3,69,5,0,1
212913,-66.6666666666667,4,3,2,95,0,1
219723,-66.6666666666667,4,3,2,85,0,1
220129,-66.6666666666667,4,3,69,5,0,1
220210,-66.6666666666667,4,3,2,85,0,1
220291,-66.6666666666667,4,3,69,5,0,1
220372,-66.6666666666667,4,3,2,85,0,1
220453,-66.6666666666667,4,3,69,5,0,1
220696,-50,4,3,2,100,0,1
220940,-50,4,3,69,5,0,1
221021,-100,4,3,2,85,0,1
221102,-100,4,3,69,5,0,1
221183,-50,4,3,2,85,0,1
221264,-50,4,3,69,5,0,1
221345,-100,4,3,2,85,0,1
221426,-100,4,3,69,5,0,1
221507,-50,4,3,2,85,0,1
221588,-50,4,3,69,5,0,1
221669,-100,4,3,2,85,0,1
221750,-100,4,3,69,5,0,1
221831,-50,4,3,2,85,0,1
221913,-50,4,3,69,5,0,1
221992,-100,4,3,2,85,0,1
222075,-100,4,3,69,5,0,1
222154,-50,4,3,2,85,0,1
222237,-50,4,3,69,5,0,1
222316,-100,4,3,2,85,0,1
222399,-100,4,3,69,5,0,1
222478,-50,4,3,2,85,0,1
222561,-50,4,3,69,5,0,1
222640,-100,4,3,2,85,0,1
222723,-100,4,3,69,5,0,1
222802,-50,4,3,2,85,0,1
222886,-50,4,3,69,5,0,1
222965,-100,4,3,2,85,0,1
223048,-100,4,3,69,5,0,1
223127,-50,4,3,2,85,0,1
223210,-50,4,3,69,5,0,1
223289,-100,4,3,2,85,0,1
223372,-100,4,3,69,5,0,1
223451,-50,4,3,2,85,0,1
223534,-50,4,3,69,5,0,1
223613,-100,4,3,2,85,0,1
223696,-100,4,3,69,5,0,1
223775,-50,4,3,2,85,0,1
223859,-50,4,3,69,5,0,1
223938,-100,4,3,2,85,0,1
224021,-100,4,3,69,5,0,1
224100,-50,4,3,2,85,0,1
224183,-50,4,3,69,5,0,1
224262,-100,4,3,2,85,0,1
224345,-100,4,3,69,5,0,1
224424,-50,4,3,2,85,0,1
224507,-50,4,3,69,5,0,1
224586,-100,4,3,2,85,0,1
224669,-100,4,3,69,5,0,1
224748,-50,4,3,2,85,0,1
224832,-50,4,3,69,5,0,1
224911,-100,4,3,2,85,0,1
224994,-100,4,3,69,5,0,1
225073,-50,4,3,2,85,0,1
225156,-50,4,3,69,5,0,1
225235,-100,4,3,2,85,0,1
225318,-100,4,3,69,5,0,1
225397,-50,4,3,2,85,0,1
225480,-50,4,3,69,5,0,1
225559,-100,4,3,2,85,0,1
225642,-100,4,3,69,5,0,1
225721,-50,4,3,2,85,0,1
225805,-50,4,3,69,5,0,1
225884,-100,4,3,2,85,0,1
225967,-100,4,3,69,5,0,1
226046,-50,4,3,2,85,0,1
226129,-50,4,3,69,5,0,1
226210,-100,4,3,2,90,0,1
226291,-100,4,3,69,5,0,1
226372,-100,4,3,2,90,0,1
226453,-100,4,3,69,5,0,1
226534,-100,4,3,2,90,0,1
226615,-100,4,3,69,5,0,1
226696,-100,4,3,2,90,0,1
226777,-100,4,3,69,5,0,1
226859,-100,4,3,2,90,0,1
226940,-100,4,3,69,5,0,1
227021,-100,4,3,2,90,0,1
227102,-100,4,3,69,5,0,1
227183,-100,4,3,2,90,0,1
227264,-100,4,3,69,5,0,1
227345,-100,4,3,2,90,0,1
227426,-100,4,3,69,5,0,1
227507,-100,4,3,2,90,0,1
227588,-100,4,3,69,5,0,1
227669,-100,4,3,2,90,0,1
227750,-100,4,3,69,5,0,1
227832,-100,4,3,2,90,0,1
227913,-100,4,3,69,5,0,1
227994,-100,4,3,2,90,0,1
228075,-100,4,3,69,5,0,1
228156,-100,4,3,2,90,0,1
228237,-100,4,3,69,5,0,1
228318,-100,4,3,2,90,0,1
228399,-100,4,3,69,5,0,1
228480,-100,4,3,2,90,0,1
228561,-100,4,3,69,5,0,1
228642,-100,4,3,2,90,0,1
228723,-100,4,3,69,5,0,1
228805,-100,4,3,2,95,0,1
230102,-100,4,3,2,100,0,1
232696,-1000,4,3,99,100,0,0

[Colours]
Combo1 : 196,0,0
Combo2 : 255,255,202
Combo3 : 181,242,251
Combo4 : 199,157,255
Combo5 : 255,174,255
Combo6 : 81,81,81
Combo7 : 140,140,140
Combo8 : 128,0,0
SliderBorder : 250,250,250
SliderTrackOverride : 0,0,20

[HitObjects]
210,149,1778,6,0,P|273:162|286:216,1,97.50000371933,8|0,0:3|0:0,0:0:0:0:
435,261,2102,2,0,P|372:274|359:328,1,97.50000371933,8|0,0:3|0:0,0:0:0:0:
492,24,2426,6,0,P|429:37|416:91,1,97.50000371933,8|0,0:3|0:0,0:0:0:0:
210,149,2588,2,0,P|273:162|286:216,1,97.50000371933,8|0,0:0|0:0,0:0:0:0:
435,261,2750,2,0,P|372:274|359:328,1,97.50000371933,8|0,0:0|0:0,0:0:0:0:
289,339,2913,2,0,P|352:352|365:406,1,97.50000371933,8|0,0:0|0:0,0:0:0:0:
369,369,3075,6,0,P|339:332|292:330,1,97.50000371933,8|0,0:0|0:0,0:0:0:0:
290,180,3237,2,0,P|260:143|213:141,1,97.50000371933,8|0,0:0|0:0,0:0:0:0:
369,369,3561,6,0,P|339:332|292:330,1,97.50000371933,8|0,0:0|0:0,0:0:0:0:
290,180,3723,2,0,P|260:143|213:141,1,97.50000371933,8|0,0:0|0:0,0:0:0:0:
104,152,4048,22,0,P|96:211|80:342,1,97.50000371933,8|0,0:2|0:0,0:0:0:0:
86,356,4210,2,0,P|94:296|110:166,1,97.50000371933,8|0,0:2|0:0,0:0:0:0:
93,71,4372,102,0,B|28:99|28:99|344:168,1,390.00001487732,8|0,1:3|0:0,0:0:0:0:
432,204,6967,118,0,B|448:167|480:150|480:150|240:182|240:182|234:235|176:259,1,390.00001487732,8|0,1:3|0:0,0:0:0:0:
162,135,9561,118,0,B|120:96|156:35|249:33|296:67|306:188|225:243|199:200|171:215|146:273|174:317,1,390.00001487732,8|0,1:3|0:0,0:0:0:0:
395,216,12156,118,0,B|466:194|466:194|436:145|340:93|238:178|252:283|360:372,1,390.00001487732,8|0,1:3|0:0,0:0:0:0:
105,176,13453,6,0,B|74:134|74:134|169:146|169:146|196:186|196:186|303:202|303:202|307:200|307:200|469:223,1,390.00001487732,8|0,1:3|0:0,0:0:0:0:
425,296,14102,102,0,B|442:388|442:388|403:284,1,195.00000743866,8|0,1:3|0:0,0:0:0:0:
398,218,14345,2,0,B|424:175|424:175|402:227,1,97.50000371933,8|0,1:3|0:0,0:0:0:0:
388,220,14426,2,0,B|340:203|340:203|390:229,1,97.50000371933,8|0,1:3|0:0,0:0:0:0:
350,124,14588,2,0,B|333:32|333:32|372:136,1,195.00000743866,8|0,1:3|0:0,0:0:0:0:
309,294,14750,54,0,B|190:325|138:214|193:183|153:54|-4:95,1,390.00001487732,8|0,0:0|0:0,0:0:0:0:
45,232,15075,5,8,0:2:0:0:
79,249,15156,1,0,0:0:0:0:
117,246,15237,1,0,0:0:0:0:
149,224,15318,1,0,0:0:0:0:
166,189,15399,6,0,P|170:162|179:115,1,48.750001859665,8|0,0:2|0:0,0:0:0:0:
191,63,15561,2,0,P|195:36|204:-11,1,48.750001859665
342,103,15723,5,8,0:2:0:0:
352,161,15805,1,0,0:0:0:0:
326,213,15886,1,0,0:0:0:0:
280,249,15967,1,0,0:0:0:0:
263,305,16048,2,0,P|258:339|256:369,1,48.750001859665,8|0,0:2|0:0,0:0:0:0:
415,254,16210,69,0,0:0:0:0:
399,197,16291,1,0,0:0:0:0:
352,161,16372,1,8,0:2:0:0:
294,148,16453,1,0,0:0:0:0:
236,157,16534,1,0,0:0:0:0:
188,190,16615,1,0,0:0:0:0:
161,242,16696,6,0,P|156:276|154:306,1,48.750001859665,8|0,0:2|0:0,0:0:0:0:
57,276,16859,2,0,P|59:251|62:227,1,48.750001859665
125,95,17021,1,8,0:2:0:0:
129,104,17102,6,0,P|125:129|121:154,1,48.750001859665,0|8,0:0|0:2,0:0:0:0:
65,291,17264,1,0,0:0:0:0:
57,276,17345,6,0,B|6:215|6:215|472:287,1,390.00001487732,8|0,0:0|0:0,0:0:0:0:
403,317,17588,69,0,0:0:0:0:
412,324,17669,2,0,P|445:328|499:337,1,52,8|0,0:2|0:0,0:0:0:0:
420,177,17832,5,0,0:0:0:0:
410,182,17913,1,0,0:0:0:0:
403,190,17994,5,8,0:2:0:0:
353,227,18075,1,0,0:0:0:0:
294,205,18156,1,0,0:0:0:0:
284,143,18237,1,0,0:0:0:0:
333,104,18318,1,8,0:2:0:0:
379,100,18399,1,0,0:0:0:0:
406,93,18480,1,0,0:0:0:0:
419,73,18561,1,0,0:0:0:0:
418,54,18642,6,0,P|414:30|406:-2,1,52,8|0,0:2|0:0,0:0:0:0:
257,37,18805,69,0,0:0:0:0:
252,46,18886,1,0,0:0:0:0:
249,56,18967,1,8,0:2:0:0:
249,70,19048,1,0,0:0:0:0:
241,86,19129,1,0,0:0:0:0:
221,96,19210,1,0,0:0:0:0:
189,94,19291,1,8,0:2:0:0:
167,64,19372,1,0,0:0:0:0:
134,23,19453,1,0,0:0:0:0:
67,26,19534,1,8,0:2:0:0:
32,86,19615,6,0,P|26:116|24:144,1,52,8|0,0:2|0:0,0:0:0:0:
86,269,19777,5,8,0:2:0:0:
98,313,19859,1,0,0:0:0:0:
112,362,19940,2,0,B|129:382|129:382|223:368|223:368|274:242|274:242|380:226|380:226|407:250,1,390.00001487732,8|0,0:0|0:0,0:0:0:0:
354,305,20183,5,0,0:0:0:0:
347,320,20264,2,0,P|342:353|339:382,1,55.2500010538101,8|0,0:2|0:0,0:0:0:0:
479,240,20426,1,0,0:0:0:0:
486,214,20507,1,0,0:0:0:0:
488,185,20588,69,8,0:2:0:0:
478,128,20669,1,0,0:0:0:0:
431,97,20750,1,0,0:0:0:0:
382,62,20832,1,0,0:0:0:0:
379,0,20913,5,8,0:2:0:0:
398,1,20994,1,0,0:0:0:0:
415,9,21075,1,0,0:0:0:0:
427,20,21156,1,0,0:0:0:0:
433,32,21237,6,0,B|424:145|424:145|361:193|361:193|349:326|349:326|389:249,1,390.00001487732,8|0,0:0|0:0,0:0:0:0:
509,317,21480,5,0,0:0:0:0:
512,308,21561,1,8,0:2:0:0:
484,281,21642,1,0,0:0:0:0:
436,275,21723,2,0,P|406:271|374:269,1,58.4999982147217
246,253,21886,2,0,P|216:249|184:247,1,58.4999982147217,8|0,0:2|0:0,0:0:0:0:
59,276,22048,1,0,0:0:0:0:
39,308,22129,1,0,0:0:0:0:
49,348,22210,69,8,0:2:0:0:
58,353,22291,1,0,0:0:0:0:
67,356,22372,1,0,0:0:0:0:
75,354,22453,1,0,0:0:0:0:
83,349,22534,6,0,B|174:334|174:334|199:350|199:350|339:325|339:325|376:245|376:245|439:229,1,390.00001487732,8|0,0:0|0:0,0:0:0:0:
325,168,22859,1,8,0:2:0:0:
275,135,22940,1,0,0:0:0:0:
212,138,23021,1,0,0:0:0:0:
163,174,23102,1,0,0:0:0:0:
133,225,23183,6,0,B|40:191|40:191|357:33,1,390.00001487732,8|0,0:0|0:0,0:0:0:0:
459,99,23507,5,8,0:2:0:0:
477,142,23588,1,0,0:0:0:0:
451,188,23669,1,0,0:0:0:0:
418,231,23750,1,0,0:0:0:0:
425,289,23832,70,0,B|448:385|448:385|411:278,1,195.00000743866,8|0,1:1|0:0,0:0:0:0:
257,159,24156,2,0,B|162:130|162:130|273:152,1,195.00000743866,8|0,1:1|0:0,0:0:0:0:
459,99,24480,2,0,B|530:31|530:31|456:116,1,195.00000743866,8|0,1:1|0:0,0:0:0:0:
277,268,24805,5,14,1:1:0:0:
220,283,24886,1,8,1:1:0:0:
163,299,24967,1,8,1:1:0:0:
112,313,25048,1,8,1:1:0:0:
59,328,25129,6,0,P|19:319|9:248,1,97.50000371933,10|0,0:0|1:0,0:0:0:0:
10,255,25291,2,0,P|59:239|123:221,1,97.50000371933,2|0,1:3|1:0,0:0:0:0:
299,162,25453,6,0,P|349:171|370:196,1,77.999997619629,10|0,0:0|1:0,0:0:0:0:
378,203,25615,2,0,P|386:248|394:296,1,77.999997619629,2|0,1:3|1:0,0:0:0:0:
202,169,25777,2,0,P|215:122|231:76,1,97.50000371933,10|0,0:0|1:0,0:0:0:0:
470,31,25940,69,2,1:3:0:0:
476,48,26021,1,2,1:3:0:0:
478,66,26102,2,0,P|437:102|390:97,1,97.50000371933,10|0,0:0|1:0,0:0:0:0:
229,2,26264,6,0,B|197:-2|174:15|184:18|165:51|127:33,1,97.50000371933,2|0,1:3|1:0,0:0:0:0:
52,146,26426,6,0,P|43:194|112:180,1,97.50000371933,10|0,0:0|1:0,0:0:0:0:
100,208,26588,2,0,P|144:191|215:168,1,97.50000371933,2|0,1:3|1:0,0:0:0:0:
173,334,26750,2,0,P|210:365|232:299,1,97.50000371933,10|0,0:0|1:0,0:0:0:0:
250,323,26912,2,0,P|257:275|272:203,1,97.50000371933,2|0,1:3|1:0,0:0:0:0:
396,323,27075,2,0,P|442:306|395:254,1,97.50000371933,10|0,0:0|0:0,0:0:0:0:
386,47,27399,6,0,B|335:35|335:35|288:84,1,97.50000371933,10|0,0:0|1:0,0:0:0:0:
329,175,27561,2,0,B|380:187|380:187|427:138,1,97.50000371933,2|0,1:3|1:0,0:0:0:0:
200,29,27723,70,0,P|152:32|129:74,1,97.50000371933,10|0,0:0|1:0,0:0:0:0:
126,85,27886,2,0,P|152:139|176:190,1,97.50000371933,2|0,1:3|1:0,0:0:0:0:
143,328,28048,2,0,P|191:325|214:283,1,97.50000371933,10|0,0:0|1:0,0:0:0:0:
217,272,28211,2,0,P|191:218|167:167,1,97.50000371933,2|0,1:3|1:0,0:0:0:0:
7,147,28372,2,0,P|10:195|52:218,1,97.50000371933,10|0,0:0|1:0,0:0:0:0:
223,102,28534,1,2,1:3:0:0:
282,83,28615,1,2,1:3:0:0:
341,65,28696,2,0,P|391:60|423:114,1,97.50000371933,10|0,0:0|1:0,0:0:0:0:
427,104,28859,2,0,P|436:161|444:227,1,97.50000371933,2|0,1:3|1:0,0:0:0:0:
258,373,29021,6,0,P|224:355|221:309,1,77.999997619629,10|0,0:0|1:0,0:0:0:0:
135,320,29183,2,0,P|133:281|171:255,1,77.999997619629,2|0,1:3|1:0,0:0:0:0:
350,167,29345,2,0,P|351:205|313:231,1,77.999997619629,10|0,0:0|1:0,0:0:0:0:
365,300,29507,2,0,P|332:320|291:300,1,77.999997619629,2|0,1:3|1:0,0:0:0:0:
124,191,29669,2,0,P|156:170|197:190,1,77.999997619629,10|0,0:0|1:0,0:0:0:0:
231,110,29831,2,0,P|265:127|268:173,1,77.999997619629,2|0,1:3|1:0,0:0:0:0:
49,310,29994,5,10,0:0:0:0:
3,263,30075,1,0,0:0:0:0:
9,199,30156,1,2,0:0:0:0:
64,163,30237,1,0,0:0:0:0:
124,191,30318,6,0,P|163:211|206:178,1,97.50000371933,10|0,0:0|1:0,0:0:0:0:
207,172,30480,2,0,P|214:125|227:31,1,97.50000371933,2|0,1:3|1:0,0:0:0:0:
398,314,30642,2,0,P|359:334|316:301,1,97.50000371933,10|0,0:0|1:0,0:0:0:0:
315,295,30804,2,0,P|308:248|295:154,1,97.50000371933,2|0,0:0|1:0,0:0:0:0:
111,349,30967,2,0,P|150:369|193:336,1,97.50000371933,10|0,0:0|1:0,0:0:0:0:
390,233,31129,69,10,0:0:0:0:
421,231,31210,1,10,0:0:0:0:
445,209,31291,2,0,P|465:170|432:127,1,97.50000371933,10|0,0:0|1:0,0:0:0:0:
277,41,31453,2,0,B|195:44|268:90|153:80,1,97.50000371933,2|0,1:3|1:0,0:0:0:0:
14,77,31615,6,0,P|-6:116|27:159,1,97.50000371933,10|0,0:0|1:0,0:0:0:0:
33,160,31777,2,0,P|80:167|174:180,1,97.50000371933,2|0,1:3|1:0,0:0:0:0:
294,347,31940,2,0,P|255:367|212:334,1,97.50000371933,10|0,0:0|1:0,0:0:0:0:
211,328,32102,2,0,P|204:281|191:187,1,97.50000371933,2|0,1:3|1:0,0:0:0:0:
14,77,32264,2,0,P|-6:116|27:159,1,97.50000371933,10|0,0:0|1:0,0:0:0:0:
33,160,32426,2,0,P|80:167|174:180,1,97.50000371933,2|0,1:3|1:0,0:0:0:0:
357,34,32588,2,0,P|318:14|275:47,1,97.50000371933,10|0,0:0|1:0,0:0:0:0:
274,53,32750,2,0,P|267:100|254:194,1,97.50000371933,10|0,0:0|1:0,0:0:0:0:
464,365,32913,6,0,P|495:347|492:281,1,97.50000371933,10|0,0:0|1:0,0:0:0:0:
405,299,33075,2,0,P|405:334|463:365,1,97.50000371933,2|0,1:3|1:0,0:0:0:0:
490,284,33237,2,0,P|458:266|403:301,1,97.50000371933,10|0,0:0|1:0,0:0:0:0:
296,368,33399,6,0,P|243:361|177:353,1,97.50000371933,2|0,1:3|1:0,0:0:0:0:
164,274,33561,70,0,P|154:328|192:357,1,97.50000371933,10|0,0:0|1:0,0:0:0:0:
307,224,33723,1,2,1:3:0:0:
320,210,33805,1,2,1:3:0:0:
330,182,33886,1,10,0:0:0:0:
310,140,33967,1,2,1:3:0:0:
241,132,34048,1,2,1:3:0:0:
201,192,34129,1,2,1:3:0:0:
236,258,34210,6,0,P|289:268|394:290,1,97.50000371933,10|0,1:3|1:0,0:0:0:0:
415,343,34372,2,0,P|468:353|573:375,1,97.50000371933,2|0,1:3|1:0,0:0:0:0:
402,351,34534,2,0,P|455:361|560:383,1,97.50000371933,2|0,1:3|0:0,0:0:0:0:
225,264,34696,2,0,P|278:274|383:296,1,97.50000371933,2|0,1:3|0:0,0:0:0:0:
46,184,34859,2,0,P|99:194|204:216,1,97.50000371933,2|0,1:3|0:0,0:0:0:0:
142,203,35183,6,0,P|130:119|119:31,1,146.250005578995,4|0,0:0|0:0,0:0:0:0:
238,61,35507,6,0,B|302:16|357:98|340:112|326:128|396:202|458:137,1,260,12|8,0:0|0:2,0:0:0:0:
411,82,35994,1,2,1:3:0:0:
269,131,36156,70,0,P|241:158|241:207,1,65,10|0,0:0|0:0,0:0:0:0:
148,165,36318,2,0,P|167:242|299:263,1,195,2|0,1:3|0:0,0:0:0:0:
284,272,36642,6,0,P|294:311|299:345,1,65,2|8,1:3|0:0,0:0:0:0:
381,191,36967,2,0,P|371:230|366:264,1,65,2|8,1:3|0:2,0:0:0:0:
269,131,37291,6,0,P|279:170|284:204,1,65,2|8,1:3|0:0,0:0:0:0:
369,47,37615,2,0,P|359:86|354:120,1,65,10|8,0:0|0:2,0:0:0:0:
226,36,37940,6,0,P|269:203|290:350,1,292.50001115799,2|8,1:3|0:2,0:0:0:0:
201,378,38588,1,2,1:3:0:0:
295,238,38750,2,0,P|325:244|363:285,1,65,10|0,0:0|0:0,0:0:0:0:
402,199,38913,2,0,P|437:273|351:349,1,195,2|0,1:3|0:0,0:0:0:0:
359,339,39237,70,0,P|353:304|350:268,1,65,2|8,1:3|0:0,0:0:0:0:
211,246,39561,2,0,P|216:211|220:175,1,65,2|8,1:3|0:2,0:0:0:0:
326,159,39886,2,0,P|320:124|317:88,1,65,2|8,1:3|0:0,0:0:0:0:
240,80,40210,2,0,P|245:45|249:9,1,65,10|8,0:0|0:2,0:0:0:0:
326,90,40534,6,0,P|351:241|365:404,1,292.50001115799,2|8,1:3|0:2,0:0:0:0:
114,253,41345,6,0,B|107:246|99:243|99:243|156:172|241:223|241:223|228:234|222:248,1,195,8|0,0:0|0:0,0:0:0:0:
174,317,41669,2,0,P|187:380|181:317,1,195,8|0,0:2|0:0,0:0:0:0:
426,197,41994,2,0,B|433:190|441:187|441:187|384:116|299:167|299:167|312:178|318:192,1,195,8|0,0:0|0:0,0:0:0:0:
365,261,42318,2,0,P|352:324|359:261,1,195,8|0,0:2|0:0,0:0:0:0:
488,260,42642,1,8,0:0:0:0:
310,179,42805,1,10,0:0:0:0:
334,362,42967,1,10,0:2:0:0:
452,100,43129,6,0,B|450:59|384:52|335:98|344:174|400:200|420:198|454:195|491:250|507:328|429:376,1,390,2|8,1:3|0:2,0:0:0:0:
46,114,43940,70,0,B|39:107|31:104|31:104|88:33|173:84|173:84|160:95|154:109,1,195,8|0,0:0|0:0,0:0:0:0:
106,178,44264,2,0,P|118:241|112:177,1,195,8|0,0:2|0:0,0:0:0:0:
357,172,44588,2,0,B|364:165|372:162|372:162|315:91|230:142|230:142|243:153|249:167,1,195,8|0,0:0|0:0,0:0:0:0:
296,236,44912,2,0,P|283:299|289:235,1,195,8|0,0:2|0:0,0:0:0:0:
8,236,45237,2,0,B|2:231|-7:226|-7:226|27:182|84:187,1,65,8|0,0:0|0:0,0:0:0:0:
150,216,45399,2,0,B|158:207|160:202|160:202|131:187|97:182,1,65,8|0,0:0|0:0,0:0:0:0:
80,298,45561,2,0,P|92:361|86:297,1,195,8|0,0:2|0:0,0:0:0:0:
257,156,45886,6,0,B|352:130|396:229|396:229|390:289|450:318,1,260,12|8,0:0|0:2,0:0:0:0:
480,241,46372,1,2,2:0:0:0:
477,160,46534,6,0,P|432:172|417:188,1,65,8|0,0:0|0:0,0:0:0:0:
424,312,46696,2,0,P|386:249|460:156,1,195,2|0,2:0|0:0,0:0:0:0:
359,267,47021,6,0,P|324:261|288:258,1,65,2|8,2:0|0:0,0:0:0:0:
288,125,47345,2,0,P|253:131|217:134,1,65,2|8,2:0|0:2,0:0:0:0:
195,248,47669,2,0,P|160:242|124:239,1,65,2|8,2:0|0:0,0:0:0:0:
113,143,47994,2,0,P|78:149|42:152,1,65,10|8,2:3|0:2,0:0:0:0:
0,240,48318,70,0,P|194:257|386:291,1,390,2|8,2:0|0:2,0:0:0:0:
397,299,48967,1,2,2:0:0:0:
254,109,49129,6,0,P|233:124|212:159,1,65,8|0,0:0|0:0,0:0:0:0:
129,117,49291,2,0,P|128:196|225:253,1,195,2|0,2:0|0:0,0:0:0:0:
70,271,49615,6,0,P|105:265|141:262,1,65,2|8,2:0|0:0,0:0:0:0:
212,156,49940,2,0,P|244:161|276:164,1,65,2|8,2:0|0:2,0:0:0:0:
298,258,50264,2,0,P|333:252|369:249,1,65,2|8,2:0|0:0,0:0:0:0:
376,162,50588,2,0,P|411:168|447:171,1,65,10|8,2:3|0:2,0:0:0:0:
455,309,50913,6,0,B|451:335|458:359|458:359|418:333|432:243|467:243|499:246|536:195|508:139,1,292.50001115799,2|8,2:0|0:2,0:0:0:0:
465,62,51723,70,0,B|472:55|480:52|480:52|423:-19|338:32|338:32|351:43|357:57,1,195,8|0,0:0|0:0,0:0:0:0:
405,126,52047,2,0,P|392:189|398:126,1,195,8|0,0:2|0:0,0:0:0:0:
149,127,52372,2,0,B|142:120|134:117|134:117|191:46|276:97|276:97|263:108|257:122,1,195,8|0,0:0|0:0,0:0:0:0:
210,191,52696,2,0,P|223:254|216:191,1,195,8|0,0:2|0:0,0:0:0:0:
88,190,53021,1,8,0:0:0:0:
329,158,53183,1,10,2:3:0:0:
233,351,53345,1,10,0:2:0:0:
88,190,53507,6,0,P|71:116|61:59,1,130,2|8,2:0|0:0,0:0:0:0:
396,192,53832,6,0,P|381:255|369:319,1,130,2|8,2:0|0:2,0:0:0:0:
306,97,54156,6,0,B|282:36|186:71|173:149|237:209|308:181|308:181|332:96|423:110,1,390,2|8,2:0|0:2,0:0:0:0:
46,62,54967,70,0,B|39:55|31:52|31:52|88:-19|173:32|173:32|160:43|154:57,1,195,8|0,0:0|0:0,0:0:0:0:
106,126,55291,2,0,P|119:189|113:126,1,195,8|0,0:2|0:0,0:0:0:0:
24,245,55615,6,0,P|16:285|11:318,1,65,8|0,0:0|0:0,0:0:0:0:
189,216,55777,1,8,0:2:0:0:
184,195,55859,1,8,0:2:0:0:
178,175,55940,1,8,0:2:0:0:
2,322,56102,1,8,0:2:0:0:
268,180,56264,6,0,B|343:142|378:233|358:250|341:263|392:361|481:285,1,260,12|8,0:0|0:2,0:0:0:0:
459,300,56750,1,2,2:0:0:0:
441,207,56913,6,0,P|404:216|365:227,1,65,8|0,0:0|0:0,0:0:0:0:
281,252,57075,2,0,P|206:270|128:292,1,130,2|8,2:0|0:2,0:0:0:0:
98,332,57399,2,0,P|73:297|78:276,1,65,2|8,2:0|0:0,0:0:0:0:
7,254,57723,2,0,P|24:214|45:208,1,65,2|8,2:0|0:2,0:0:0:0:
27,137,58048,2,0,P|69:132|85:147,1,65,2|8,2:0|0:0,0:0:0:0:
142,95,58372,2,0,P|167:130|162:151,1,65,10|8,2:3|0:2,0:0:0:0:
121,219,58696,70,0,P|271:241|425:272,1,292.50001115799,2|8,2:0|0:2,0:0:0:0:
492,309,59345,1,2,2:0:0:0:
280,331,59507,6,0,P|274:303|269:265,1,65,8|0,0:0|0:0,0:0:0:0:
253,149,59669,2,0,P|242:93|230:15,1,130,2|8,2:0|0:2,0:0:0:0:
384,3,59994,2,0,P|409:38|404:59,1,65,2|8,2:0|0:0,0:0:0:0:
475,81,60318,2,0,P|457:120|436:126,1,65,2|8,2:0|0:2,0:0:0:0:
455,198,60643,2,0,P|412:202|396:187,1,65,2|8,2:0|0:0,0:0:0:0:
340,240,60967,2,0,P|315:205|320:184,1,65,10|8,2:3|0:2,0:0:0:0:
359,117,61291,6,0,P|215:88|70:67,1,292.50001115799,2|8,2:0|0:2,0:0:0:0:
57,76,61940,1,0,2:0:0:0:
188,122,62102,6,0,L|199:172,1,48.750001859665,8|0,0:0|0:0,0:0:0:0:
216,246,62264,2,0,L|227:296,1,48.750001859665,0|0,2:0|0:0,0:0:0:0:
238,300,62588,2,0,L|227:252,1,48.750001859665,0|0,2:0|0:0,0:0:0:0:
439,115,62750,70,0,B|446:108|454:105|454:105|397:34|312:85|312:85|325:96|331:110,1,195,8|0,0:0|0:0,0:0:0:0:
379,179,63074,2,0,P|366:242|372:179,1,195,8|0,0:2|0:0,0:0:0:0:
489,179,63399,1,8,0:0:0:0:
275,156,63561,1,10,2:3:0:0:
363,326,63723,1,10,0:2:0:0:
342,87,63886,6,0,B|326:62|304:53|304:53|392:-7|478:80|478:80|391:117|370:203,1,390,2|8,2:0|0:2,0:0:0:0:
386,191,64534,1,0,2:0:0:0:
226,80,64696,6,0,L|176:69,1,48.750001859665,8|0,0:0|0:0,0:0:0:0:
102,52,64858,2,0,L|52:41,1,48.750001859665,0|0,2:0|0:0,0:0:0:0:
48,30,65182,2,0,L|95:40,1,48.750001859665,0|0,2:0|0:0,0:0:0:0:
179,202,65345,2,0,B|186:195|194:192|194:192|137:121|52:172|52:172|65:183|71:197,1,195,8|0,0:0|0:0,0:0:0:0:
118,266,65669,2,0,P|105:329|111:265,1,195,8|0,0:2|0:0,0:0:0:0:
424,242,65994,2,0,B|432:233|434:228|434:228|405:213|371:208,1,65,8|0,0:0|0:0,0:0:0:0:
282,262,66156,2,0,B|276:257|267:252|267:252|301:208|358:213,1,65,8|0,2:3|0:0,0:0:0:0:
354,324,66318,2,0,P|366:387|360:323,1,195,8|0,0:2|0:0,0:0:0:0:
118,266,66642,6,0,B|69:228|39:290|41:359|137:385|193:344|203:281,1,260,12|8,0:0|0:2,0:0:0:0:
200,288,67129,1,2,2:0:0:0:
125,155,67291,70,0,P|89:162|52:171,1,65,2|0,1:3|0:0,0:0:0:0:
7,101,67453,2,0,P|70:85|134:73,1,130,2|8,2:0|0:2,0:0:0:0:
458,100,67777,2,0,P|423:125|402:120,1,65,2|0,2:0|1:0,0:0:0:0:
380,191,68101,2,0,P|340:173|334:152,1,65,2|8,2:0|0:2,0:0:0:0:
263,171,68426,2,0,P|258:128|273:112,1,65,2|0,2:0|1:0,0:0:0:0:
221,56,68750,2,0,P|256:31|277:36,1,65,2|8,2:0|0:2,0:0:0:0:
341,75,69075,2,0,P|375:220|404:366,1,292.50001115799,2|8,2:0|0:2,0:0:0:0:
399,374,69723,1,2,2:0:0:0:
298,276,69886,6,0,P|334:283|371:292,1,65,2|0,1:3|0:0,0:0:0:0:
416,222,70048,2,0,P|352:206|288:194,1,130,2|8,2:0|0:2,0:0:0:0:
51,238,70372,2,0,P|86:263|107:258,1,65,2|0,2:0|1:0,0:0:0:0:
129,329,70696,2,0,P|168:311|174:290,1,65,2|8,2:0|0:2,0:0:0:0:
246,309,71021,2,0,P|250:266|235:250,1,65,2|0,2:0|1:0,0:0:0:0:
288,194,71345,2,0,P|253:169|232:174,1,65,2|8,2:0|0:2,0:0:0:0:
171,216,71669,1,2,2:0:0:0:
333,40,71832,6,0,L|371:2,3,48.750001859665,2|2|2|2,1:3|1:3|2:0|1:3,0:0:0:0:
464,71,72156,2,0,L|516:85,3,48.750001859665,10|2|2|2,0:2|1:3|2:0|1:3,0:0:0:0:
497,192,72480,2,0,L|511:245,3,48.750001859665,2|2|2|2,1:3|1:3|2:0|1:3,0:0:0:0:
412,286,72805,2,0,L|384:333,3,48.750001859665,10|2|2|2,0:2|1:3|2:0|1:3,0:0:0:0:
292,279,73129,2,0,L|238:293,3,48.750001859665,2|2|2|2,1:3|1:3|2:0|1:3,0:0:0:0:
228,190,73453,2,0,L|180:162,3,48.750001859665,10|2|2|2,0:2|1:3|2:0|1:3,0:0:0:0:
266,94,73777,5,2,1:3:0:0:
261,74,73859,1,2,1:3:0:0:
255,56,73940,2,0,L|244:7,1,48.750001859665,2|2,2:0|1:3,0:0:0:0:
157,30,74102,2,0,L|168:79,1,48.750001859665,10|2,0:2|1:3,0:0:0:0:
203,264,74264,2,0,L|215:311,3,48.750001859665,2|2|2|2,2:0|1:3|1:3|1:3,0:0:0:0:
121,284,74588,2,0,L|133:331,3,48.750001859665,2|2|10|2,2:0|1:3|0:2|1:3,0:0:0:0:
41,305,74913,2,0,L|53:352,5,48.750001859665,2|2|2|2|2|2,2:0|1:3|1:3|1:3|2:0|1:3,0:0:0:0:
12,174,75399,2,0,L|0:126,3,48.750001859665,10|2|2|2,0:2|1:3|2:0|1:3,0:0:0:0:
87,153,75723,70,0,L|74:105,3,48.750001859665,2|2|2|2,1:3|1:3|2:0|1:3,0:0:0:0:
121,284,76048,2,0,L|133:331,3,48.750001859665,10|2|2|2,1:2|1:3|2:0|1:3,0:0:0:0:
196,260,76372,1,2,1:3:0:0:
201,270,76453,1,2,1:3:0:0:
206,282,76534,5,10,0:2:0:0:
261,296,76615,1,10,0:2:0:0:
314,309,76696,1,10,0:2:0:0:
201,127,76859,1,10,0:2:0:0:
151,201,77021,1,6,1:3:0:0:
76,288,82210,38,0,L|86:356,3,48.750001859665,8|0|0|0,0:0|0:0|0:0|0:0,0:0:0:0:
152,277,82534,2,0,L|162:345,3,48.750001859665,8|0|0|0,0:0|0:0|0:0|0:0,0:0:0:0:
228,263,82859,2,0,L|238:331,3,48.750001859665,8|0|0|0,0:0|0:0|0:0|0:0,0:0:0:0:
304,249,83183,2,0,L|314:317,3,48.750001859665,8|0|0|0,0:0|0:0|0:0|0:0,0:0:0:0:
512,133,83507,6,0,L|502:201,3,48.750001859665,8|0|0|0,0:0|0:0|0:0|0:0,0:0:0:0:
436,122,83831,2,0,L|426:190,3,48.750001859665,8|0|0|0,0:0|0:0|0:0|0:0,0:0:0:0:
360,108,84156,2,0,L|350:176,3,48.750001859665,8|0|0|0,0:0|0:0|0:0|0:0,0:0:0:0:
284,94,84480,2,0,L|274:162,3,48.750001859665,8|0|0|0,0:0|0:0|0:0|0:0,0:0:0:0:
83,336,84805,6,0,L|75:287,3,48.750001859665,8|0|0|0,0:0|0:0|0:0|0:0,0:0:0:0:
159,325,85129,2,0,L|151:276,3,48.750001859665,8|0|0|0,0:0|0:0|0:0|0:0,0:0:0:0:
235,311,85453,2,0,L|227:262,3,48.750001859665,8|0|0|0,0:0|0:0|0:0|0:0,0:0:0:0:
311,297,85777,2,0,L|303:248,3,48.750001859665,8|0|0|0,0:0|0:0|0:0|0:0,0:0:0:0:
504,181,86102,6,0,L|511:132,3,48.750001859665,8|0|0|0,0:0|0:0|0:0|0:0,0:0:0:0:
428,170,86426,2,0,L|435:121,3,48.750001859665,8|0|0|0,0:0|0:0|0:0|0:0,0:0:0:0:
352,156,86751,2,0,L|359:107,3,48.750001859665,8|0|0|0,0:0|0:0|0:0|0:0,0:0:0:0:
276,142,87075,2,0,L|283:93,1,48.750001859665,8|0,0:0|0:0,0:0:0:0:
195,193,87237,2,0,L|202:241,1,48.750001859665,8|0,0:0|0:0,0:0:0:0:
264,318,87399,70,0,P|231:347|169:339,1,97.50000371933,8|0,0:0|0:0,0:0:0:0:
95,192,87561,1,0,0:0:0:0:
98,149,87642,1,0,0:0:0:0:
124,111,87723,2,0,P|157:82|219:90,1,97.50000371933,8|0,0:0|0:0,0:0:0:0:
293,237,87886,1,0,0:0:0:0:
290,280,87967,1,0,0:0:0:0:
264,318,88048,2,0,P|231:347|169:339,1,97.50000371933,8|0,0:0|0:0,0:0:0:0:
95,192,88210,1,0,0:0:0:0:
98,149,88291,1,0,0:0:0:0:
124,111,88372,2,0,P|157:82|219:90,1,97.50000371933,8|0,0:0|0:0,0:0:0:0:
370,184,88534,5,0,0:0:0:0:
373,227,88615,1,0,0:0:0:0:
399,265,88696,2,0,P|435:295|483:292,1,97.50000371933,8|0,0:0|0:0,0:0:0:0:
387,108,88859,1,0,0:0:0:0:
384,65,88940,1,0,0:0:0:0:
358,27,89021,2,0,P|321:-3|273:0,1,97.50000371933,8|0,0:0|0:0,0:0:0:0:
370,184,89183,1,0,0:0:0:0:
373,227,89264,1,0,0:0:0:0:
399,265,89345,2,0,P|435:295|483:292,1,97.50000371933,8|0,0:0|0:0,0:0:0:0:
387,108,89507,1,0,0:0:0:0:
384,65,89588,1,0,0:0:0:0:
358,27,89669,2,0,P|321:-3|273:0,1,97.50000371933,8|0,0:0|0:0,0:0:0:0:
41,0,89832,5,0,0:0:0:0:
44,43,89913,1,0,0:0:0:0:
70,81,89994,2,0,P|106:111|154:108,1,97.50000371933,8|0,0:0|0:0,0:0:0:0:
277,211,90156,1,0,0:0:0:0:
274,168,90237,1,0,0:0:0:0:
248,130,90318,2,0,P|211:99|163:102,1,97.50000371933,8|0,0:0|0:0,0:0:0:0:
41,0,90480,1,0,0:0:0:0:
44,43,90561,1,0,0:0:0:0:
70,81,90642,2,0,P|106:111|154:108,1,97.50000371933,8|0,0:0|0:0,0:0:0:0:
277,211,90804,1,0,0:0:0:0:
274,168,90885,1,0,0:0:0:0:
248,130,90966,2,0,P|211:99|163:102,1,97.50000371933,8|0,0:0|0:0,0:0:0:0:
75,234,91129,5,0,0:0:0:0:
78,277,91210,1,0,0:0:0:0:
104,315,91291,2,0,P|140:345|188:342,1,97.50000371933,8|0,0:0|0:0,0:0:0:0:
361,238,91453,1,0,0:0:0:0:
358,195,91534,1,0,0:0:0:0:
332,157,91615,2,0,P|295:126|247:129,1,97.50000371933,8|0,0:0|0:0,0:0:0:0:
159,261,91777,1,0,0:0:0:0:
162,304,91858,1,0,0:0:0:0:
188,342,91939,2,0,P|224:372|272:369,1,97.50000371933,8|0,0:0|0:0,0:0:0:0:
445,265,92102,1,0,0:0:0:0:
442,222,92183,1,0,0:0:0:0:
416,184,92264,2,0,P|379:153|331:156,1,97.50000371933,8|0,0:0|0:0,0:0:0:0:
243,288,92426,69,0,0:0:0:0:
246,331,92507,1,0,0:0:0:0:
272,369,92588,6,0,P|319:358|370:349,1,97.50000371933,10|0,0:0|1:3,0:0:0:0:
239,187,92750,1,10,0:2:0:0:
205,152,92832,1,2,0:0:0:0:
151,149,92913,1,10,0:0:0:0:
108,177,92994,1,2,1:3:0:0:
98,233,93075,1,10,0:2:0:0:
246,197,93237,6,0,P|293:186|344:177,1,97.50000371933,14|0,0:0|1:3,0:0:0:0:
42,38,93399,1,10,0:2:0:0:
76,3,93481,1,2,0:0:0:0:
130,0,93562,1,10,0:0:0:0:
173,28,93643,1,2,1:3:0:0:
183,84,93724,1,10,0:2:0:0:
86,330,93886,6,0,P|34:338|-1:312,1,97.50000371933,10|0,0:0|1:3,0:0:0:0:
27,161,94048,2,0,P|79:153|114:179,1,97.50000371933,10|0,0:2|0:0,0:0:0:0:
184,264,94210,1,10,0:0:0:0:
121,256,94291,1,2,1:3:0:0:
59,246,94372,1,10,0:2:0:0:
262,88,94534,69,14,0:0:0:0:
325,80,94615,1,2,1:3:0:0:
387,70,94696,1,10,0:2:0:0:
450,62,94778,1,2,0:0:0:0:
512,52,94859,1,10,0:0:0:0:
353,208,95021,1,8,0:2:0:0:
448,241,95183,6,0,P|439:186|430:145,1,97.50000371933,10|0,0:0|1:3,0:0:0:0:
251,177,95345,2,0,P|261:224|268:272,1,97.50000371933,10|0,0:2|0:0,0:0:0:0:
361,257,95507,5,10,0:0:0:0:
353,208,95588,1,2,1:3:0:0:
343,161,95669,1,10,0:2:0:0:
158,196,95832,5,14,0:0:0:0:
168,243,95913,1,2,1:3:0:0:
176,292,95994,1,10,0:2:0:0:
8,127,96156,2,0,P|56:134|103:144,1,97.50000371933,10|0,0:0|1:3,0:0:0:0:
268,272,96318,1,8,0:2:0:0:
190,128,96480,70,0,P|138:120|103:146,1,97.50000371933,10|0,0:0|1:3,0:0:0:0:
144,357,96642,2,0,P|196:365|231:339,1,97.50000371933,10|0,0:2|0:0,0:0:0:0:
325,242,96805,5,10,0:0:0:0:
382,219,96886,1,2,1:3:0:0:
442,240,96967,1,10,0:2:0:0:
466,292,97048,1,0,0:0:0:0:
445,353,97129,1,14,0:0:0:0:
314,166,97291,5,10,0:2:0:0:
252,147,97372,1,2,0:0:0:0:
190,128,97453,1,10,0:0:0:0:
385,323,97615,1,8,0:2:0:0:
416,89,97777,5,10,0:0:0:0:
424,35,97859,1,2,1:3:0:0:
477,15,97940,1,8,0:2:0:0:
512,61,98021,1,2,0:0:0:0:
488,112,98102,1,10,0:0:0:0:
442,132,98183,1,2,1:3:0:0:
419,185,98264,1,10,0:2:0:0:
208,74,98426,70,0,P|157:64|105:58,1,97.50000371933,14|0,0:0|1:3,0:0:0:0:
48,269,98588,1,10,0:2:0:0:
81,305,98669,1,2,0:0:0:0:
137,303,98750,2,0,P|187:293|240:287,1,97.50000371933,10|0,0:0|1:3,0:0:0:0:
349,312,98913,1,8,0:2:0:0:
74,157,99075,5,10,0:0:0:0:
63,172,99156,2,0,P|53:222|47:275,1,97.50000371933,2|8,1:3|0:2,0:0:0:0:
162,149,99318,5,2,0:0:0:0:
146,102,99399,1,10,0:0:0:0:
96,77,99480,2,0,P|45:67|-7:61,1,97.50000371933,2|8,1:3|0:2,0:0:0:0:
233,287,99642,1,2,0:0:0:0:
241,300,99723,5,14,0:0:0:0:
299,313,99805,1,2,1:3:0:0:
357,327,99886,1,8,0:2:0:0:
414,340,99967,1,0,0:0:0:0:
477,350,100048,1,10,0:0:0:0:
361,182,100210,1,8,0:2:0:0:
217,383,100372,70,0,P|226:332|233:280,1,97.50000371933,10|0,0:0|1:3,0:0:0:0:
96,77,100534,5,10,0:2:0:0:
42,71,100615,1,2,0:0:0:0:
6,109,100696,1,10,0:0:0:0:
6,165,100777,1,2,1:3:0:0:
53,202,100859,1,10,0:2:0:0:
338,100,101021,5,14,0:0:0:0:
397,100,101102,1,0,1:3:0:0:
440,146,101183,1,10,0:2:0:0:
443,208,101264,1,2,0:0:0:0:
406,257,101345,1,10,0:0:0:0:
476,74,101507,1,8,0:2:0:0:
347,272,101669,6,0,P|296:262|244:256,1,97.50000371933,10|0,0:0|1:3,0:0:0:0:
144,100,101832,2,0,P|161:148|181:197,1,97.50000371933,10|0,0:2|0:0,0:0:0:0:
91,359,101994,2,0,P|124:319|156:277,1,97.50000371933,10|0,0:0|1:3,0:0:0:0:
237,116,102156,1,10,0:2:0:0:
227,61,102237,1,2,0:0:0:0:
183,18,102318,1,14,0:0:0:0:
120,15,102399,1,2,1:3:0:0:
67,48,102480,1,10,0:2:0:0:
52,113,102561,1,2,0:0:0:0:
80,173,102642,70,0,P|128:179|176:188,1,97.50000371933,10|2,0:0|1:3,0:0:0:0:
260,221,102886,2,0,P|366:235|471:255,1,195.00000743866,2|0,0:0|0:0,0:0:0:0:
270,236,103129,2,0,P|360:247|449:264,1,168.999992263794,10|0,0:2|0:0,0:0:0:0:
281,248,103372,2,0,P|354:257|426:271,1,143.000004364014,2|0,1:3|0:0,0:0:0:0:
286,259,103615,2,0,P|353:267|419:280,1,130,14|0,0:0|0:0,0:0:0:0:
292,272,103859,2,0,P|359:280|425:293,1,116.999996429443,2|0,0:0|0:0,0:0:0:0:
298,283,104102,2,0,P|355:290|412:301,1,104,10|0,0:2|0:0,0:0:0:0:
302,294,104345,2,0,P|350:300|398:309,1,90.9999972229005,2|0,1:3|0:0,0:0:0:0:
308,305,104588,2,0,P|351:310|394:318,1,77.999997619629,10|0,0:0|0:0,0:0:0:0:
310,314,104832,2,0,P|344:318|379:325,1,65,2|0,0:0|0:0,0:0:0:0:
314,325,105075,1,10,0:2:0:0:
296,189,105237,6,0,L|159:214,1,97.50000371933,8|2,0:0|1:3,0:0:0:0:
31,256,105399,1,10,0:2:0:0:
21,283,105480,1,0,0:0:0:0:
29,310,105561,2,0,L|166:285,1,97.50000371933,8|0,0:0|1:3,0:0:0:0:
294,243,105723,1,8,0:2:0:0:
304,216,105804,1,0,0:0:0:0:
296,189,105885,6,0,L|159:214,1,97.50000371933,8|0,0:0|1:3,0:0:0:0:
31,256,106048,1,8,0:2:0:0:
21,283,106129,1,0,0:0:0:0:
29,310,106210,2,0,L|166:285,1,97.50000371933,12|0,0:0|1:3,0:0:0:0:
294,243,106372,1,8,0:2:0:0:
304,216,106453,1,0,0:0:0:0:
296,189,106534,6,0,L|159:214,1,97.50000371933,8|0,0:0|1:3,0:0:0:0:
31,256,106696,1,8,0:2:0:0:
21,283,106777,1,0,0:0:0:0:
29,310,106859,69,8,0:0:0:0:
45,320,106940,1,0,1:3:0:0:
63,327,107021,1,8,0:2:0:0:
81,332,107102,1,0,0:0:0:0:
100,336,107183,1,8,0:0:0:0:
105,317,107264,1,0,1:3:0:0:
113,299,107345,1,8,0:2:0:0:
124,283,107426,1,0,0:0:0:0:
138,270,107507,21,12,0:0:0:0:
176,266,107588,1,2,1:3:0:0:
165,228,107669,1,10,0:2:0:0:
198,247,107750,1,2,0:0:0:0:
208,208,107832,1,10,0:0:0:0:
230,239,107913,1,2,1:3:0:0:
255,209,107994,1,10,0:2:0:0:
264,246,108075,1,0,0:0:0:0:
299,229,108156,1,10,2:3:0:0:
285,265,108237,1,2,2:3:0:0:
323,271,108318,1,10,2:2:0:0:
293,295,108399,1,2,2:3:0:0:
320,322,108480,1,10,2:3:0:0:
281,326,108561,1,2,2:3:0:0:
295,362,108642,1,10,2:2:0:0:
258,347,108723,1,2,2:3:0:0:
239,381,108805,1,14,2:3:0:0:
223,345,108886,1,2,2:3:0:0:
194,371,108967,1,10,2:2:0:0:
195,332,109048,1,2,2:3:0:0:
156,337,109129,5,10,2:3:0:0:
127,310,109210,1,2,2:3:0:0:
125,271,109291,1,10,2:2:0:0:
148,239,109372,1,2,2:3:0:0:
186,234,109453,1,8,2:3:0:0:
148,222,109534,1,0,2:3:0:0:
130,187,109615,1,8,2:2:0:0:
137,148,109696,1,0,2:3:0:0:
172,131,109777,69,8,2:3:0:0:
169,91,109859,1,0,2:3:0:0:
148,58,109940,1,8,2:2:0:0:
110,47,110021,1,0,2:3:0:0:
73,61,110102,1,12,2:3:0:0:
110,72,110183,1,0,2:3:0:0:
148,68,110264,1,8,2:2:0:0:
183,52,110345,1,0,2:3:0:0:
215,30,110426,5,8,2:3:0:0:
210,78,110507,1,0,2:3:0:0:
229,122,110588,1,8,2:2:0:0:
271,146,110669,1,0,2:3:0:0:
319,154,110750,5,8,2:3:0:0:
293,196,110832,1,0,2:3:0:0:
277,242,110913,1,8,2:2:0:0:
269,290,110994,1,0,2:3:0:0:
274,338,111075,1,8,2:3:0:0:
318,317,111156,1,0,2:3:0:0:
366,309,111237,1,8,2:2:0:0:
414,313,111318,1,0,2:3:0:0:
456,336,111399,5,12,2:3:0:0:
422,300,111480,1,0,2:3:0:0:
416,251,111561,1,8,2:2:0:0:
439,208,111642,1,0,2:3:0:0:
485,192,111723,69,8,2:3:0:0:
476,133,111805,1,0,2:3:0:0:
428,99,111886,1,8,2:2:0:0:
370,89,111967,1,0,2:3:0:0:
312,100,112048,5,8,2:3:0:0:
341,150,112129,1,0,2:3:0:0:
346,208,112210,1,8,2:2:0:0:
327,263,112291,1,0,2:3:0:0:
276,292,112372,1,8,2:3:0:0:
253,238,112453,1,0,2:3:0:0:
204,205,112534,6,0,P|147:191|90:179,1,97.50000371933,10|0,2:2|2:3,0:0:0:0:
96,162,112696,2,0,P|39:148|-18:136,1,97.50000371933,14|0,2:3|2:3,0:0:0:0:
119,298,112859,2,0,P|176:284|233:272,1,97.50000371933,10|0,2:2|2:3,0:0:0:0:
370,115,113021,2,0,P|356:172|344:229,1,97.50000371933,10|0,2:3|2:3,0:0:0:0:
213,275,113183,2,0,P|227:332|239:389,1,97.50000371933,10|0,2:2|2:3,0:0:0:0:
213,138,113345,22,0,P|152:82|99:98,1,113.750001084805,14|0,0:0|0:0,0:0:0:0:
32,243,113507,2,0,P|93:299|146:283,1,113.750001084805,14|0,0:0|0:0,0:0:0:0:
315,28,113832,6,0,P|371:89|355:142,1,113.750001084805,14|0,0:0|0:0,0:0:0:0:
457,180,114156,2,0,P|432:258|378:271,1,113.750001084805,14|0,0:0|0:0,0:0:0:0:
403,359,114480,2,0,P|322:376|284:336,1,113.750001084805,14|0,0:0|0:0,0:0:0:0:
269,217,114642,5,0,0:0:0:0:
276,179,114723,1,0,0:0:0:0:
286,148,114805,1,0,0:0:0:0:
295,124,114886,1,0,0:0:0:0:
326,55,114967,5,0,0:0:0:0:
288,48,115048,1,0,0:0:0:0:
257,38,115130,1,0,0:0:0:0:
233,29,115211,1,0,0:0:0:0:
159,4,115291,69,0,0:0:0:0:
152,42,115372,1,0,0:0:0:0:
142,73,115453,2,0,P|156:130|168:187,1,97.50000371933,2|0,0:0|0:0,0:0:0:0:
206,353,115615,2,0,P|195:305|183:258,1,97.50000371933,2|0,0:0|0:0,0:0:0:0:
173,170,115777,2,0,P|162:122|150:75,1,97.50000371933,2|0,0:0|0:0,0:0:0:0:
97,203,115940,6,0,P|158:259|211:243,1,113.750001084805,14|0,0:0|0:0,0:0:0:0:
284,54,116102,2,0,P|223:-2|170:14,1,113.750001084805,14|0,0:0|0:0,0:0:0:0:
127,105,116426,2,0,P|88:178|117:225,1,113.750001084805,14|0,0:0|0:0,0:0:0:0:
258,201,116750,2,0,P|302:270|357:269,1,113.750001084805,14|0,0:0|0:0,0:0:0:0:
406,135,117075,2,0,P|487:131|514:83,1,113.750001084805,14|0,0:0|0:0,0:0:0:0:
251,36,117237,5,0,0:0:0:0:
267,71,117318,1,0,0:0:0:0:
276,102,117400,1,0,0:0:0:0:
283,127,117481,1,0,0:0:0:0:
334,192,117561,5,0,0:0:0:0:
318,227,117642,1,0,0:0:0:0:
309,258,117724,1,0,0:0:0:0:
302,283,117805,1,0,0:0:0:0:
225,309,117886,69,0,0:0:0:0:
241,344,117967,1,0,0:0:0:0:
250,375,118048,2,0,P|307:361|364:349,1,97.50000371933,2|0,0:0|0:0,0:0:0:0:
508,248,118210,2,0,P|452:259|397:273,1,97.50000371933,14|0,0:0|0:0,0:0:0:0:
225,309,118372,2,0,P|169:320|114:334,1,97.50000371933,14|0,0:0|0:0,0:0:0:0:
4,148,118534,6,0,P|58:156|90:202,1,113.750001084805,14|0,0:0|0:0,0:0:0:0:
70,381,118696,2,0,P|50:329|73:279,1,113.750001084805,14|0,0:0|0:0,0:0:0:0:
82,125,119021,2,0,P|116:81|172:77,1,113.750001084805,14|0,0:0|0:0,0:0:0:0:
263,0,119345,2,0,P|282:51|259:101,1,113.750001084805,14|0,0:0|0:0,0:0:0:0:
278,218,119669,2,0,P|223:209|191:163,1,113.750001084805,14|0,0:0|0:0,0:0:0:0:
317,64,119832,5,0,0:0:0:0:
355,71,119913,1,0,0:0:0:0:
386,81,119995,1,0,0:0:0:0:
410,90,120076,1,0,0:0:0:0:
489,153,120156,5,0,0:0:0:0:
451,160,120237,1,0,0:0:0:0:
420,170,120319,1,0,0:0:0:0:
396,179,120400,1,0,0:0:0:0:
381,189,120480,1,0,0:0:0:0:
145,331,120642,70,0,P|192:341|239:353,1,97.50000371933,2|0,0:0|0:0,0:0:0:0:
321,256,120805,2,0,P|306:209|292:162,1,97.50000371933,14|0,0:0|0:0,0:0:0:0:
169,142,120967,2,0,P|136:178|102:213,1,97.50000371933,14|0,0:0|0:0,0:0:0:0:
17,44,121129,6,0,P|71:43|110:82,1,113.750001084805,14|0,0:0|0:0,0:0:0:0:
321,256,121291,2,0,P|266:256|227:217,1,113.750001084805,14|0,0:0|0:0,0:0:0:0:
307,26,121615,2,0,P|361:25|400:64,1,113.750001084805,14|0,0:0|0:0,0:0:0:0:
321,256,121940,2,0,P|266:256|227:217,1,113.750001084805,14|0,0:0|0:0,0:0:0:0:
307,26,122264,2,0,P|361:25|400:64,1,113.750001084805,14|0,0:0|0:0,0:0:0:0:
458,238,122426,5,0,0:0:0:0:
451,276,122507,1,0,0:0:0:0:
441,307,122589,1,0,0:0:0:0:
432,331,122670,1,0,0:0:0:0:
371,379,122750,5,0,0:0:0:0:
333,372,122831,1,0,0:0:0:0:
302,362,122913,1,0,0:0:0:0:
278,353,122994,1,0,0:0:0:0:
237,288,123075,69,0,0:0:0:0:
244,250,123156,1,0,0:0:0:0:
254,219,123237,2,0,P|264:172|276:125,1,97.50000371933,2|0,0:0|0:0,0:0:0:0:
458,238,123399,6,0,B|417:265|417:265|357:257,1,97.50000371933,6|0,0:2|0:0,0:0:0:0:
316,27,123561,2,0,B|356:0|356:0|416:7,1,97.50000371933,6|0,0:2|0:0,0:0:0:0:
487,111,123723,6,0,P|440:121|393:133,1,97.50000371933,14|0,0:0|1:0,0:0:0:0:
170,176,123886,2,0,P|123:186|76:198,1,97.50000371933,10|0,1:2|1:0,0:0:0:0:
13,281,124048,1,8,0:0:0:0:
78,103,124210,6,0,B|99:81|90:58|63:22|-7:36|-33:76|-43:150|41:219|114:196,1,292.50001115799,10|0,3:2|1:0,0:0:0:0:
289,203,124534,70,0,B|302:184|322:185|322:185|248:115|170:176|170:176|214:197|217:245,1,292.50001115799,10|0,1:2|1:0,0:0:0:0:
138,250,124859,6,0,B|124:311|88:348|88:348|202:312|522:270|522:270|440:286|393:367|393:367|454:243|488:58,1,975.0000371933,10|8,1:2|0:0,0:0:0:0:
468,47,125832,2,0,P|407:79|400:128,1,97.50000371933,10|0,1:2|1:0,0:0:0:0:
246,62,125994,2,0,P|243:130|282:161,1,97.50000371933,10|0,0:0|0:0,0:0:0:0:
138,250,126156,2,0,P|196:286|242:268,1,97.50000371933,10|0,0:2|0:0,0:0:0:0:
373,203,126318,6,0,P|326:213|279:225,1,97.50000371933,10|0,0:0|1:0,0:0:0:0:
93,94,126480,2,0,P|140:104|187:116,1,97.50000371933,10|0,1:2|1:0,0:0:0:0:
283,232,126642,1,8,0:0:0:0:
57,203,126805,6,0,P|50:285|222:262,1,292.50001115799,10|0,3:2|1:0,0:0:0:0:
219,36,127129,2,0,B|224:13|246:-3|246:-3|169:26|189:123,1,195.00000743866,10|8,1:2|0:0,0:0:0:0:
432,245,127453,2,0,B|475:225|510:212|510:212|367:158|323:127|323:127|369:318|369:318|251:256|57:202|57:202|151:214|233:191,1,975.0000371933,10|8,1:2|0:0,0:0:0:0:
253,86,128426,70,0,P|313:45|346:51,1,97.50000371933,10|0,1:2|1:0,0:0:0:0:
136,104,128588,2,0,P|70:72|59:40,1,97.50000371933,10|0,0:0|0:0,0:0:0:0:
211,196,128750,2,0,P|216:268|194:294,1,97.50000371933,10|0,0:2|0:0,0:0:0:0:
48,211,128913,6,0,P|95:221|142:233,1,97.50000371933,10|0,0:0|1:0,0:0:0:0:
369,317,129075,2,0,P|322:327|275:339,1,97.50000371933,10|0,1:2|1:0,0:0:0:0:
143,379,129237,1,8,0:0:0:0:
364,137,129399,6,0,B|360:124|379:103|379:103|337:95|303:173|335:229|361:221|388:216|398:283|362:325,1,292.50001115799,10|0,3:2|1:0,0:0:0:0:
50,261,129723,2,0,B|25:247|2:251|2:251|45:215|112:242|129:303|129:303|75:314|65:380,1,292.50001115799,10|0,1:2|1:0,0:0:0:0:
198,129,130048,6,0,B|181:57|158:2|158:2|81:81|11:132|11:132|175:162|394:203|394:203|254:257|206:288|206:288|234:251|262:200,1,975.0000371933,10|8,1:2|0:0,0:0:0:0:
483,169,131021,70,0,P|488:241|466:267,1,97.50000371933,10|0,1:2|1:0,0:0:0:0:
327,146,131183,2,0,P|387:105|420:111,1,97.50000371933,10|0,0:0|0:0,0:0:0:0:
393,291,131345,2,0,P|327:259|316:227,1,97.50000371933,10|0,0:2|0:0,0:0:0:0:
188,18,131507,6,0,P|200:65|210:112,1,97.50000371933,14|0,0:0|0:0,0:0:0:0:
229,194,132156,2,0,P|241:241|251:288,1,97.50000371933,14|0,0:0|0:0,0:0:0:0:
40,194,132805,6,0,P|87:181|134:171,1,97.50000371933,14|0,0:0|0:0,0:0:0:0:
291,133,132967,2,0,P|338:120|385:110,1,97.50000371933,14|0,0:0|0:0,0:0:0:0:
480,255,133129,6,0,P|432:242|385:232,1,97.50000371933,14|0,0:0|0:0,0:0:0:0:
229,194,133291,2,0,P|181:181|134:171,1,97.50000371933,14|0,0:0|0:0,0:0:0:0:
41,46,133453,5,6,0:2:0:0:
71,8,133534,1,8,0:0:0:0:
121,2,133615,1,10,0:0:0:0:
158,34,133696,1,8,0:0:0:0:
154,85,133777,6,0,L|204:115,1,48.750001859665,6|8,0:2|0:0,0:0:0:0:
182,128,133859,2,0,L|258:116,1,48.750001859665,8|8,0:0|0:0,0:0:0:0:
241,134,133940,2,0,L|275:63,1,48.750001859665,10|8,0:0|0:0,0:0:0:0:
286,89,134021,2,0,L|245:3,1,48.750001859665,8|8,0:0|0:0,0:0:0:0:
275,32,134102,5,8,0:0:0:0:
425,263,134426,6,0,B|462:271|462:271|469:262|469:262|472:273|472:273|509:282|509:282|519:337|474:362|474:362|476:374|476:374|467:366|467:366|430:386|351:374|329:320|329:320|316:317|316:317|325:313|325:313|314:254|349:223,1,487.5,8|0,0:0|0:0,0:0:0:0:
346,124,134750,102,0,B|423:162|423:162|432:156|432:156|430:164|430:164|458:181|458:181|363:199|363:199|364:212|364:212|357:200|357:200|235:220|235:220|226:211|226:211|222:222|222:222|71:247,1,487.5,8|0,0:0|0:0,0:0:0:0:
48,73,135075,6,0,B|15:58|22:25|22:25|14:16|14:16|27:19|27:19|43:-2|94:-13|123:24|123:24|139:17|139:17|129:29|129:29|141:57|153:81|161:140|109:164|102:145|77:177|77:177|62:171|62:171|72:182|72:182|66:199|36:236|89:345,1,487.5,8|0,0:0|0:0,0:0:0:0:
97,336,135399,102,0,B|173:323|173:323|175:314|175:314|182:321|182:321|294:304|294:304|305:270|305:270|319:267|319:267|309:260|309:260|322:223|322:223|392:210|392:210|395:197|395:197|401:208|401:208|489:191,1,487.5,8|0,0:0|0:0,0:0:0:0:
469,272,135723,6,0,B|455:281|445:312|445:312|415:284|415:284|402:279|402:279|408:269|408:269|369:204|420:134|440:126|440:126|438:112|438:112|451:120|451:120|476:109|507:112|507:112|529:94|532:78|532:78|541:77|541:77|532:75|532:75|539:20|480:-5,1,487.5,8|0,0:0|0:0,0:0:0:0:
160,24,136048,102,0,B|130:57|130:57|120:55|120:55|125:62|125:62|75:113|75:113|153:103|153:103|161:111|161:111|166:101|166:101|279:87|279:87|285:94|285:94|291:85|291:85|351:78|351:78|418:0,1,487.5,8|0,0:0|0:0,0:0:0:0:
293,7,136372,6,0,B|247:58|247:58|250:66|250:66|241:65|241:65|202:110|202:110|192:104|192:104|197:116|197:116|135:187|135:187|148:215|148:215|142:229|142:229|155:227|155:227|183:282|183:282|211:247|211:247|222:249|222:249|218:240|218:240|285:165,1,487.5,8|0,0:0|0:0,0:0:0:0:
344,88,136696,102,0,B|381:68|407:76|407:76|415:66|415:66|419:78|419:78|473:94|485:160|485:160|494:167|494:167|485:166|485:166|486:194|470:242|437:267|359:267|323:218|323:218|325:183|301:159,1,487.5,8|0,0:0|0:0,0:0:0:0:
8,168,137021,6,0,B|48:201|48:201|39:213|39:213|52:205|52:205|74:224|74:224|167:207|167:207|169:197|169:197|176:206|176:206|276:187|276:187|285:201|285:201|288:185|288:185|363:171|363:171|365:160|365:160|371:170|371:170|471:152,1,487.5,8|0,0:0|0:0,0:0:0:0:
495,64,137345,102,0,B|523:26|523:26|469:36|469:36|459:26|459:26|453:38|453:38|268:78|268:78|319:112|319:112|316:123|316:123|328:119|328:119|464:211,1,487.5,8|0,0:0|0:0,0:0:0:0:
486,325,137669,6,0,B|487:379|442:392|411:372|411:372|400:380|400:380|408:369|408:369|376:343|382:290|402:275|445:247|445:247|458:252|458:252|457:239|457:239|482:222|506:191|480:122|374:111|384:225,1,487.5,8|0,0:0|0:0,0:0:0:0:
166,321,137994,102,0,B|146:360|146:360|193:347|193:347|204:357|204:357|205:343|205:343|292:320|292:320|255:289|255:289|259:276|259:276|246:281|246:281|198:240|198:240|188:244|188:244|191:234|191:234|153:201|153:201|168:80,1,487.5,8|0,0:0|0:0,0:0:0:0:
270,29,138318,6,0,B|289:-5|330:-3|330:-3|334:-9|334:-9|334:-2|334:-2|368:4|397:47|379:84|379:84|390:90|390:90|378:86|378:86|355:134|289:136|286:119|282:104|216:105|216:105|214:119|214:119|208:106|208:106|147:121|131:216,1,487.5,8|0,0:0|0:0,0:0:0:0:
389,283,138642,102,0,B|428:274|428:274|435:284|435:284|435:272|435:272|490:255|490:255|404:223|404:223|402:214|402:214|395:219|395:219|286:179|286:179|279:184|279:184|279:177|279:177|105:116,1,487.5,8|0,0:0|0:0,0:0:0:0:
19,229,138967,5,8,0:0:0:0:
93,218,139048,1,0,0:0:0:0:
165,204,139129,1,4,0:0:0:0:
237,189,139210,1,0,0:0:0:0:
308,169,139291,102,0,L|318:127,3,32.5,8|0|0|0,0:0|1:0|1:0|1:0,0:0:0:0:
335,62,139615,2,0,L|345:20,3,32.5,8|0|0|0,0:0|1:0|1:0|1:0,0:0:0:0:
453,183,139940,6,0,L|464:231,3,48.750001859665,8|0|0|0,0:0|1:0|1:0|1:0,0:0:0:0:
483,305,140264,2,0,L|494:353,3,48.750001859665,8|0|0|0,0:0|1:0|1:0|1:0,0:0:0:0:
401,281,140588,102,0,L|334:296,3,65,8|0|0|0,0:0|1:0|1:0|1:0,0:0:0:0:
230,323,140913,2,0,L|163:338,3,65,8|0|0|0,0:0|1:0|1:0|1:0,0:0:0:0:
46,128,141237,6,0,L|127:147,3,81.25,8|0|0|0,0:0|1:0|1:0|1:0,0:0:0:0:
252,180,141561,2,0,L|333:199,3,81.25,8|0|0|0,0:0|1:0|1:0|1:0,0:0:0:0:
154,65,141886,101,8,0:0:0:0:
145,53,141967,1,0,1:0:0:0:
131,44,142048,1,0,1:0:0:0:
115,42,142129,1,0,1:0:0:0:
100,44,142210,1,8,0:0:0:0:
90,52,142291,1,0,1:0:0:0:
80,62,142372,1,0,1:0:0:0:
77,75,142453,1,0,1:0:0:0:
82,86,142534,5,8,0:0:0:0:
102,107,142615,1,0,1:0:0:0:
131,109,142696,1,0,1:0:0:0:
156,95,142777,1,0,1:0:0:0:
171,69,142859,1,8,0:0:0:0:
198,60,142940,1,0,1:0:0:0:
225,68,143021,1,0,1:0:0:0:
241,91,143102,1,0,1:0:0:0:
233,119,143183,101,8,0:0:0:0:
198,143,143264,1,0,1:0:0:0:
188,184,143345,1,0,1:0:0:0:
206,221,143426,1,0,1:0:0:0:
246,232,143507,1,8,0:0:0:0:
284,215,143588,1,0,1:0:0:0:
304,178,143669,1,0,1:0:0:0:
341,157,143750,1,0,1:0:0:0:
383,158,143832,5,8,0:0:0:0:
420,211,143913,1,0,1:0:0:0:
402,273,143994,1,0,1:0:0:0:
337,279,144075,1,0,1:0:0:0:
291,232,144156,102,0,L|292:208,1,16.25
310,170,144237,2,0,L|296:154,1,16.25
281,111,144318,2,0,L|253:106,1,16.25
213,101,144399,2,0,L|194:123,1,16.25
157,143,144480,21,2,2:0:0:0:
210,165,158750,54,0,B|214:96|327:88|404:197|302:281|274:264|254:243|169:280|193:368,1,390.00001487732,8|0,1:3|0:0,0:0:0:0:
105,133,161345,118,0,B|81:94|46:84|46:84|119:16|224:49|252:96|252:96|195:100|177:148,1,390.00001487732,8|0,1:3|0:0,0:0:0:0:
370,310,163940,118,0,B|342:346|342:346|480:322|480:322|333:154,1,390.00001487732,8|0,1:3|0:0,0:0:0:0:
80,321,166534,118,0,B|72:280|36:263|36:263|268:291|268:291|274:343|321:362,1,390.00001487732,8|0,1:3|0:0,0:0:0:0:
443,121,167832,6,0,B|490:34|490:34|160:109,1,390.00001487732,8|0,1:3|0:0,0:0:0:0:
60,172,168480,102,0,L|297:237,1,195.00000743866,8|0,1:3|0:0,0:0:0:0:
440,337,168723,2,0,L|345:362,1,97.50000371933,8|0,1:3|0:0,0:0:0:0:
433,350,168805,2,0,L|338:375,1,97.50000371933,8|0,1:3|0:0,0:0:0:0:
248,223,168967,2,0,L|342:248,1,97.50000371933,8|0,1:3|0:0,0:0:0:0:
126,281,169129,53,8,0:0:0:0:
109,288,169210,1,0,0:0:0:0:
94,296,169291,1,0,0:0:0:0:
79,306,169372,1,0,0:0:0:0:
64,317,169453,2,0,L|56:373,3,48.750001859665,8|0|0|0,0:2|0:0|0:0|0:0,0:0:0:0:
248,223,169777,5,8,0:2:0:0:
265,216,169858,1,0,0:0:0:0:
280,208,169939,1,0,0:0:0:0:
295,198,170020,1,0,0:0:0:0:
310,187,170101,2,0,L|318:131,3,48.750001859665,8|0|0|0,0:2|0:0|0:0|0:0,0:0:0:0:
223,123,170426,5,8,0:2:0:0:
206,116,170507,1,0,0:0:0:0:
191,108,170588,1,0,0:0:0:0:
176,98,170669,1,0,0:0:0:0:
161,87,170750,2,0,L|153:31,3,48.750001859665,8|0|0|0,0:2|0:0|0:0|0:0,0:0:0:0:
404,206,171075,5,8,0:2:0:0:
421,213,171156,1,0,0:0:0:0:
436,221,171237,1,0,0:0:0:0:
451,231,171318,1,0,0:0:0:0:
466,242,171399,2,0,L|474:298,3,48.750001859665,8|0|8|0,0:2|0:0|0:2|0:0,0:0:0:0:
234,287,171723,69,8,0:0:0:0:
205,295,171805,1,0,0:0:0:0:
187,318,171886,1,0,0:0:0:0:
183,347,171967,1,0,0:0:0:0:
193,374,172048,2,0,L|250:387,3,48.750001859665,8|0|0|0,0:2|0:0|0:0|0:0,0:0:0:0:
194,218,172372,5,8,0:2:0:0:
173,197,172454,1,0,0:0:0:0:
144,193,172535,1,0,0:0:0:0:
117,204,172616,1,0,0:0:0:0:
98,226,172697,2,0,L|115:281,3,48.750001859665,8|0|0|0,0:2|0:0|0:0|0:0,0:0:0:0:
238,156,173020,5,8,0:2:0:0:
246,128,173102,1,0,0:0:0:0:
235,101,173183,1,0,0:0:0:0:
212,83,173264,1,0,0:0:0:0:
183,78,173345,2,0,L|143:120,3,48.750001859665,8|0|0|0,0:2|0:0|0:0|0:0,0:0:0:0:
318,163,173669,5,8,0:2:0:0:
347,156,173751,1,0,0:0:0:0:
365,133,173832,1,0,0:0:0:0:
369,104,173913,1,8,0:2:0:0:
359,76,173994,2,0,L|302:63,1,48.750001859665,8|0,0:2|0:0,0:0:0:0:
118,24,174156,2,0,L|61:11,1,48.750001859665,8|0,0:2|0:0,0:0:0:0:
69,172,174318,69,8,0:0:0:0:
78,199,174399,1,0,0:0:0:0:
100,217,174480,1,0,0:0:0:0:
128,220,174561,1,0,0:0:0:0:
154,208,174642,1,8,0:2:0:0:
174,186,174723,1,0,0:0:0:0:
200,173,174805,1,0,0:0:0:0:
229,175,174886,1,0,0:0:0:0:
251,193,174967,5,8,0:2:0:0:
253,227,175048,1,0,0:0:0:0:
230,252,175129,1,0,0:0:0:0:
195,251,175210,1,0,0:0:0:0:
170,227,175291,1,8,0:2:0:0:
170,192,175372,1,0,0:0:0:0:
195,168,175453,1,0,0:0:0:0:
205,135,175534,1,0,0:0:0:0:
194,102,175615,5,8,0:0:0:0:
220,137,175696,1,0,0:0:0:0:
263,142,175777,1,0,0:0:0:0:
305,129,175859,1,0,0:0:0:0:
330,93,175940,1,8,0:2:0:0:
351,54,176021,1,0,0:0:0:0:
392,40,176102,1,0,0:0:0:0:
433,54,176183,1,0,0:0:0:0:
451,93,176264,5,8,0:2:0:0:
432,143,176345,1,0,0:0:0:0:
381,159,176426,1,0,0:0:0:0:
360,208,176507,1,0,0:0:0:0:
385,255,176588,1,8,0:2:0:0:
370,306,176669,1,0,0:0:0:0:
318,322,176750,1,0,0:0:0:0:
274,289,176832,1,0,0:0:0:0:
275,234,176913,70,0,B|290:168|290:168|86:261|86:261|256:367,1,487.5,8|0,0:0|0:0,0:0:0:0:
456,216,177237,5,8,0:2:0:0:
500,185,177318,1,0,0:0:0:0:
504,130,177399,1,0,0:0:0:0:
462,87,177480,1,0,0:0:0:0:
402,90,177561,2,0,B|350:100|350:100|337:135|337:135|268:147|268:147|174:42|174:42|111:53|111:53|92:101|92:101|-16:120,1,487.5,8|0,0:0|0:0,0:0:0:0:
35,266,177886,5,8,0:2:0:0:
87,279,177967,1,0,0:0:0:0:
143,296,178048,1,0,0:0:0:0:
197,317,178129,1,0,0:0:0:0:
253,330,178210,6,0,B|303:344|311:287|311:287|282:329|251:328,1,162.5,8|0,1:1|0:0,0:0:0:0:
392,312,178534,2,0,B|430:273|384:238|384:238|406:284|389:312,1,162.5,8|0,1:1|0:0,0:0:0:0:
451,185,178859,2,0,B|437:130|383:154|383:154|435:158|450:186,1,162.5,8|0,1:1|0:0,0:0:0:0:
262,72,179183,69,14,1:1:0:0:
191,93,179264,1,8,1:1:0:0:
121,119,179345,1,8,1:1:0:0:
56,158,179426,1,8,1:1:0:0:
0,210,179507,6,0,P|-7:255|31:306,1,84.4999961318971,10|0,0:0|1:0,0:0:0:0:
24,298,179669,2,0,P|91:287|195:272,1,130,0|0,2:3|1:0,0:0:0:0:
385,245,179832,6,0,P|392:200|354:149,1,84.4999961318971,10|0,0:0|1:0,0:0:0:0:
361,157,179994,2,0,P|293:168|190:183,1,130,0|0,2:3|1:0,0:0:0:0:
140,352,180156,6,0,P|184:350|216:318,1,90.9999972229005,10|0,0:0|1:0,0:0:0:0:
376,327,180318,2,0,P|396:287|384:244,1,90.9999972229005,2|0,2:3|1:0,0:0:0:0:
472,110,180480,2,0,P|448:72|404:61,1,90.9999972229005,10|0,0:0|1:0,0:0:0:0:
62,86,180642,70,0,B|26:151|66:221|119:213|135:205|140:196|214:211|238:273|213:323,1,331.500006322861,2|0,2:3|1:0,0:0:0:0:
20,311,180967,6,0,P|32:265|52:201,1,97.50000371933,2|0,2:3|1:0,0:0:0:0:
251,113,181129,2,0,P|238:158|219:223,1,97.50000371933,10|0,0:0|1:0,0:0:0:0:
105,336,181291,2,0,P|117:290|137:226,1,97.50000371933,2|0,2:3|1:0,0:0:0:0:
169,68,181453,2,0,P|135:192|80:371,1,292.50001115799,10|0,0:0|1:0,0:0:0:0:
275,279,181777,6,0,P|264:234|203:204,1,97.50000371933,10|0,0:0|1:0,0:0:0:0:
169,68,181940,2,0,P|124:55|68:92,1,97.50000371933,2|0,2:3|1:0,0:0:0:0:
6,181,182102,6,0,P|56:171|121:161,1,97.50000371933,10|0,0:0|1:0,0:0:0:0:
238,24,182264,2,0,P|288:33|353:44,1,97.50000371933,2|0,2:3|1:0,0:0:0:0:
389,150,182426,2,0,P|439:140|504:130,1,97.50000371933,10|0,0:0|1:0,0:0:0:0:
371,295,182588,2,0,P|321:285|256:275,1,97.50000371933,2|0,2:3|1:0,0:0:0:0:
113,311,182750,70,0,P|124:356|185:386,1,97.50000371933,10|0,0:0|1:0,0:0:0:0:
279,154,182913,2,0,P|234:141|178:178,1,97.50000371933,2|0,2:3|1:0,0:0:0:0:
333,375,183075,2,0,P|366:342|361:275,1,97.50000371933,10|0,0:0|1:0,0:0:0:0:
111,79,183237,2,0,B|78:31|-11:67|-13:141|43:190|114:271|225:150|221:107,1,331.500006322861,2|0,2:3|1:0,0:0:0:0:
197,149,183561,6,0,P|205:101|214:40,1,97.50000371933,2|0,2:3|1:0,0:0:0:0:
148,223,183723,2,0,B|131:232|116:235|116:235|156:255|168:335|168:335|215:269|251:257|251:257|234:247|230:237,1,292.50001115799,10|0,0:0|1:0,0:0:0:0:
253,95,184048,2,0,B|269:85|284:82|284:82|244:62|232:-17|232:-17|185:48|150:61|150:61|167:71|170:80,1,292.50001115799,10|0,0:0|1:0,0:0:0:0:
291,176,184372,5,8,0:0:0:0:
352,212,184453,1,0,0:0:0:0:
424,210,184534,1,0,0:0:0:0:
480,159,184615,1,0,0:0:0:0:
490,85,184696,6,0,P|481:36|432:9,1,84.4999961318971,10|0,0:0|1:0,0:0:0:0:
314,48,184859,2,0,P|303:107|288:190,1,130,0|0,2:3|1:0,0:0:0:0:
253,351,185021,2,0,P|302:342|329:293,1,84.4999961318971,10|0,0:0|1:0,0:0:0:0:
290,175,185184,2,0,P|231:164|148:149,1,130,0|0,2:3|1:0,0:0:0:0:
9,69,185345,70,0,B|-4:9|63:-19|142:21|136:82|60:149|40:154|13:147|0:215|30:250,1,331.500006322861,10|0,0:0|1:0,0:0:0:0:
156,365,185669,2,0,P|209:356|273:348,1,97.50000371933,10|0,0:0|1:0,0:0:0:0:
503,318,185832,6,0,B|517:310|534:301|534:301|468:239|369:288|369:288|433:315|450:400,1,331.500006322861,2|0,2:3|1:0,0:0:0:0:
441,384,186156,1,2,2:3:0:0:
457,257,186318,6,0,B|496:162|390:119|370:132|351:147|268:82|321:-3,1,331.500006322861,10|0,0:0|1:0,0:0:0:0:
505,64,186642,2,0,B|491:165|378:149|368:128|358:106|253:121|257:221,1,331.500006322861,10|0,0:0|1:0,0:0:0:0:
359,223,186967,6,0,P|368:181|385:124,1,84.4999961318971,10|0,0:0|1:0,0:0:0:0:
408,38,187129,2,0,P|398:79|382:137,1,84.4999961318971,2|0,2:3|1:0,0:0:0:0:
257,209,187291,2,0,P|266:250|283:308,1,84.4999961318971,10|0,0:0|1:0,0:0:0:0:
468,140,187453,2,0,P|427:128|386:119,1,84.4999961318971,2|0,2:3|1:0,0:0:0:0:
234,89,187615,1,10,0:0:0:0:
420,304,187777,70,0,B|437:328|435:351|435:351|543:333|506:197|396:217,2,233.999992858887,2|10|2,2:3|0:0|2:3,0:0:0:0:
346,346,188264,1,10,0:0:0:0:
380,137,188426,6,0,B|411:99|361:16|275:50|242:111|231:185|322:266|386:236,1,331.500006322861,2|0,2:3|1:0,0:0:0:0:
353,230,188750,2,0,P|408:221|446:217,1,84.4999961318971,2|0,2:3|1:0,0:0:0:0:
346,346,188913,5,10,0:0:0:0:
271,330,188994,1,0,0:0:0:0:
197,314,189075,1,0,0:0:0:0:
123,294,189156,1,0,0:0:0:0:
51,273,189237,2,0,P|24:243|36:187,1,84.4999961318971,10|0,0:0|1:0,0:0:0:0:
276,146,189399,2,0,P|303:176|291:232,1,84.4999961318971,0|0,0:0|1:0,0:0:0:0:
166,209,189561,6,0,P|152:161|132:97,1,97.50000371933,12|0,0:0|1:0,0:0:0:0:
97,7,189723,1,0,0:0:0:0:
292,226,189886,70,0,P|277:272|264:319,1,97.50000371933,10|0,0:0|1:0,0:0:0:0:
264,333,190048,2,0,P|328:352|405:373,1,130,0|0,2:3|1:0,0:0:0:0:
483,127,190210,2,0,P|497:173|510:220,1,97.50000371933,10|0,0:0|1:0,0:0:0:0:
511,234,190372,2,0,P|446:253|370:274,1,130,0|0,2:3|1:0,0:0:0:0:
152,53,190534,6,0,P|319:85|485:119,1,331.500006322861,10|0,0:0|1:0,0:0:0:0:
375,268,190859,2,0,P|360:221|347:174,1,97.50000371933,10|0,0:0|1:0,0:0:0:0:
247,38,191021,2,0,B|261:-12|302:-6|337:7|328:58|328:58|307:156|281:273,1,331.500006322861,2|0,2:3|1:0,0:0:0:0:
257,363,191345,1,2,2:3:0:0:
478,151,191507,6,0,B|552:92|482:-18|381:8|357:84|357:84|393:89|409:112,1,331.500006322861,10|0,0:0|1:0,0:0:0:0:
217,195,191832,2,0,B|142:253|212:364|313:337|337:261|337:261|301:256|285:233,1,331.500006322861,10|0,0:0|1:0,0:0:0:0:
347,174,192156,6,0,P|355:122|358:69,1,90.9999972229005,10|0,0:0|1:0,0:0:0:0:
484,246,192318,2,0,P|492:298|495:351,1,90.9999972229005,2|0,2:3|1:0,0:0:0:0:
369,88,192480,70,0,P|365:133|358:178,1,90.9999972229005,10|0,0:0|1:0,0:0:0:0:
483,341,192642,2,0,P|479:295|472:250,1,90.9999972229005,2|0,2:3|1:0,0:0:0:0:
357,83,192805,6,0,P|282:54|265:61,1,90.9999972229005,10|0,0:0|1:0,0:0:0:0:
212,275,192967,2,0,P|287:304|304:297,1,90.9999972229005,2|0,2:3|1:0,0:0:0:0:
97,138,193129,6,0,B|64:136|24:87|48:19|196:21|213:110|192:134|176:152|225:210|282:190,1,331.500006322861,10|0,0:0|1:0,0:0:0:0:
276,186,193453,1,10,0:0:0:0:
65,306,193615,6,0,B|31:336|28:355|28:355|138:317|347:296,1,331.500006322861,2|0,2:3|1:0,0:0:0:0:
427,287,193940,2,0,P|472:263|475:213,1,90.9999972229005,2|0,2:3|1:0,0:0:0:0:
347,46,194102,2,0,P|380:221|409:388,1,331.500006322861,10|0,0:0|1:0,0:0:0:0:
327,384,194426,2,0,P|298:220|268:58,1,331.500006322861,10|0,0:0|1:0,0:0:0:0:
40,189,194750,69,10,0:0:0:0:
14,256,194832,1,0,0:0:0:0:
42,322,194913,1,2,0:0:0:0:
107,355,194994,1,0,0:0:0:0:
179,344,195075,6,0,P|212:319|227:275,1,84.4999961318971,10|0,0:0|1:0,0:0:0:0:
218,268,195237,2,0,P|141:253|78:242,1,130,0|0,2:3|1:0,0:0:0:0:
306,367,195399,2,0,P|339:342|354:298,1,84.4999961318971,10|0,0:0|1:0,0:0:0:0:
345,291,195561,2,0,P|268:276|205:265,1,130,0|0,2:3|1:0,0:0:0:0:
112,132,195723,6,0,P|105:86|94:29,1,97.50000371933,10|0,0:0|1:0,0:0:0:0:
234,174,195886,1,2,0:0:0:0:
246,184,195967,1,0,0:0:0:0:
259,192,196048,2,0,P|318:192|340:159,1,97.50000371933,10|0,0:0|1:0,0:0:0:0:
440,85,196210,6,0,B|443:51|387:11|333:69|330:101|357:175|413:175|453:174|497:208|479:282,1,331.500006322861,2|0,1:3|1:0,0:0:0:0:
326,240,196534,2,0,P|385:251|448:265,1,84.4999961318971,2|0,2:3|1:0,0:0:0:0:
488,356,196696,2,0,P|305:318|122:283,1,331.500006322861,10|0,0:0|1:0,0:0:0:0:
84,164,197021,2,0,B|71:108|114:63|195:54|238:119|230:189|174:209|174:209|151:207|137:215,1,331.500006322861,10|0,0:0|1:0,0:0:0:0:
237,104,197345,70,0,P|226:45|212:-18,1,90.9999972229005,10|0,0:0|1:0,0:0:0:0:
61,237,197507,2,0,P|51:281|43:326,1,90.9999972229005,2|0,2:3|1:0,0:0:0:0:
180,366,197669,6,0,P|220:348|236:299,1,90.9999972229005,10|0,0:0|1:0,0:0:0:0:
343,243,197832,2,0,P|347:199|312:161,1,90.9999972229005,2|0,2:3|1:0,0:0:0:0:
84,164,197994,6,0,P|143:175|206:189,1,90.9999972229005,10|0,0:0|1:0,0:0:0:0:
504,360,198156,2,0,P|370:330|236:306,1,272.999991668701,2|0,2:3|1:0,0:0:0:0:
42,326,198480,6,0,P|60:366|109:382,1,90.9999972229005,2|0,2:3|1:0,0:0:0:0:
160,314,198642,2,0,P|142:274|93:258,1,90.9999972229005,10|0,0:0|1:0,0:0:0:0:
303,367,198805,70,0,B|421:380|457:260|453:204|377:186|325:204|302:267|366:299,1,331.500006322861,2|0,2:3|1:0,0:0:0:0:
345,278,199129,6,0,P|389:286|434:295,1,90.9999972229005,2|0,2:3|1:0,0:0:0:0:
316,116,199291,5,10,0:0:0:0:
247,132,199372,1,0,0:0:0:0:
178,148,199453,1,0,0:0:0:0:
109,165,199534,1,0,0:0:0:0:
39,184,199615,2,0,P|33:238|63:262,1,97.50000371933,10|0,0:0|1:0,0:0:0:0:
339,193,199777,2,0,P|345:139|315:115,1,97.50000371933,0|0,0:0|1:0,0:0:0:0:
140,23,199940,6,0,P|190:189|242:371,1,331.500006322861,14|0,0:0|1:0,0:0:0:0:
60,281,200264,70,0,P|46:232|32:184,1,97.50000371933,10|0,0:0|1:0,0:0:0:0:
325,112,200426,2,0,P|339:158|353:205,1,97.50000371933,2|0,1:3|1:0,0:0:0:0:
135,258,200588,2,0,P|121:209|107:161,1,97.50000371933,10|0,0:0|1:0,0:0:0:0:
247,132,200750,2,0,P|261:178|275:225,1,97.50000371933,2|0,1:3|1:0,0:0:0:0:
247,384,200913,6,0,P|233:335|219:287,1,97.50000371933,10|0,0:0|1:0,0:0:0:0:
101,178,201075,1,2,1:3:0:0:
79,188,201156,1,2,1:3:0:0:
66,204,201237,2,0,P|94:249|158:249,1,97.50000371933,10|0,0:0|1:0,0:0:0:0:
264,59,201399,2,0,P|236:14|172:14,1,97.50000371933,2|0,1:3|1:0,0:0:0:0:
284,229,201561,6,0,P|312:274|376:274,1,97.50000371933,10|0,0:0|1:0,0:0:0:0:
337,354,201723,2,0,P|389:352|421:296,1,97.50000371933,2|0,1:3|1:0,0:0:0:0:
504,135,201886,6,0,P|451:136|419:192,1,97.50000371933,10|0,0:0|1:0,0:0:0:0:
369,118,202048,2,0,P|344:164|376:220,1,97.50000371933,2|0,1:3|1:0,0:0:0:0:
474,370,202210,70,0,P|498:323|466:267,1,97.50000371933,10|0,0:0|0:0,0:0:0:0:
100,36,202534,6,0,P|47:39|16:78,1,97.50000371933,10|0,0:0|1:0,0:0:0:0:
98,261,202696,2,0,P|151:258|182:219,1,97.50000371933,2|0,1:3|1:0,0:0:0:0:
83,109,202859,6,0,P|86:162|125:193,1,97.50000371933,10|0,0:0|1:0,0:0:0:0:
212,363,203021,2,0,P|259:386|305:368,1,97.50000371933,2|0,1:3|1:0,0:0:0:0:
471,161,203183,2,0,P|418:164|387:203,1,97.50000371933,10|0,0:0|1:0,0:0:0:0:
270,220,203345,2,0,P|246:267|264:313,1,97.50000371933,2|0,1:3|1:0,0:0:0:0:
477,332,203507,6,0,P|466:278|452:228,1,97.50000371933,10|0,0:0|1:0,0:0:0:0:
297,60,203669,69,2,1:3:0:0:
261,89,203750,1,2,1:3:0:0:
247,125,203832,2,0,P|259:172|269:219,1,97.50000371933,10|0,0:0|1:0,0:0:0:0:
388,290,203994,2,0,P|375:337|365:384,1,97.50000371933,2|0,1:3|1:0,0:0:0:0:
190,237,204156,6,0,P|180:190|168:143,1,97.50000371933,10|0,0:0|1:0,0:0:0:0:
366,137,204318,2,0,P|376:89|388:42,1,97.50000371933,2|0,1:3|1:0,0:0:0:0:
145,48,204480,2,0,P|157:95|167:142,1,97.50000371933,10|0,0:0|1:0,0:0:0:0:
366,137,204642,2,0,P|353:184|343:231,1,97.50000371933,2|0,1:3|1:0,0:0:0:0:
254,282,204805,2,0,P|266:329|276:376,1,97.50000371933,10|0,0:0|1:0,0:0:0:0:
244,290,204967,2,0,P|256:337|266:384,1,97.50000371933,2|0,1:3|1:0,0:0:0:0:
195,101,205129,5,10,0:0:0:0:
145,48,205210,1,0,0:0:0:0:
73,52,205291,1,2,0:0:0:0:
35,113,205372,1,0,0:0:0:0:
53,183,205453,6,0,P|112:216|147:207,1,97.50000371933,10|0,0:0|1:0,0:0:0:0:
253,370,205615,2,0,P|311:335|320:300,1,97.50000371933,2|0,1:3|1:0,0:0:0:0:
464,290,205777,2,0,P|463:222|437:196,1,97.50000371933,10|0,0:0|1:0,0:0:0:0:
473,111,205940,2,0,P|414:78|379:87,1,97.50000371933,2|0,1:3|1:0,0:0:0:0:
261,380,206102,2,0,P|319:345|328:310,1,97.50000371933,10|0,0:0|1:0,0:0:0:0:
387,82,206264,69,2,1:3:0:0:
379,53,206345,1,2,1:3:0:0:
355,40,206426,2,0,P|299:30|257:24,1,97.50000371933,10|0,0:0|1:0,0:0:0:0:
115,89,206588,2,0,P|59:79|17:73,1,97.50000371933,2|0,1:3|1:0,0:0:0:0:
151,22,206750,6,0,P|193:75|188:114,1,97.50000371933,10|0,0:0|1:0,0:0:0:0:
313,113,206913,2,0,P|275:169|236:176,1,97.50000371933,2|0,1:3|1:0,0:0:0:0:
276,295,207075,2,0,P|210:276|191:242,1,97.50000371933,10|0,0:0|1:0,0:0:0:0:
91,316,207237,2,0,P|88:248|115:219,1,97.50000371933,2|0,1:3|1:0,0:0:0:0:
15,148,207399,2,0,P|78:124|113:141,1,97.50000371933,10|0,0:0|0:0,0:0:0:0:
468,246,207723,6,0,P|475:301|485:355,1,97.50000371933,10|0,0:0|1:0,0:0:0:0:
394,358,207886,2,0,P|386:302|377:249,1,97.50000371933,2|0,1:3|1:0,0:0:0:0:
499,140,208048,6,0,P|443:147|390:157,1,97.50000371933,10|0,0:0|1:0,0:0:0:0:
314,16,208210,2,0,P|258:8|205:-1,1,97.50000371933,2|0,1:3|1:0,0:0:0:0:
482,62,208372,70,0,P|426:69|373:79,1,97.50000371933,10|0,0:0|1:0,0:0:0:0:
301,92,208534,2,0,P|245:84|192:75,1,97.50000371933,2|0,1:3|1:0,0:0:0:0:
29,43,208696,2,0,P|84:50|138:60,1,97.50000371933,10|0,0:0|1:0,0:0:0:0:
309,174,208859,5,2,1:3:0:0:
308,203,208940,1,2,1:3:0:0:
294,229,209021,2,0,P|238:258|201:247,1,97.50000371933,10|0,0:0|1:0,0:0:0:0:
17,227,209183,2,0,P|73:198|110:209,1,97.50000371933,2|0,1:3|1:0,0:0:0:0:
89,372,209345,6,0,P|80:323|74:275,1,97.50000371933,10|0,0:0|1:0,0:0:0:0:
221,82,209507,2,0,P|229:130|235:178,1,97.50000371933,2|0,1:3|1:0,0:0:0:0:
67,122,209669,5,10,0:0:0:0:
62,49,209750,1,0,0:0:0:0:
121,6,209832,1,2,0:0:0:0:
193,20,209913,1,0,0:0:0:0:
212,89,209994,2,0,P|220:137|226:185,1,97.50000371933,10|0,0:0|1:0,0:0:0:0:
239,262,210156,2,0,P|247:310|253:358,1,97.50000371933,2|0,0:0|1:0,0:0:0:0:
46,254,210318,70,0,P|94:245|142:239,1,97.50000371933,14|0,0:0|1:0,0:0:0:0:
328,213,210480,2,0,P|376:204|424:198,1,97.50000371933,2|0,0:0|1:0,0:0:0:0:
414,379,210642,6,0,P|358:363|341:316,1,97.50000371933,10|0,0:0|1:0,0:0:0:0:
424,198,210805,2,0,P|480:214|497:261,1,97.50000371933,2|0,1:3|1:0,0:0:0:0:
422,371,210967,2,0,P|366:355|349:308,1,97.50000371933,10|0,0:0|1:0,0:0:0:0:
418,208,211130,2,0,P|474:224|491:271,1,97.50000371933,2|0,1:3|1:0,0:0:0:0:
349,322,211291,6,0,P|340:273|334:225,1,97.50000371933,10|0,0:0|1:0,0:0:0:0:
420,28,211453,1,2,1:3:0:0:
450,15,211534,1,2,1:3:0:0:
480,23,211615,2,0,P|471:71|465:119,1,97.50000371933,10|0,0:0|1:0,0:0:0:0:
334,225,211777,2,0,P|342:273|348:321,1,97.50000371933,2|0,1:3|1:0,0:0:0:0:
418,208,211940,6,0,P|400:162|353:142,1,97.50000371933,10|0,0:0|1:0,0:0:0:0:
214,278,212102,2,0,P|231:322|274:344,1,97.50000371933,2|0,1:3|1:0,0:0:0:0:
270,130,212264,2,0,P|252:84|205:64,1,97.50000371933,10|0,0:0|1:0,0:0:0:0:
139,132,212426,2,0,P|155:176|198:197,1,97.50000371933,2|0,1:3|1:0,0:0:0:0:
129,50,212588,70,0,B|92:16|92:16|134:64,1,97.50000371933,10|0,0:0|0:0,0:0:0:0:
0,276,212913,2,0,P|48:267|96:261,1,97.50000371933,10|0,0:0|1:0,0:0:0:0:
334,225,213075,2,0,P|382:216|430:210,1,97.50000371933,2|0,1:3|1:0,0:0:0:0:
198,374,213237,2,0,P|207:326|213:278,1,97.50000371933,10|0,0:0|1:0,0:0:0:0:
248,19,213399,2,0,P|239:67|233:115,1,97.50000371933,2|0,1:3|1:0,0:0:0:0:
445,306,213561,2,0,P|436:258|430:210,1,97.50000371933,10|0,0:0|1:0,0:0:0:0:
402,23,213723,2,0,P|411:71|417:119,1,97.50000371933,2|0,1:3|1:0,0:0:0:0:
309,292,213886,2,0,P|261:283|213:277,1,97.50000371933,10|0,0:0|1:0,0:0:0:0:
36,201,214048,5,2,1:3:0:0:
24,179,214129,1,2,1:3:0:0:
27,152,214210,2,0,P|75:143|123:137,1,97.50000371933,10|0,0:0|1:0,0:0:0:0:
295,369,214372,2,0,P|247:360|199:354,1,97.50000371933,2|0,1:3|1:0,0:0:0:0:
130,123,214534,6,0,P|168:88|220:90,1,97.50000371933,10|0,0:0|1:0,0:0:0:0:
380,256,214696,2,0,P|330:240|306:194,1,97.50000371933,2|0,1:3|1:0,0:0:0:0:
504,53,214859,6,0,P|515:103|487:147,1,97.50000371933,10|0,0:0|1:0,0:0:0:0:
307,203,215021,2,0,P|344:168|397:170,1,97.50000371933,2|0,1:3|1:0,0:0:0:0:
424,384,215183,70,0,P|374:368|350:322,1,97.50000371933,10|0,0:0|1:0,0:0:0:0:
388,166,215345,2,0,P|399:216|371:260,1,97.50000371933,2|0,1:3|1:0,0:0:0:0:
195,298,215507,5,10,0:0:0:0:
129,264,215588,1,0,0:0:0:0:
104,193,215669,1,2,0:0:0:0:
130,123,215750,1,0,0:0:0:0:
199,88,215832,6,0,P|247:79|295:73,1,97.50000371933,10|0,0:0|1:0,0:0:0:0:
475,83,215994,2,0,P|484:131|490:179,1,97.50000371933,2|0,1:3|1:0,0:0:0:0:
304,211,216156,2,0,P|256:202|208:196,1,97.50000371933,10|0,0:0|1:0,0:0:0:0:
28,206,216318,2,0,P|19:254|13:302,1,97.50000371933,2|0,0:0|1:0,0:0:0:0:
298,384,216480,2,0,P|291:335|282:287,1,97.50000371933,10|0,0:0|1:0,0:0:0:0:
144,22,216642,5,2,0:0:0:0:
122,37,216723,1,2,0:0:0:0:
116,60,216805,2,0,P|122:108|131:156,1,97.50000371933,10|0,0:0|1:0,0:0:0:0:
272,282,216967,2,0,P|278:330|287:378,1,97.50000371933,2|0,1:3|1:0,0:0:0:0:
473,333,217129,70,0,P|442:295|394:285,1,97.50000371933,10|0,0:0|1:0,0:0:0:0:
345,162,217291,2,0,P|296:169|263:206,1,97.50000371933,2|0,1:3|1:0,0:0:0:0:
120,355,217453,6,0,P|168:347|201:310,1,97.50000371933,10|0,0:0|1:0,0:0:0:0:
332,329,217615,2,0,P|349:283|334:236,1,97.50000371933,2|0,1:3|1:0,0:0:0:0:
280,37,217777,6,0,P|262:82|277:129,1,97.50000371933,10|0,0:0|1:0,0:0:0:0:
195,233,217939,2,0,P|226:270|274:281,1,97.50000371933,2|0,1:3|1:0,0:0:0:0:
439,99,218102,2,0,P|391:89|342:83,1,97.50000371933,10|0,0:0|1:0,0:0:0:0:
129,47,218264,2,0,P|81:37|32:31,1,97.50000371933,2|0,1:3|1:0,0:0:0:0:
1,225,218426,6,0,P|32:262|80:273,1,97.50000371933,10|0,0:0|1:0,0:0:0:0:
80,154,218588,2,0,P|31:161|-1:198,1,97.50000371933,2|0,1:3|1:0,0:0:0:0:
101,257,218750,2,0,P|118:211|103:164,1,97.50000371933,10|0,0:0|1:0,0:0:0:0:
0,365,218913,2,0,P|47:355|96:349,1,97.50000371933,2|0,1:3|1:0,0:0:0:0:
298,334,219075,70,0,B|348:334|348:334|288:342,1,97.50000371933,10|0,0:0|1:0,0:0:0:0:
268,117,219237,5,2,1:3:0:0:
259,101,219318,1,2,1:3:0:0:
263,77,219399,1,10,0:0:0:0:
284,57,219480,1,2,1:3:0:0:
327,58,219561,1,2,1:3:0:0:
360,117,219642,1,2,1:3:0:0:
309,178,219723,6,0,P|261:168|212:162,1,97.50000371933,10|0,1:3|1:0,0:0:0:0:
198,238,219886,2,0,P|246:244|294:253,1,97.50000371933,2|0,1:3|1:0,0:0:0:0:
401,282,220048,2,0,P|448:272|497:266,1,97.50000371933,2|0,1:3|0:0,0:0:0:0:
512,342,220211,2,0,P|463:348|415:357,1,97.50000371933,2|0,1:3|0:0,0:0:0:0:
444,176,220372,2,0,P|453:128|459:79,1,97.50000371933,2|0,1:3|0:0,0:0:0:0:
139,22,220696,6,0,B|64:28|39:128|150:208|179:116|234:32|301:189|269:268|157:229,1,390,4|0,0:0|0:0,0:0:0:0:
52,182,221021,70,0,P|78:147|130:157,1,65,10|0,0:0|0:0,0:0:0:0:
197,237,221183,2,0,P|210:304|227:399,1,130,2|0,1:3|0:0,0:0:0:0:
61,186,221345,2,0,P|87:151|139:161,1,65,10|0,0:0|0:0,0:0:0:0:
206,241,221507,2,0,P|219:308|236:403,1,130,2|0,1:3|0:0,0:0:0:0:
478,93,221669,6,0,P|452:58|400:68,1,65,10|0,0:0|0:0,0:0:0:0:
333,148,221831,2,0,P|319:215|303:310,1,130,2|0,1:3|0:0,0:0:0:0:
469,97,221994,2,0,P|443:62|391:72,1,65,10|0,0:0|0:0,0:0:0:0:
324,152,222156,2,0,P|310:219|294:314,1,130,2|0,1:3|0:0,0:0:0:0:
474,203,222318,6,0,P|509:177|499:125,1,65,10|0,0:0|0:0,0:0:0:0:
419,58,222480,2,0,P|351:44|257:28,1,130,2|0,1:3|0:0,0:0:0:0:
470,194,222642,2,0,P|505:168|495:116,1,65,10|0,0:0|0:0,0:0:0:0:
415,49,222804,2,0,P|347:35|253:19,1,130,2|0,1:3|0:0,0:0:0:0:
57,284,222967,6,0,P|22:258|32:206,1,65,10|0,0:0|0:0,0:0:0:0:
112,139,223129,2,0,P|179:125|274:109,1,130,2|0,1:3|0:0,0:0:0:0:
61,275,223291,2,0,P|26:249|36:197,1,65,10|0,0:0|0:0,0:0:0:0:
116,130,223453,2,0,P|183:116|278:100,1,130,2|0,1:3|0:0,0:0:0:0:
469,197,223615,6,0,P|443:162|391:172,1,65,10|0,0:0|0:0,0:0:0:0:
324,252,223777,2,0,P|310:319|294:414,1,130,2|0,1:3|0:0,0:0:0:0:
460,201,223939,2,0,P|434:166|382:176,1,65,10|0,0:0|0:0,0:0:0:0:
315,256,224101,2,0,P|301:323|285:418,1,130,2|0,1:3|0:0,0:0:0:0:
315,146,224264,6,0,P|341:111|393:121,1,65,10|0,0:0|0:0,0:0:0:0:
460,201,224426,2,0,P|473:268|490:363,1,130,2|0,1:3|0:0,0:0:0:0:
324,150,224588,2,0,P|350:115|402:125,1,65,10|0,0:0|0:0,0:0:0:0:
469,205,224750,2,0,P|482:272|499:367,1,130,2|0,1:3|0:0,0:0:0:0:
469,95,224913,6,0,P|443:60|391:70,1,65,10|0,0:0|0:0,0:0:0:0:
324,150,225075,2,0,P|310:217|294:312,1,130,2|0,1:3|0:0,0:0:0:0:
460,99,225237,2,0,P|434:64|382:74,1,65,10|0,0:0|0:0,0:0:0:0:
315,154,225399,2,0,P|301:221|285:316,1,130,2|0,1:3|0:0,0:0:0:0:
315,44,225561,6,0,P|341:9|393:19,1,65,10|0,0:0|0:0,0:0:0:0:
460,99,225723,2,0,P|473:166|490:261,1,130,2|0,1:3|0:0,0:0:0:0:
324,48,225885,2,0,P|350:13|402:23,1,65,10|0,0:0|0:0,0:0:0:0:
469,103,226047,2,0,P|482:170|499:265,1,130,2|0,1:3|0:0,0:0:0:0:
185,208,226210,6,0,L|83:227,1,65,10|0,0:0|0:0,0:0:0:0:
327,176,226372,2,0,L|429:157,1,65,2|0,0:0|0:0,0:0:0:0:
206,138,226534,2,0,L|139:59,1,65,10|0,0:0|0:0,0:0:0:0:
305,245,226696,2,0,L|372:324,1,65,2|0,0:0|0:0,0:0:0:0:
277,122,226859,2,0,L|312:24,1,65,10|0,0:0|0:0,0:0:0:0:
234,261,227021,2,0,L|199:359,1,65,2|0,0:0|0:0,0:0:0:0:
185,208,227183,6,0,L|83:227,1,65,10|0,0:0|0:0,0:0:0:0:
327,176,227345,2,0,L|429:157,1,65,2|0,0:0|0:0,0:0:0:0:
206,138,227507,2,0,L|139:59,1,65,10|0,0:0|0:0,0:0:0:0:
305,245,227669,2,0,L|372:324,1,65,2|0,0:0|0:0,0:0:0:0:
277,122,227832,2,0,L|312:24,1,65,10|0,0:0|0:0,0:0:0:0:
234,261,227994,2,0,L|199:359,1,65,2|0,0:0|0:0,0:0:0:0:
185,208,228156,6,0,L|83:227,1,65,10|0,0:0|0:0,0:0:0:0:
327,176,228318,2,0,L|429:157,1,65,2|0,0:0|0:0,0:0:0:0:
206,138,228480,2,0,L|139:59,1,65,10|0,0:0|0:0,0:0:0:0:
305,245,228642,2,0,L|372:324,1,65,2|0,0:0|0:0,0:0:0:0:
277,122,228805,5,2,0:0:0:0:
284,83,228886,1,2,0:0:0:0:
315,60,228967,1,2,0:0:0:0:
353,60,229048,1,2,0:0:0:0:
384,83,229129,1,2,0:0:0:0:
408,112,229210,1,2,0:0:0:0:
446,119,229291,1,2,0:0:0:0:
482,104,229372,1,2,0:0:0:0:
487,65,229453,1,2,0:0:0:0:
467,31,229534,1,2,0:0:0:0:
428,28,229615,1,2,0:0:0:0:
398,53,229696,1,2,0:0:0:0:
394,91,229777,1,2,0:0:0:0:
420,120,229859,1,2,0:0:0:0:
434,156,229940,1,2,0:0:0:0:
424,193,230021,1,2,0:0:0:0:
389,211,230102,6,0,L|346:219,1,32.5,2|2,1:3|1:3,0:0:0:0:
382,201,230183,6,0,L|339:209,1,32.5,2|2,1:3|1:3,0:0:0:0:
372,213,230264,6,0,L|329:221,1,32.5,2|2,1:3|1:3,0:0:0:0:
362,203,230345,6,0,L|319:211,1,32.5,2|2,1:3|1:3,0:0:0:0:
357,216,230426,6,0,L|314:224,1,32.5,2|2,1:3|1:3,0:0:0:0:
350,206,230507,6,0,L|307:214,1,32.5,2|2,1:3|1:3,0:0:0:0:
340,218,230588,6,0,L|297:226,1,32.5,2|2,1:3|1:3,0:0:0:0:
330,208,230669,6,0,L|287:216,1,32.5,2|2,1:3|1:3,0:0:0:0:
325,221,230750,6,0,L|282:229,1,32.5,2|2,1:3|1:3,0:0:0:0:
318,211,230831,6,0,L|275:219,1,32.5,2|2,1:3|1:3,0:0:0:0:
308,223,230912,6,0,L|265:231,1,32.5,2|2,1:3|1:3,0:0:0:0:
298,213,230993,6,0,L|255:221,1,32.5,2|2,1:3|1:3,0:0:0:0:
293,226,231075,6,0,L|250:234,1,32.5,2|2,1:3|1:3,0:0:0:0:
286,216,231156,6,0,L|243:224,1,32.5,2|2,1:3|1:3,0:0:0:0:
276,228,231237,6,0,L|233:236,1,32.5,2|2,1:3|1:3,0:0:0:0:
266,218,231318,6,0,L|223:226,1,32.5,2|2,1:3|1:3,0:0:0:0:
261,231,231399,6,0,L|218:239,1,32.5,2|2,1:3|1:3,0:0:0:0:
254,221,231480,6,0,L|211:229,1,32.5,2|2,1:3|1:3,0:0:0:0:
244,233,231561,6,0,L|201:241,1,32.5,2|2,1:3|1:3,0:0:0:0:
234,223,231642,6,0,L|191:231,1,32.5,2|2,1:3|1:3,0:0:0:0:
229,236,231723,6,0,L|186:244,1,32.5,2|2,1:3|1:3,0:0:0:0:
222,226,231804,6,0,L|179:234,1,32.5,2|2,1:3|1:3,0:0:0:0:
212,238,231885,6,0,L|169:246,1,32.5,2|2,1:3|1:3,0:0:0:0:
202,228,231966,6,0,L|159:236,1,32.5,2|2,1:3|1:3,0:0:0:0:
197,241,232048,6,0,L|154:249,1,32.5,2|2,1:3|1:3,0:0:0:0:
190,231,232129,6,0,L|147:239,1,32.5,2|2,1:3|1:3,0:0:0:0:
180,243,232210,6,0,L|137:251,1,32.5,2|2,1:3|1:3,0:0:0:0:
170,233,232291,6,0,L|127:241,1,32.5,2|2,1:3|1:3,0:0:0:0:
165,246,232372,6,0,L|122:254,1,32.5,2|2,1:3|1:3,0:0:0:0:
158,236,232453,6,0,L|115:244,1,32.5,2|2,1:3|1:3,0:0:0:0:
148,248,232534,6,0,L|105:256,1,32.5,2|2,1:3|1:3,0:0:0:0:
138,238,232615,6,0,L|95:246,1,32.5,2|2,1:3|1:3,0:0:0:0:
130,249,232696,5,0,1:0:0:0:
256,192,243075,117,0,1:0:0:0:
