osu file format v14

[General]
AudioFilename: audio.mp3
AudioLeadIn: 0
PreviewTime: 176872
Countdown: 0
SampleSet: Drum
StackLeniency: 0.7
Mode: 0
LetterboxInBreaks: 0
EpilepsyWarning: 1
WidescreenStoryboard: 1

[Editor]
Bookmarks: 1778,14750,25129,35507,45886,56264,66642,77021,82210,92588,102967,113345,123723,134102,144480,158750,169129,179507,189886,200264,210642,221021,229129,232696
DistanceSpacing: 1.4
BeatDivisor: 8
GridSize: 16
TimelineZoom: 3.899999

[Metadata]
Title:INTERNET YAMERO
TitleUnicode:INTERNET YAMERO
Artist:Aiobahn feat. KOTOKO
ArtistUnicode:Aiobahn feat. KOTOKO
Creator:NeonMarijuana
Version:Setu's HARD
Source:NEEDY GIRL OVERDOSE
Tags:japanese electronic videogame video game music vgm tohru mitsuhashi インターネットやめろ 前田地生 まろん maron iosys female vocals vocalist streamer synthwave techno eurobeat rawstyle hardstyle hardcore speedcore extratone ame ame-chan amechan omgkawaiiangel angel kangel p-chan pchan wss playground xemono maeda chisei as_chisei overdose overload synthpop denpa arcaea にゃるら nyalra nyarura tenshi muse dash mpg mappers' guild featured artist fa [ drop ] [_drop_] [drop] sanayui not your kitty not_your_kitty setu nuclei
BeatmapID:4414143
BeatmapSetID:2045169

[Difficulty]
HPDrainRate:4
CircleSize:3.8
OverallDifficulty:6
ApproachRate:8
SliderMultiplier:1.5
SliderTickRate:1

[Events]
//Background and Video events
0,0,"INTERNET YAMERO.jpg",0,0
Video,-200,"INTERNET YAMERO.mp4"
//Break Periods
2,4572,6217
2,7167,8811
2,9761,11406
2,77221,81460
2,144680,148919
2,158950,160595
2,161545,163190
2,164140,165784
2,232896,242325
//Storyboard Layer 0 (Background)
//Storyboard Layer 1 (Fail)
//Storyboard Layer 2 (Pass)
//Storyboard Layer 3 (Foreground)
//Storyboard Layer 4 (Overlay)
//Storyboard Sound Samples

[TimingPoints]
1778,324.324324324324,4,3,99,85,1,0
1940,-100,4,3,69,5,0,0
2102,-100,4,3,99,85,0,0
2264,-100,4,3,69,5,0,0
2426,-100,4,3,99,85,0,0
3886,-100,4,3,69,5,0,0
4048,-100,4,3,99,90,0,0
4372,-100,4,3,1,95,0,0
14264,-100,4,3,69,5,0,0
14345,-100,4,3,1,95,0,0
14750,-100,4,3,1,60,0,0
17345,-100,4,3,1,65,0,0
19940,-100,4,3,1,70,0,0
21237,-100,4,3,1,75,0,0
22534,-100,4,3,1,80,0,0
23183,-100,4,3,1,85,0,0
23832,-100,4,3,1,80,0,0
24805,-100,4,3,1,90,0,0
25129,-100,4,3,2,85,0,1
34210,-100,4,3,2,80,0,1
35183,-100,4,3,2,90,0,1
35426,-100,4,3,69,5,0,1
35507,-111.111111111111,4,3,3,60,0,0
45723,-111.111111111111,4,3,69,5,0,0
45886,-100,4,3,3,65,0,0
56264,-100,4,3,3,70,0,0
66642,-100,4,3,3,75,0,0
67939,-100,4,3,3,76,0,0
69237,-100,4,3,3,77,0,0
70534,-100,4,3,3,78,0,0
71832,-100,4,3,3,79,0,0
73129,-100,4,3,3,80,0,0
74426,-100,4,3,3,81,0,0
75723,-100,4,3,3,82,0,0
76047,-100,4,3,3,83,0,0
76372,-100,4,3,3,84,0,0
76696,-100,4,3,3,85,0,0
77021,-100,4,3,3,60,0,0
82210,-100,4,3,4,75,0,0
92588,-100,4,3,4,80,0,0
101669,-100,4,3,4,85,0,0
102642,-100,4,3,4,90,0,0
102967,-100,4,3,4,89,0,0
103129,-100,4,3,4,88,0,0
103372,-100,4,3,4,87,0,0
103615,-100,4,3,4,86,0,0
103859,-100,4,3,4,85,0,0
104102,-100,4,3,4,84,0,0
104345,-100,4,3,4,83,0,0
104588,-100,4,3,4,82,0,0
104832,-100,4,3,4,81,0,0
105075,-100,4,3,4,80,0,0
107588,-100,4,3,4,85,0,0
107994,-100,4,3,4,80,0,0
108156,-100,4,3,4,90,0,0
109453,-100,4,3,4,85,0,0
110750,-100,4,3,4,80,0,0
112048,-100,4,3,4,75,0,0
112210,-100,4,3,4,70,0,0
112372,-100,4,3,4,65,0,0
112534,-100,4,3,4,60,0,0
112696,-100,4,3,4,55,0,0
112859,-100,4,3,4,50,0,0
113021,-100,4,3,4,45,0,0
113183,-100,4,3,4,40,0,0
113345,-100,4,3,5,80,0,0
113994,-100,4,3,69,5,0,0
114156,-100,4,3,5,80,0,0
114318,-100,4,3,69,5,0,0
114480,-100,4,3,5,80,0,0
114642,-100,4,3,97,77,0,0
114723,-100,4,3,97,74,0,0
114804,-100,4,3,97,71,0,0
114967,-100,4,3,97,65,0,0
115048,-100,4,3,97,62,0,0
115129,-100,4,3,97,59,0,0
115210,-100,4,3,97,56,0,0
115291,-100,4,3,97,53,0,0
115453,-100,4,3,97,47,0,0
115615,-100,4,3,5,60,0,0
115777,-100,4,3,5,70,0,0
115940,-100,4,3,5,80,0,0
116588,-100,4,3,69,5,0,0
116750,-100,4,3,5,80,0,0
116913,-100,4,3,69,5,0,0
117075,-100,4,3,5,80,0,0
117237,-100,4,3,97,77,0,0
117318,-100,4,3,97,74,0,0
117399,-100,4,3,97,71,0,0
117561,-100,4,3,97,65,0,0
117642,-100,4,3,97,62,0,0
117723,-100,4,3,97,59,0,0
117805,-100,4,3,97,56,0,0
117885,-100,4,3,97,53,0,0
118048,-100,4,3,97,47,0,0
118210,-100,4,3,5,60,0,0
118372,-100,4,3,5,70,0,0
118534,-100,4,3,5,80,0,0
119183,-100,4,3,69,5,0,0
119345,-100,4,3,5,80,0,0
119507,-100,4,3,69,5,0,0
119669,-100,4,3,5,80,0,0
119832,-100,4,3,97,77,0,0
119913,-100,4,3,97,74,0,0
119993,-100,4,3,97,71,0,0
120156,-100,4,3,97,65,0,0
120237,-100,4,3,97,62,0,0
120318,-100,4,3,97,59,0,0
120399,-100,4,3,97,56,0,0
120480,-100,4,3,97,53,0,0
120642,-100,4,3,97,47,0,0
120805,-100,4,3,5,60,0,0
120967,-100,4,3,5,70,0,0
121129,-100,4,3,5,80,0,0
121777,-100,4,3,69,5,0,0
121940,-100,4,3,5,80,0,0
122102,-100,4,3,69,5,0,0
122264,-100,4,3,5,80,0,0
122426,-100,4,3,97,77,0,0
122507,-100,4,3,97,74,0,0
122588,-100,4,3,97,71,0,0
122669,-100,4,3,97,68,0,0
122750,-100,4,3,97,65,0,0
122831,-100,4,3,97,62,0,0
122912,-100,4,3,97,59,0,0
122993,-100,4,3,97,56,0,0
123075,-100,4,3,97,53,0,0
123156,-100,4,3,97,50,0,0
123237,-100,4,3,97,47,0,0
123399,-100,4,3,5,85,0,0
123723,-100,4,3,5,80,0,1
131507,-100,4,3,5,85,0,1
132156,-100,4,3,5,90,0,1
132805,-100,4,3,5,70,0,1
132967,-100,4,3,5,75,0,1
133129,-100,4,3,5,80,0,1
133291,-100,4,3,5,85,0,1
133453,-100,4,3,5,90,0,1
133777,-100,4,3,5,100,0,1
134021,-100,4,3,5,100,0,0
134102,-100,4,3,6,80,0,0
134264,-100,4,3,69,5,0,0
134426,-100,4,3,6,100,0,0
134588,-100,4,3,69,5,0,0
134750,-100,4,3,6,100,0,0
134913,-100,4,3,69,5,0,0
135075,-100,4,3,6,100,0,0
135237,-100,4,3,69,5,0,0
135399,-100,4,3,6,100,0,0
135886,-100,4,3,69,5,0,0
136048,-100,4,3,6,100,0,0
136534,-100,4,3,69,5,0,0
136696,-100,4,3,6,100,0,0
136859,-100,4,3,69,5,0,0
137021,-100,4,3,6,100,0,0
137183,-100,4,3,69,5,0,0
137345,-100,4,3,6,100,0,0
137507,-100,4,3,69,5,0,0
137669,-100,4,3,6,100,0,0
137832,-100,4,3,69,5,0,0
137994,-100,4,3,6,100,0,0
138480,-100,4,3,69,5,0,0
138642,-100,4,3,6,100,0,0
138805,-100,4,3,69,5,0,0
138967,-100,4,3,6,100,0,0
139453,-100,4,3,69,5,0,0
139615,-100,4,3,6,100,0,0
139777,-100,4,3,69,5,0,0
139940,-100,4,3,6,100,0,0
140102,-100,4,3,69,5,0,0
140264,-100,4,3,6,100,0,0
140426,-100,4,3,69,5,0,0
140588,-100,4,3,6,100,0,0
141075,-100,4,3,69,5,0,0
141237,-100,4,3,6,100,0,0
141723,-100,4,3,69,5,0,0
141886,-100,4,3,6,100,0,0
142048,-100,4,3,69,5,0,0
142210,-100,4,3,6,100,0,0
142372,-100,4,3,69,5,0,0
142534,-100,4,3,6,100,0,0
142696,-100,4,3,69,5,0,0
142859,-100,4,3,6,100,0,0
143021,-100,4,3,69,5,0,0
143183,-100,4,3,6,100,0,0
143669,-100,4,3,69,5,0,0
143832,-100,4,3,6,100,0,0
143994,-100,4,3,69,5,0,0
144156,-100,4,3,6,100,0,0
144480,-100,4,3,98,60,0,0
149669,-200,4,3,98,60,0,0
154859,-200,4,3,98,70,0,0
156967,-200,4,3,98,35,0,0
157777,-200,4,3,98,50,0,0
158102,-200,4,3,98,65,0,0
158426,-200,4,3,98,80,0,0
158750,-200,4,3,1,95,0,0
168480,-100,4,3,1,95,0,0
168642,-100,4,3,69,5,0,0
168723,-100,4,3,1,95,0,0
169129,-100,4,3,1,70,0,0
171723,-100,4,3,1,75,0,0
174318,-100,4,3,1,80,0,0
175615,-100,4,3,1,85,0,0
176913,-100,4,3,1,90,0,0
177561,-100,4,3,1,95,0,0
178210,-100,4,3,1,90,0,0
178534,-100,4,3,1,93,0,0
178859,-100,4,3,1,96,0,0
179183,-100,4,3,1,100,0,0
179507,-90.9090909090909,4,3,7,95,0,1
189561,-90.9090909090909,4,3,7,100,0,1
189886,-90.9090909090909,4,3,7,95,0,1
199940,-90.9090909090909,4,3,7,100,0,1
200264,-100,4,3,2,95,0,0
210318,-100,4,3,2,100,0,0
210642,-100,4,3,2,95,0,0
219723,-100,4,3,2,85,0,0
220696,-100,4,3,2,100,0,0
220859,-100,4,3,69,5,0,0
221021,-100,4,3,2,85,0,0
226210,-100,4,3,2,90,0,0
228805,-100,4,3,2,95,0,0
230102,-100,4,3,2,100,0,0
232696,-100,4,3,99,100,0,0

[Colours]
Combo1 : 196,0,0
Combo2 : 255,255,202
Combo3 : 181,242,251
Combo4 : 199,157,255
Combo5 : 255,174,255
Combo6 : 81,81,81
Combo7 : 140,140,140
Combo8 : 128,0,0
SliderBorder : 250,250,250
SliderTrackOverride : 0,0,20

[HitObjects]
54,121,1778,6,0,P|48:170|44:210,1,75,8|0,3:0|3:0,3:0:0:0:
120,245,2102,2,0,P|123:207|128:170,1,75,8|0,3:0|3:0,3:0:0:0:
195,110,2426,1,8,3:0:0:0:
195,110,2588,1,8,3:0:0:0:
276,158,2750,1,8,3:0:0:0:
276,158,2913,1,8,3:0:0:0:
355,115,3075,6,0,B|368:75|368:75|356:21,1,75,8|8,3:0|3:0,3:0:0:0:
475,187,3561,1,8,3:0:0:0:
475,187,3723,2,0,B|462:227|462:227|474:281,1,75,8|0,3:0|3:0,3:0:0:0:
419,334,4048,1,8,3:2:0:0:
331,312,4210,1,8,3:2:0:0:
256,362,4372,37,8,1:3:0:0:
256,22,6967,117,8,1:3:0:0:
256,362,9561,117,8,1:3:0:0:
256,22,12156,117,8,1:3:0:0:
256,192,13453,5,8,1:3:0:0:
64,319,14102,102,0,P|59:279|75:233,1,75,8|0,1:3|3:0,3:0:0:0:
102,217,14345,1,8,1:3:0:0:
102,217,14426,2,0,P|144:218|185:226,1,75,8|8,1:3|1:3,3:0:0:0:
256,264,14750,54,0,B|297:270|325:282|325:282|372:272|404:250,1,150,8|8,3:0|3:2,3:0:0:0:
463,192,15237,1,0,3:0:0:0:
463,192,15399,2,0,B|447:153|444:123|444:123|411:87|376:70,1,150,8|8,3:2|3:2,3:0:0:0:
312,26,15886,1,0,3:0:0:0:
312,26,16048,2,0,B|286:58|261:76|261:76|247:122|250:161,1,150,8|8,3:2|3:2,3:0:0:0:
273,244,16534,1,0,3:0:0:0:
273,244,16696,2,0,P|235:196|130:204,1,150,8|8,3:2|3:2,3:0:0:0:
84,252,17183,1,8,3:2:0:0:
14,194,17345,6,0,B|-1:147|19:115|19:115|57:95|60:53,1,150,8|8,3:0|3:2,3:0:0:0:
136,14,17832,1,0,3:0:0:0:
136,14,17994,2,0,P|189:59|275:49,1,150,8|8,3:2|3:2,3:0:0:0:
336,117,18480,1,0,3:0:0:0:
336,117,18642,6,0,P|323:184|309:293,1,150,8|8,3:2|3:2,3:0:0:0:
248,329,19129,1,0,3:0:0:0:
248,329,19291,2,0,P|210:285|110:283,1,150,8|8,3:2|3:2,3:0:0:0:
49,225,19777,1,8,3:2:0:0:
100,150,19940,6,0,B|150:155|150:155|182:176,1,75,8|0,3:0|3:0,3:0:0:0:
248,213,20264,2,0,B|298:208|298:208|330:187,1,75,8|0,3:2|3:0,3:0:0:0:
387,136,20588,2,0,L|398:57,1,75,8|0,3:2|3:0,3:0:0:0:
479,100,20913,2,0,L|468:174,1,75,8|0,3:2|3:0,3:0:0:0:
510,253,21237,70,0,P|469:262|441:289,1,75,8|0,3:0|3:0,3:0:0:0:
358,258,21561,2,0,P|353:299|370:334,1,75,8|0,3:2|3:0,3:0:0:0:
283,365,21886,2,0,P|242:356|214:329,1,75,8|0,3:2|3:0,3:0:0:0:
131,360,22210,2,0,P|126:318|143:283,1,75,8|0,3:2|3:0,3:0:0:0:
116,201,22534,6,0,B|176:211|176:211|210:247|210:247|273:257,1,150,8|8,3:0|3:2,3:0:0:0:
435,126,23183,2,0,B|375:136|375:136|341:172|341:172|278:182,1,150,8|8,3:0|3:2,3:0:0:0:
128,138,23832,5,8,1:0:0:0:
256,11,24156,1,8,1:0:0:0:
383,138,24480,1,8,1:0:0:0:
256,266,24805,2,0,L|208:257,3,37.5,14|8|8|8,1:0|1:0|1:0|1:0,3:0:0:0:
191,223,25129,6,0,P|151:237|112:239,1,75,10|2,3:0|1:3,3:0:0:0:
53,301,25453,2,0,P|27:267|13:230,1,75,10|2,3:0|1:3,3:0:0:0:
55,157,25777,1,10,3:0:0:0:
23,82,25940,1,2,1:3:0:0:
23,82,26021,1,2,1:3:0:0:
23,82,26102,2,0,P|66:75|102:88,1,75,10|2,3:0|1:3,3:0:0:0:
182,62,26426,70,0,P|173:114|169:146,1,75,10|2,3:0|1:3,3:0:0:0:
121,211,26750,2,0,P|130:263|134:295,1,75,10|2,3:0|1:3,3:0:0:0:
204,340,27075,1,10,3:0:0:0:
358,246,27399,1,10,3:0:0:0:
358,246,27561,1,2,1:3:0:0:
428,190,27723,6,0,P|392:161|356:156,1,75,10|2,3:0|1:3,3:0:0:0:
300,91,28048,2,0,P|261:116|245:148,1,75,10|2,3:0|1:3,3:0:0:0:
183,204,28372,1,10,3:0:0:0:
114,163,28534,1,2,1:3:0:0:
114,163,28615,1,2,1:3:0:0:
114,163,28696,2,0,P|116:117|113:79,1,75,10|2,3:0|1:3,3:0:0:0:
29,120,29021,6,0,P|27:166|30:204,1,75,10|2,3:0|1:3,3:0:0:0:
52,284,29345,2,0,P|90:267|132:274,1,75,10|2,3:0|1:3,3:0:0:0:
183,204,29669,2,0,P|221:221|263:214,1,75,10|2,3:0|1:3,3:0:0:0:
324,274,29994,2,0,P|352:272|371:273,3,37.5,10|0|2|0,3:0|3:0|3:0|3:0,3:0:0:0:
400,250,30318,6,0,P|405:206|399:170,1,75,10|2,3:0|1:3,3:0:0:0:
452,102,30642,2,0,P|411:83|375:78,1,75,10|2,3:0|3:0,3:0:0:0:
315,17,30967,2,0,P|286:47|239:50,1,75,10|10,3:0|3:0,3:0:0:0:
217,75,31210,1,10,3:0:0:0:
217,75,31291,2,0,B|204:113|204:113|218:158,1,75,10|2,3:0|1:3,3:0:0:0:
235,233,31615,70,0,P|195:227|158:223,1,75,10|2,3:0|1:3,3:0:0:0:
104,152,31940,2,0,P|64:158|27:162,1,75,10|2,3:0|1:3,3:0:0:0:
0,246,32264,1,10,3:0:0:0:
145,359,32588,1,10,3:0:0:0:
145,359,32750,1,10,3:0:0:0:
223,314,32913,6,0,P|230:275|221:233,1,75,10|2,3:0|1:3,3:0:0:0:
161,176,33237,2,0,P|154:137|163:95,1,75,10|2,3:0|1:3,3:0:0:0:
227,43,33561,1,10,3:0:0:0:
307,102,33723,1,2,1:3:0:0:
307,102,33805,1,2,1:3:0:0:
307,102,33886,2,0,B|351:109|351:109|389:97,1,75,10|2,3:0|1:3,3:0:0:0:
402,186,34210,6,0,P|386:225|376:266,1,75,10|2,1:3|1:3,3:0:0:0:
397,344,34534,2,0,P|354:340|312:343,1,75,2|2,1:3|1:3,3:0:0:0:
256,280,34859,1,2,1:3:0:0:
98,192,35183,2,0,B|86:124|86:124|106:73,1,112.5,4|0,3:0|3:0,3:0:0:0:
136,55,35507,6,0,P|183:81|262:26,1,135,12|8,3:0|3:2,3:0:0:0:
381,147,36156,2,0,P|334:173|252:115,1,135,10|8,3:0|3:2,3:0:0:0:
154,262,36805,2,0,B|200:253|200:253|243:270|243:270|286:261,1,135,8|8,3:0|3:2,3:0:0:0:
424,352,37453,1,8,3:0:0:0:
424,352,37615,1,10,3:0:0:0:
481,294,37777,2,0,P|448:271|397:272,1,67.5000000000001,8|2,3:2|1:3,3:0:0:0:
386,193,38102,70,0,B|355:211|355:211|335:257|335:257|287:280,1,135,8|8,3:0|3:2,3:0:0:0:
196,148,38750,2,0,B|165:129|165:129|145:83|145:83|97:60,1,135,10|8,3:0|3:2,3:0:0:0:
256,12,39399,2,0,B|302:20|302:20|331:49|331:49|381:58,1,135,8|8,3:0|3:2,3:0:0:0:
481,188,40048,1,8,3:0:0:0:
481,188,40210,1,10,3:0:0:0:
413,233,40372,2,0,P|397:189|403:156,1,67.5000000000001,8|2,3:2|1:3,3:0:0:0:
438,98,40696,6,0,P|385:140|306:120,1,135,8|8,3:0|3:2,3:0:0:0:
177,56,41345,2,0,P|230:14|308:36,1,135,8|8,3:0|3:2,3:0:0:0:
228,173,41994,2,0,P|171:160|68:142,1,135,8|8,3:0|3:2,3:0:0:0:
9,284,42642,1,8,3:0:0:0:
9,284,42805,1,10,3:0:0:0:
70,336,42967,2,0,P|117:327|153:324,1,67.5000000000001,10|2,3:2|1:3,3:0:0:0:
203,279,43291,6,0,B|278:290|235:336|332:349,1,135,8|8,3:0|3:2,3:0:0:0:
443,247,43940,2,0,P|469:202|450:97,1,135,8|8,3:0|3:2,3:0:0:0:
336,21,44588,2,0,P|310:66|329:171,1,135,8|8,3:0|3:2,3:0:0:0:
198,259,45237,1,8,3:0:0:0:
198,259,45399,1,8,3:0:0:0:
129,216,45561,2,0,B|106:210|106:210|78:213|78:213|50:206,1,67.5000000000001,8|0,3:2|3:0,3:0:0:0:
5,279,45886,6,0,P|15:336|100:308,1,150,12|8,3:0|3:2,3:0:0:0:
176,371,46372,1,2,2:0:0:0:
176,371,46534,2,0,B|210:351|210:351|258:345,1,75,8|2,3:0|2:0,3:0:0:0:
322,297,46859,1,8,3:2:0:0:
322,297,47021,70,0,B|329:254|329:254|320:216,1,75,2|8,2:0|3:0,3:0:0:0:
243,179,47345,2,0,B|236:222|236:222|245:260,1,75,2|8,2:0|3:2,3:0:0:0:
162,291,47669,1,2,2:0:0:0:
162,291,47832,2,0,P|120:282|86:277,1,75,8|10,3:0|2:3,3:0:0:0:
24,213,48156,2,0,B|14:168|14:168|29:123,1,75,8|2,3:2|2:0,3:0:0:0:
101,95,48480,6,0,B|193:83|154:141|255:120,1,150,8|8,3:0|3:2,3:0:0:0:
321,74,48967,1,2,2:0:0:0:
321,74,49129,2,0,P|325:27|329:-8,1,75,8|2,3:0|2:0,3:0:0:0:
408,49,49453,1,8,3:2:0:0:
408,49,49615,6,0,P|404:96|400:131,1,75,2|8,2:0|3:0,3:0:0:0:
341,192,49940,2,0,P|315:164|260:155,1,75,2|8,2:0|3:2,3:0:0:0:
214,100,50264,1,2,2:0:0:0:
214,100,50426,2,0,P|188:128|133:137,1,75,8|10,3:0|2:3,3:0:0:0:
84,196,50750,2,0,P|90:240|93:279,1,75,8|2,3:2|2:0,3:0:0:0:
146,342,51075,6,0,P|183:307|290:316,1,150,8|8,3:0|3:2,3:0:0:0:
419,196,51723,1,8,3:0:0:0:
419,196,51886,1,0,2:0:0:0:
346,142,52048,2,0,P|329:183|336:226,1,75,8|0,3:2|2:0,3:0:0:0:
419,196,52372,70,0,L|444:39,1,150,8|8,3:0|3:2,3:0:0:0:
270,9,53021,1,8,3:0:0:0:
270,9,53183,1,10,2:3:0:0:
198,63,53345,2,0,P|233:90|268:93,1,75,10|2,3:2|2:0,3:0:0:0:
318,163,53669,6,0,P|260:170|163:193,1,150,8|8,3:0|3:2,3:0:0:0:
58,332,54318,1,8,3:0:0:0:
58,332,54480,1,0,2:0:0:0:
4,260,54642,2,0,P|48:243|90:253,1,75,8|0,3:2|2:0,3:0:0:0:
144,303,54967,6,0,P|191:320|272:265,1,150,8|8,3:0|3:2,3:0:0:0:
338,104,55615,1,8,3:0:0:0:
404,43,55777,2,0,L|444:51,2,37.5,8|8|8,3:2|3:2|3:2,3:0:0:0:
326,7,56102,1,8,3:2:0:0:
326,7,56264,6,0,B|231:13|279:62|179:65,1,150,12|8,3:0|3:2,3:0:0:0:
132,131,56750,2,0,P|144:178|150:211,1,75,2|8,2:0|3:0,3:0:0:0:
217,262,57075,2,0,P|229:215|235:182,1,75,2|8,2:0|3:2,3:0:0:0:
303,132,57399,70,0,B|339:141|339:141|406:126,1,75,2|8,2:0|3:0,3:0:0:0:
461,159,57723,2,0,B|452:195|452:195|467:262,1,75,2|8,2:0|3:2,3:0:0:0:
445,321,58048,2,0,B|409:312|409:312|342:327,1,75,2|8,2:0|3:0,3:0:0:0:
285,295,58372,2,0,B|294:259|294:259|279:192,1,75,10|8,2:3|3:2,3:0:0:0:
221,166,58696,1,2,2:0:0:0:
221,166,58859,6,0,B|127:144|157:207|46:177,1,150,8|8,3:0|3:2,3:0:0:0:
12,127,59345,1,2,2:0:0:0:
12,127,59507,2,0,B|3:85|3:85|19:34,1,75,8|2,3:0|2:0,3:0:0:0:
91,9,59832,1,8,3:2:0:0:
91,9,59994,6,0,P|125:29|166:27,1,75,2|8,2:0|3:0,3:0:0:0:
206,105,60318,2,0,P|235:78|246:39,1,75,2|8,2:0|3:2,3:0:0:0:
329,11,60642,2,0,B|378:20|378:20|407:42,1,75,2|8,2:0|3:0,3:0:0:0:
460,101,60967,2,0,B|411:110|411:110|382:132,1,75,10|8,2:3|3:2,3:0:0:0:
330,192,61291,1,2,2:0:0:0:
330,192,61453,6,0,B|380:204|380:204|416:245|416:245|470:258,1,150,8|8,3:0|3:2,3:0:0:0:
319,369,62102,1,8,3:0:0:0:
319,369,62264,1,0,2:0:0:0:
252,308,62426,2,0,B|243:272|243:272|255:226,1,75,8|0,3:2|2:0,3:0:0:0:
199,162,62750,70,0,B|149:174|149:174|113:215|113:215|59:228,1,150,8|8,3:0|3:2,3:0:0:0:
9,60,63399,1,8,3:0:0:0:
9,60,63561,1,10,2:3:0:0:
86,13,63723,2,0,B|133:8|133:8|174:19,1,75,10|2,3:2|2:0,3:0:0:0:
223,79,64048,6,0,P|281:89|294:4,1,150,8|8,3:0|3:2,3:0:0:0:
420,157,64696,1,8,3:0:0:0:
420,157,64859,1,0,2:0:0:0:
348,211,65021,2,0,P|307:201|270:193,1,75,8|0,3:2|2:0,3:0:0:0:
195,152,65345,6,0,P|159:198|58:204,1,150,8|8,3:0|3:2,3:0:0:0:
185,357,65994,1,8,3:0:0:0:
185,357,66156,1,8,2:3:0:0:
252,297,66318,2,0,P|258:246|251:208,1,75,8|0,3:2|2:0,3:0:0:0:
195,152,66642,6,0,P|244:185|331:160,1,150,12|8,3:0|3:2,3:0:0:0:
379,90,67129,1,2,2:0:0:0:
379,90,67291,2,0,B|424:112|424:112|444:175|444:175|485:203,1,150,2|8,1:3|3:2,3:0:0:0:
394,240,67777,70,0,P|361:244|327:280,1,75,2|0,2:0|1:0,3:0:0:0:
241,255,68102,2,0,P|234:287|258:331,1,75,2|8,2:0|3:2,3:0:0:0:
181,380,68426,2,0,P|148:376|114:340,1,75,2|0,2:0|1:0,3:0:0:0:
28,365,68750,2,0,P|21:332|45:288,1,75,2|8,2:0|3:2,3:0:0:0:
107,238,69075,1,2,2:0:0:0:
55,164,69237,6,0,P|111:145|192:207,1,150,2|8,1:3|3:2,3:0:0:0:
259,247,69723,1,2,2:0:0:0:
259,247,69886,2,0,P|268:196|288:83,1,150,2|8,1:3|3:2,3:0:0:0:
337,25,70372,6,0,P|382:48|419:37,1,75,2|0,2:0|1:0,3:0:0:0:
471,104,70696,2,0,P|506:68|507:29,1,75,2|8,2:0|3:2,3:0:0:0:
395,149,71021,2,0,P|408:197|440:217,1,75,2|0,2:0|1:0,3:0:0:0:
318,115,71345,2,0,P|275:142|266:180,1,75,2|8,2:0|3:2,3:0:0:0:
209,233,71669,1,2,2:0:0:0:
209,233,71832,6,0,P|157:223|34:204,1,150,2|10,1:3|3:2,3:0:0:0:
12,34,72480,2,0,P|86:22|159:8,1,150,2|10,1:3|3:2,3:0:0:0:
277,145,73129,70,0,B|333:160|333:160|359:189|359:189|428:209,1,150,2|10,1:3|3:2,3:0:0:0:
256,297,73777,2,0,B|200:312|200:312|174:341|174:341|105:361,1,150,2|10,1:3|3:2,3:0:0:0:
47,305,74264,1,2,2:0:0:0:
47,305,74426,6,0,P|75:271|79:235,1,75,2|2,1:3|2:0,3:0:0:0:
165,213,74750,2,0,P|141:175|108:160,1,75,10|2,3:2|2:0,3:0:0:0:
28,133,75075,2,0,P|96:134|136:66,1,150,2|10,1:3|3:2,3:0:0:0:
308,20,75723,6,0,P|296:80|281:180,1,150,2|10,1:3|1:2,3:0:0:0:
434,265,76372,1,2,1:3:0:0:
501,205,76534,1,10,3:2:0:0:
501,205,76615,1,10,3:2:0:0:
501,205,76696,1,10,3:2:0:0:
454,127,76859,2,0,P|413:118|375:107,1,75,10|6,3:2|1:3,3:0:0:0:
185,43,82210,22,0,B|193:74|193:74|193:88|193:88|201:115,1,75,8|0,3:0|3:0,3:0:0:0:
226,202,82534,2,0,B|194:210|194:210|180:210|180:210|153:218,1,75,8|0,3:0|3:0,3:0:0:0:
66,243,82859,2,0,B|57:211|57:211|57:197|57:197|49:170,1,75,8|0,3:0|3:0,3:0:0:0:
26,83,83183,2,0,B|57:74|57:74|71:74|71:74|98:66,1,75,8|0,3:0|3:0,3:0:0:0:
185,43,83507,6,0,B|216:51|216:51|230:51|230:51|257:59,1,75,8|0,3:0|3:0,3:0:0:0:
313,130,83832,2,0,B|281:138|281:138|267:138|267:138|240:146,1,75,8|0,3:0|3:0,3:0:0:0:
191,221,84156,2,0,B|222:229|222:229|236:229|236:229|263:237,1,75,8|0,3:0|3:0,3:0:0:0:
317,309,84480,2,0,B|285:317|285:317|271:317|271:317|244:325,1,75,8|0,3:0|3:0,3:0:0:0:
165,280,84805,6,0,B|156:248|156:248|156:234|156:234|148:207,1,75,8|0,3:0|3:0,3:0:0:0:
125,120,85129,2,0,B|156:111|156:111|170:111|170:111|197:103,1,75,8|0,3:0|3:0,3:0:0:0:
284,79,85453,2,0,B|292:110|292:110|292:124|292:124|300:151,1,75,8|0,3:0|3:0,3:0:0:0:
325,238,85777,2,0,B|293:246|293:246|279:246|279:246|252:254,1,75,8|0,3:0|3:0,3:0:0:0:
300,151,86102,6,0,B|331:159|331:159|345:159|345:159|372:167,1,75,8|0,3:0|3:0,3:0:0:0:
458,194,86426,2,0,B|466:162|466:162|466:148|466:148|474:121,1,75,8|0,3:0|3:0,3:0:0:0:
493,33,86750,2,0,B|461:24|461:24|447:24|447:24|420:16,1,75,8|0,3:0|3:0,3:0:0:0:
334,31,87075,1,8,3:0:0:0:
334,31,87237,1,8,3:0:0:0:
256,76,87399,70,0,B|216:62|216:62|171:68,1,75,8|0,3:0|3:0,3:0:0:0:
108,16,87723,2,0,B|94:56|94:56|100:101,1,75,8|0,3:0|3:0,3:0:0:0:
51,165,88048,2,0,B|91:179|91:179|136:173,1,75,8|0,3:0|3:0,3:0:0:0:
198,224,88372,2,0,B|212:184|212:184|206:139,1,75,8|0,3:0|3:0,3:0:0:0:
256,76,88696,6,0,B|296:62|296:62|341:68,1,75,8|0,3:0|3:0,3:0:0:0:
404,16,89021,2,0,B|418:56|418:56|412:101,1,75,8|0,3:0|3:0,3:0:0:0:
461,165,89345,2,0,B|421:179|421:179|376:173,1,75,8|0,3:0|3:0,3:0:0:0:
314,224,89669,2,0,B|300:184|300:184|306:139,1,75,8|0,3:0|3:0,3:0:0:0:
229,234,89994,6,0,B|243:274|243:274|237:319,1,75,8|0,3:0|3:0,3:0:0:0:
168,362,90318,2,0,B|154:322|154:322|160:277,1,75,8|0,3:0|3:0,3:0:0:0:
71,220,90642,2,0,B|85:260|85:260|79:305,1,75,8|0,3:0|3:0,3:0:0:0:
10,350,90967,2,0,B|-4:310|-4:310|2:265,1,75,8|0,3:0|3:0,3:0:0:0:
0,190,91291,6,0,P|27:152|73:144,1,75,8|0,3:0|3:0,3:0:0:0:
86,59,91615,2,0,P|130:72|152:114,1,75,8|0,3:0|3:0,3:0:0:0:
205,163,91940,2,0,P|249:149|271:107,1,75,8|0,3:0|3:0,3:0:0:0:
334,70,92264,2,0,P|361:108|407:116,1,75,8|0,3:0|3:0,3:0:0:0:
448,181,92588,69,10,3:0:0:0:
382,243,92750,2,0,P|376:269|373:283,4,37.5,10|2|10|2|10,3:2|3:0|3:0|1:3|3:2,3:0:0:0:
356,156,93237,5,14,3:0:0:0:
293,90,93399,2,0,P|287:64|284:50,4,37.5,10|2|10|2|10,3:2|3:0|3:0|1:3|3:2,3:0:0:0:
273,178,93886,5,10,3:0:0:0:
218,249,94048,1,10,3:2:0:0:
218,249,94129,1,0,3:0:0:0:
218,249,94210,2,0,P|173:239|138:235,1,75,10|10,3:0|3:2,3:0:0:0:
65,192,94534,2,0,P|64:171|71:143,3,37.5,14|2|10|2,3:0|1:3|3:2|3:0,3:0:0:0:
101,125,94859,2,0,P|107:83|97:45,1,75,10|8,3:0|3:2,3:0:0:0:
179,10,95183,6,0,B|228:18|228:18|260:42,1,75,10|10,3:0|3:2,3:0:0:0:
312,96,95507,2,0,L|295:173,1,75,10|10,3:0|3:2,3:0:0:0:
238,239,95832,2,0,L|250:292,3,37.5,14|2|10|0,3:0|1:3|3:2|3:0,3:0:0:0:
279,305,96156,2,0,B|298:308|317:319|317:319|342:306|382:312,1,75,10|8,3:0|3:2,3:0:0:0:
404,239,96480,70,0,P|447:243|490:248,1,75,10|10,3:0|3:2,3:0:0:0:
505,160,96805,2,0,P|509:138|503:115,4,37.5,10|2|10|0|14,3:0|1:3|3:2|3:0|3:0,3:0:0:0:
417,141,97291,1,10,3:2:0:0:
417,141,97372,1,2,3:0:0:0:
417,141,97453,2,0,P|376:139|333:135,1,75,10|8,3:0|3:2,3:0:0:0:
280,70,97777,6,0,P|260:101|215:114,1,75,10|8,3:0|3:2,3:0:0:0:
170,185,98102,2,0,P|150:154|105:141,1,75,10|10,3:0|3:2,3:0:0:0:
55,73,98426,2,0,P|39:77|10:83,3,37.5,14|0|10|2,3:0|1:3|3:2|3:0,3:0:0:0:
2,123,98750,2,0,B|-3:164|-3:164|16:213,1,75,10|8,3:0|3:2,3:0:0:0:
70,262,99075,6,0,L|61:321,3,37.5,10|2|8|2,3:0|1:3|3:2|3:0,3:0:0:0:
85,338,99399,2,0,P|128:318|162:321,1,75,10|8,3:0|3:2,3:0:0:0:
229,267,99723,1,14,3:0:0:0:
229,267,99805,1,2,1:3:0:0:
229,267,99886,2,0,B|242:223|242:223|230:165,1,75,8|10,3:2|3:0,3:0:0:0:
184,120,100210,1,8,3:2:0:0:
234,45,100372,6,0,B|276:55|276:55|327:42,1,75,10|10,3:0|3:2,3:0:0:0:
343,20,100615,1,2,3:0:0:0:
343,20,100696,2,0,B|385:10|385:10|436:23,1,75,10|10,3:0|3:2,3:0:0:0:
478,82,101021,2,0,L|472:132,3,37.5,14|0|10|2,3:0|1:3|3:2|3:0,3:0:0:0:
448,156,101345,2,0,P|457:199|462:237,1,75,10|8,3:0|3:2,3:0:0:0:
384,275,101669,70,0,P|352:247|307:247,1,75,10|10,3:0|3:2,3:0:0:0:
272,167,101994,2,0,P|240:195|195:195,1,75,10|10,3:0|3:2,3:0:0:0:
146,263,102318,2,0,L|135:304,3,37.5,14|2|10|2,3:0|1:3|3:2|3:0,3:0:0:0:
96,320,102642,2,0,B|58:328|58:328|12:315,1,75,10|8,3:0|3:2,3:0:0:0:
8,228,102967,6,0,P|14:183|18:148,1,75,10|10,3:0|3:2,3:0:0:0:
52,124,103210,1,2,3:0:0:0:
52,124,103291,2,0,P|93:130|134:132,1,75,8|10,3:0|3:2,3:0:0:0:
164,164,103534,1,0,3:0:0:0:
164,164,103615,2,0,P|205:158|246:156,1,75,14|8,3:0|3:2,3:0:0:0:
276,129,103859,1,2,3:0:0:0:
276,129,103940,2,0,P|285:88|270:45,1,75,10|10,3:0|3:2,3:0:0:0:
356,14,104264,6,0,P|406:18|436:22,1,75,8|10,3:0|3:2,3:0:0:0:
470,51,104507,1,0,3:0:0:0:
470,51,104588,2,0,P|483:94|473:135,1,75,10|8,3:0|3:2,3:0:0:0:
444,152,104832,1,2,3:0:0:0:
444,152,104913,2,0,P|431:195|441:236,1,75,14|10,3:0|3:2,3:0:0:0:
451,271,105156,1,2,3:0:0:0:
451,271,105237,2,0,P|399:258|358:253,1,75,8|10,3:0|3:2,3:0:0:0:
307,199,105561,6,0,P|281:205|259:208,3,37.5,8|0|8|0,3:0|1:3|3:2|3:0,3:0:0:0:
234,235,105886,2,0,P|208:229|186:226,3,37.5,8|0|8|0,3:0|1:3|3:2|3:0,3:0:0:0:
170,191,106210,2,0,P|144:197|122:200,3,37.5,12|0|8|0,3:0|1:3|3:2|3:0,3:0:0:0:
101,230,106534,2,0,P|75:224|53:221,3,37.5,8|0|8|0,3:0|1:3|3:2|3:0,3:0:0:0:
37,185,106859,70,0,B|32:157|2:134|2:134|-3:83|44:49,1,150,8|8,3:0|3:0,3:0:0:0:
116,17,107345,1,8,3:2:0:0:
116,17,107507,22,0,B|171:28|171:28|201:61|201:61|258:72,1,150,12|10,3:0|3:0,3:0:0:0:
308,139,107994,1,10,3:2:0:0:
240,198,108156,6,0,P|247:247|251:287,1,75,10|10,2:3|2:0,3:0:0:0:
288,303,108399,1,2,2:3:0:0:
288,303,108480,2,0,P|281:352|277:392,1,75,10|10,2:3|2:0,3:0:0:0:
364,349,108805,102,0,B|399:333|399:333|456:342,1,75,14|10,2:3|2:0,3:0:0:0:
472,313,109048,1,2,2:3:0:0:
472,313,109129,2,0,L|484:232,1,75,10|10,2:3|2:0,3:0:0:0:
451,154,109453,86,0,B|416:170|416:170|359:161,1,75,8|8,2:3|2:0,3:0:0:0:
344,146,109696,1,0,2:3:0:0:
344,146,109777,2,0,L|332:65,1,75,8|8,2:3|2:0,3:0:0:0:
256,23,110102,2,0,B|221:7|221:7|164:16,1,75,12|8,2:3|2:0,3:0:0:0:
158,50,110345,1,0,2:3:0:0:
158,50,110426,2,0,L|146:131,1,75,8|8,2:3|2:0,3:0:0:0:
62,153,110750,6,0,L|69:206,3,37.5,8|0|8|0,2:3|2:3|2:0|2:3,3:0:0:0:
103,216,111075,2,0,L|110:269,3,37.5,8|0|8|0,2:3|2:3|2:0|2:3,3:0:0:0:
150,268,111399,2,0,L|157:321,3,37.5,12|0|8|0,2:3|2:3|2:0|2:3,3:0:0:0:
197,320,111723,2,0,L|204:373,3,37.5,8|0|8|0,2:3|2:3|2:0|2:3,3:0:0:0:
244,374,112048,6,0,B|269:377|293:382|293:382|310:371|341:367,1,75,8|8,2:3|2:0,3:0:0:0:
395,330,112372,2,0,B|420:327|444:322|444:322|461:333|492:337,1,75,8|10,2:3|2:0,3:0:0:0:
503,252,112696,1,14,2:3:0:0:
503,252,112859,1,10,2:0:0:0:
483,168,113021,1,10,2:3:0:0:
483,168,113183,1,10,2:0:0:0:
402,207,113345,22,0,P|359:215|317:224,1,75,14|14,3:0|3:0,3:0:0:0:
212,83,113832,2,0,P|202:44|213:2,1,75,14|0,3:0|3:0,3:0:0:0:
303,10,114156,2,0,P|309:47|300:83,1,75,14|0,3:0|3:0,3:0:0:0:
256,161,114480,6,0,B|198:184|164:153|164:153|126:147|91:176,1,150,14|0,3:0|0:0,3:0:0:0:
48,224,114967,2,0,B|41:253|26:295|26:295|65:321|74:363,1,150,0|0,0:0|0:0,3:0:0:0:
159,373,115453,1,2,0:0:0:0:
211,301,115615,1,2,3:0:0:0:
211,301,115777,1,2,3:0:0:0:
162,224,115940,6,0,P|159:184|157:141,1,75,14|14,3:0|3:0,3:0:0:0:
297,36,116426,2,0,P|338:28|384:41,1,75,14|0,3:0|3:0,3:0:0:0:
454,3,116750,2,0,P|474:39|476:87,1,75,14|0,3:0|3:0,3:0:0:0:
442,155,117075,6,0,B|346:129|386:180|281:156,1,150,14|0,3:0|0:0,3:0:0:0:
233,224,117561,2,0,B|199:273|240:309|240:309|278:321|302:283,1,150,0|0,0:0|0:0,3:0:0:0:
356,236,118048,1,2,0:0:0:0:
429,296,118210,1,14,3:0:0:0:
429,296,118372,1,14,3:0:0:0:
375,367,118534,70,0,P|348:361|292:351,1,75,14|14,3:0|3:0,3:0:0:0:
206,199,119021,2,0,P|198:159|209:116,1,75,14|0,3:0|3:0,3:0:0:0:
307,125,119345,2,0,P|313:162|306:199,1,75,14|0,3:0|3:0,3:0:0:0:
256,273,119669,6,0,B|173:315|193:246|104:279,1,150,14|0,3:0|0:0,3:0:0:0:
33,230,120156,2,0,P|22:186|117:182,1,150,0|0,0:0|0:0,3:0:0:0:
192,172,120642,1,2,0:0:0:0:
228,91,120805,1,14,3:0:0:0:
228,91,120967,1,14,3:0:0:0:
164,26,121129,6,0,B|122:23|122:23|75:41,1,75,14|14,3:0|3:0,3:0:0:0:
192,172,121615,2,0,P|232:173|265:199,1,75,14|0,3:0|3:0,3:0:0:0:
346,164,121940,2,0,P|357:202|342:241,1,75,14|0,3:0|3:0,3:0:0:0:
421,303,122264,1,14,3:0:0:0:
421,303,122345,1,0,3:0:0:0:
421,303,122426,6,0,L|476:295,3,37.5
484,261,122750,2,0,L|492:214,3,37.5
464,186,123075,2,0,P|457:139|446:98,1,75,0|2,0:0|0:0,3:0:0:0:
489,31,123399,1,6,3:2:0:0:
404,1,123561,1,6,3:2:0:0:
360,79,123723,70,0,P|314:82|269:52,1,75,14|10,3:0|1:2,3:0:0:0:
215,17,124048,2,0,P|169:14|124:44,1,75,8|10,3:0|3:2,3:0:0:0:
120,65,124291,1,0,3:0:0:0:
120,65,124372,2,0,B|116:105|116:105|134:151,1,75,8|10,3:0|1:2,3:0:0:0:
193,200,124696,1,8,3:0:0:0:
138,272,124859,1,10,1:2:0:0:
51,247,125021,6,0,P|45:293|40:341,1,75,8|8,3:0|1:2,3:0:0:0:
115,372,125345,2,0,P|159:352|192:359,1,75,8|8,3:0|3:2,3:0:0:0:
221,329,125588,1,0,3:0:0:0:
221,329,125669,2,0,P|265:349|298:342,1,75,8|10,3:0|1:2,3:0:0:0:
374,377,125994,2,0,L|382:328,3,37.5,10|0|10|0,3:0|3:0|3:2|3:0,3:0:0:0:
411,307,126318,6,0,P|404:267|397:230,1,75,10|10,3:0|1:2,3:0:0:0:
335,167,126642,2,0,P|342:127|349:90,1,75,8|10,3:0|3:2,3:0:0:0:
382,63,126886,1,0,3:0:0:0:
382,63,126967,2,0,P|422:86|468:81,1,75,8|10,3:0|1:2,3:0:0:0:
506,155,127291,1,8,3:0:0:0:
458,231,127453,1,10,1:2:0:0:
382,182,127615,6,0,P|346:178|296:186,1,75,8|8,3:0|1:2,3:0:0:0:
235,236,127940,2,0,P|199:240|149:232,1,75,8|8,3:0|3:2,3:0:0:0:
123,219,128183,1,0,3:0:0:0:
123,219,128264,2,0,B|114:178|114:178|129:134,1,75,8|10,3:0|1:2,3:0:0:0:
192,87,128588,2,0,L|186:36,3,37.5,10|0|10|0,3:0|3:0|3:2|3:0,3:0:0:0:
153,19,128913,70,0,B|126:15|126:15|96:21|96:21|57:14,1,75,10|10,3:0|1:2,3:0:0:0:
18,84,129237,2,0,P|10:128|21:163,1,75,8|10,3:0|3:2,3:0:0:0:
57,187,129480,1,0,3:0:0:0:
57,187,129561,2,0,P|65:231|54:266,1,75,8|10,3:0|1:2,3:0:0:0:
5,333,129886,1,8,3:0:0:0:
83,376,130048,1,10,1:2:0:0:
148,314,130210,6,0,P|189:306|233:300,1,75,8|8,3:0|1:2,3:0:0:0:
270,225,130534,2,0,P|229:217|185:211,1,75,8|8,3:0|3:2,3:0:0:0:
164,187,130777,1,0,3:0:0:0:
164,187,130859,2,0,B|152:137|152:137|163:100,1,75,8|10,3:0|1:2,3:0:0:0:
216,45,131183,1,10,3:0:0:0:
299,78,131345,1,10,3:2:0:0:
378,36,131507,5,14,3:0:0:0:
204,351,132156,1,14,3:0:0:0:
499,145,132805,6,0,P|502:99|505:59,1,75,14|14,3:0|3:0,3:0:0:0:
429,19,133129,2,0,P|426:56|423:93,1,75,14|14,3:0|3:0,3:0:0:0:
357,153,133453,6,0,B|345:141|345:141|321:133,3,37.5,6|8|10|8,3:2|3:0|3:0|3:0,3:0:0:0:
289,107,133777,2,0,B|277:119|277:119|253:127,3,37.5,6|8|10|8,3:2|3:0|3:0|3:0,3:0:0:0:
224,156,134102,22,0,B|196:151|196:151|169:157|169:157|135:151,1,75,8|0,3:0|3:0,3:0:0:0:
65,122,134426,2,0,B|60:150|60:150|66:177|66:177|60:211,1,75,8|0,3:0|3:0,3:0:0:0:
34,281,134750,2,0,B|62:286|62:286|89:280|89:280|123:286,1,75,8|0,3:0|3:0,3:0:0:0:
190,318,135075,2,0,B|195:290|195:290|189:263|189:263|195:229,1,75,8|0,3:0|3:0,3:0:0:0:
256,181,135399,6,0,B|303:168|303:168|342:177,1,75,8|0,3:0|1:0,3:0:0:0:
361,211,135642,1,0,1:0:0:0:
361,211,135723,2,0,B|374:258|374:258|365:297,1,75,8|0,3:0|3:0,3:0:0:0:
397,369,136048,2,0,B|444:382|444:382|483:373,1,75,8|0,3:0|1:0,3:0:0:0:
503,346,136291,1,0,1:0:0:0:
503,346,136372,2,0,L|513:263,1,75,8|0,3:0|3:0,3:0:0:0:
478,188,136696,102,0,B|453:184|453:184|429:191|429:191|404:187,1,75,8|0,3:0|3:0,3:0:0:0:
322,222,137021,2,0,B|326:197|326:197|319:173|319:173|323:148,1,75,8|0,3:0|3:0,3:0:0:0:
270,75,137345,2,0,B|245:79|245:79|221:72|221:72|196:76,1,75,8|0,3:0|3:0,3:0:0:0:
116,117,137669,2,0,B|120:142|120:142|113:166|113:166|117:191,1,75,8|0,3:0|3:0,3:0:0:0:
31,221,137994,6,0,P|58:251|63:290,1,75,8|0,3:0|1:0,3:0:0:0:
61,332,138237,1,0,1:0:0:0:
61,332,138318,2,0,L|138:319,1,75,8|0,3:0|3:0,3:0:0:0:
212,365,138642,2,0,B|244:360|244:360|265:366|265:366|311:356,1,75,8|0,3:0|3:0,3:0:0:0:
322,279,138967,2,0,L|329:233,3,37.5,8|0|4|0,3:0|3:0|3:0|3:0,3:0:0:0:
305,204,139291,102,0,B|262:195|262:195|232:171,1,75,8|0,3:0|3:0,3:0:0:0:
181,105,139615,2,0,B|224:96|224:96|254:72,1,75,8|0,3:0|3:0,3:0:0:0:
333,45,139940,2,0,L|320:135,1,75,8|0,3:0|3:0,3:0:0:0:
401,162,140264,2,0,L|411:87,1,75,8|0,3:0|3:0,3:0:0:0:
487,135,140588,6,0,L|476:209,1,75,8|0,3:0|1:0,3:0:0:0:
472,257,140832,1,0,1:0:0:0:
472,257,140913,2,0,B|433:272|433:272|386:259,1,75,8|0,3:0|3:0,3:0:0:0:
329,209,141237,2,0,B|290:194|290:194|243:207,1,75,8|0,3:0|1:0,3:0:0:0:
239,245,141480,1,0,1:0:0:0:
239,245,141561,2,0,L|249:319,1,75,8|0,3:0|3:0,3:0:0:0:
175,371,141886,102,0,P|151:343|105:333,1,75,8|0,3:0|3:0,3:0:0:0:
58,262,142210,2,0,P|94:255|125:220,1,75,8|0,3:0|3:0,3:0:0:0:
177,159,142534,2,0,P|140:152|109:117,1,75,8|0,3:0|3:0,3:0:0:0:
89,39,142859,2,0,P|140:47|176:54,1,75,8|0,3:0|3:0,3:0:0:0:
248,23,143183,6,0,B|263:74|263:74|292:96,1,75,8|0,3:0|1:0,3:0:0:0:
307,129,143426,1,0,1:0:0:0:
307,129,143507,2,0,B|292:180|292:180|263:202,1,75,8|0,3:0|3:0,3:0:0:0:
226,269,143832,2,0,P|270:283|314:297,1,75,8|0,3:0|3:0,3:0:0:0:
380,258,144156,102,0,L|388:230,8,18.75,0|0|0|0|0|0|0|0|2,3:0|3:0|3:0|3:0|3:0|3:0|3:0|3:0|2:0,3:0:0:0:
1,95,149669,22,0,B|127:74|87:175|216:147,1,225,2|2,2:0|2:0,3:0:0:0:
256,71,150967,2,0,P|332:40|337:155,1,225,2|2,2:0|2:0,3:0:0:0:
432,178,152264,6,0,B|306:157|346:258|217:230,1,225,2|2,2:0|2:0,3:0:0:0:
133,231,153561,2,0,P|77:270|176:308,1,225,2|2,2:0|2:0,3:0:0:0:
223,231,154859,6,0,P|227:189|230:146,1,75,2|2,2:0|2:0,3:0:0:0:
196,72,155507,2,0,P|238:76|281:79,1,75,2|2,2:0|2:0,3:0:0:0:
333,142,156156,5,2,2:0:0:0:
256,192,156237,12,8,158750,1:3:0:0:
256,192,161345,5,8,1:3:0:0:
256,192,163940,117,8,1:3:0:0:
256,192,166534,117,8,1:3:0:0:
256,192,167832,5,8,1:3:0:0:
103,287,168480,102,0,P|99:240|110:199,1,75,8|0,1:3|3:0,3:0:0:0:
137,182,168723,1,8,1:3:0:0:
137,182,168805,2,0,P|141:135|130:94,1,75,8|8,1:3|1:3,3:0:0:0:
80,36,169129,54,0,P|137:74|234:29,1,150,8|8,3:0|3:2,3:0:0:0:
260,137,169615,1,0,3:0:0:0:
260,137,169777,2,0,B|246:190|246:190|257:229|257:229|243:291,1,150,8|8,3:2|3:2,3:0:0:0:
311,350,170264,1,0,3:0:0:0:
311,350,170426,6,0,P|368:312|465:357,1,150,8|8,3:2|3:2,3:0:0:0:
496,258,170913,1,0,3:0:0:0:
496,258,171075,2,0,P|501:201|513:102,1,150,8|8,3:2|3:2,3:0:0:0:
469,35,171561,1,8,3:2:0:0:
469,35,171723,6,0,B|415:49|415:49|383:81|383:81|331:94,1,150,8|8,3:0|3:2,3:0:0:0:
256,137,172210,1,0,3:0:0:0:
256,137,172372,2,0,P|195:123|91:101,1,150,8|8,3:2|3:2,3:0:0:0:
36,156,172859,1,0,3:0:0:0:
36,156,173021,6,0,B|3:202|20:247|20:247|56:252|73:288,1,150,8|8,3:2|3:2,3:0:0:0:
128,344,173507,1,0,3:0:0:0:
128,344,173669,2,0,B|185:331|185:331|215:299|215:299|280:286,1,150,8|8,3:2|3:2,3:0:0:0:
326,226,174156,1,8,3:2:0:0:
256,169,174318,70,0,P|229:127|258:11,1,150,8|8,3:0|3:2,3:0:0:0:
376,149,174967,2,0,P|413:202|384:305,1,150,8|8,3:2|3:2,3:0:0:0:
236,352,175615,6,0,B|209:348|209:348|186:333|186:333|151:325,1,75,8|0,3:0|3:0,3:0:0:0:
92,276,175940,2,0,B|119:272|119:272|142:257|142:257|177:249,1,75,8|0,3:2|3:0,3:0:0:0:
228,192,176264,2,0,B|201:188|201:188|178:173|178:173|143:165,1,75,8|0,3:2|3:0,3:0:0:0:
98,101,176588,1,8,3:2:0:0:
259,19,176913,6,0,B|307:27|307:27|343:63|343:63|401:75,1,150,8|8,3:0|3:2,3:0:0:0:
219,121,177561,2,0,B|171:129|171:129|135:165|135:165|77:177,1,150,8|8,3:0|3:2,3:0:0:0:
256,340,178210,5,8,1:0:0:0:
426,281,178534,1,8,1:0:0:0:
256,340,178859,1,8,1:0:0:0:
86,281,179183,2,0,L|80:239,3,37.5,14|8|8|8,1:0|1:0|1:0|1:0,3:0:0:0:
104,205,179507,70,0,P|142:212|188:219,1,82.5000025177003,10|0,3:0|2:3,3:0:0:0:
251,293,179832,2,0,P|268:258|290:217,1,82.5000025177003,10|0,3:0|2:3,3:0:0:0:
253,133,180156,1,10,3:0:0:0:
253,133,180318,1,2,2:3:0:0:
316,56,180480,1,10,3:0:0:0:
395,114,180642,6,0,B|426:135|457:132|457:132|427:157|422:226,1,165.000005035401,2|2,2:3|2:3,3:0:0:0:
437,320,181129,2,0,P|395:306|354:311,1,82.5000025177003,10|2,3:0|2:3,3:0:0:0:
297,231,181453,1,10,3:0:0:0:
139,350,181777,6,0,P|95:346|42:340,1,82.5000025177003,10|2,3:0|2:3,3:0:0:0:
36,244,182102,2,0,P|78:247|121:252,1,82.5000025177003,10|2,3:0|2:3,3:0:0:0:
196,190,182426,1,10,3:0:0:0:
196,190,182588,1,2,2:3:0:0:
132,114,182750,1,10,3:0:0:0:
199,40,182913,2,0,P|236:45|280:42,1,82.5000025177003,2|10,2:3|3:0,3:0:0:0:
349,112,183237,6,0,B|337:166|337:166|351:211|351:211|337:271,1,165.000005035401,2|2,2:3|2:3,3:0:0:0:
395,351,183723,2,0,P|446:347|478:349,1,82.5000025177003,10|0,3:0|2:3,3:0:0:0:
505,254,184048,1,10,3:0:0:0:
445,65,184372,2,0,L|402:60,3,41.2500012588501,8|0|0|0,3:0|3:0|3:0|3:0,3:0:0:0:
369,95,184696,70,0,P|324:88|284:84,1,82.5000025177003,10|0,3:0|2:3,3:0:0:0:
217,16,185021,2,0,P|196:55|180:90,1,82.5000025177003,10|0,3:0|2:3,3:0:0:0:
164,190,185345,1,10,3:0:0:0:
164,190,185507,1,0,2:3:0:0:
71,156,185669,1,10,3:0:0:0:
21,242,185832,6,0,B|3:282|19:321|19:321|62:301|109:325,1,165.000005035401,2|2,2:3|2:3,3:0:0:0:
184,374,186318,2,0,P|191:331|198:293,1,82.5000025177003,10|0,3:0|2:3,3:0:0:0:
271,226,186642,2,0,P|278:269|285:307,1,82.5000025177003,10|0,3:0|2:3,3:0:0:0:
362,378,186967,1,10,3:0:0:0:
362,378,187129,1,2,2:3:0:0:
422,299,187291,6,0,P|463:276|508:278,1,82.5000025177003,10|2,3:0|2:3,3:0:0:0:
448,189,187615,2,0,P|438:142|454:100,1,82.5000025177003,10|2,3:0|2:3,3:0:0:0:
349,95,187940,2,0,P|302:89|267:61,1,82.5000025177003,10|2,3:0|2:3,3:0:0:0:
191,14,188264,1,10,3:0:0:0:
122,84,188426,6,0,B|108:111|83:136|83:136|122:164|117:228,1,165.000005035401,2|2,2:3|2:3,3:0:0:0:
202,275,188913,2,0,P|235:271|256:272,3,41.2500012588501,10|0|0|0,3:0|3:0|3:0|3:0,3:0:0:0:
271,230,189237,2,0,P|305:239|360:241,1,82.5000025177003,10|0,3:0|3:0,3:0:0:0:
422,186,189561,1,12,3:0:0:0:
328,32,189886,70,0,P|295:26|243:35,1,82.5000025177003,10|0,3:0|2:3,3:0:0:0:
169,95,190210,2,0,P|181:142|188:182,1,82.5000025177003,10|0,3:0|2:3,3:0:0:0:
229,264,190534,2,0,P|174:210|90:232,1,165.000005035401,10|10,3:0|3:0,3:0:0:0:
43,314,191021,6,0,B|103:331|103:331|131:364|131:364|193:379,1,165.000005035401,2|2,2:3|2:3,3:0:0:0:
287,377,191507,2,0,P|296:327|304:294,1,82.5000025177003,10|0,3:0|2:3,3:0:0:0:
350,208,191832,2,0,P|391:250|494:233,1,165.000005035401,10|10,3:0|3:0,3:0:0:0:
503,139,192318,1,2,2:3:0:0:
425,85,192480,5,10,3:0:0:0:
425,85,192642,1,2,2:3:0:0:
349,148,192805,1,10,3:0:0:0:
349,148,192967,1,2,2:3:0:0:
269,89,193129,2,0,B|257:47|257:47|270:10,1,82.5000025177003,10|0,3:0|2:3,3:0:0:0:
350,51,193453,1,10,3:0:0:0:
350,51,193615,6,0,L|181:33,1,165.000005035401,2|2,2:3|2:3,3:0:0:0:
117,105,194102,2,0,P|154:134|165:174,1,82.5000025177003,10|0,3:0|2:3,3:0:0:0:
256,208,194426,2,0,P|219:237|208:277,1,82.5000025177003,10|0,3:0|2:3,3:0:0:0:
157,354,194750,2,0,P|139:352|117:347,3,41.2500012588501,10|0|2|0,3:0|3:0|3:0|3:0,3:0:0:0:
100,299,195075,70,0,P|60:291|1:305,1,82.5000025177003,10|0,3:0|2:3,3:0:0:0:
9,198,195399,2,0,B|1:175|1:175|5:146|5:146|-1:118,1,82.5000025177003,10|0,3:0|2:3,3:0:0:0:
66,45,195723,1,10,3:0:0:0:
155,108,195886,1,2,3:0:0:0:
155,108,195967,1,0,3:0:0:0:
155,108,196048,1,10,3:0:0:0:
233,48,196210,6,0,B|291:37|291:37|335:51|335:51|400:37,1,165.000005035401,2|2,1:3|2:3,3:0:0:0:
463,109,196696,2,0,P|455:159|453:192,1,82.5000025177003,10|0,3:0|2:3,3:0:0:0:
371,247,197021,2,0,P|363:197|361:164,1,82.5000025177003,10|0,3:0|2:3,3:0:0:0:
288,98,197345,1,10,3:0:0:0:
197,137,197507,1,2,2:3:0:0:
206,235,197669,6,0,P|212:284|212:323,1,82.5000025177003,10|2,3:0|2:3,3:0:0:0:
121,277,197994,2,0,P|115:228|115:189,1,82.5000025177003,10|2,3:0|2:3,3:0:0:0:
197,137,198318,1,8,3:0:0:0:
293,159,198480,1,2,2:3:0:0:
389,178,198642,1,10,3:0:0:0:
480,216,198805,6,0,B|463:248|428:258|428:258|391:293|406:351,1,165.000005035401,2|2,2:3|2:3,3:0:0:0:
314,308,199291,2,0,P|296:309|267:306,3,41.2500012588501,10|0|0|0,3:0|3:0|3:0|3:0,3:0:0:0:
234,275,199615,2,0,P|196:271|144:281,1,82.5000025177003,10|0,3:0|3:0,3:0:0:0:
76,326,199940,1,14,3:0:0:0:
31,145,200264,70,0,P|26:102|38:56,1,75,10|2,3:0|1:3,3:0:0:0:
110,27,200588,2,0,P|115:70|103:116,1,75,10|2,3:0|1:3,3:0:0:0:
178,166,200913,1,10,3:0:0:0:
178,166,201075,1,2,1:3:0:0:
255,120,201237,2,0,P|297:114|340:125,1,75,10|2,3:0|1:3,3:0:0:0:
417,106,201561,6,0,P|409:145|401:188,1,75,10|2,3:0|1:3,3:0:0:0:
434,219,201805,1,0,1:0:0:0:
434,219,201886,2,0,P|473:198|517:205,1,75,10|2,3:0|1:3,3:0:0:0:
484,287,202210,1,10,3:0:0:0:
318,358,202534,6,0,B|291:352|291:352|262:357|262:357|226:351,1,75,10|2,3:0|1:3,3:0:0:0:
218,267,202859,2,0,P|211:226|222:181,1,75,10|2,3:0|1:3,3:0:0:0:
297,152,203183,2,0,P|304:111|293:66,1,75,10|2,3:0|1:3,3:0:0:0:
223,28,203507,2,0,B|196:34|196:34|167:29|167:29|131:35,1,75,10|2,3:0|1:3,3:0:0:0:
118,64,203750,1,2,1:3:0:0:
118,64,203832,2,0,B|108:104|108:104|121:148,1,75,10|2,3:0|1:3,3:0:0:0:
173,206,204156,5,10,3:0:0:0:
121,280,204318,1,2,1:3:0:0:
35,253,204480,1,10,3:0:0:0:
33,164,204642,1,2,1:3:0:0:
117,136,204805,1,10,3:0:0:0:
173,206,204967,1,2,1:3:0:0:
173,206,205048,1,0,1:0:0:0:
173,206,205129,2,0,L|229:196,3,37.5,10|0|2|0,3:0|3:0|3:0|3:0,3:0:0:0:
246,173,205453,70,0,L|302:183,3,37.5,10|0|2|0,3:0|1:0|1:3|1:0,3:0:0:0:
318,207,205777,2,0,B|332:250|332:250|323:293,1,75,10|2,3:0|1:3,3:0:0:0:
392,354,206102,1,10,3:0:0:0:
392,354,206183,1,0,1:0:0:0:
392,354,206264,2,0,P|446:349|472:347,1,75,2|10,1:3|3:0,3:0:0:0:
508,268,206588,1,2,1:3:0:0:
456,194,206750,6,0,L|450:146,3,37.5,10|0|2|0,3:0|1:0|1:3|1:0,3:0:0:0:
473,116,207075,2,0,P|480:79|488:40,1,75,10|2,3:0|1:3,3:0:0:0:
406,3,207399,2,0,P|398:39|391:76,1,75,10|0,3:0|1:0,3:0:0:0:
325,137,207723,1,10,3:0:0:0:
325,137,207805,1,0,1:0:0:0:
325,137,207886,1,2,1:3:0:0:
254,80,208048,6,0,B|186:70|186:70|133:100,1,112.5,10|0,3:0|1:0,3:0:0:0:
115,122,208372,2,0,P|130:156|138:198,1,75,10|2,3:0|1:3,3:0:0:0:
190,265,208696,1,10,3:0:0:0:
128,330,208859,1,2,1:3:0:0:
128,330,208940,1,2,1:3:0:0:
128,330,209021,2,0,B|81:322|81:322|51:293,1,75,10|2,3:0|1:3,3:0:0:0:
12,227,209345,5,10,3:0:0:0:
136,97,209669,2,0,L|146:42,3,37.5,10|0|2|0,3:0|3:0|3:0|3:0,3:0:0:0:
182,37,209994,2,0,B|225:30|225:30|259:5,1,75,10|2,3:0|3:0,3:0:0:0:
337,32,210318,1,14,3:0:0:0:
362,118,210480,1,2,3:0:0:0:
300,183,210642,70,0,L|247:175,3,37.5,10|0|2|0,3:0|1:0|1:3|1:0,3:0:0:0:
227,149,210967,2,0,L|146:134,1,75,10|2,3:0|1:3,3:0:0:0:
85,194,211291,2,0,L|77:247,3,37.5,10|0|2|2,3:0|1:0|1:3|1:3,3:0:0:0:
51,267,211615,2,0,L|36:348,1,75,10|2,3:0|1:3,3:0:0:0:
119,378,211940,6,0,P|147:347|195:340,1,75,10|2,3:0|1:3,3:0:0:0:
219,317,212183,1,0,1:0:0:0:
219,317,212264,2,0,P|247:348|295:355,1,75,10|2,3:0|1:3,3:0:0:0:
366,339,212588,1,10,3:0:0:0:
472,193,212913,6,0,B|488:158|488:158|472:103,1,75,10|2,3:0|1:3,3:0:0:0:
411,70,213237,1,10,3:0:0:0:
411,70,213399,1,2,1:3:0:0:
340,124,213561,1,10,3:0:0:0:
340,124,213723,1,2,1:3:0:0:
264,73,213886,2,0,P|266:28|261:-8,1,75,10|2,3:0|1:3,3:0:0:0:
180,36,214210,2,0,P|178:81|183:117,1,75,10|2,3:0|1:3,3:0:0:0:
118,174,214534,6,0,B|89:180|89:180|36:170,1,75,10|2,3:0|1:3,3:0:0:0:
111,255,214859,2,0,B|140:249|140:249|193:259,1,75,10|2,3:0|1:3,3:0:0:0:
254,200,215183,2,0,B|269:157|269:157|252:122|252:122|270:88|255:41,1,150,10|10,3:0|3:0,3:0:0:0:
344,21,215669,1,2,3:0:0:0:
344,21,215750,1,0,3:0:0:0:
344,21,215832,70,0,P|385:24|427:20,1,75,10|2,3:0|1:3,3:0:0:0:
485,81,216156,2,0,P|494:122|486:170,1,75,10|2,3:0|3:0,3:0:0:0:
430,221,216480,2,0,P|405:191|353:183,1,75,10|2,3:0|3:0,3:0:0:0:
340,155,216723,1,2,3:0:0:0:
340,155,216805,2,0,P|315:185|263:193,1,75,10|2,3:0|1:3,3:0:0:0:
213,253,217129,6,0,P|168:246|123:245,1,75,10|2,3:0|1:3,3:0:0:0:
63,194,217453,2,0,P|53:153|65:116,1,75,10|2,3:0|1:3,3:0:0:0:
103,42,217777,2,0,B|136:44|164:59|164:59|201:28|267:35,1,150,10|10,3:0|3:0,3:0:0:0:
316,88,218264,1,2,1:3:0:0:
316,88,218426,6,0,B|324:139|324:139|309:177,1,75,10|2,3:0|1:3,3:0:0:0:
236,204,218750,2,0,B|228:255|228:255|243:293,1,75,10|2,3:0|1:3,3:0:0:0:
301,339,219075,2,0,P|340:314|381:316,1,75,10|2,3:0|1:3,3:0:0:0:
420,239,219399,2,0,P|459:264|500:262,1,75,10|2,3:0|1:3,3:0:0:0:
509,352,219723,5,10,1:3:0:0:
479,174,220048,1,2,1:3:0:0:
367,312,220372,1,2,1:3:0:0:
317,139,220696,2,0,B|310:96|310:96|322:63,1,75,4|0,3:0|3:0,3:0:0:0:
399,110,221021,70,0,L|412:191,1,75,10|2,3:0|1:3,3:0:0:0:
317,139,221345,2,0,L|330:220,1,75,10|2,3:0|1:3,3:0:0:0:
230,265,221669,2,0,L|243:184,1,75,10|2,3:0|1:3,3:0:0:0:
148,236,221994,2,0,L|161:155,1,75,10|2,3:0|1:3,3:0:0:0:
108,87,222318,6,0,B|82:69|82:69|27:60,1,75,10|2,3:0|1:3,3:0:0:0:
45,151,222642,2,0,B|27:177|27:177|18:232,1,75,10|2,3:0|1:3,3:0:0:0:
110,215,222967,2,0,B|136:233|136:233|191:242,1,75,10|2,3:0|1:3,3:0:0:0:
177,150,223291,2,0,B|195:124|195:124|204:69,1,75,10|2,3:0|1:3,3:0:0:0:
283,42,223615,6,0,B|329:35|329:35|362:45,1,75,10|2,3:0|1:3,3:0:0:0:
442,15,223940,2,0,B|449:61|449:61|439:94,1,75,10|2,3:0|1:3,3:0:0:0:
478,169,224264,2,0,B|432:176|432:176|399:166,1,75,10|2,3:0|1:3,3:0:0:0:
321,201,224588,2,0,B|314:155|314:155|324:122,1,75,10|2,3:0|1:3,3:0:0:0:
404,167,224913,6,0,L|419:254,1,75,10|2,3:0|1:3,3:0:0:0:
321,201,225237,2,0,L|336:288,1,75,10|2,3:0|1:3,3:0:0:0:
237,333,225561,2,0,L|252:246,1,75,10|2,3:0|1:3,3:0:0:0:
154,299,225886,2,0,L|169:212,1,75,10|2,3:0|1:3,3:0:0:0:
103,168,226210,5,10,3:0:0:0:
103,168,226372,1,2,3:0:0:0:
152,94,226534,1,10,3:0:0:0:
152,94,226696,1,2,3:0:0:0:
83,34,226859,2,0,B|45:47|45:47|14:84,1,75,10|2,3:0|3:0,3:0:0:0:
3,161,227183,2,0,L|23:246,1,75,10|2,3:0|3:0,3:0:0:0:
95,292,227507,5,10,3:0:0:0:
95,292,227669,1,2,3:0:0:0:
170,241,227832,1,10,3:0:0:0:
170,241,227994,1,2,3:0:0:0:
237,300,228156,2,0,P|277:307|316:316,1,75,10|2,3:0|3:0,3:0:0:0:
386,267,228480,2,0,B|402:233|402:233|393:179,1,75,10|2,3:0|3:0,3:0:0:0:
330,133,228805,6,0,L|279:125,3,37.5,2|2|2|2,3:0|3:0|3:0|3:0,3:0:0:0:
261,94,229129,2,0,L|210:102,3,37.5,2|2|2|2,3:0|3:0|3:0|3:0,3:0:0:0:
191,131,229453,2,0,L|140:123,3,37.5,2|2|2|2,3:0|3:0|3:0|3:0,3:0:0:0:
116,99,229777,2,0,L|65:107,3,37.5,2|2|2|2,3:0|3:0|3:0|3:0,3:0:0:0:
50,140,230102,5,2,1:3:0:0:
256,192,230183,12,0,232696,1:0:0:0:
256,192,243075,69,0,1:0:0:0:
