osu file format v14

[General]
AudioFilename: audio.mp3
AudioLeadIn: 0
PreviewTime: 176872
Countdown: 0
SampleSet: Drum
StackLeniency: 0.3
Mode: 0
LetterboxInBreaks: 0
EpilepsyWarning: 1
WidescreenStoryboard: 1

[Editor]
Bookmarks: 25129,35507,45886,56264,66642,82210,92588,113345,123723,134102,139291,144480,149669,158750,179507,189886,200264,210642,221021
DistanceSpacing: 0.8
BeatDivisor: 4
GridSize: 16
TimelineZoom: 3.200004

[Metadata]
Title:INTERNET YAMERO
TitleUnicode:INTERNET YAMERO
Artist:Aiobahn feat. KOTOKO
ArtistUnicode:Aiobahn feat. KOTOKO
Creator:NeonMarijuana
Version:Mari & kitty's INSANE
Source:NEEDY GIRL OVERDOSE
Tags:japanese electronic videogame video game music vgm tohru mitsuhashi インターネットやめろ 前田地生 まろん maron iosys female vocals vocalist streamer synthwave techno eurobeat rawstyle hardstyle hardcore speedcore extratone ame ame-chan amechan omgkawaiiangel angel kangel p-chan pchan wss playground xemono maeda chisei as_chisei overdose overload synthpop denpa arcaea にゃるら nyalra nyarura tenshi muse dash mpg mappers' guild featured artist fa [ drop ] [_drop_] [drop] sanayui not your kitty not_your_kitty setu nuclei
BeatmapID:4359795
BeatmapSetID:2045169

[Difficulty]
HPDrainRate:5
CircleSize:3.8
OverallDifficulty:7.8
ApproachRate:9.2
SliderMultiplier:2
SliderTickRate:1

[Events]
//Background and Video events
0,0,"INTERNET YAMERO.jpg",0,0
Video,-200,"INTERNET YAMERO.mp4"
//Break Periods
2,4653,6397
2,7248,8991
2,9842,11586
2,77221,79045
2,79815,81640
2,159031,160775
2,161626,163370
2,164221,165964
2,232896,242505
//Storyboard Layer 0 (Background)
//Storyboard Layer 1 (Fail)
//Storyboard Layer 2 (Pass)
//Storyboard Layer 3 (Foreground)
//Storyboard Layer 4 (Overlay)
//Storyboard Sound Samples

[TimingPoints]
1778,324.324324324324,4,3,99,85,1,0
1778,-100,4,3,99,85,0,0
4048,-83.3333333333333,4,3,99,90,0,0
4129,-83.3333333333333,4,3,69,5,0,0
4210,-83.3333333333333,4,3,99,90,0,0
4291,-83.3333333333333,4,3,69,5,0,0
4372,-71.4285714285714,4,3,1,95,0,0
4453,-71.4285714285714,4,3,69,5,0,0
6967,-71.4285714285714,4,3,1,95,0,0
7048,-71.4285714285714,4,3,69,5,0,0
9561,-71.4285714285714,4,3,1,95,0,0
9642,-71.4285714285714,4,3,69,5,0,0
12156,-71.4285714285714,4,3,1,95,0,0
12237,-71.4285714285714,4,3,69,5,0,0
13453,-71.4285714285714,4,3,1,95,0,0
13534,-71.4285714285714,4,3,69,5,0,0
14102,-71.4285714285714,4,3,1,95,0,0
14750,-125,4,3,1,60,0,0
17345,-125,4,3,1,65,0,0
19940,-125,4,3,1,70,0,0
21237,-125,4,3,1,75,0,0
22534,-125,4,3,1,80,0,0
23183,-125,4,3,1,85,0,0
23832,-100,4,3,1,80,0,0
24805,-100,4,3,1,90,0,0
25129,-83.3333333333333,4,3,2,85,0,1
34210,-83.3333333333333,4,3,2,80,0,1
35183,-125,4,3,2,90,0,1
35426,-125,4,3,69,5,0,1
35507,-125,4,3,3,60,0,0
45886,-117.647058823529,4,3,3,65,0,0
56264,-111.111111111111,4,3,3,70,0,0
66642,-105.263157894737,4,3,3,75,0,0
67940,-105.263157894737,4,3,3,76,0,0
69237,-105.263157894737,4,3,3,77,0,0
70534,-105.263157894737,4,3,3,78,0,0
71832,-105.263157894737,4,3,3,79,0,0
73129,-105.263157894737,4,3,3,80,0,0
74426,-105.263157894737,4,3,3,81,0,0
75723,-105.263157894737,4,3,3,82,0,0
76048,-105.263157894737,4,3,3,83,0,0
76372,-105.263157894737,4,3,3,84,0,0
76696,-105.263157894737,4,3,3,85,0,0
77021,-105.263157894737,4,3,3,60,0,0
82210,-100,4,3,4,75,0,0
87156,-100,4,3,69,5,0,0
87237,-100,4,3,4,75,0,0
92588,-95.2380952380952,4,3,4,80,0,0
101669,-95.2380952380952,4,3,4,85,0,0
102642,-95.2380952380952,4,3,4,90,0,0
102886,-95.2380952380952,4,3,4,89,0,0
103129,-95.2380952380952,4,3,4,88,0,0
103372,-95.2380952380952,4,3,4,87,0,0
103615,-95.2380952380952,4,3,4,86,0,0
103859,-95.2380952380952,4,3,4,85,0,0
104102,-95.2380952380952,4,3,4,84,0,0
104345,-95.2380952380952,4,3,4,83,0,0
104588,-95.2380952380952,4,3,4,82,0,0
104832,-95.2380952380952,4,3,4,81,0,0
105075,-95.2380952380952,4,3,4,80,0,0
107588,-95.2380952380952,4,3,4,85,0,0
107994,-95.2380952380952,4,3,4,80,0,0
108156,-95.2380952380952,4,3,4,90,0,0
109453,-95.2380952380952,4,3,4,85,0,0
110750,-95.2380952380952,4,3,4,80,0,0
112048,-95.2380952380952,4,3,4,75,0,0
112210,-95.2380952380952,4,3,4,70,0,0
112372,-95.2380952380952,4,3,4,65,0,0
112534,-95.2380952380952,4,3,4,60,0,0
112696,-95.2380952380952,4,3,4,55,0,0
112859,-95.2380952380952,4,3,4,50,0,0
113021,-95.2380952380952,4,3,4,45,0,0
113183,-95.2380952380952,4,3,4,40,0,0
113345,-83.3333333333333,4,3,5,80,0,0
113426,-83.3333333333333,4,3,69,5,0,0
113507,-83.3333333333333,4,3,5,80,0,0
113588,-83.3333333333333,4,3,69,5,0,0
113832,-83.3333333333333,4,3,5,80,0,0
113913,-83.3333333333333,4,3,69,5,0,0
114156,-83.3333333333333,4,3,5,80,0,0
114237,-83.3333333333333,4,3,69,5,0,0
114480,-83.3333333333333,4,3,5,80,0,0
114561,-83.3333333333333,4,3,69,5,0,0
114642,-100,4,3,97,77,0,0
114723,-100,4,3,97,74,0,0
114805,-100,4,3,97,71,0,0
114886,-100,4,3,97,68,0,0
114967,-100,4,3,97,65,0,0
115048,-100,4,3,97,62,0,0
115129,-100,4,3,97,59,0,0
115210,-100,4,3,97,56,0,0
115291,-100,4,3,97,53,0,0
115372,-100,4,3,97,50,0,0
115453,-100,4,3,97,47,0,0
115534,-100,4,3,97,44,0,0
115615,-100,4,3,5,60,0,0
115696,-100,4,3,69,5,0,0
115777,-100,4,3,5,70,0,0
115859,-100,4,3,69,5,0,0
115940,-83.3333333333333,4,3,5,80,0,0
116021,-83.3333333333333,4,3,69,5,0,0
116102,-83.3333333333333,4,3,5,80,0,0
116183,-83.3333333333333,4,3,69,5,0,0
116426,-83.3333333333333,4,3,5,80,0,0
116507,-83.3333333333333,4,3,69,5,0,0
116750,-83.3333333333333,4,3,5,80,0,0
116832,-83.3333333333333,4,3,69,5,0,0
117075,-83.3333333333333,4,3,5,80,0,0
117156,-83.3333333333333,4,3,69,5,0,0
117237,-100,4,3,97,77,0,0
117318,-100,4,3,97,74,0,0
117399,-100,4,3,97,71,0,0
117480,-100,4,3,97,68,0,0
117561,-100,4,3,97,65,0,0
117642,-100,4,3,97,62,0,0
117723,-100,4,3,97,59,0,0
117805,-100,4,3,97,56,0,0
117886,-100,4,3,97,53,0,0
117967,-100,4,3,97,50,0,0
118048,-100,4,3,97,47,0,0
118129,-100,4,3,97,44,0,0
118210,-83.3333333333333,4,3,5,60,0,0
118291,-83.3333333333333,4,3,69,5,0,0
118372,-83.3333333333333,4,3,5,70,0,0
118453,-83.3333333333333,4,3,69,5,0,0
118534,-83.3333333333333,4,3,5,80,0,0
118615,-83.3333333333333,4,3,69,5,0,0
118696,-83.3333333333333,4,3,5,80,0,0
118777,-83.3333333333333,4,3,69,5,0,0
119021,-83.3333333333333,4,3,5,80,0,0
119102,-83.3333333333333,4,3,69,5,0,0
119345,-83.3333333333333,4,3,5,80,0,0
119426,-83.3333333333333,4,3,69,5,0,0
119669,-83.3333333333333,4,3,5,80,0,0
119750,-83.3333333333333,4,3,69,5,0,0
119832,-100,4,3,97,77,0,0
119913,-100,4,3,97,74,0,0
119994,-100,4,3,97,71,0,0
120075,-100,4,3,97,68,0,0
120156,-100,4,3,97,65,0,0
120237,-100,4,3,97,62,0,0
120318,-100,4,3,97,59,0,0
120399,-100,4,3,97,56,0,0
120480,-100,4,3,97,53,0,0
120561,-100,4,3,97,50,0,0
120642,-100,4,3,97,47,0,0
120723,-100,4,3,97,44,0,0
120805,-83.3333333333333,4,3,5,60,0,0
120886,-83.3333333333333,4,3,69,5,0,0
120967,-83.3333333333333,4,3,5,70,0,0
121048,-83.3333333333333,4,3,69,5,0,0
121129,-83.3333333333333,4,3,5,80,0,0
121210,-83.3333333333333,4,3,69,5,0,0
121291,-83.3333333333333,4,3,5,80,0,0
121372,-83.3333333333333,4,3,69,5,0,0
121615,-83.3333333333333,4,3,5,80,0,0
121696,-83.3333333333333,4,3,69,5,0,0
121940,-83.3333333333333,4,3,5,80,0,0
122021,-83.3333333333333,4,3,69,5,0,0
122264,-83.3333333333333,4,3,5,80,0,0
122345,-83.3333333333333,4,3,69,5,0,0
122426,-100,4,3,97,77,0,0
122507,-100,4,3,97,74,0,0
122588,-100,4,3,97,71,0,0
122669,-100,4,3,97,68,0,0
122750,-100,4,3,97,65,0,0
122832,-100,4,3,97,62,0,0
122913,-100,4,3,97,59,0,0
122994,-100,4,3,97,56,0,0
123075,-100,4,3,97,53,0,0
123156,-100,4,3,97,50,0,0
123237,-100,4,3,97,47,0,0
123318,-100,4,3,97,44,0,0
123399,-71.4285714285714,4,3,5,85,0,0
123480,-71.4285714285714,4,3,69,5,0,0
123561,-71.4285714285714,4,3,5,85,0,0
123642,-71.4285714285714,4,3,69,5,0,0
123723,-95.2380952380952,4,3,5,80,0,0
131507,-95.2380952380952,4,3,5,85,0,0
132156,-95.2380952380952,4,3,5,90,0,0
132805,-95.2380952380952,4,3,5,70,0,0
132967,-95.2380952380952,4,3,5,75,0,0
133129,-95.2380952380952,4,3,5,80,0,0
133291,-95.2380952380952,4,3,5,85,0,0
133453,-95.2380952380952,4,3,5,90,0,0
133777,-95.2380952380952,4,3,5,100,0,0
134102,-250.000000000001,4,3,6,80,0,1
134345,-250.000000000001,4,3,69,5,0,1
134426,-62.5,4,3,6,100,0,1
134669,-62.5,4,3,69,5,0,1
134750,-62.5,4,3,6,100,0,1
134994,-62.5,4,3,69,5,0,1
135075,-62.5,4,3,6,100,0,1
135318,-62.5,4,3,69,5,0,1
135399,-62.5,4,3,6,100,0,1
135642,-62.5,4,3,69,5,0,1
135723,-62.5,4,3,6,100,0,1
135967,-62.5,4,3,69,5,0,1
136048,-62.5,4,3,6,100,0,1
136291,-62.5,4,3,69,5,0,1
136372,-62.5,4,3,6,100,0,1
136615,-62.5,4,3,69,5,0,1
136696,-250.000000000001,4,3,6,100,0,1
136940,-250,4,3,69,5,0,1
137021,-62.5,4,3,6,100,0,1
137264,-62.5,4,3,69,5,0,1
137345,-62.5,4,3,6,100,0,1
137588,-62.5,4,3,69,5,0,1
137669,-62.5,4,3,6,100,0,1
137913,-62.5,4,3,69,5,0,1
137994,-62.5,4,3,6,100,0,1
138237,-62.5,4,3,69,5,0,1
138318,-62.5,4,3,6,100,0,1
138561,-62.5,4,3,69,5,0,1
138642,-62.5,4,3,6,100,0,1
138886,-62.5,4,3,69,5,0,1
138967,-62.5,4,3,6,100,0,1
139291,-250,4,3,6,100,0,1
139534,-250,4,3,69,5,0,1
139615,-62.5,4,3,6,100,0,1
139859,-62.5,4,3,69,5,0,1
139940,-62.5,4,3,6,100,0,1
140183,-62.5,4,3,69,5,0,1
140264,-62.5,4,3,6,100,0,1
140507,-62.5,4,3,69,5,0,1
140588,-62.5,4,3,6,100,0,1
140832,-62.5,4,3,69,5,0,1
140913,-62.5,4,3,6,100,0,1
141156,-62.5,4,3,69,5,0,1
141237,-62.5,4,3,6,100,0,1
141480,-62.5,4,3,69,5,0,1
141561,-62.5,4,3,6,100,0,1
141805,-62.5,4,3,69,5,0,1
141886,-100,4,3,6,100,0,1
142210,-62.5,4,3,6,100,0,1
142453,-62.5,4,3,69,5,0,1
142534,-62.5,4,3,6,100,0,1
142777,-62.5,4,3,69,5,0,1
142859,-62.5,4,3,6,100,0,1
143102,-62.5,4,3,69,5,0,1
143183,-62.5,4,3,6,100,0,1
143426,-62.5,4,3,69,5,0,1
143507,-62.5,4,3,6,100,0,1
143750,-62.5,4,3,69,5,0,1
143832,-62.5,4,3,6,100,0,1
144075,-62.5,4,3,69,5,0,1
144156,-62.5,4,3,6,100,0,1
144480,-166.666666666667,4,3,98,60,0,0
148372,-166.666666666667,4,3,98,70,0,0
148534,-166.666666666667,4,3,69,5,0,0
148696,-166.666666666667,4,3,98,75,0,0
148859,-166.666666666667,4,3,69,5,0,0
149021,-166.666666666667,4,3,98,80,0,0
149183,-166.666666666667,4,3,69,5,0,0
149345,-166.666666666667,4,3,98,70,0,0
149588,-166.666666666667,4,3,69,5,0,0
149669,-166.666666666667,4,3,98,60,0,0
154859,-166.666666666667,4,3,98,70,0,0
156967,-250,4,3,98,35,0,0
157453,-500,4,3,98,35,0,0
157777,-500,4,3,98,50,0,0
158102,-500,4,3,98,65,0,0
158426,-500,4,3,98,80,0,0
158669,-500,4,3,69,5,0,0
158750,-71.4285714285714,4,3,1,95,0,0
158832,-71.4285714285714,4,3,69,5,0,0
161345,-71.4285714285714,4,3,1,95,0,0
161426,-71.4285714285714,4,3,69,5,0,0
163940,-71.4285714285714,4,3,1,95,0,0
164021,-71.4285714285714,4,3,69,5,0,0
166534,-71.4285714285714,4,3,1,95,0,0
166615,-71.4285714285714,4,3,69,5,0,0
167832,-71.4285714285714,4,3,1,95,0,0
167913,-71.4285714285714,4,3,69,5,0,0
168480,-71.4285714285714,4,3,1,95,0,0
169129,-125,4,3,1,70,0,0
171723,-125,4,3,1,75,0,0
174318,-125,4,3,1,80,0,0
175615,-125,4,3,1,85,0,0
176913,-125,4,3,1,90,0,0
177561,-125,4,3,1,95,0,0
178210,-100,4,3,1,90,0,0
178534,-100,4,3,1,93,0,0
178859,-100,4,3,1,96,0,0
179183,-100,4,3,1,100,0,0
179507,-76.9230769230769,4,3,7,95,0,1
189561,-55.5555555555556,4,3,7,100,0,1
189886,-76.9230769230769,4,3,7,95,0,1
199940,-55.5555555555556,4,3,7,100,0,1
200264,-76.9230769230769,4,3,2,95,0,1
210318,-55.5555555555556,4,3,2,100,0,1
210642,-76.9230769230769,4,3,2,95,0,1
219723,-76.9230769230769,4,3,2,85,0,1
220696,-55.5555555555556,4,3,2,100,0,1
220940,-55.5555555555556,4,3,69,5,0,1
221021,-76.9230769230769,4,3,2,85,0,1
226210,-76.9230769230769,4,3,2,90,0,1
228805,-76.9230769230769,4,3,2,95,0,1
230102,-66.6666666666667,4,3,2,100,0,1
232696,-66.6666666666667,4,3,99,100,0,0

[Colours]
Combo1 : 196,0,0
Combo2 : 255,255,202
Combo3 : 181,242,251
Combo4 : 199,157,255
Combo5 : 255,174,255
Combo6 : 81,81,81
Combo7 : 140,140,140
Combo8 : 128,0,0
SliderBorder : 250,250,250
SliderTrackOverride : 0,0,20

[HitObjects]
64,64,1778,5,8,0:3:0:0:
260,29,2102,1,8,0:3:0:0:
64,64,2426,5,8,0:3:0:0:
129,140,2588,1,8,0:0:0:0:
162,46,2750,1,8,0:0:0:0:
227,123,2913,1,8,0:0:0:0:
260,29,3075,5,8,0:0:0:0:
129,140,3237,1,8,0:0:0:0:
64,64,3561,5,8,0:0:0:0:
227,123,3723,1,8,0:0:0:0:
260,29,4048,22,0,L|270:90,1,59.9999981689454,8|0,0:2|0:0,0:0:0:0:
193,217,4210,2,0,L|182:158,1,59.9999981689454,8|0,0:2|0:0,0:0:0:0:
64,64,4372,102,0,B|69:29|69:29|85:60,1,69.9999978637696,8|0,1:3|0:0,0:0:0:0:
85,61,6967,118,0,B|90:26|90:26|106:57,1,69.9999978637696,8|0,1:3|0:0,0:0:0:0:
106,58,9561,118,0,B|111:23|111:23|127:54,1,69.9999978637696,8|0,1:3|0:0,0:0:0:0:
127,55,12156,118,0,B|132:20|132:20|148:51,1,69.9999978637696,8|0,1:3|0:0,0:0:0:0:
148,52,13453,6,0,B|153:17|153:17|169:48,1,69.9999978637696,8|0,1:3|0:0,0:0:0:0:
168,47,14102,101,8,1:3:0:0:
190,172,14345,5,8,1:3:0:0:
190,172,14426,1,8,1:3:0:0:
314,150,14588,101,8,1:3:0:0:
293,26,14750,54,0,B|336:33|336:33|354:59|354:59|397:66,1,120,8|0,0:0|0:0,0:0:0:0:
461,117,15075,2,0,L|467:156,3,40,8|0|0|0,0:2|0:0|0:0|0:0,0:0:0:0:
444,233,15399,2,0,L|365:219,1,80,8|0,0:2|0:0,0:0:0:0:
229,166,15723,2,0,L|189:172,3,40,8|0|0|0,0:2|0:0|0:0|0:0,0:0:0:0:
126,222,16048,6,0,P|109:277|143:323,1,120,8|0,0:2|0:0,0:0:0:0:
216,358,16372,2,0,L|260:349,3,40,8|0|0|0,0:2|0:0|0:0|0:0,0:0:0:0:
317,300,16696,2,0,L|330:221,1,80,8|0,0:2|0:0,0:0:0:0:
356,70,17021,1,8,0:2:0:0:
430,174,17183,1,8,0:2:0:0:
266,110,17345,6,0,B|222:117|222:117|204:143|204:143|161:150,1,120,8|0,0:0|0:0,0:0:0:0:
102,204,17669,2,0,L|41:193,3,40,8|0|0|0,0:2|0:0|0:0|0:0,0:0:0:0:
13,133,17994,2,0,L|0:54,1,80,8|0,0:2|0:0,0:0:0:0:
133,0,18318,2,0,L|180:8,3,40,8|0|0|0,0:2|0:0|0:0|0:0,0:0:0:0:
232,60,18642,6,0,P|249:115|215:161,1,120,8|0,0:2|0:0,0:0:0:0:
141,197,18967,2,0,L|92:205,3,40,8|0|0|0,0:2|0:0|0:0|0:0,0:0:0:0:
35,248,19291,2,0,L|48:326,1,80,8|0,0:2|0:0,0:0:0:0:
116,379,19534,1,8,0:2:0:0:
116,379,19615,1,8,0:2:0:0:
197,260,19777,1,8,0:2:0:0:
343,360,19940,70,0,B|386:352|386:352|404:326|404:326|447:319,1,120,8|0,0:0|0:0,0:0:0:0:
506,264,20264,2,0,L|513:221,3,40,8|0|0|0,0:2|0:0|0:0|0:0,0:0:0:0:
470,157,20588,2,0,P|433:146|402:168,1,80,8|0,0:2|0:0,0:0:0:0:
306,278,20913,2,0,L|266:271,3,40,8|0|0|0,0:2|0:0|0:0|0:0,0:0:0:0:
213,212,21237,6,0,B|169:219|169:219|151:245|151:245|108:252,1,120,8|0,0:0|0:0,0:0:0:0:
47,200,21561,2,0,L|53:160,3,40,8|0|0|0,0:2|0:0|0:0|0:0,0:0:0:0:
105,97,21886,2,0,L|183:111,1,80,8|0,0:2|0:0,0:0:0:0:
323,191,22210,2,0,L|362:184,3,40,8|0|0|0,0:2|0:0|0:0|0:0,0:0:0:0:
429,140,22534,5,8,0:0:0:0:
433,116,22615,1,0,0:0:0:0:
437,92,22696,1,0,0:0:0:0:
442,69,22777,1,0,0:0:0:0:
446,45,22859,2,0,L|396:53,3,40,8|0|0|0,0:2|0:0|0:0|0:0,0:0:0:0:
340,96,23183,5,8,0:0:0:0:
316,91,23264,1,0,0:0:0:0:
292,87,23345,1,0,0:0:0:0:
269,83,23426,1,0,0:0:0:0:
245,79,23507,2,0,L|189:69,3,40,8|0|0|0,0:2|0:0|0:0|0:0,0:0:0:0:
143,6,23832,69,8,1:1:0:0:
166,141,24156,5,8,1:1:0:0:
189,276,24480,5,8,1:1:0:0:
8,352,24805,5,14,1:1:0:0:
37,358,24886,1,8,1:1:0:0:
66,364,24967,1,8,1:1:0:0:
95,370,25048,1,8,1:1:0:0:
65,349,25129,70,0,B|52:323|52:323|76:227,1,119.999996337891,10|2,0:0|1:3,0:0:0:0:
261,269,25453,2,0,L|243:343,1,59.9999981689454,10|0,0:0|1:0,0:0:0:0:
181,363,25615,1,2,1:3:0:0:
337,280,25777,1,10,0:0:0:0:
447,349,25940,1,2,1:3:0:0:
447,349,26021,1,2,1:3:0:0:
447,349,26102,2,0,B|460:323|460:323|436:227,1,119.999996337891,10|2,0:0|1:3,0:0:0:0:
312,85,26426,6,0,B|299:111|299:111|323:207,1,119.999996337891,10|2,0:0|1:3,0:0:0:0:
508,165,26750,2,0,L|490:91,1,59.9999981689454,10|0,0:0|1:0,0:0:0:0:
428,71,26912,1,2,1:3:0:0:
321,199,27075,1,10,0:0:0:0:
321,199,27399,2,0,L|252:189,1,59.9999981689454,10|0,0:0|1:0,0:0:0:0:
249,265,27561,2,0,L|308:273,1,59.9999981689454,2|0,1:3|1:0,0:0:0:0:
161,353,27723,6,0,L|11:371,1,119.999996337891,10|2,0:0|1:3,0:0:0:0:
174,274,28048,2,0,P|146:238|138:200,1,59.9999981689454,10|0,0:0|1:0,0:0:0:0:
82,276,28210,1,2,1:3:0:0:
180,161,28372,1,10,0:0:0:0:
128,65,28534,1,2,1:3:0:0:
128,65,28615,1,2,1:3:0:0:
128,65,28696,2,0,L|-22:83,1,119.999996337891,10|2,0:0|1:3,0:0:0:0:
197,19,29021,6,0,P|223:57|250:70,1,59.9999981689454,10|0,0:0|1:0,0:0:0:0:
308,50,29183,1,2,1:3:0:0:
286,174,29345,70,0,P|324:148|337:121,1,59.9999981689454,10|0,0:0|1:0,0:0:0:0:
317,63,29507,1,2,1:3:0:0:
249,265,29669,6,0,L|190:257,1,59.9999981689454,10|0,0:0|1:0,0:0:0:0:
176,331,29832,2,0,L|235:339,1,59.9999981689454,2|0,1:3|1:0,0:0:0:0:
107,368,29994,1,10,0:0:0:0:
97,333,30075,1,0,0:0:0:0:
67,312,30156,1,2,0:0:0:0:
31,303,30237,1,0,0:0:0:0:
57,327,30318,6,0,P|62:256|37:182,1,119.999996337891,10|2,0:0|1:3,0:0:0:0:
192,112,30642,2,0,P|188:69|195:29,1,59.9999981689454,10|0,0:0|1:0,0:0:0:0:
255,14,30805,1,2,0:0:0:0:
320,112,30967,2,0,P|324:69|317:29,1,59.9999981689454,10|0,0:0|1:0,0:0:0:0:
388,163,31129,1,10,0:0:0:0:
388,163,31210,1,10,0:0:0:0:
388,163,31291,2,0,L|515:144,1,119.999996337891,10|2,0:0|1:3,0:0:0:0:
350,235,31615,6,0,L|276:226,1,59.9999981689454,10|0,0:0|1:0,0:0:0:0:
234,176,31777,1,2,1:3:0:0:
341,313,31940,70,0,L|282:306,1,59.9999981689454,10|0,0:0|1:0,0:0:0:0:
219,354,32102,1,2,1:3:0:0:
222,188,32264,6,0,L|141:199,1,59.9999981689454,10|0,0:0|1:0,0:0:0:0:
90,210,32426,2,0,P|70:205|89:219,1,59.9999981689454,2|0,1:3|1:0,0:0:0:0:
213,266,32588,5,10,0:0:0:0:
303,142,32750,2,0,L|292:61,1,59.9999981689454,10|0,0:0|1:0,0:0:0:0:
388,163,32913,6,0,P|443:132|515:144,1,119.999996337891,10|2,0:0|1:3,0:0:0:0:
351,30,33237,2,0,P|296:61|224:49,1,119.999996337891,10|2,0:0|1:3,0:0:0:0:
70,134,33561,1,10,0:0:0:0:
172,13,33723,1,2,1:3:0:0:
172,13,33805,1,2,1:3:0:0:
172,13,33886,2,0,L|159:75,1,59.9999981689454,10|2,0:0|1:3,0:0:0:0:
82,60,34048,2,0,L|94:1,1,59.9999981689454,2|2,1:3|1:3,0:0:0:0:
86,143,34210,69,10,1:3:0:0:
222,188,34372,1,2,1:3:0:0:
179,301,34534,1,2,1:3:0:0:
100,273,34696,1,2,1:3:0:0:
9,354,34859,1,2,1:3:0:0:
9,354,35183,2,0,P|91:350|150:378,1,120,4|0,0:0|0:0,0:0:0:0:
211,384,35507,6,0,B|268:373|268:373|292:339|292:339|350:329,1,160,12|8,0:0|0:2,0:0:0:0:
461,310,35994,1,2,1:3:0:0:
461,310,36156,2,0,L|476:224,2,80,10|2|8,0:0|1:3|0:2,0:0:0:0:
351,329,36642,2,0,L|364:250,1,80,2|8,1:3|0:0,0:0:0:0:
489,159,36967,6,0,P|496:196|476:229,1,80,2|8,1:3|0:2,0:0:0:0:
379,174,37291,2,0,L|300:187,1,80,2|8,1:3|0:0,0:0:0:0:
226,264,37615,2,0,P|195:240|190:202,1,80,10|8,0:0|0:2,0:0:0:0:
235,116,37940,1,2,1:3:0:0:
379,174,38102,6,0,B|368:112|368:112|378:79|378:79|367:18,1,160,8|8,0:0|0:2,0:0:0:0:
249,37,38588,1,2,1:3:0:0:
249,37,38750,2,0,L|234:115,2,80,10|2|8,0:0|1:3|0:2,0:0:0:0:
126,0,39237,2,0,L|111:81,1,80,2|8,1:3|0:0,0:0:0:0:
24,152,39561,70,0,P|56:172|94:164,1,80,2|8,1:3|0:2,0:0:0:0:
197,125,39886,2,0,P|235:116|268:136,1,80,2|8,1:3|0:0,0:0:0:0:
226,283,40210,2,0,L|212:204,1,80,10|8,0:0|0:2,0:0:0:0:
197,125,40534,1,2,1:3:0:0:
325,208,40696,6,0,B|382:197|382:197|406:163|406:163|464:153,1,160,8|8,0:0|0:2,0:0:0:0:
465,152,41345,2,0,L|437:308,1,160,8|8,0:0|0:2,0:0:0:0:
436,309,41994,2,0,B|397:317|397:317|329:275|329:275|290:283,1,160,8|8,0:0|0:2,0:0:0:0:
289,283,42642,5,8,0:0:0:0:
269,171,42805,1,10,0:0:0:0:
289,283,42967,2,0,P|251:290|218:270,1,80,10|2,0:2|1:3,0:0:0:0:
191,120,43291,6,0,B|133:130|133:130|109:164|109:164|51:174,1,160,8|8,0:0|0:2,0:0:0:0:
50,174,43940,2,0,L|80:-1,1,160,8|8,0:0|0:2,0:0:0:0:
77,16,44588,2,0,B|116:8|116:8|184:50|184:50|223:42,1,160,8|8,0:0|0:2,0:0:0:0:
223,41,45237,69,8,0:0:0:0:
242,151,45399,1,8,0:0:0:0:
223,41,45561,1,8,0:2:0:0:
189,212,45886,6,0,B|138:199|138:199|101:249|101:249|36:236,1,170.000003242493,12|8,0:0|0:2,0:0:0:0:
145,319,46373,1,2,2:0:0:0:
145,319,46534,2,0,L|233:305,1,85.0000016212464,8|2,0:0|2:0,0:0:0:0:
335,359,46859,1,8,0:2:0:0:
335,359,47021,2,0,P|308:315|308:280,1,85.0000016212464,2|8,2:0|0:0,0:0:0:0:
444,235,47345,6,0,P|419:280|389:297,1,85.0000016212464,2|8,2:0|0:2,0:0:0:0:
286,207,47669,2,0,P|337:205|367:223,1,85.0000016212464,2|8,2:0|0:0,0:0:0:0:
490,170,47994,2,0,L|511:81,1,85.0000016212464,10|8,2:3|0:2,0:0:0:0:
414,151,48318,1,2,2:0:0:0:
477,12,48480,6,0,B|408:22|408:22|387:39|387:39|285:56,1,170.000003242493,8|8,0:0|0:2,0:0:0:0:
187,10,48967,1,2,2:0:0:0:
187,10,49129,2,0,P|216:61|252:79,1,85.0000016212464,8|2,0:0|2:0,0:0:0:0:
286,207,49453,1,8,0:2:0:0:
286,207,49615,2,0,L|299:104,1,85.0000016212464,2|8,2:0|0:0,0:0:0:0:
362,224,49940,70,0,L|349:327,1,85.0000016212464,2|8,2:0|0:2,0:0:0:0:
216,374,50264,2,0,P|255:350|294:354,1,85.0000016212464,2|8,2:0|0:0,0:0:0:0:
156,323,50588,2,0,P|117:347|78:343,1,85.0000016212464,10|8,2:3|0:2,0:0:0:0:
219,281,50913,1,2,2:0:0:0:
104,189,51075,6,0,L|13:203,1,85.0000016212464,8|0,0:0|2:0,0:0:0:0:
101,111,51399,1,8,0:2:0:0:
101,111,51723,2,0,L|87:20,1,85.0000016212464,8|0,0:0|2:0,0:0:0:0:
179,108,52047,1,8,0:2:0:0:
179,108,52372,2,0,L|270:94,1,85.0000016212464,8|0,0:0|2:0,0:0:0:0:
182,186,52696,1,8,0:2:0:0:
182,186,53021,5,8,0:0:0:0:
263,95,53184,1,10,2:3:0:0:
182,186,53345,2,0,P|203:242|203:282,1,85.0000016212464,10|2,0:2|2:0,0:0:0:0:
122,360,53669,6,0,L|220:343,1,85.0000016212464,8|2,0:0|2:0,0:0:0:0:
317,371,53994,1,8,0:2:0:0:
317,371,54318,2,0,L|415:354,1,85.0000016212464,8|0,0:0|2:0,0:0:0:0:
512,285,54643,1,8,0:2:0:0:
512,285,54967,2,0,L|414:268,1,85.0000016212464,8|0,0:0|2:0,0:0:0:0:
317,199,55292,1,8,0:2:0:0:
317,199,55615,69,8,0:0:0:0:
454,180,55778,1,8,0:2:0:0:
454,180,55859,1,8,0:2:0:0:
454,180,55940,1,8,0:2:0:0:
371,133,56102,1,8,0:2:0:0:
263,265,56264,6,0,B|197:253|197:253|170:215|170:215|105:203,1,179.999994506836,12|8,0:0|0:2,0:0:0:0:
0,273,56750,1,2,2:0:0:0:
124,298,56913,1,8,0:0:0:0:
28,191,57075,2,0,P|19:148|42:111,1,89.9999972534181,2|8,2:0|0:2,0:0:0:0:
140,5,57399,2,0,L|121:108,1,89.9999972534181,2|8,2:0|0:0,0:0:0:0:
247,168,57723,6,0,L|229:70,1,89.9999972534181,2|8,2:0|0:2,0:0:0:0:
140,5,58048,2,0,P|97:-3|60:19,1,89.9999972534181,2|8,2:0|0:0,0:0:0:0:
0,121,58372,2,0,L|16:216,1,89.9999972534181,10|8,2:3|0:2,0:0:0:0:
117,266,58696,1,2,2:0:0:0:
247,168,58859,6,0,B|312:179|312:179|339:217|339:217|404:229,1,179.999994506836,8|8,0:0|0:2,0:0:0:0:
512,296,59345,1,2,2:0:0:0:
388,320,59508,1,8,0:0:0:0:
485,215,59669,2,0,P|493:172|470:135,1,89.9999972534181,2|8,2:0|0:2,0:0:0:0:
354,48,59994,2,0,L|265:63,1,89.9999972534181,2|8,2:0|0:0,0:0:0:0:
167,155,60318,70,0,P|203:177|246:169,1,89.9999972534181,2|8,2:0|0:2,0:0:0:0:
366,126,60642,2,0,L|348:223,1,89.9999972534181,2|8,2:0|0:0,0:0:0:0:
232,256,60967,2,0,L|249:158,1,89.9999972534181,10|8,2:3|0:2,0:0:0:0:
265,62,61291,1,2,2:0:0:0:
354,203,61453,5,8,0:0:0:0:
354,203,61615,1,0,2:0:0:0:
476,146,61777,2,0,P|498:182|490:225,1,89.9999972534181,8|0,0:2|2:0,0:0:0:0:
427,316,62102,5,8,0:0:0:0:
427,316,62264,1,0,2:0:0:0:
354,203,62426,2,0,L|265:218,1,89.9999972534181,8|0,0:2|2:0,0:0:0:0:
199,304,62750,5,8,0:0:0:0:
199,304,62913,1,0,2:0:0:0:
126,191,63075,2,0,L|37:206,1,89.9999972534181,8|0,0:2|2:0,0:0:0:0:
0,307,63399,69,8,0:0:0:0:
107,320,63561,1,10,2:3:0:0:
37,205,63723,2,0,P|28:162|51:125,1,89.9999972534181,10|2,0:2|2:0,0:0:0:0:
152,80,64048,5,8,0:0:0:0:
152,80,64210,1,0,2:0:0:0:
204,204,64372,2,0,L|220:109,1,89.9999972534181,8|0,0:2|2:0,0:0:0:0:
239,12,64696,5,8,0:0:0:0:
239,12,64859,1,0,2:0:0:0:
304,130,65021,2,0,L|396:113,1,89.9999972534181,8|0,0:2|2:0,0:0:0:0:
486,178,65345,5,8,0:0:0:0:
486,178,65507,1,0,2:0:0:0:
392,275,65669,2,0,P|368:237|377:195,1,89.9999972534181,8|0,0:2|2:0,0:0:0:0:
413,76,65994,69,8,0:0:0:0:
413,76,66156,1,8,2:3:0:0:
486,178,66318,2,0,P|510:216|501:258,1,89.9999972534181,8|0,0:2|2:0,0:0:0:0:
404,361,66642,6,0,B|316:343|316:343|300:356|300:356|198:342,1,189.999994926453,12|8,0:0|0:2,0:0:0:0:
87,374,67128,1,2,2:0:0:0:
202,344,67291,2,0,P|201:289|176:249,1,94.9999974632264,2|2,1:3|2:0,0:0:0:0:
286,329,67615,1,8,0:2:0:0:
173,241,67777,2,0,P|122:267|81:264,1,94.9999974632264,2|0,2:0|1:0,0:0:0:0:
199,166,68102,6,0,P|250:140|291:143,1,94.9999974632264,2|8,2:0|0:2,0:0:0:0:
334,251,68426,2,0,L|361:152,1,94.9999974632264,2|2,2:0|1:3,0:0:0:0:
388,148,68669,1,2,1:3:0:0:
388,148,68750,2,0,L|415:49,1,94.9999974632264,2|8,2:0|0:2,0:0:0:0:
459,173,69074,1,2,2:0:0:0:
339,38,69237,6,0,B|262:49|262:49|251:69|251:69|146:84,1,189.999994926453,2|8,1:3|0:2,0:0:0:0:
19,35,69723,1,2,2:0:0:0:
145,79,69886,2,0,P|131:135|94:170,1,94.9999974632264,2|2,1:3|2:0,0:0:0:0:
224,99,70210,1,8,0:2:0:0:
255,179,70372,1,2,2:0:0:0:
255,179,70453,1,2,1:3:0:0:
255,179,70534,69,2,1:3:0:0:
219,248,70696,2,0,L|117:233,1,94.9999974632264,2|8,2:0|0:2,0:0:0:0:
241,327,71021,2,0,L|343:342,1,94.9999974632264,2|2,2:0|1:3,0:0:0:0:
366,330,71264,1,2,1:3:0:0:
366,330,71345,2,0,L|468:345,1,94.9999974632264,2|8,2:0|0:2,0:0:0:0:
369,251,71669,1,2,2:0:0:0:
492,222,71832,6,0,L|499:277,2,47.4999987316132,2|2|2,1:3|1:3|2:0,0:0:0:0:
376,174,72156,2,0,P|431:163|458:127,1,94.9999974632264,10|2,0:2|2:0,0:0:0:0:
466,115,72399,1,2,1:3:0:0:
466,115,72480,2,0,L|458:59,1,47.4999987316132,2|2,1:3|1:3,0:0:0:0:
398,25,72642,1,2,2:0:0:0:
316,123,72805,2,0,P|274:95|225:98,1,94.9999974632264,10|2,0:2|2:0,0:0:0:0:
259,220,73129,6,0,L|253:172,2,47.4999987316132,2|2|2,1:3|1:3|2:0,0:0:0:0:
359,318,73453,2,0,L|248:299,1,94.9999974632264,10|2,0:2|2:0,0:0:0:0:
245,318,73696,1,2,1:3:0:0:
245,318,73777,2,0,L|185:310,3,47.4999987316132,2|2|2|2,1:3|1:3|2:0|1:3,0:0:0:0:
142,361,74102,2,0,L|82:353,3,47.4999987316132,10|2|2|2,0:2|1:3|2:0|1:3,0:0:0:0:
22,348,74426,5,2,1:3:0:0:
137,270,74588,1,2,2:0:0:0:
26,221,74750,2,0,L|15:161,3,47.4999987316132,10|2|2|2,0:2|1:3|2:0|1:3,0:0:0:0:
46,102,75075,69,2,1:3:0:0:
149,188,75237,1,2,2:0:0:0:
244,130,75399,2,0,L|255:70,3,47.4999987316132,10|2|2|2,0:2|1:3|2:0|1:3,0:0:0:0:
287,197,75723,6,0,L|276:257,3,47.4999987316132,2|2|2|2,1:3|1:3|2:0|1:3,0:0:0:0:
363,183,76048,2,0,L|371:136,3,47.4999987316132,10|2|2|2,1:2|1:3|2:0|1:3,0:0:0:0:
432,214,76372,5,2,1:3:0:0:
512,319,76534,1,10,0:2:0:0:
512,319,76615,1,10,0:2:0:0:
512,319,76696,1,10,0:2:0:0:
429,383,76859,1,10,0:2:0:0:
425,303,77021,21,6,1:3:0:0:
425,303,79615,117,2,1:3:0:0:
100,340,82210,118,0,B|143:332|143:332|146:328|146:328|150:331|150:331|194:323,1,100,8|0,0:0|0:0,0:0:0:0:
247,250,82453,1,0,0:0:0:0:
247,250,82534,2,0,B|239:206|239:206|235:203|235:203|238:199|238:199|230:155,1,100,8|0,0:0|0:0,0:0:0:0:
157,103,82777,1,0,0:0:0:0:
157,103,82858,2,0,B|113:110|113:110|110:114|110:114|106:111|106:111|62:119,1,100,8|0,0:0|0:0,0:0:0:0:
9,194,83102,1,0,0:0:0:0:
9,194,83183,2,0,B|16:237|16:237|20:240|20:240|17:244|17:244|25:288,1,100,8|0,0:0|0:0,0:0:0:0:
100,340,83426,5,0,0:0:0:0:
100,340,83507,2,0,B|143:332|143:332|146:328|146:328|150:331|150:331|194:323,1,100,8|0,0:0|0:0,0:0:0:0:
247,250,83750,1,0,0:0:0:0:
247,250,83832,2,0,P|292:236|331:264,1,100,8|0,0:0|0:0,0:0:0:0:
315,354,84075,1,0,0:0:0:0:
315,354,84156,2,0,P|353:383|399:369,1,100,8|0,0:0|0:0,0:0:0:0:
415,281,84399,1,0,0:0:0:0:
415,281,84480,2,0,B|422:237|422:237|426:234|426:234|423:230|423:230|431:186,1,100,8|0,0:0|0:0,0:0:0:0:
446,96,84723,5,0,0:0:0:0:
446,96,84804,2,0,P|407:66|361:80,1,100,8|0,0:0|0:0,0:0:0:0:
347,169,85048,1,0,0:0:0:0:
347,169,85129,2,0,P|385:198|431:184,1,100,8|0,0:0|0:0,0:0:0:0:
446,96,85372,1,0,0:0:0:0:
446,96,85453,2,0,P|407:66|361:80,1,100,8|0,0:0|0:0,0:0:0:0:
347,169,85696,1,0,0:0:0:0:
347,169,85777,2,0,B|303:161|303:161|300:157|300:157|296:160|296:160|252:152,1,100,8|0,0:0|0:0,0:0:0:0:
185,90,86021,5,0,0:0:0:0:
185,90,86102,2,0,B|141:82|141:82|137:85|137:85|134:81|134:81|90:73,1,100,8|0,0:0|0:0,0:0:0:0:
16,124,86345,1,0,0:0:0:0:
16,124,86426,2,0,B|8:167|8:167|11:171|11:171|7:174|7:174|0:218,1,100,8|0,0:0|0:0,0:0:0:0:
50,293,86669,1,0,0:0:0:0:
50,293,86750,2,0,B|93:300|93:300|97:297|97:297|100:301|100:301|144:309,1,100,8|0,0:0|0:0,0:0:0:0:
220,258,86994,1,0,0:0:0:0:
220,258,87075,2,0,L|230:196,1,50,8|0,0:0|0:0,0:0:0:0:
185,90,87237,2,0,L|174:151,1,50,8|0,0:0|0:0,0:0:0:0:
220,258,87399,70,0,P|266:272|304:243,1,100,8|0,0:0|0:0,0:0:0:0:
289,155,87642,1,0,0:0:0:0:
289,155,87723,2,0,P|327:125|373:139,1,100,8|0,0:0|0:0,0:0:0:0:
391,228,87967,1,0,0:0:0:0:
391,228,88048,2,0,P|437:242|475:213,1,100,8|0,0:0|0:0,0:0:0:0:
462,125,88291,1,0,0:0:0:0:
462,125,88372,2,0,B|454:81|454:81|457:77|457:77|453:74|453:74|445:30,1,100,8|0,0:0|0:0,0:0:0:0:
357,12,88615,5,0,0:0:0:0:
357,12,88696,2,0,B|313:19|313:19|309:16|309:16|306:20|306:20|262:28,1,100,8|0,0:0|0:0,0:0:0:0:
220,110,88940,1,0,0:0:0:0:
220,110,89021,2,0,B|176:102|176:102|172:105|172:105|169:101|169:101|125:93,1,100,8|0,0:0|0:0,0:0:0:0:
35,78,89264,1,0,0:0:0:0:
35,78,89345,2,0,P|5:116|19:162,1,100,8|0,0:0|0:0,0:0:0:0:
93,213,89588,1,0,0:0:0:0:
93,213,89669,2,0,B|136:205|136:205|139:201|139:201|143:204|143:204|187:196,1,100,8|0,0:0|0:0,0:0:0:0:
220,110,89913,5,0,0:0:0:0:
220,110,89994,2,0,B|263:117|263:117|266:121|266:121|270:118|270:118|314:126,1,100,8|0,0:0|0:0,0:0:0:0:
405,142,90237,1,0,0:0:0:0:
405,142,90318,2,0,P|418:188|389:226,1,100,8|0,0:0|0:0,0:0:0:0:
300,209,90561,1,0,0:0:0:0:
300,209,90642,2,0,P|270:247|284:293,1,100,8|0,0:0|0:0,0:0:0:0:
373,311,90886,1,0,0:0:0:0:
373,311,90967,2,0,P|402:272|388:226,1,100,8|0,0:0|0:0,0:0:0:0:
300,209,91210,5,0,0:0:0:0:
300,209,91291,2,0,B|256:216|256:216|253:220|253:220|249:217|249:217|205:225,1,100,8|0,0:0|0:0,0:0:0:0:
150,298,91534,1,0,0:0:0:0:
150,298,91615,2,0,B|106:290|106:290|103:286|103:286|99:289|99:289|55:281,1,100,8|0,0:0|0:0,0:0:0:0:
16,198,91859,1,0,0:0:0:0:
16,198,91940,2,0,B|23:154|23:154|27:151|27:151|24:147|24:147|32:103,1,100,8|0,0:0|0:0,0:0:0:0:
115,64,92183,1,0,0:0:0:0:
115,64,92264,2,0,B|158:71|158:71|161:75|161:75|165:72|165:72|209:80,1,100,8|0,0:0|0:0,0:0:0:0:
248,163,92507,69,0,0:0:0:0:
248,163,92588,2,0,P|305:131|320:82,1,104.999996795654,10|10,0:0|0:2,0:0:0:0:
391,54,92832,1,2,0:0:0:0:
391,54,92913,2,0,L|379:0,2,52.4999983978272,10|2|10,0:0|1:3|0:2,0:0:0:0:
508,171,93237,2,0,P|438:153|409:106,1,104.999996795654,14|10,0:0|0:2,0:0:0:0:
361,194,93480,1,2,0:0:0:0:
361,194,93561,2,0,L|372:245,2,52.4999983978272,10|2|10,0:0|1:3|0:2,0:0:0:0:
305,350,93886,6,0,L|422:329,1,104.999996795654,10|10,0:0|0:2,0:0:0:0:
461,260,94129,1,0,0:0:0:0:
461,260,94210,2,0,L|512:248,2,52.4999983978272,10|2|10,0:0|1:3|0:2,0:0:0:0:
297,265,94534,2,0,L|246:277,3,52.4999983978272,14|2|10|2,0:0|1:3|0:2|0:0,0:0:0:0:
184,332,94859,1,10,0:0:0:0:
225,201,95021,2,0,L|276:189,1,52.4999983978272,8|0,0:2|0:0,0:0:0:0:
148,217,95183,6,0,P|116:167|124:101,1,104.999996795654,10|10,0:0|0:2,0:0:0:0:
246,15,95507,2,0,L|297:27,2,52.4999983978272,10|2|10,0:0|1:3|0:2,0:0:0:0:
116,123,95832,1,14,0:0:0:0:
116,123,95913,2,0,L|5:147,1,104.999996795654,2|0,1:3|0:0,0:0:0:0:
0,67,96156,2,0,L|102:44,1,104.999996795654,10|8,0:0|0:2,0:0:0:0:
269,106,96480,6,0,L|320:118,2,52.4999983978272,10|0|10,0:0|1:3|0:2,0:0:0:0:
149,218,96805,2,0,L|98:206,2,52.4999983978272,10|2|10,0:0|1:3|0:2,0:0:0:0:
190,360,97129,2,0,L|292:337,1,104.999996795654,14|10,0:0|0:2,0:0:0:0:
376,363,97372,1,2,0:0:0:0:
376,363,97453,1,10,0:0:0:0:
264,266,97615,2,0,L|213:278,1,52.4999983978272,8|0,0:2|0:0,0:0:0:0:
309,203,97777,69,10,0:0:0:0:
309,203,97859,2,0,P|366:205|416:264,1,104.999996795654,2|2,1:3|0:0,0:0:0:0:
480,260,98102,2,0,L|460:318,2,52.4999983978272,10|2|10,0:0|1:3|0:2,0:0:0:0:
503,98,98426,2,0,P|454:132|395:138,1,104.999996795654,14|10,0:0|0:2,0:0:0:0:
344,99,98669,1,2,0:0:0:0:
344,99,98750,2,0,P|329:44|233:59,1,157.499995193482,10|0,0:0|0:0,0:0:0:0:
150,9,99075,6,0,L|170:67,3,52.4999983978272,10|2|8|2,0:0|1:3|0:2|0:0,0:0:0:0:
131,134,99399,1,10,0:0:0:0:
131,134,99480,1,2,1:3:0:0:
236,203,99642,1,2,0:0:0:0:
236,203,99723,2,0,L|219:320,1,104.999996795654,14|8,0:0|0:2,0:0:0:0:
280,371,99967,1,0,0:0:0:0:
280,371,100048,1,10,0:0:0:0:
144,309,100210,2,0,L|133:367,1,52.4999983978272,8|0,0:2|0:0,0:0:0:0:
73,273,100372,6,0,P|26:240|20:183,1,104.999996795654,10|10,0:0|0:2,0:0:0:0:
31,119,100615,1,2,0:0:0:0:
31,119,100696,2,0,L|40:67,2,52.4999983978272,10|2|10,0:0|1:3|0:2,0:0:0:0:
160,166,101021,1,14,0:0:0:0:
160,166,101102,1,0,1:3:0:0:
160,166,101183,2,0,L|150:217,1,52.4999983978272,10|2,0:2|0:0,0:0:0:0:
112,93,101345,2,0,P|169:82|220:114,1,104.999996795654,10|8,0:0|0:2,0:0:0:0:
321,274,101669,6,0,P|264:285|213:253,1,104.999996795654,10|10,0:0|0:2,0:0:0:0:
281,199,101913,1,0,0:0:0:0:
281,199,101994,2,0,L|293:91,1,104.999996795654,10|10,0:0|0:2,0:0:0:0:
368,58,102237,1,2,0:0:0:0:
368,58,102318,2,0,P|411:42|457:48,3,52.4999983978272,14|2|10|2,0:0|1:3|0:2|0:0,0:0:0:0:
496,92,102642,2,0,P|512:135|506:181,1,52.4999983978272,10|2,0:0|1:3,0:0:0:0:
433,170,102805,2,0,P|417:127|423:81,1,52.4999983978272,8|2,0:2|0:0,0:0:0:0:
499,220,102967,70,0,L|487:324,1,104.999996795654,10|10,0:0|0:2,0:0:0:0:
412,357,103210,1,2,0:0:0:0:
412,357,103291,2,0,B|356:367|356:367|348:357|348:357|276:370,1,104.999996795654,8|10,0:0|0:2,0:0:0:0:
100,357,103615,2,0,B|156:367|156:367|164:357|164:357|236:370,1,104.999996795654,14|8,0:0|0:2,0:0:0:0:
254,298,103859,1,2,0:0:0:0:
254,298,103940,2,0,P|219:239|165:237,1,104.999996795654,10|10,0:0|0:2,0:0:0:0:
116,273,104183,1,2,0:0:0:0:
116,273,104264,6,0,P|58:269|24:231,1,104.999996795654,8|10,0:0|0:2,0:0:0:0:
13,156,104507,1,0,0:0:0:0:
13,156,104588,2,0,L|33:33,1,104.999996795654,10|8,0:0|0:2,0:0:0:0:
205,2,104913,2,0,L|185:125,1,104.999996795654,14|10,0:0|0:2,0:0:0:0:
251,166,105156,1,2,0:0:0:0:
251,166,105237,2,0,P|317:179|377:147,1,104.999996795654,8|10,0:0|0:2,0:0:0:0:
426,132,105480,1,0,0:0:0:0:
426,132,105561,6,0,P|486:131|510:182,1,104.999996795654,8|8,0:0|0:2,0:0:0:0:
497,247,105805,1,0,0:0:0:0:
497,247,105886,2,0,P|453:280|455:335,1,104.999996795654,8|8,0:0|0:2,0:0:0:0:
271,380,106210,2,0,P|238:336|183:338,1,104.999996795654,12|8,0:0|0:2,0:0:0:0:
127,281,106453,1,0,0:0:0:0:
127,281,106534,2,0,P|143:221|217:223,1,104.999996795654,8|8,0:0|0:2,0:0:0:0:
252,254,106777,1,0,0:0:0:0:
252,254,106859,6,0,L|364:266,1,104.999996795654,8|8,0:0|0:2,0:0:0:0:
417,201,107102,1,0,0:0:0:0:
417,201,107184,2,0,L|429:89,1,104.999996795654,8|8,0:0|0:2,0:0:0:0:
382,28,107426,1,0,0:0:0:0:
382,28,107507,102,0,L|316:35,3,52.4999983978272,12|2|10|2,0:0|1:3|0:2|0:0,0:0:0:0:
249,46,107832,2,0,L|254:98,3,52.4999983978272,10|2|10|0,0:0|1:3|0:2|0:0,0:0:0:0:
267,175,108156,6,0,L|333:168,3,52.4999983978272,10|2|10|2,2:3|2:3|2:2|2:3,0:0:0:0:
176,109,108480,2,0,L|123:114,3,52.4999983978272,10|2|10|2,2:3|2:3|2:2|2:3,0:0:0:0:
190,186,108805,2,0,L|197:252,3,52.4999983978272,14|2|10|2,2:3|2:3|2:2|2:3,0:0:0:0:
254,98,109129,2,0,L|248:45,3,52.4999983978272,10|2|10|2,2:3|2:3|2:2|2:3,0:0:0:0:
382,28,109453,70,0,L|316:35,3,52.4999983978272,8|0|8|0,2:3|2:3|2:2|2:3,0:0:0:0:
443,79,109777,2,0,L|495:73,3,52.4999983978272,8|0|8|0,2:3|2:3|2:2|2:3,0:0:0:0:
381,149,110102,2,0,L|315:156,3,52.4999983978272,12|0|8|0,2:3|2:3|2:2|2:3,0:0:0:0:
442,200,110426,2,0,L|494:194,3,52.4999983978272,8|0|8|0,2:3|2:3|2:2|2:3,0:0:0:0:
503,300,110750,5,8,2:3:0:0:
503,300,110832,1,0,2:3:0:0:
503,300,110913,2,0,L|492:375,1,52.4999983978272,8|0,2:2|2:3,0:0:0:0:
417,363,111075,2,0,L|346:373,3,52.4999983978272,8|0|8|0,2:3|2:3|2:2|2:3,0:0:0:0:
278,328,111399,2,0,L|285:379,3,52.4999983978272,12|0|8|0,2:3|2:3|2:2|2:3,0:0:0:0:
316,246,111723,2,0,L|264:253,3,52.4999983978272,8|0|8|0,2:3|2:3|2:2|2:3,0:0:0:0:
202,383,112048,5,8,2:3:0:0:
202,383,112129,1,0,2:3:0:0:
202,383,112210,2,0,L|134:374,1,52.4999983978272,8|0,2:2|2:3,0:0:0:0:
23,357,112372,2,0,L|75:363,3,52.4999983978272,8|0|10|0,2:3|2:3|2:2|2:3,0:0:0:0:
183,301,112696,2,0,L|130:294,3,52.4999983978272,14|0|10|0,2:3|2:3|2:2|2:3,0:0:0:0:
101,221,113021,1,10,2:3:0:0:
110,216,113102,1,0,2:3:0:0:
113,206,113183,1,10,2:2:0:0:
112,195,113264,1,0,2:3:0:0:
105,160,113345,22,0,L|45:149,1,59.9999981689454,14|0,0:0|0:0,0:0:0:0:
79,66,113507,2,0,L|19:55,1,59.9999981689454,14|0,0:0|0:0,0:0:0:0:
240,85,113832,6,0,P|226:59|230:30,1,59.9999981689454,14|0,0:0|0:0,0:0:0:0:
324,13,114156,6,0,P|338:38|334:67,1,59.9999981689454,14|0,0:0|0:0,0:0:0:0:
252,193,114480,6,0,L|319:181,1,59.9999981689454,14|0,0:0|0:0,0:0:0:0:
384,130,114642,69,0,0:0:0:0:
393,131,114723,1,0,0:0:0:0:
403,133,114804,1,0,0:0:0:0:
413,135,114885,1,0,0:0:0:0:
423,136,114967,2,0,L|491:148,3,50,0|0|0|0,0:0|0:0|0:0|0:0,0:0:0:0:
507,222,115291,5,0,0:0:0:0:
507,222,115372,1,0,0:0:0:0:
507,222,115453,2,0,L|496:284,1,50,2|0,0:0|0:0,0:0:0:0:
425,323,115615,2,0,L|414:260,1,50,2|0,0:0|0:0,0:0:0:0:
342,245,115777,2,0,L|331:307,1,50,2|0,0:0|0:0,0:0:0:0:
235,365,115940,6,0,L|154:350,1,59.9999981689454,14|0,0:0|0:0,0:0:0:0:
115,297,116102,2,0,L|34:311,1,59.9999981689454,14|0,0:0|0:0,0:0:0:0:
223,219,116426,6,0,P|236:192|232:163,1,59.9999981689454,14|0,0:0|0:0,0:0:0:0:
141,147,116750,70,0,P|126:172|130:201,1,59.9999981689454,14|0,0:0|0:0,0:0:0:0:
342,245,117075,6,0,L|328:168,1,59.9999981689454,14|0,0:0|0:0,0:0:0:0:
260,116,117237,5,0,0:0:0:0:
261,106,117318,1,0,0:0:0:0:
263,96,117399,1,0,0:0:0:0:
265,86,117480,1,0,0:0:0:0:
266,76,117561,2,0,L|276:14,3,50,0|0|0|0,0:0|0:0|0:0|0:0,0:0:0:0:
370,11,117886,5,0,0:0:0:0:
370,11,117967,1,0,0:0:0:0:
370,11,118048,2,0,L|382:83,1,50,2|0,0:0|0:0,0:0:0:0:
450,149,118210,70,0,L|390:138,1,59.9999981689454,14|0,0:0|0:0,0:0:0:0:
266,76,118372,2,0,L|276:135,1,59.9999981689454,14|0,0:0|0:0,0:0:0:0:
247,292,118534,6,0,P|275:296|301:282,1,59.9999981689454,14|0,0:0|0:0,0:0:0:0:
325,194,118696,2,0,P|350:180|379:184,1,59.9999981689454,14|0,0:0|0:0,0:0:0:0:
247,292,119021,6,0,L|236:229,1,59.9999981689454,14|0,0:0|0:0,0:0:0:0:
125,150,119345,6,0,L|135:87,1,59.9999981689454,14|0,0:0|0:0,0:0:0:0:
266,76,119669,70,0,L|255:138,1,59.9999981689454,14|0,0:0|0:0,0:0:0:0:
210,214,119832,5,0,0:0:0:0:
200,215,119913,1,0,0:0:0:0:
190,217,119994,1,0,0:0:0:0:
180,219,120075,1,0,0:0:0:0:
170,220,120156,2,0,L|110:230,3,50,0|0|0|0,0:0|0:0|0:0|0:0,0:0:0:0:
75,296,120480,5,0,0:0:0:0:
75,296,120561,1,0,0:0:0:0:
75,296,120642,2,0,L|141:307,1,50,2|0,0:0|0:0,0:0:0:0:
228,375,120805,6,0,P|232:346|218:320,1,59.9999981689454,14|0,0:0|0:0,0:0:0:0:
338,355,120967,2,0,P|342:326|328:300,1,59.9999981689454,14|0,0:0|0:0,0:0:0:0:
210,214,121129,70,0,L|223:139,1,59.9999981689454,14|0,0:0|0:0,0:0:0:0:
305,78,121291,2,0,L|318:152,1,59.9999981689454,14|0,0:0|0:0,0:0:0:0:
400,265,121615,6,0,L|389:205,1,59.9999981689454,14|0,0:0|0:0,0:0:0:0:
484,189,121940,6,0,L|494:248,1,59.9999981689454,14|0,0:0|0:0,0:0:0:0:
451,45,122264,6,0,P|425:31|396:35,1,59.9999981689454,14|0,0:0|0:0,0:0:0:0:
305,78,122426,1,0,0:0:0:0:
295,77,122507,1,0,0:0:0:0:
285,75,122588,1,0,0:0:0:0:
275,73,122669,1,0,0:0:0:0:
265,72,122750,2,0,L|207:61,3,50,0|0|0|0,0:0|0:0|0:0|0:0,0:0:0:0:
142,112,123075,69,0,0:0:0:0:
142,112,123156,1,0,0:0:0:0:
142,112,123237,2,0,L|152:174,1,50,2|0,0:0|0:0,0:0:0:0:
169,272,123399,6,0,L|237:259,1,69.9999978637696,6|0,0:2|0:0,0:0:0:0:
351,178,123561,2,0,L|282:165,1,69.9999978637696,6|0,0:2|0:0,0:0:0:0:
375,252,123723,6,0,P|421:215|425:162,1,104.999996795654,14|10,0:0|1:2,0:0:0:0:
455,296,124048,1,8,0:0:0:0:
403,359,124210,1,10,3:2:0:0:
403,359,124291,1,0,0:0:0:0:
403,359,124372,2,0,L|293:348,1,104.999996795654,8|10,0:0|1:2,0:0:0:0:
160,358,124696,2,0,L|95:372,1,52.4999983978272,8|0,0:0|1:0,0:0:0:0:
41,335,124859,1,10,1:2:0:0:
176,276,125021,6,0,P|184:219|114:72,1,209.999993591309,8|8,0:0|0:0,0:0:0:0:
274,234,125507,1,8,0:2:0:0:
274,234,125588,1,0,0:0:0:0:
274,234,125669,2,0,P|293:178|336:137,1,104.999996795654,8|10,0:0|1:2,0:0:0:0:
365,268,125994,1,10,0:0:0:0:
354,270,126075,1,0,0:0:0:0:
343,266,126156,1,10,0:2:0:0:
241,369,126318,70,0,L|368:352,1,104.999996795654,10|10,0:0|1:2,0:0:0:0:
509,372,126642,1,8,0:0:0:0:
445,331,126805,1,10,3:2:0:0:
445,331,126886,1,0,0:0:0:0:
445,331,126967,1,8,0:0:0:0:
502,271,127129,2,0,P|470:219|467:152,1,104.999996795654,10|8,1:2|0:0,0:0:0:0:
510,21,127453,1,10,1:2:0:0:
457,164,127615,6,0,B|400:151|387:90|387:90|343:51|278:74,1,209.999993591309,8|8,0:0|0:0,0:0:0:0:
473,92,128102,1,8,0:2:0:0:
473,92,128183,1,0,0:0:0:0:
473,92,128264,1,8,0:0:0:0:
376,151,128426,1,10,1:2:0:0:
406,255,128588,1,10,0:0:0:0:
416,253,128669,1,0,0:0:0:0:
426,250,128750,1,10,0:2:0:0:
512,352,128913,6,0,L|404:338,1,104.999996795654,10|10,0:0|1:2,0:0:0:0:
229,373,129237,1,8,0:0:0:0:
309,357,129399,1,10,3:2:0:0:
309,357,129480,1,0,0:0:0:0:
309,357,129561,1,8,0:0:0:0:
240,292,129723,2,0,P|184:286|135:311,1,104.999996795654,10|8,1:2|0:0,0:0:0:0:
244,215,130048,1,10,1:2:0:0:
130,317,130210,6,0,P|76:290|49:164,1,157.499995193482,8|0,0:0|1:0,0:0:0:0:
56,132,130534,1,8,0:0:0:0:
176,174,130696,1,8,0:2:0:0:
176,174,130777,1,0,0:0:0:0:
176,174,130859,2,0,P|199:110|199:63,1,104.999996795654,8|10,0:0|1:2,0:0:0:0:
62,8,131183,1,10,0:0:0:0:
41,13,131264,1,0,0:0:0:0:
46,33,131345,1,10,0:2:0:0:
67,28,131426,1,0,0:0:0:0:
53,21,131507,69,14,0:0:0:0:
459,21,132156,5,14,0:0:0:0:
160,93,132805,5,14,0:0:0:0:
352,93,132967,1,14,0:0:0:0:
141,196,133129,5,14,0:0:0:0:
370,196,133291,1,14,0:0:0:0:
256,0,133453,21,6,0:2:0:0:
256,10,133534,1,8,0:0:0:0:
256,20,133615,1,10,0:0:0:0:
256,30,133696,1,8,0:0:0:0:
256,40,133777,102,0,L|256:92,3,52.4999983978272,6|8|10|8,0:2|0:0|0:0|0:0,0:0:0:0:
256,176,134102,22,0,L|315:165,1,60,8|0,0:0|0:0,0:0:0:0:
385,100,134426,6,0,B|359:63|359:63|343:152|343:152|338:159|338:159|345:164|345:164|330:250,1,240,8|0,0:0|0:0,0:0:0:0:
360,342,134750,102,0,B|286:329|286:329|280:333|280:333|237:271|237:271|231:276|231:276|157:263,1,240,8|0,0:0|0:0,0:0:0:0:
92,335,135075,6,0,B|72:222|72:222|76:225|76:225|67:216|67:216|48:110,1,240,8|0,0:0|0:0,0:0:0:0:
0,27,135399,102,0,B|23:60|23:60|26:57|26:57|92:69|92:69|90:62|90:62|96:66|96:66|172:80|172:80|142:100,1,240,8|0,0:0|0:0,0:0:0:0:
157,196,135723,6,0,B|188:217|188:217|191:213|191:213|255:202|255:202|264:204|264:204|258:197|258:197|327:185|327:185|330:181|330:181|361:202,1,240,8|0,0:0|0:0,0:0:0:0:
415,285,136048,102,0,B|378:310|378:310|394:221|394:221|391:213|391:213|400:210|400:210|415:125,1,240,8|0,0:0|0:0,0:0:0:0:
447,34,136372,6,0,B|373:46|373:46|367:42|367:42|324:104|324:104|318:99|318:99|244:112,1,240,8|0,0:0|0:0,0:0:0:0:
157,196,136696,102,0,L|167:136,1,60,8|0,0:0|0:0,0:0:0:0:
100,67,137021,6,0,B|119:179|119:179|115:176|115:176|124:185|124:185|143:291,1,240,8|0,0:0|0:0,0:0:0:0:
60,340,137345,102,0,B|39:310|39:310|114:323|114:323|121:321|121:321|117:327|117:327|183:339|183:339|185:342|185:342|219:319,1,240,8|0,0:0|0:0,0:0:0:0:
240,225,137669,6,0,B|277:251|277:251|280:247|280:247|363:232|363:232|367:235|367:235|369:227|369:227|459:212,1,240,8|0,0:0|0:0,0:0:0:0:
488,305,137994,102,0,B|461:323|461:323|475:244|475:244|472:240|472:240|480:237|480:237|494:158|494:158|467:177,1,240,8|0,0:0|0:0,0:0:0:0:
388,232,138318,6,0,B|351:257|351:257|367:168|367:168|364:160|364:160|373:157|373:157|388:72,1,240,8|0,0:0|0:0,0:0:0:0:
477,34,138642,102,0,B|495:7|495:7|489:11|489:11|421:23|421:23|417:20|417:20|390:59|390:59|386:56|386:56|314:69,1,240,8|0,0:0|0:0,0:0:0:0:
256,147,138967,5,8,0:0:0:0:
208,138,139048,101,0,0:0:0:0:
161,130,139129,5,4,0:0:0:0:
114,121,139210,101,0,0:0:0:0:
69,113,139291,6,0,L|58:52,1,60,8|0,0:0|0:0,0:0:0:0:
18,175,139615,102,0,B|75:199|85:233|85:233|61:307|61:307|49:308|49:308|58:316|58:316|41:364,1,240,8|0,0:0|0:0,0:0:0:0:
144,306,139940,6,0,B|158:265|158:265|259:295|266:328|266:328|288:369|337:375,1,240,8|0,0:0|0:0,0:0:0:0:
421,367,140264,102,0,B|469:295|410:235|410:235|382:292|326:296|326:296,1,240,8|0,0:0|0:0,0:0:0:0:
257,215,140588,6,0,B|287:68|287:68|302:97|302:97|286:170,1,240,8|0,0:0|0:0,0:0:0:0:
187,170,140913,102,0,B|164:23|164:23|154:41|154:41|166:119,1,240,8|0,0:0|0:0,0:0:0:0:
170,247,141237,6,0,P|89:232|41:373,1,240,8|0,0:0|0:0,0:0:0:0:
164,370,141561,102,0,B|208:341|222:303|222:303|296:327|296:327|297:339|297:339|305:330|305:330|353:347,1,240,8|0,0:0|0:0,0:0:0:0:
473,363,141886,6,0,L|391:375,3,50,8|0|0|0,0:0|1:0|1:0|1:0,0:0:0:0:
507,291,142210,102,0,B|436:289|394:235|394:235|449:269|500:254,1,240,8|0,0:0|0:0,0:0:0:0:
425,159,142534,6,0,B|462:98|529:89|529:89|473:119|460:171,1,240,8|0,0:0|0:0,0:0:0:0:
344,173,142859,102,0,B|198:198|198:198|230:191|285:222,1,240,8|0,0:0|0:0,0:0:0:0:
226,114,143183,6,0,B|76:143|76:143|127:130|152:88,1,240,8|0,0:0|0:0,0:0:0:0:
244,18,143507,102,0,B|329:39|329:39|346:28|346:28|400:44|400:44|401:58|401:58|411:47|411:47|469:65,1,240,8|0,0:0|0:0,0:0:0:0:
438,177,143832,6,0,B|471:164|480:134|480:134|503:232|503:232|497:241|497:241|515:318,1,240,8|0,0:0|0:0,0:0:0:0:
426,363,144156,102,0,L|438:315,6,40
349,309,144480,22,0,L|289:319,2,59.9999981689454,2|2|2,2:0|2:0|2:0,0:0:0:0:
409,224,144967,1,2,2:0:0:0:
329,188,145129,1,2,2:0:0:0:
329,188,145291,2,0,L|278:196,2,29.9999990844727,2|2|2,2:0|2:0|2:0,0:0:0:0:
409,224,145615,1,2,2:0:0:0:
472,163,145777,6,0,L|458:87,1,59.9999981689454,2|2,2:0|2:0,0:0:0:0:
385,122,146102,2,0,L|371:46,1,59.9999981689454,2|2,2:0|2:0,0:0:0:0:
285,15,146426,6,0,L|271:90,1,59.9999981689454,2|2,2:0|2:0,0:0:0:0:
198,56,146751,2,0,L|184:131,1,59.9999981689454,2|2,2:0|2:0,0:0:0:0:
165,233,147075,6,0,L|92:245,2,59.9999981689454,2|2|2,2:0|2:0|2:0,0:0:0:0:
264,189,147561,1,2,2:0:0:0:
186,114,147723,1,2,2:0:0:0:
186,114,147886,2,0,L|144:106,2,29.9999990844727,2|2|2,2:0|2:0|2:0,0:0:0:0:
264,189,148210,1,2,2:0:0:0:
350,95,148372,70,0,L|363:170,1,59.9999981689454,2|0,2:0|0:0,0:0:0:0:
460,221,148696,2,0,L|473:145,1,59.9999981689454,2|0,2:0|0:0,0:0:0:0:
435,59,149021,2,0,L|448:-16,1,59.9999981689454,2|0,2:0|0:0,0:0:0:0:
350,95,149345,2,0,L|261:110,1,89.9999972534181,2|0,2:0|0:0,0:0:0:0:
201,66,149669,6,0,L|211:4,2,59.9999981689454,2|2|2,2:0|2:0|2:0,0:0:0:0:
185,155,150156,1,2,2:0:0:0:
249,217,150318,1,2,2:0:0:0:
249,217,150480,2,0,L|257:266,2,29.9999990844727,2|2|2,2:0|2:0|2:0,0:0:0:0:
185,155,150805,1,2,2:0:0:0:
112,206,150967,6,0,L|44:214,1,59.9999981689454,2|2,2:0|2:0,0:0:0:0:
98,284,151291,2,0,L|30:292,1,59.9999981689454,2|2,2:0|2:0,0:0:0:0:
160,336,151615,6,0,L|228:344,1,59.9999981689454,2|2,2:0|2:0,0:0:0:0:
320,294,151940,1,2,2:0:0:0:
320,294,152102,1,2,2:0:0:0:
376,383,152264,70,0,L|435:375,1,59.9999981689454,2|2,2:0|2:0,0:0:0:0:
512,294,152588,2,0,P|517:266|506:231,1,59.9999981689454,2|2,2:0|2:0,0:0:0:0:
428,246,152913,2,0,P|423:274|434:309,1,59.9999981689454,2|2,2:0|2:0,0:0:0:0:
505,221,153237,1,2,2:0:0:0:
430,163,153399,1,2,2:0:0:0:
322,212,153561,6,0,P|281:168|198:164,1,119.999996337891,2|2,2:0|2:0,0:0:0:0:
430,163,154210,2,0,P|458:137|481:131,1,59.9999981689454,2|2,2:0|2:0,0:0:0:0:
377,91,154534,2,0,P|404:80|425:59,1,59.9999981689454,2|2,2:0|2:0,0:0:0:0:
430,163,154859,5,2,2:0:0:0:
224,157,155183,1,2,2:0:0:0:
215,357,155507,1,2,2:0:0:0:
421,363,155831,1,2,2:0:0:0:
462,298,156115,6,0,L|487:292,2,14.9999995422363,2|2|2,2:0|2:0|2:0,0:0:0:0:
410,241,156967,70,0,L|360:231,2,40,2|2|2,2:0|2:0|2:0,0:0:0:0:
484,192,157453,6,0,B|501:127|501:127|495:109|495:109|512:48,1,150,2|0,2:0|0:0,0:0:0:0:
430,30,158750,38,0,B|413:-1|413:-1|408:33,1,69.9999978637696,8|0,1:3|0:0,0:0:0:0:
408,33,161345,118,0,B|391:1|391:1|386:36,1,69.9999978637696,8|0,1:3|0:0,0:0:0:0:
386,36,163940,118,0,B|369:4|369:4|364:39,1,69.9999978637696,8|0,1:3|0:0,0:0:0:0:
364,39,166534,118,0,B|347:7|347:7|342:42,1,69.9999978637696,8|0,1:3|0:0,0:0:0:0:
342,42,167832,6,0,B|325:10|325:10|320:45,1,69.9999978637696,8|0,1:3|0:0,0:0:0:0:
320,43,168480,101,8,1:3:0:0:
298,168,168723,5,8,1:3:0:0:
298,168,168805,1,8,1:3:0:0:
174,146,168966,101,8,1:3:0:0:
195,21,169129,54,0,B|154:29|154:29|139:63|139:63|99:70,1,120,8|0,0:0|0:0,0:0:0:0:
36,120,169453,2,0,L|26:174,3,40,8|0|0|0,0:2|0:0|0:0|0:0,0:0:0:0:
37,239,169777,2,0,P|74:246|107:226,1,80,8|0,0:2|0:0,0:0:0:0:
236,157,170102,2,0,L|277:164,3,40,8|0|0|0,0:2|0:0|0:0|0:0,0:0:0:0:
328,224,170426,6,0,B|371:216|371:216|389:190|389:190|432:183,1,120,8|0,0:2|0:0,0:0:0:0:
486,123,170750,2,0,L|494:73,3,40,8|0|0|0,0:2|0:0|0:0|0:0,0:0:0:0:
443,20,171075,2,0,L|364:33,1,80,8|0,0:2|0:0,0:0:0:0:
222,58,171399,1,8,0:2:0:0:
316,145,171561,1,8,0:2:0:0:
143,115,171723,6,0,B|102:122|102:122|87:156|87:156|47:163,1,120,8|0,0:0|0:0,0:0:0:0:
0,230,172048,2,0,L|6:269,3,40,8|0|0|0,0:2|0:0|0:0|0:0,0:0:0:0:
51,336,172372,2,0,L|134:350,1,80,8|0,0:2|0:0,0:0:0:0:
222,275,172696,2,0,L|279:285,3,40,8|0|0|0,0:2|0:0|0:0|0:0,0:0:0:0:
334,246,173021,6,0,P|350:190|316:144,1,120,8|0,0:2|0:0,0:0:0:0:
244,108,173345,2,0,L|235:61,3,40,8|0|0|0,0:2|0:0|0:0|0:0,0:0:0:0:
196,0,173669,2,0,L|117:13,1,80,8|0,0:2|0:0,0:0:0:0:
62,73,173913,1,8,0:2:0:0:
62,73,173994,1,8,0:2:0:0:
170,168,174156,1,8,0:2:0:0:
318,48,174318,70,0,B|358:55|358:55|373:89|373:89|413:96,1,120,8|0,0:0|0:0,0:0:0:0:
474,150,174642,2,0,L|483:204,3,40,8|0|0|0,0:2|0:0|0:0|0:0,0:0:0:0:
430,252,174967,2,0,L|351:238,1,80,8|0,0:2|0:0,0:0:0:0:
256,152,175291,2,0,L|201:161,3,40,8|0|0|0,0:2|0:0|0:0|0:0,0:0:0:0:
165,220,175615,6,0,B|124:212|124:212|109:178|109:178|69:171,1,120,8|0,0:0|0:0,0:0:0:0:
0,215,175940,2,0,L|16:309,1,80,8|0,0:2|0:0,0:0:0:0:
135,372,176264,6,0,P|154:373|171:365,3,40,8|0|0|0,0:2|0:0|0:0|0:0,0:0:0:0:
238,279,176588,2,0,P|255:270|275:271,3,40,8|0|0|0,0:2|0:0|0:0|0:0,0:0:0:0:
370,348,176913,5,8,0:0:0:0:
393,344,176994,1,0,0:0:0:0:
417,340,177075,1,0,0:0:0:0:
440,336,177156,1,0,0:0:0:0:
464,332,177237,2,0,L|473:280,3,40,8|0|0|0,0:2|0:0|0:0|0:0,0:0:0:0:
400,228,177561,69,8,0:0:0:0:
395,204,177642,1,0,0:0:0:0:
391,180,177723,1,0,0:0:0:0:
387,157,177804,1,0,0:0:0:0:
383,133,177886,2,0,L|374:82,3,40,8|0|0|0,0:2|0:0|0:0|0:0,0:0:0:0:
303,41,178210,5,8,1:1:0:0:
280,177,178534,5,8,1:1:0:0:
256,313,178859,5,8,1:1:0:0:
13,366,179183,69,14,1:1:0:0:
40,337,179264,1,8,1:1:0:0:
78,325,179345,1,8,1:1:0:0:
117,328,179426,1,8,1:1:0:0:
152,365,179507,6,0,P|175:292|169:233,1,129.999994049073,10|0,0:0|2:3,0:0:0:0:
360,365,179832,2,0,P|337:292|343:233,1,129.999994049073,10|0,0:0|2:3,0:0:0:0:
256,48,180156,2,0,L|256:112,1,64.9999970245363,10|0,0:0|1:0,0:0:0:0:
256,192,180318,1,2,2:3:0:0:
352,80,180480,1,10,0:0:0:0:
160,80,180642,2,0,P|128:144|64:176,1,129.999994049073,2|8,2:3|0:0,0:0:0:0:
256,192,180967,5,2,2:3:0:0:
408,165,181129,2,0,L|479:150,1,64.9999970245363,10|0,0:0|1:0,0:0:0:0:
509,84,181291,1,2,2:3:0:0:
497,225,181453,2,0,L|345:258,1,129.999994049073,10|0,0:0|2:3,0:0:0:0:
211,384,181777,2,0,L|141:373,1,64.9999970245363,10|0,0:0|1:0,0:0:0:0:
125,298,181940,1,2,2:3:0:0:
295,256,182102,6,0,P|321:330|379:356,1,129.999994049073,10|2,0:0|2:3,0:0:0:0:
217,256,182426,2,0,P|191:182|133:156,1,129.999994049073,10|2,0:0|2:3,0:0:0:0:
74,1,182750,2,0,L|8:17,1,64.9999970245363,10|0,0:0|1:0,0:0:0:0:
28,91,182913,1,2,2:3:0:0:
158,53,183075,1,10,0:0:0:0:
266,149,183237,2,0,P|284:72|330:35,1,129.999994049073,2|8,2:3|0:0,0:0:0:0:
339,177,183561,69,2,2:3:0:0:
217,256,183723,2,0,L|69:241,1,129.999994049073,10|0,0:0|2:3,0:0:0:0:
193,374,184048,2,0,L|263:364,1,64.9999970245363,10|0,0:0|1:0,0:0:0:0:
337,354,184210,1,0,2:3:0:0:
415,371,184372,1,8,0:0:0:0:
417,319,184453,1,0,0:0:0:0:
447,276,184534,1,0,0:0:0:0:
495,257,184615,1,0,0:0:0:0:
460,295,184696,6,0,P|412:254|410:189,1,129.999994049073,10|0,0:0|2:3,0:0:0:0:
508,23,185021,2,0,P|496:85|441:119,1,129.999994049073,10|0,0:0|2:3,0:0:0:0:
250,115,185345,2,0,P|309:93|366:124,1,129.999994049073,10|0,0:0|2:3,0:0:0:0:
197,177,185669,2,0,P|176:145|171:118,1,64.9999970245363,10|0,0:0|1:0,0:0:0:0:
275,190,185832,2,0,L|253:330,1,129.999994049073,2|8,2:3|0:0,0:0:0:0:
344,248,186156,5,2,2:3:0:0:
181,308,186318,2,0,P|111:319|85:375,1,129.999994049073,10|0,0:0|2:3,0:0:0:0:
296,383,186642,2,0,L|481:364,1,129.999994049073,10|0,0:0|2:3,0:0:0:0:
344,248,186967,2,0,L|354:174,1,64.9999970245363,10|0,0:0|1:0,0:0:0:0:
424,152,187129,1,2,2:3:0:0:
508,262,187291,6,0,L|498:188,1,64.9999970245363,10|0,0:0|1:0,0:0:0:0:
428,166,187453,1,2,2:3:0:0:
338,263,187615,2,0,P|272:259|229:192,1,129.999994049073,10|2,0:0|2:3,0:0:0:0:
83,268,187940,2,0,L|0:280,1,64.9999970245363,10|0,0:0|1:0,0:0:0:0:
8,198,188102,1,2,2:3:0:0:
160,255,188264,1,10,0:0:0:0:
18,183,188426,2,0,P|0:110|42:52,1,129.999994049073,2|8,2:3|0:0,0:0:0:0:
205,12,188750,69,2,2:3:0:0:
88,125,188913,1,10,0:0:0:0:
139,119,188994,1,0,0:0:0:0:
190,111,189075,1,0,0:0:0:0:
241,105,189156,1,0,0:0:0:0:
264,127,189237,2,0,B|335:136|335:136|346:69,1,129.999994049073,10|0,0:0|0:0,0:0:0:0:
146,205,189561,6,0,B|89:225|89:225|125:339,1,179.999994506836,12|0,0:0|0:0,0:0:0:0:
361,384,189886,6,0,B|369:334|369:334|361:307|361:307|370:257,1,129.999994049073,10|0,0:0|2:3,0:0:0:0:
453,125,190210,2,0,B|480:144|480:144|386:161,1,129.999994049073,10|0,0:0|2:3,0:0:0:0:
275,290,190534,2,0,L|286:226,1,64.9999970245363,10|0,0:0|1:0,0:0:0:0:
302,133,190696,1,0,2:3:0:0:
435,228,190859,1,10,0:0:0:0:
275,290,191021,2,0,B|228:281|228:281|208:254|208:254|161:245,1,129.999994049073,2|8,2:3|0:0,0:0:0:0:
85,110,191345,5,2,2:3:0:0:
222,178,191507,2,0,B|213:128|213:128|221:101|221:101|212:51,1,129.999994049073,10|0,0:0|2:3,0:0:0:0:
85,110,191832,2,0,B|68:204|68:204|48:176,1,129.999994049073,10|0,0:0|2:3,0:0:0:0:
0,297,192156,2,0,L|69:284,1,64.9999970245363,10|0,0:0|1:0,0:0:0:0:
142,338,192318,1,2,2:3:0:0:
222,178,192480,70,0,B|268:186|268:186|288:213|288:213|335:222,1,129.999994049073,10|2,0:0|2:3,0:0:0:0:
450,330,192805,2,0,L|436:254,1,64.9999970245363,10|0,0:0|1:0,0:0:0:0:
416,138,192967,1,2,2:3:0:0:
326,299,193129,2,0,B|353:318|353:318|337:223,1,129.999994049073,10|0,0:0|2:3,0:0:0:0:
480,149,193453,2,0,L|409:136,1,64.9999970245363,10|0,0:0|1:0,0:0:0:0:
308,60,193615,6,0,B|261:68|261:68|241:95|241:95|194:104,1,129.999994049073,2|8,2:3|0:0,0:0:0:0:
50,219,193940,2,0,L|124:232,1,64.9999970245363,2|0,2:3|1:0,0:0:0:0:
231,314,194102,2,0,B|250:286|250:286|233:191,1,129.999994049073,10|0,0:0|2:3,0:0:0:0:
92,102,194426,2,0,L|116:240,1,129.999994049073,10|0,0:0|2:3,0:0:0:0:
231,314,194750,5,10,0:0:0:0:
277,291,194832,1,0,0:0:0:0:
302,245,194913,1,2,0:0:0:0:
294,193,194994,1,0,0:0:0:0:
258,156,195075,6,0,B|208:147|208:147|185:163|185:163|135:154,1,129.999994049073,10|0,0:0|2:3,0:0:0:0:
65,30,195399,2,0,B|84:57|84:57|194:77,1,129.999994049073,10|0,0:0|2:3,0:0:0:0:
345,0,195723,2,0,L|359:79,1,64.9999970245363,10|0,0:0|1:0,0:0:0:0:
410,131,195886,1,2,0:0:0:0:
461,121,195967,1,0,0:0:0:0:
512,112,196048,2,0,L|499:43,1,64.9999970245363,10|0,0:0|1:0,0:0:0:0:
345,0,196210,70,0,B|298:8|298:8|278:35|278:35|231:44,1,129.999994049073,2|8,1:3|0:0,0:0:0:0:
172,160,196534,1,2,2:3:0:0:
65,30,196696,6,0,B|45:57|45:57|62:152,1,129.999994049073,10|0,0:0|2:3,0:0:0:0:
182,287,197021,2,0,B|173:237|173:237|181:210|181:210|172:160,1,129.999994049073,10|0,0:0|2:3,0:0:0:0:
65,30,197345,2,0,L|76:93,1,64.9999970245363,10|0,0:0|1:0,0:0:0:0:
93,190,197507,1,2,2:3:0:0:
191,49,197669,6,0,B|237:57|237:57|257:84|257:84|304:93,1,129.999994049073,10|2,0:0|2:3,0:0:0:0:
447,118,197994,1,10,0:0:0:0:
335,245,198156,2,0,B|362:264|362:264|343:154,1,129.999994049073,2|8,2:3|0:0,0:0:0:0:
326,52,198480,1,2,2:3:0:0:
252,202,198642,2,0,L|240:134,1,64.9999970245363,10|0,0:0|1:0,0:0:0:0:
191,49,198805,6,0,B|144:57|144:57|124:84|124:84|77:93,1,129.999994049073,2|8,2:3|0:0,0:0:0:0:
0,214,199129,2,0,L|74:227,1,64.9999970245363,2|0,2:3|1:0,0:0:0:0:
188,322,199291,1,10,0:0:0:0:
234,298,199372,1,0,0:0:0:0:
259,253,199453,1,0,0:0:0:0:
252,202,199534,1,0,0:0:0:0:
215,164,199615,70,0,B|168:172|168:172|148:199|148:199|101:208,1,129.999994049073,10|0,0:0|0:0,0:0:0:0:
0,47,199940,6,0,B|25:9|25:9|50:151,1,179.999994506836,14|0,0:0|0:0,0:0:0:0:
18,305,200264,6,0,L|2:386,2,64.9999970245363,10|0|2,0:0|1:0|1:3,0:0:0:0:
97,317,200507,1,0,1:0:0:0:
97,317,200588,2,0,L|81:398,1,64.9999970245363,10|0,0:0|1:0,0:0:0:0:
174,326,200750,1,2,1:3:0:0:
68,238,200912,1,10,0:0:0:0:
186,142,201075,1,2,1:3:0:0:
186,142,201156,1,2,1:3:0:0:
186,142,201237,2,0,P|217:72|206:5,1,129.999994049073,10|2,0:0|1:3,0:0:0:0:
326,142,201561,6,0,P|295:72|306:5,1,129.999994049073,10|2,0:0|1:3,0:0:0:0:
394,94,201805,1,0,1:0:0:0:
394,94,201885,2,0,L|484:85,1,64.9999970245363,10|0,0:0|1:0,0:0:0:0:
512,28,202047,1,2,1:3:0:0:
401,172,202210,1,10,0:0:0:0:
401,172,202534,70,0,L|491:163,1,64.9999970245363,10|0,0:0|1:0,0:0:0:0:
475,244,202696,2,0,L|410:250,1,64.9999970245363,2|0,1:3|1:0,0:0:0:0:
334,370,202859,6,0,P|312:324|310:285,1,64.9999970245363,10|0,0:0|1:0,0:0:0:0:
309,232,203021,1,2,1:3:0:0:
178,370,203183,2,0,P|200:324|202:285,1,64.9999970245363,10|0,0:0|1:0,0:0:0:0:
203,232,203345,1,2,1:3:0:0:
313,156,203507,1,10,0:0:0:0:
199,156,203669,1,2,1:3:0:0:
199,156,203750,1,2,1:3:0:0:
199,156,203831,2,0,P|108:155|55:180,1,129.999994049073,10|2,0:0|1:3,0:0:0:0:
213,66,204156,6,0,L|196:-1,1,64.9999970245363,10|0,0:0|1:0,0:0:0:0:
299,66,204318,2,0,L|316:-1,1,64.9999970245363,2|0,1:3|1:0,0:0:0:0:
210,75,204480,2,0,L|193:8,1,64.9999970245363,10|0,0:0|1:0,0:0:0:0:
302,75,204642,2,0,L|319:8,1,64.9999970245363,2|0,1:3|1:0,0:0:0:0:
313,155,204805,1,10,0:0:0:0:
203,232,204967,1,2,1:3:0:0:
309,232,205129,5,10,0:0:0:0:
354,226,205210,1,0,0:0:0:0:
397,239,205291,1,2,0:0:0:0:
424,275,205372,1,0,0:0:0:0:
421,320,205453,70,0,P|407:256|434:179,1,129.999994049073,10|2,0:0|1:3,0:0:0:0:
496,162,205696,1,0,1:0:0:0:
496,162,205777,2,0,L|482:88,1,64.9999970245363,10|0,0:0|1:0,0:0:0:0:
423,52,205940,1,2,1:3:0:0:
313,155,206102,1,10,0:0:0:0:
270,25,206264,1,2,1:3:0:0:
270,25,206345,1,2,1:3:0:0:
270,25,206426,2,0,L|127:44,1,129.999994049073,10|2,0:0|1:3,0:0:0:0:
0,65,206750,6,0,P|63:126|43:177,1,129.999994049073,10|2,0:0|1:3,0:0:0:0:
28,253,206994,1,0,1:0:0:0:
28,253,207075,2,0,L|117:246,1,64.9999970245363,10|0,3:0|1:0,0:0:0:0:
196,239,207237,1,2,1:3:0:0:
180,377,207399,1,10,0:0:0:0:
180,377,207723,6,0,P|202:339|208:309,1,64.9999970245363,8|0,0:0|1:0,0:0:0:0:
305,318,207886,2,0,P|314:349|332:377,1,64.9999970245363,2|0,1:3|1:0,0:0:0:0:
316,239,208048,6,0,P|356:181|357:106,1,129.999994049073,10|2,0:0|1:3,0:0:0:0:
196,239,208372,2,0,P|156:181|155:106,1,129.999994049073,10|2,0:0|1:3,0:0:0:0:
306,76,208696,2,0,P|296:38|295:5,1,64.9999970245363,10|0,0:0|1:0,0:0:0:0:
218,16,208858,1,2,1:3:0:0:
218,16,208940,1,2,1:3:0:0:
218,16,209021,2,0,L|153:24,1,64.9999970245363,10|0,0:0|1:0,0:0:0:0:
70,37,209183,1,2,1:3:0:0:
65,199,209345,70,0,L|-14:176,1,64.9999970245363,10|0,0:0|1:0,0:0:0:0:
58,119,209507,1,2,1:3:0:0:
74,276,209669,6,0,L|84:350,1,64.9999970245363,10|0,0:0|0:0,0:0:0:0:
157,269,209831,1,2,0:0:0:0:
157,269,209913,1,0,0:0:0:0:
157,269,209994,2,0,P|188:204|159:152,1,129.999994049073,10|2,0:0|0:0,0:0:0:0:
300,21,210318,6,0,B|343:11|343:11|321:24|306:63,1,89.9999972534181,14|0,0:0|1:0,0:0:0:0:
212,21,210480,2,0,B|169:11|169:11|191:24|206:63,1,89.9999972534181,2|0,0:0|1:0,0:0:0:0:
256,162,210642,6,0,B|299:154|299:154|323:120|323:120|366:113,1,129.999994049073,10|2,0:0|1:3,0:0:0:0:
454,96,210886,1,0,1:0:0:0:
454,96,210967,2,0,L|441:172,1,64.9999970245363,10|0,0:0|1:0,0:0:0:0:
422,275,211129,1,2,1:3:0:0:
367,112,211291,1,10,0:0:0:0:
256,162,211453,1,2,1:3:0:0:
256,162,211534,1,2,1:3:0:0:
256,162,211615,2,0,B|265:112|265:112|257:85|257:85|265:36,1,129.999994049073,10|2,0:0|1:3,0:0:0:0:
88,0,211940,70,0,B|69:28|69:28|85:122,1,129.999994049073,10|2,0:0|1:3,0:0:0:0:
153,181,212183,1,0,1:0:0:0:
153,181,212264,2,0,L|167:103,1,64.9999970245363,10|0,0:0|1:0,0:0:0:0:
265,34,212426,1,2,1:3:0:0:
330,200,212588,1,10,0:0:0:0:
330,200,212913,6,0,L|255:213,1,64.9999970245363,10|0,0:0|1:0,0:0:0:0:
231,288,213075,2,0,L|156:275,1,64.9999970245363,2|0,1:3|1:0,0:0:0:0:
41,230,213237,6,0,B|84:222|84:222|108:188|108:188|151:181,1,129.999994049073,10|2,0:0|1:3,0:0:0:0:
236,196,213480,1,0,1:0:0:0:
236,196,213561,2,0,L|249:120,1,64.9999970245363,10|0,0:0|1:0,0:0:0:0:
265,34,213723,1,2,1:3:0:0:
330,200,213886,1,10,0:0:0:0:
411,86,214048,1,2,1:3:0:0:
411,86,214129,1,2,1:3:0:0:
411,86,214210,2,0,B|439:105|439:105|329:125,1,129.999994049073,10|2,0:0|1:3,0:0:0:0:
265,34,214534,6,0,L|253:104,1,64.9999970245363,10|0,0:0|1:0,0:0:0:0:
164,150,214696,2,0,L|176:80,1,64.9999970245363,2|0,1:3|1:0,0:0:0:0:
278,24,214859,2,0,L|266:94,1,64.9999970245363,10|0,0:0|1:0,0:0:0:0:
151,160,215021,2,0,L|163:90,1,64.9999970245363,2|0,1:3|1:0,0:0:0:0:
291,14,215183,2,0,B|336:22|336:22|354:54|354:54|399:62,1,129.999994049073,10|2,0:0|1:3,0:0:0:0:
465,172,215507,69,10,0:0:0:0:
413,181,215588,1,0,0:0:0:0:
362,190,215669,1,2,0:0:0:0:
311,199,215750,1,0,0:0:0:0:
260,208,215832,6,0,B|215:200|215:200|197:168|197:168|152:160,1,129.999994049073,10|2,0:0|1:3,0:0:0:0:
70,173,216075,1,0,1:0:0:0:
70,173,216156,2,0,L|82:243,1,64.9999970245363,10|0,0:0|1:0,0:0:0:0:
101,352,216318,1,2,0:0:0:0:
174,193,216480,1,10,0:0:0:0:
237,322,216642,1,2,0:0:0:0:
237,322,216723,1,2,0:0:0:0:
237,322,216805,2,0,B|265:303|265:303|155:283,1,129.999994049073,10|2,0:0|1:3,0:0:0:0:
70,173,217129,6,0,L|58:103,1,64.9999970245363,10|0,0:0|1:0,0:0:0:0:
126,30,217291,2,0,L|138:100,1,64.9999970245363,2|0,1:3|1:0,0:0:0:0:
61,187,217453,2,0,L|49:117,1,64.9999970245363,10|0,0:0|1:0,0:0:0:0:
134,16,217615,2,0,L|146:86,1,64.9999970245363,2|0,1:3|1:0,0:0:0:0:
253,179,217777,6,0,B|298:171|298:171|316:139|316:139|361:131,1,129.999994049073,10|2,0:0|1:3,0:0:0:0:
444,99,218021,1,0,1:0:0:0:
444,99,218102,2,0,L|430:181,1,64.9999970245363,10|0,0:0|1:0,0:0:0:0:
380,290,218264,2,0,L|366:208,1,64.9999970245363,2|0,1:3|1:0,0:0:0:0:
253,179,218426,70,0,B|262:129|262:129|254:102|254:102|262:53,1,129.999994049073,10|2,0:0|1:3,0:0:0:0:
333,4,218669,1,0,1:0:0:0:
333,4,218750,2,0,L|345:73,1,64.9999970245363,10|0,0:0|1:0,0:0:0:0:
432,163,218913,2,0,L|363:151,1,64.9999970245363,2|0,1:3|1:0,0:0:0:0:
262,51,219075,1,10,0:0:0:0:
253,179,219237,5,2,1:3:0:0:
253,179,219318,1,2,1:3:0:0:
253,179,219399,2,0,L|183:167,1,64.9999970245363,10|2,0:0|1:3,0:0:0:0:
94,100,219561,2,0,L|164:88,1,64.9999970245363,2|2,1:3|1:3,0:0:0:0:
262,51,219723,5,10,1:3:0:0:
343,171,219886,1,2,1:3:0:0:
407,41,220048,1,2,1:3:0:0:
472,138,220210,1,2,1:3:0:0:
407,41,220372,1,2,1:3:0:0:
444,260,220696,6,0,B|422:290|376:292|348:259|350:225|350:225|352:187|319:156|277:163|256:192,1,269.999991760254,4|0,0:0|0:0,0:0:0:0:
256,192,221021,70,0,B|227:194|227:194|208:146|208:146|210:139|210:139|192:87,1,129.999994049073,10|2,0:0|1:3,0:0:0:0:
345,20,221345,6,0,B|374:18|374:18|393:66|393:66|391:73|391:73|409:125,1,129.999994049073,10|2,0:0|1:3,0:0:0:0:
256,192,221669,6,0,B|234:172|234:172|254:125|254:125|260:121|260:121|284:72,1,129.999994049073,10|2,0:0|1:3,0:0:0:0:
440,133,221993,6,0,B|462:152|462:152|441:199|441:199|435:203|435:203|411:252,1,129.999994049073,10|2,0:0|1:3,0:0:0:0:
256,192,222318,6,0,B|254:163|254:163|302:144|302:144|309:146|309:146|361:128,1,129.999994049073,10|2,0:0|1:3,0:0:0:0:
428,281,222642,6,0,B|430:310|430:310|382:329|382:329|375:327|375:327|323:345,1,129.999994049073,10|2,0:0|1:3,0:0:0:0:
256,192,222967,6,0,B|275:170|275:170|322:190|322:190|326:196|326:196|375:220,1,129.999994049073,10|2,0:0|1:3,0:0:0:0:
315,365,223291,6,0,B|295:386|295:386|248:366|248:366|244:360|244:360|195:336,1,129.999994049073,10|2,0:0|1:3,0:0:0:0:
256,192,223615,6,0,B|285:190|285:190|304:238|304:238|302:245|302:245|320:297,1,129.999994049073,10|2,0:0|1:3,0:0:0:0:
167,364,223939,6,0,B|138:366|138:366|119:318|119:318|121:311|121:311|103:259,1,129.999994049073,10|2,0:0|1:3,0:0:0:0:
256,192,224264,6,0,B|277:211|277:211|257:258|257:258|251:262|251:262|227:311,1,129.999994049073,10|2,0:0|1:3,0:0:0:0:
71,250,224588,6,0,B|49:231|49:231|70:184|70:184|76:180|76:180|100:131,1,129.999994049073,10|2,0:0|1:3,0:0:0:0:
256,192,224913,6,0,B|258:221|258:221|210:240|210:240|203:238|203:238|151:256,1,129.999994049073,10|2,0:0|1:3,0:0:0:0:
84,103,225237,6,0,B|82:74|82:74|130:55|130:55|137:57|137:57|189:39,1,129.999994049073,10|2,0:0|1:3,0:0:0:0:
256,192,225561,6,0,B|236:213|236:213|189:193|189:193|185:187|185:187|136:163,1,129.999994049073,10|2,0:0|1:3,0:0:0:0:
197,7,225885,6,0,B|216:-14|216:-14|263:5|263:5|267:11|267:11|316:35,1,129.999994049073,10|2,0:0|1:3,0:0:0:0:
256,192,226210,5,10,0:0:0:0:
221,107,226372,1,2,0:0:0:0:
138,145,226534,1,10,0:0:0:0:
173,230,226696,1,2,0:0:0:0:
256,192,226859,5,10,0:0:0:0:
171,156,227021,1,2,0:0:0:0:
139,242,227183,1,10,0:0:0:0:
224,277,227345,1,2,0:0:0:0:
256,192,227507,5,10,0:0:0:0:
171,227,227669,1,2,0:0:0:0:
209,310,227831,1,10,0:0:0:0:
294,275,227994,1,2,0:0:0:0:
256,192,228156,5,10,0:0:0:0:
220,276,228318,1,2,0:0:0:0:
306,308,228480,1,10,0:0:0:0:
341,223,228642,1,2,0:0:0:0:
256,192,228805,5,2,0:0:0:0:
254,179,228886,1,2,0:0:0:0:
250,166,228967,1,2,0:0:0:0:
248,153,229048,1,2,0:0:0:0:
245,140,229129,1,2,0:0:0:0:
258,138,229210,1,2,0:0:0:0:
271,134,229291,1,2,0:0:0:0:
284,132,229372,1,2,0:0:0:0:
296,130,229453,1,2,0:0:0:0:
298,143,229534,1,2,0:0:0:0:
302,156,229615,1,2,0:0:0:0:
304,169,229696,1,2,0:0:0:0:
308,181,229777,1,2,0:0:0:0:
295,183,229859,1,2,0:0:0:0:
282,187,229939,1,2,0:0:0:0:
269,189,230020,1,2,0:0:0:0:
256,192,230102,6,0,L|256:240,64,37.5000014305115,2|2|2|2|2|2|2|2|2|2|2|2|2|2|2|2|2|2|2|2|2|2|2|2|2|2|2|2|2|2|2|2|2|2|2|2|2|2|2|2|2|2|2|2|2|2|2|2|2|2|2|2|2|2|2|2|2|2|2|2|2|2|2|2|0,1:3|1:3|1:3|1:3|1:3|1:3|1:3|1:3|1:3|1:3|1:3|1:3|1:3|1:3|1:3|1:3|1:3|1:3|1:3|1:3|1:3|1:3|1:3|1:3|1:3|1:3|1:3|1:3|1:3|1:3|1:3|1:3|1:3|1:3|1:3|1:3|1:3|1:3|1:3|1:3|1:3|1:3|1:3|1:3|1:3|1:3|1:3|1:3|1:3|1:3|1:3|1:3|1:3|1:3|1:3|1:3|1:3|1:3|1:3|1:3|1:3|1:3|1:3|1:3|1:0,0:0:0:0:
256,192,243075,101,0,1:0:0:0:
