osu file format v14

[General]
AudioFilename: audio.mp3
AudioLeadIn: 0
PreviewTime: 176872
Countdown: 0
SampleSet: Drum
StackLeniency: 0.3
Mode: 0
LetterboxInBreaks: 0
EpilepsyWarning: 1
WidescreenStoryboard: 1

[Editor]
Bookmarks: 1778,4372,14750,23832,25129,35507,45886,56264,66642,77021,82210,92588,107588,113345,123723,134102,144480,158750,169129,178210,179507,189886,200264,210642,221021,226210,228805,230102,232696,243075
DistanceSpacing: 1.4
BeatDivisor: 8
GridSize: 16
TimelineZoom: 4.299998

[Metadata]
Title:INTERNET YAMERO
TitleUnicode:INTERNET YAMERO
Artist:Aiobahn feat. KOTOKO
ArtistUnicode:Aiobahn feat. KOTOKO
Creator:NeonMarijuana
Version:INTERNET ANGEL
Source:NEEDY GIRL OVERDOSE
Tags:japanese electronic videogame video game music vgm tohru mitsuhashi インターネットやめろ 前田地生 まろん maron iosys female vocals vocalist streamer synthwave techno eurobeat rawstyle hardstyle hardcore speedcore extratone ame ame-chan amechan omgkawaiiangel angel kangel p-chan pchan wss playground xemono maeda chisei as_chisei overdose overload synthpop denpa arcaea にゃるら nyalra nyarura tenshi muse dash mpg mappers' guild featured artist fa [ drop ] [_drop_] [drop] sanayui not your kitty not_your_kitty setu nuclei
BeatmapID:4268963
BeatmapSetID:2045169

[Difficulty]
HPDrainRate:5
CircleSize:4
OverallDifficulty:9
ApproachRate:9.8
SliderMultiplier:2.2
SliderTickRate:1

[Events]
//Background and Video events
0,0,"INTERNET YAMERO.jpg",0,0
Video,-200,"INTERNET YAMERO.mp4"
//Break Periods
2,4653,6488
2,7248,9082
2,9842,11434
2,159031,160866
2,161626,163461
2,164221,165812
//Storyboard Layer 0 (Background)
//Storyboard Layer 1 (Fail)
//Storyboard Layer 2 (Pass)
//Storyboard Layer 3 (Foreground)
//Storyboard Layer 4 (Overlay)
//Storyboard Sound Samples

[TimingPoints]
1778,324.324324324324,4,3,99,85,1,0
1778,-25,4,3,99,85,0,0
1940,-25,4,3,69,5,0,0
2102,-50,4,3,99,85,0,0
2264,-50,4,3,69,5,0,0
2426,-12.5,4,3,99,85,0,0
2507,-12.5,4,3,69,5,0,0
2588,-16.6666666666667,4,3,99,85,0,0
2669,-16.6666666666667,4,3,69,5,0,0
2750,-25,4,3,99,85,0,0
2832,-25,4,3,69,5,0,0
2913,-50,4,3,99,85,0,0
2994,-50,4,3,69,5,0,0
3075,-33.3333333333333,4,3,99,85,0,0
3156,-33.3333333333333,4,3,69,5,0,0
3237,-25,4,3,99,85,0,0
3399,-25,4,3,69,5,0,0
3561,-12.5,4,3,99,85,0,0
3642,-12.5,4,3,69,5,0,0
3723,-25,4,3,99,85,0,0
3886,-25,4,3,69,5,0,0
4048,-33.3333333333333,4,3,99,90,0,1
4129,-33.3333333333333,4,3,69,5,0,0
4210,-33.3333333333333,4,3,99,90,0,1
4291,-33.3333333333333,4,3,69,5,0,0
4372,-10,4,3,1,95,0,1
4453,-1000,4,3,69,5,0,0
6967,-10,4,3,1,95,0,1
7048,-1000,4,3,69,5,0,0
9561,-10,4,3,1,95,0,1
9642,-1000,4,3,69,5,0,0
11913,-1000,4,3,1,95,0,0
12075,-1000,4,3,69,5,0,0
12156,-10,4,3,1,95,0,1
12237,-1000,4,3,69,5,0,0
13453,-10,4,3,1,95,0,1
13534,-1000,4,3,69,5,0,0
14102,-20,4,3,1,95,0,1
14142,-1000,4,3,69,5,0,0
14345,-20,4,3,1,95,0,1
14386,-1000,4,3,69,5,0,0
14426,-20,4,3,1,95,0,1
14467,-1000,4,3,69,5,0,0
14588,-20,4,3,1,95,0,1
14629,-1000,4,3,69,5,0,0
14750,-20,4,3,1,60,0,1
14791,-83.3333333333333,4,3,69,5,0,0
14832,-83.3333333333333,4,3,1,60,0,0
17345,-20,4,3,1,65,0,1
17386,-83.3333333333333,4,3,69,5,0,0
17426,-83.3333333333333,4,3,1,65,0,0
19940,-20,4,3,1,70,0,1
19980,-83.3333333333333,4,3,69,5,0,0
20021,-83.3333333333333,4,3,1,70,0,0
21237,-20,4,3,1,75,0,1
21277,-83.3333333333333,4,3,69,5,0,0
21318,-83.3333333333333,4,3,1,75,0,0
22534,-20,4,3,1,80,0,1
22575,-83.3333333333333,4,3,69,5,0,0
22615,-83.3333333333333,4,3,1,80,0,0
23183,-20,4,3,1,85,0,1
23223,-83.3333333333333,4,3,69,5,0,0
23264,-83.3333333333333,4,3,1,85,0,0
23832,-50,4,3,1,80,0,1
23872,-50,4,3,69,5,0,0
24156,-50,4,3,1,80,0,1
24196,-50,4,3,69,5,0,0
24480,-50,4,3,1,80,0,1
24521,-50,4,3,69,5,0,0
24805,-25,4,3,1,90,0,1
24845,-25,4,3,69,5,0,0
24886,-25,4,3,1,90,0,1
24926,-25,4,3,69,5,0,0
24967,-25,4,3,1,90,0,1
25007,-25,4,3,69,5,0,0
25048,-25,4,3,1,90,0,1
25088,-25,4,3,69,5,0,0
25129,-41.6666666666667,4,3,2,85,0,1
25777,-45.4545454545455,4,3,2,85,0,1
26426,-50,4,3,2,85,0,1
27075,-100,4,3,2,85,0,0
27318,-100,4,3,69,5,0,0
27399,-50,4,3,2,85,0,1
27723,-41.6666666666667,4,3,2,85,0,1
28372,-45.4545454545455,4,3,2,85,0,1
29021,-50,4,3,2,85,0,1
29669,-55.5555555555556,4,3,2,85,0,1
29994,-50,4,3,2,85,0,1
30277,-50,4,3,2,85,0,0
30318,-41.6666666666667,4,3,2,85,0,1
30967,-45.4545454545455,4,3,2,85,0,1
31615,-50,4,3,2,85,0,1
32264,-55.5555555555556,4,3,2,85,0,1
32588,-50,4,3,2,85,0,1
32872,-50,4,3,2,85,0,0
32913,-45.4545454545455,4,3,2,85,0,1
33561,-45.4545454545455,4,3,2,85,0,0
33723,-45.4545454545455,4,3,2,85,0,1
34210,-41.6666666666667,4,3,2,80,0,0
35183,-33.3333333333333,4,3,2,90,0,1
35426,-33.3333333333333,4,3,69,5,0,1
35507,-100,4,3,3,60,0,0
35750,-100,4,3,69,5,0,0
35832,-100,4,3,3,60,0,0
38345,-100,4,3,69,5,0,0
38426,-100,4,3,3,60,0,0
40940,-100,4,3,69,5,0,0
41021,-100,4,3,3,60,0,0
41588,-100,4,3,69,5,0,0
41669,-100,4,3,3,60,0,0
42237,-100,4,3,69,5,0,0
42318,-100,4,3,3,60,0,0
43534,-100,4,3,69,5,0,0
43615,-100,4,3,3,60,0,0
44183,-100,4,3,69,5,0,0
44264,-100,4,3,3,60,0,0
44832,-100,4,3,69,5,0,0
44913,-100,4,3,3,60,0,0
45886,-95.2380952380952,4,3,3,65,0,0
46129,-95.2380952380952,4,3,69,5,0,0
46210,-95.2380952380952,4,3,3,65,0,0
48723,-95.2380952380952,4,3,69,5,0,0
48805,-95.2380952380952,4,3,3,65,0,0
56264,-86.9565217391304,4,3,3,70,0,0
56507,-86.9565217391304,4,3,69,5,0,0
56588,-86.9565217391304,4,3,3,70,0,0
59102,-86.9565217391304,4,3,69,5,0,0
59183,-86.9565217391304,4,3,3,70,0,0
66642,-83.3333333333333,4,3,3,75,0,0
66886,-83.3333333333333,4,3,69,5,0,0
66967,-83.3333333333333,4,3,3,75,0,0
67940,-83.3333333333333,4,3,3,76,0,0
69237,-83.3333333333333,4,3,3,77,0,0
69480,-83.3333333333333,4,3,69,5,0,0
69561,-83.3333333333333,4,3,3,77,0,0
70534,-83.3333333333333,4,3,3,78,0,0
71832,-83.3333333333333,4,3,3,79,0,0
73129,-83.3333333333333,4,3,3,80,0,0
74426,-83.3333333333333,4,3,3,81,0,0
75723,-83.3333333333333,4,3,3,82,0,0
76048,-83.3333333333333,4,3,3,83,0,0
76372,-83.3333333333333,4,3,3,84,0,0
76696,-83.3333333333333,4,3,3,85,0,0
77021,-125,4,3,3,60,0,0
77183,-125,4,3,69,5,0,0
77345,-125,4,3,3,60,0,0
79777,-125,4,3,69,5,0,0
79940,-125,4,3,3,60,0,0
82210,-55.5555555555556,4,3,4,75,0,1
82250,-55.5555555555556,4,3,4,75,0,0
87156,-55.5555555555556,4,3,69,5,0,0
87237,-55.5555555555556,4,3,4,75,0,0
87399,-50,4,3,4,75,0,0
89994,-51.2820512820513,4,3,4,75,0,0
90318,-52.6315789473684,4,3,4,75,0,0
90642,-54.054054054054,4,3,4,75,0,0
90967,-55.5555555555556,4,3,4,75,0,0
91291,-57.1428571428571,4,3,4,75,0,0
91615,-58.8235294117647,4,3,4,75,0,0
91940,-60.6060606060606,4,3,4,75,0,0
92264,-62.5,4,3,4,75,0,0
92588,-50,4,3,4,80,0,1
92629,-50,4,3,4,80,0,0
101669,-47.6190476190476,4,3,4,85,0,0
101832,-45.4545454545455,4,3,4,85,0,0
101994,-43.4782608695652,4,3,4,85,0,0
102156,-41.6666666666667,4,3,4,85,0,0
102642,-41.6666666666667,4,3,4,90,0,0
102886,-42.5531914893617,4,3,4,89,0,0
103129,-43.4782608695652,4,3,4,88,0,0
103372,-44.4444444444445,4,3,4,87,0,0
103615,-45.4545454545455,4,3,4,86,0,0
103859,-46.5116279069767,4,3,4,85,0,0
104102,-47.6190476190476,4,3,4,84,0,0
104345,-48.780487804878,4,3,4,83,0,0
104588,-50,4,3,4,82,0,0
104832,-50,4,3,4,81,0,0
105075,-50,4,3,4,80,0,0
107588,-20,4,3,4,85,0,1
107994,-50,4,3,4,80,0,0
108156,-20,4,3,4,90,0,1
109453,-45.4545454545455,4,3,4,85,0,0
110750,-41.6666666666667,4,3,4,80,0,0
112048,-50,4,3,4,75,0,0
112210,-50,4,3,4,70,0,0
112372,-50,4,3,4,65,0,0
112534,-55.5555555555556,4,3,4,60,0,0
112696,-55.5555555555556,4,3,4,55,0,0
112859,-55.5555555555556,4,3,4,50,0,0
113021,-33.3333333333333,4,3,4,45,0,0
113183,-33.3333333333333,4,3,4,40,0,0
113345,-50,4,3,5,80,0,1
113426,-50,4,3,69,5,0,0
113507,-45.4545454545455,4,3,5,80,0,1
113588,-45.4545454545455,4,3,69,5,0,0
113832,-41.6666666666667,4,3,5,80,0,1
113913,-41.6666666666667,4,3,69,5,0,0
114156,-55.5555555555556,4,3,5,80,0,1
114237,-55.5555555555556,4,3,69,5,0,0
114480,-50,4,3,5,80,0,1
114561,-50,4,3,69,5,0,1
114642,-50,4,3,97,77,0,1
114723,-50,4,3,97,74,0,1
114805,-50,4,3,97,71,0,1
114886,-50,4,3,97,68,0,1
114967,-50,4,3,97,65,0,1
115048,-50,4,3,97,62,0,1
115129,-50,4,3,97,59,0,1
115210,-50,4,3,97,56,0,1
115291,-50,4,3,97,53,0,1
115372,-50,4,3,97,50,0,1
115453,-50,4,3,97,47,0,1
115534,-50,4,3,97,44,0,1
115615,-50,4,3,5,60,0,1
115696,-50,4,3,69,5,0,1
115777,-50,4,3,5,70,0,1
115859,-50,4,3,69,5,0,1
115899,-50,4,3,5,70,0,0
115940,-55.5555555555556,4,3,5,80,0,1
116021,-55.5555555555556,4,3,69,5,0,0
116102,-50,4,3,5,80,0,1
116183,-50,4,3,69,5,0,0
116426,-55.5555555555556,4,3,5,80,0,1
116507,-55.5555555555556,4,3,69,5,0,0
116750,-50,4,3,5,80,0,1
116832,-50,4,3,69,5,0,0
117075,-45.4545454545455,4,3,5,80,0,1
117156,-45.4545454545455,4,3,69,5,0,1
117237,-45.4545454545455,4,3,97,77,0,1
117318,-45.4545454545455,4,3,97,74,0,1
117399,-45.4545454545455,4,3,97,71,0,1
117480,-45.4545454545455,4,3,97,68,0,1
117561,-45.4545454545455,4,3,97,65,0,1
117642,-45.4545454545455,4,3,97,62,0,1
117723,-45.4545454545455,4,3,97,59,0,1
117805,-45.4545454545455,4,3,97,56,0,1
117886,-45.4545454545455,4,3,97,53,0,1
117967,-45.4545454545455,4,3,97,50,0,1
118048,-45.4545454545455,4,3,97,47,0,1
118129,-45.4545454545455,4,3,97,44,0,1
118169,-45.4545454545455,4,3,97,44,0,0
118210,-50,4,3,5,60,0,1
118291,-50,4,3,69,5,0,0
118372,-41.6666666666667,4,3,5,70,0,1
118453,-41.6666666666667,4,3,69,5,0,0
118534,-50,4,3,5,80,0,1
118615,-50,4,3,69,5,0,0
118696,-45.4545454545455,4,3,5,80,0,1
118777,-45.4545454545455,4,3,69,5,0,0
119021,-50,4,3,5,80,0,1
119102,-50,4,3,69,5,0,0
119345,-41.6666666666667,4,3,5,80,0,1
119426,-41.6666666666667,4,3,69,5,0,0
119669,-50,4,3,5,80,0,1
119750,-50,4,3,69,5,0,1
119832,-50,4,3,97,77,0,1
119913,-50,4,3,97,74,0,1
119994,-50,4,3,97,71,0,1
120075,-50,4,3,97,68,0,1
120156,-50,4,3,97,65,0,1
120237,-50,4,3,97,62,0,1
120318,-50,4,3,97,59,0,1
120399,-50,4,3,97,56,0,1
120480,-50,4,3,97,53,0,1
120561,-50,4,3,97,50,0,1
120642,-50,4,3,97,47,0,1
120723,-50,4,3,97,44,0,1
120764,-50,4,3,5,44,0,0
120805,-45.4545454545455,4,3,5,60,0,1
120886,-45.4545454545455,4,3,69,5,0,0
120967,-50,4,3,5,70,0,1
121048,-50,4,3,69,5,0,0
121129,-45.4545454545455,4,3,5,80,0,1
121210,-45.4545454545455,4,3,69,5,0,0
121291,-41.6666666666667,4,3,5,80,0,1
121372,-41.6666666666667,4,3,69,5,0,0
121615,-45.4545454545455,4,3,5,80,0,1
121696,-45.4545454545455,4,3,69,5,0,0
121940,-55.5555555555556,4,3,5,80,0,1
122021,-55.5555555555556,4,3,69,5,0,0
122264,-50,4,3,5,80,0,1
122345,-50,4,3,69,5,0,1
122426,-50,4,3,97,77,0,1
122507,-50,4,3,97,74,0,1
122588,-50,4,3,97,71,0,1
122669,-50,4,3,97,68,0,1
122750,-50,4,3,97,65,0,1
122832,-50,4,3,97,62,0,1
122913,-50,4,3,97,59,0,1
122994,-50,4,3,97,56,0,1
123075,-50,4,3,97,53,0,1
123156,-50,4,3,97,50,0,1
123237,-50,4,3,97,47,0,1
123318,-50,4,3,97,44,0,1
123359,-50,4,3,97,44,0,0
123399,-33.3333333333333,4,3,5,85,0,1
123480,-33.3333333333333,4,3,69,5,0,0
123561,-33.3333333333333,4,3,5,85,0,1
123642,-33.3333333333333,4,3,69,5,0,0
123723,-50,4,3,5,80,0,1
124859,-55.5555555555556,4,3,5,80,0,1
125832,-45.4545454545455,4,3,5,80,0,1
126277,-45.4545454545455,4,3,5,80,0,0
126318,-50,4,3,5,80,0,1
127453,-45.4545454545455,4,3,5,80,0,1
128426,-50,4,3,5,80,0,1
128872,-50,4,3,5,80,0,0
128913,-55.5555555555556,4,3,5,80,0,1
130048,-62.5,4,3,5,80,0,1
131021,-55.5555555555556,4,3,5,80,0,1
131183,-50,4,3,5,80,0,1
131345,-45.4545454545455,4,3,5,80,0,1
131467,-45.4545454545455,4,3,5,80,0,0
131507,-10,4,3,5,85,0,1
131588,-1000,4,3,69,5,0,0
132156,-10,4,3,5,90,0,1
132237,-1000,4,3,69,5,0,0
132805,-20,4,3,5,70,0,1
132886,-20,4,3,69,5,0,0
132967,-18.1818181818182,4,3,5,75,0,1
133048,-18.1818181818182,4,3,69,5,0,0
133129,-16.6666666666667,4,3,5,80,0,1
133210,-16.6666666666667,4,3,69,5,0,0
133291,-15.3846153846154,4,3,5,85,0,1
133372,-15.3846153846154,4,3,69,5,0,0
133453,-14.2857142857143,4,3,5,90,0,1
133494,-14.2857142857143,4,3,69,5,0,0
133534,-14.2857142857143,4,3,5,90,0,1
133575,-14.2857142857143,4,3,5,90,0,0
133615,-14.2857142857143,4,3,5,90,0,1
133656,-14.2857142857143,4,3,5,90,0,0
133696,-14.2857142857143,4,3,5,90,0,1
133737,-14.2857142857143,4,3,5,90,0,0
133777,-10,4,3,5,100,0,1
133798,-10,4,3,5,100,0,0
133818,-10,4,3,5,100,0,1
133838,-10,4,3,5,100,0,0
133859,-10,4,3,5,100,0,1
133879,-10,4,3,5,100,0,0
133899,-10,4,3,5,100,0,1
133919,-10,4,3,5,100,0,0
133940,-10,4,3,5,100,0,1
133960,-10,4,3,5,100,0,0
133980,-10,4,3,5,100,0,1
134000,-10,4,3,5,100,0,0
134021,-10,4,3,5,100,0,1
134041,-10,4,3,5,100,0,0
134061,-10,4,3,5,100,0,1
134082,-10,4,3,5,100,0,0
134102,-100,4,3,6,80,0,1
134345,-100,4,3,69,5,0,0
134426,-15.0685472505021,4,3,6,100,0,1
134669,-15.0685472505021,4,3,69,5,0,1
134710,-15.0602409638554,4,3,6,100,0,0
134750,-15.0685533989403,4,3,6,100,0,1
134994,-15.0685472505021,4,3,69,5,0,1
135034,-15.0602409638554,4,3,6,100,0,0
135075,-15.0679601319814,4,3,6,100,0,1
135318,-15.0685472505021,4,3,69,5,0,1
135359,-15.0602409638554,4,3,6,100,0,0
135399,-15.0685519709699,4,3,6,100,0,1
135642,-15.0685472505021,4,3,69,5,0,1
135683,-15.0602409638554,4,3,6,100,0,0
135723,-15.0602409638554,4,3,6,100,0,1
135967,-15.0685472505021,4,3,69,5,0,1
136007,-15.0602409638554,4,3,6,100,0,0
136048,-15.0685291657271,4,3,6,100,0,1
136291,-15.0685472505021,4,3,69,5,0,1
136332,-15.0602409638554,4,3,6,100,0,0
136372,-15.0680036949483,4,3,6,100,0,1
136615,-15.0685472505021,4,3,69,5,0,1
136656,-15.0602409638554,4,3,6,100,0,0
136696,-15.0685398915447,4,3,6,100,0,1
136940,-15.0685472505021,4,3,69,5,0,1
136980,-15.0602409638554,4,3,6,100,0,0
137021,-15.0602409638554,4,3,6,100,0,1
137264,-15.0685472505021,4,3,69,5,0,1
137305,-15.0602409638554,4,3,6,100,0,0
137345,-15.0680559608241,4,3,6,100,0,1
137588,-15.0685472505021,4,3,69,5,0,1
137629,-15.0602409638554,4,3,6,100,0,0
137669,-15.0685467953702,4,3,6,100,0,1
137913,-15.0685472505021,4,3,69,5,0,1
137953,-15.0602409638554,4,3,6,100,0,0
137994,-15.0685533985072,4,3,6,100,0,1
138237,-15.0685472505021,4,3,69,5,0,1
138277,-15.0602409638554,4,3,6,100,0,0
138318,-15.068584005531,4,3,6,100,0,1
138561,-15.0685472505021,4,3,69,5,0,1
138602,-15.0602409638554,4,3,6,100,0,0
138642,-15.0680754924878,4,3,6,100,0,1
138886,-15.0685472505021,4,3,69,5,0,1
138926,-15.0602409638554,4,3,69,5,0,0
138967,-37.8787878787879,4,3,6,100,0,1
139007,-37.8787878787879,4,3,69,5,0,0
139048,-21.551724137931,4,3,6,100,0,1
139088,-21.551724137931,4,3,69,5,0,0
139129,-15.0602409638554,4,3,6,100,0,1
139169,-15.0602409638554,4,3,69,5,0,0
139210,-11.5740740740741,4,3,6,100,0,1
139250,-11.5740740740741,4,3,69,5,0,0
139291,-15.0001007159598,4,3,6,100,0,1
139534,-15.0001007159598,4,3,69,5,0,1
139575,-15.0001007159598,4,3,6,100,0,0
139615,-14.8528922476922,4,3,6,100,0,1
139859,-14.8528922476922,4,3,69,5,0,1
139899,-14.8528922476922,4,3,6,100,0,0
139940,-14.7079016457111,4,3,6,100,0,1
140183,-14.7079016457111,4,3,69,5,0,1
140223,-14.7079016457111,4,3,6,100,0,0
140264,-14.5653029983994,4,3,6,100,0,1
140507,-14.5653029983994,4,3,69,5,0,1
140548,-14.5653029983994,4,3,6,100,0,0
140588,-14.4262601284954,4,3,6,100,0,1
140832,-14.4262601284954,4,3,69,5,0,1
140872,-14.4262601284954,4,3,6,100,0,0
140913,-14.2889582008759,4,3,6,100,0,1
141156,-14.2889582008759,4,3,69,5,0,1
141196,-14.2889582008759,4,3,6,100,0,0
141237,-14.1551840896729,4,3,6,100,0,1
141480,-14.1551840896729,4,3,69,5,0,1
141521,-14.1551840896729,4,3,6,100,0,0
141561,-14.0234769843829,4,3,6,100,0,1
141805,-14.0234769843829,4,3,69,5,0,1
141845,-14.0234769843829,4,3,6,100,0,0
141886,-13.8941666438614,4,3,6,100,0,1
142129,-13.8941666438614,4,3,69,5,0,1
142169,-13.8941666438614,4,3,6,100,0,0
142210,-13.7672283366589,4,3,6,100,0,1
142453,-13.7672283366589,4,3,69,5,0,1
142494,-13.7672283366589,4,3,6,100,0,0
142534,-13.6421698917051,4,3,6,100,0,1
142777,-13.6421698917051,4,3,69,5,0,1
142818,-13.6421698917051,4,3,6,100,0,0
142859,-13.5201678455251,4,3,6,100,0,1
143102,-13.5201678455251,4,3,69,5,0,1
143142,-13.5201678455251,4,3,6,100,0,0
143183,-13.3999349767614,4,3,6,100,0,1
143426,-13.3999349767614,4,3,69,5,0,1
143467,-13.3999349767614,4,3,6,100,0,0
143507,-13.2813993186336,4,3,6,100,0,1
143750,-13.2813993186336,4,3,69,5,0,1
143791,-13.2813993186336,4,3,6,100,0,0
143832,-13.1657727895874,4,3,6,100,0,1
144075,-13.1657727895874,4,3,69,5,0,1
144115,-13.1657727895874,4,3,6,100,0,0
144156,-10,4,3,6,100,0,1
144176,-10,4,3,6,100,0,0
144196,-10,4,3,6,100,0,1
144217,-10,4,3,6,100,0,0
144237,-10,4,3,6,100,0,1
144257,-10,4,3,6,100,0,0
144277,-10,4,3,6,100,0,1
144298,-10,4,3,6,100,0,0
144318,-10,4,3,6,100,0,1
144338,-10,4,3,6,100,0,0
144359,-10,4,3,6,100,0,1
144379,-10,4,3,6,100,0,0
144399,-10,4,3,6,100,0,1
144419,-10,4,3,6,100,0,0
144440,-10,4,3,6,100,0,1
144460,-10,4,3,6,100,0,0
144480,-100,4,3,98,60,0,0
148372,-166.666666666667,4,3,98,70,0,0
148534,-166.666666666667,4,3,69,5,0,0
148696,-125,4,3,98,75,0,0
148859,-125,4,3,69,5,0,0
149021,-100,4,3,98,80,0,0
149183,-100,4,3,69,5,0,0
149345,-125,4,3,98,70,0,0
149588,-125,4,3,69,5,0,0
149669,-100,4,3,98,60,0,0
154859,-100,4,3,98,70,0,0
155021,-100,4,3,69,5,0,0
155183,-100,4,3,98,70,0,0
155669,-100,4,3,69,5,0,0
155832,-100,4,3,98,70,0,0
156967,-100,4,3,98,35,0,0
157777,-100,4,3,98,50,0,0
158102,-100,4,3,98,65,0,0
158426,-100,4,3,98,80,0,0
158669,-100,4,3,69,5,0,0
158750,-10,4,3,1,95,0,1
158832,-1000,4,3,69,5,0,0
161345,-10,4,3,1,95,0,1
161426,-1000,4,3,69,5,0,0
163940,-10,4,3,1,95,0,1
164021,-1000,4,3,69,5,0,0
166291,-1000,4,3,1,95,0,0
166453,-1000,4,3,69,5,0,0
166534,-10,4,3,1,95,0,1
166615,-1000,4,3,69,5,0,0
167832,-10,4,3,1,95,0,1
167913,-1000,4,3,69,5,0,0
168480,-20,4,3,1,95,0,1
168521,-1000,4,3,69,5,0,0
168723,-20,4,3,1,95,0,1
168764,-1000,4,3,69,5,0,0
168805,-20,4,3,1,95,0,1
168845,-1000,4,3,69,5,0,0
168967,-20,4,3,1,95,0,1
169007,-1000,4,3,69,5,0,0
169129,-20,4,3,1,70,0,1
169169,-71.4285714285714,4,3,69,5,0,0
169210,-71.4285714285714,4,3,1,70,0,0
171723,-20,4,3,1,75,0,1
171764,-71.4285714285714,4,3,69,5,0,0
171805,-71.4285714285714,4,3,1,75,0,0
174318,-20,4,3,1,80,0,1
174359,-71.4285714285714,4,3,69,5,0,0
174399,-71.4285714285714,4,3,1,80,0,0
175615,-20,4,3,1,85,0,1
175656,-71.4285714285714,4,3,69,5,0,0
175696,-71.4285714285714,4,3,1,85,0,0
176913,-20,4,3,1,90,0,1
176953,-71.4285714285714,4,3,69,5,0,0
176994,-71.4285714285714,4,3,1,90,0,0
177561,-20,4,3,1,95,0,1
177602,-71.4285714285714,4,3,69,5,0,0
177642,-71.4285714285714,4,3,1,95,0,0
178210,-50,4,3,1,90,0,1
178250,-50,4,3,69,5,0,0
178534,-40,4,3,1,93,0,1
178575,-40,4,3,69,5,0,0
178859,-33.3333333333333,4,3,1,96,0,1
178899,-33.3333333333333,4,3,69,5,0,0
179183,-16.6666666666667,4,3,1,100,0,1
179223,-16.6666666666667,4,3,69,5,0,0
179264,-16.6666666666667,4,3,1,100,0,1
179305,-16.6666666666667,4,3,69,5,0,0
179345,-16.6666666666667,4,3,1,100,0,1
179386,-16.6666666666667,4,3,69,5,0,0
179426,-16.6666666666667,4,3,1,100,0,1
179467,-16.6666666666667,4,3,69,5,0,0
179507,-38.4615384615385,4,3,7,95,0,1
179832,-45.4545454545455,4,3,7,95,0,1
180156,-38.4615384615385,4,3,7,95,0,1
180318,-41.6666666666667,4,3,7,95,0,1
180480,-38.4615384615385,4,3,7,95,0,1
180642,-41.6666666666667,4,3,7,95,0,1
180967,-38.4615384615385,4,3,7,95,0,1
181129,-41.6666666666667,4,3,7,95,0,1
181291,-45.4545454545455,4,3,7,95,0,1
181453,-50,4,3,7,95,0,1
181777,-45.4545454545455,4,3,7,95,0,1
181940,-38.4615384615385,4,3,7,95,0,1
182102,-41.6666666666667,4,3,7,95,0,1
182264,-50,4,3,7,95,0,1
182426,-45.4545454545455,4,3,7,95,0,1
182588,-41.6666666666667,4,3,7,95,0,1
182750,-38.4615384615385,4,3,7,95,0,1
182913,-41.6666666666667,4,3,7,95,0,1
183075,-45.4545454545455,4,3,7,95,0,1
183237,-41.6666666666667,4,3,7,95,0,1
183561,-38.4615384615385,4,3,7,95,0,1
183723,-41.6666666666667,4,3,7,95,0,1
184048,-45.4545454545455,4,3,7,95,0,1
184656,-45.4545454545455,4,3,7,95,0,0
184696,-38.4615384615385,4,3,7,95,0,1
185021,-45.4545454545455,4,3,7,95,0,1
185345,-41.6666666666667,4,3,7,95,0,1
185669,-45.4545454545455,4,3,7,95,0,1
185832,-41.6666666666667,4,3,7,95,0,1
186156,-38.4615384615385,4,3,7,95,0,1
186318,-41.6666666666667,4,3,7,95,0,1
186642,-45.4545454545455,4,3,7,95,0,1
186967,-50,4,3,7,95,0,1
187129,-55.5555555555556,4,3,7,95,0,1
187291,-62.5,4,3,7,95,0,1
187453,-50,4,3,7,95,0,1
187615,-45.4545454545455,4,3,7,95,0,1
187777,-38.4615384615385,4,3,7,95,0,1
187940,-41.6666666666667,4,3,7,95,0,1
188102,-45.4545454545455,4,3,7,95,0,1
188264,-41.6666666666667,4,3,7,95,0,1
188426,-45.4545454545455,4,3,7,95,0,1
188750,-38.4615384615385,4,3,7,95,0,1
188913,-41.6666666666667,4,3,7,95,0,1
189237,-45.4545454545455,4,3,7,95,0,1
189480,-45.4545454545455,4,3,7,95,0,0
189561,-33.3333333333333,4,3,7,100,0,1
189845,-33.3333333333333,4,3,7,100,0,0
189886,-38.4615384615385,4,3,7,95,0,1
190210,-45.4545454545455,4,3,7,95,0,1
190534,-41.6666666666667,4,3,7,95,0,1
190859,-45.4545454545455,4,3,7,95,0,1
191021,-41.6666666666667,4,3,7,95,0,1
191345,-38.4615384615385,4,3,7,95,0,1
191507,-41.6666666666667,4,3,7,95,0,1
191832,-45.4545454545455,4,3,7,95,0,1
192156,-50,4,3,7,95,0,1
192318,-45.4545454545455,4,3,7,95,0,1
192480,-41.6666666666667,4,3,7,95,0,1
192642,-50,4,3,7,95,0,1
192805,-45.4545454545455,4,3,7,95,0,1
192967,-41.6666666666667,4,3,7,95,0,1
193129,-38.4615384615385,4,3,7,95,0,1
193453,-41.6666666666667,4,3,7,95,0,1
193615,-45.4545454545455,4,3,7,95,0,1
193940,-38.4615384615385,4,3,7,95,0,1
194102,-41.6666666666667,4,3,7,95,0,1
194426,-45.4545454545455,4,3,7,95,0,1
194750,-50,4,3,7,95,0,1
194913,-45.4545454545455,4,3,7,95,0,1
195034,-45.4545454545455,4,3,7,95,0,0
195075,-41.6666666666667,4,3,7,95,0,1
195399,-50,4,3,7,95,0,1
195723,-35.7142857142857,4,3,7,95,0,1
195886,-38.4615384615385,4,3,7,95,0,1
196048,-41.6666666666667,4,3,7,95,0,1
196210,-45.4545454545455,4,3,7,95,0,1
196534,-50,4,3,7,95,0,1
196696,-41.6666666666667,4,3,7,95,0,1
197021,-38.4615384615385,4,3,7,95,0,1
197345,-45.4545454545455,4,3,7,95,0,1
197507,-50,4,3,7,95,0,1
197669,-55.5555555555556,4,3,7,95,0,1
197832,-50,4,3,7,95,0,1
197994,-41.6666666666667,4,3,7,95,0,1
198156,-38.4615384615385,4,3,7,95,0,1
198480,-41.6666666666667,4,3,7,95,0,1
198642,-50,4,3,7,95,0,1
198805,-45.4545454545455,4,3,7,95,0,1
199129,-38.4615384615385,4,3,7,95,0,1
199291,-41.6666666666667,4,3,7,95,0,1
199615,-45.4545454545455,4,3,7,95,0,1
199859,-45.4545454545455,4,3,7,95,0,0
199940,-31.25,4,3,7,100,0,1
200183,-31.25,4,3,7,100,0,0
200264,-38.4615384615385,4,3,2,95,0,1
200913,-41.6666666666667,4,3,2,95,0,1
201561,-45.4545454545455,4,3,2,95,0,1
202210,-83.3333333333333,4,3,2,95,0,0
202453,-83.3333333333333,4,3,69,5,0,0
202534,-45.4545454545455,4,3,2,95,0,1
202859,-38.4615384615385,4,3,2,95,0,1
203507,-41.6666666666667,4,3,2,95,0,1
204156,-45.4545454545455,4,3,2,95,0,1
204805,-50,4,3,2,95,0,1
205129,-45.4545454545455,4,3,2,95,0,1
205413,-45.4545454545455,4,3,2,95,0,0
205453,-38.4615384615385,4,3,2,95,0,1
206102,-41.6666666666667,4,3,2,95,0,1
206750,-45.4545454545455,4,3,2,95,0,1
207399,-83.3333333333333,4,3,2,95,0,0
207642,-83.3333333333333,4,3,69,5,0,0
207723,-50,4,3,2,95,0,1
208048,-38.4615384615385,4,3,2,95,0,1
208696,-41.6666666666667,4,3,2,95,0,1
209345,-45.4545454545455,4,3,2,95,0,1
209669,-41.6666666666667,4,3,2,95,0,1
209994,-38.4615384615385,4,3,2,95,0,1
210318,-29.4117647058824,4,3,2,100,0,1
210602,-29.4117647058825,4,3,2,100,0,0
210642,-35.7142857142857,4,3,2,95,0,1
211291,-38.4615384615385,4,3,2,95,0,1
211940,-41.6666666666667,4,3,2,95,0,1
212588,-71.4285714285714,4,3,2,95,0,0
212832,-71.4285714285714,4,3,69,5,0,0
212913,-41.6666666666667,4,3,2,95,0,1
213237,-35.7142857142857,4,3,2,95,0,1
213886,-38.4615384615385,4,3,2,95,0,1
214534,-41.6666666666667,4,3,2,95,0,1
215183,-45.4545454545455,4,3,2,95,0,1
215507,-41.6666666666667,4,3,2,95,0,1
215791,-41.6666666666667,4,3,2,95,0,0
215832,-35.7142857142857,4,3,2,95,0,1
216480,-38.4615384615385,4,3,2,95,0,1
217129,-41.6666666666667,4,3,2,95,0,1
217777,-45.4545454545455,4,3,2,95,0,1
218102,-41.6666666666667,4,3,2,95,0,1
218386,-41.6666666666667,4,3,2,95,0,0
218426,-38.4615384615385,4,3,2,95,0,1
219075,-38.4615384615385,4,3,2,95,0,0
219237,-38.4615384615385,4,3,2,95,0,1
219723,-35.7142857142857,4,3,2,85,0,0
220696,-27.7777777777778,4,3,2,100,0,1
220940,-27.7777777777778,4,3,69,5,0,1
221000,-27.7777777777778,4,3,2,100,0,0
221021,-33.3333333333333,4,3,2,85,0,1
221183,-33.3333333333333,4,3,2,85,0,0
221345,-33.3333333333333,4,3,2,85,0,1
221507,-33.3333333333333,4,3,2,85,0,0
221669,-33.3333333333333,4,3,2,85,0,1
221832,-33.3333333333333,4,3,2,85,0,0
221994,-33.3333333333333,4,3,2,85,0,1
222156,-33.3333333333333,4,3,2,85,0,0
222318,-33.3333333333333,4,3,2,85,0,1
222480,-33.3333333333333,4,3,2,85,0,0
222642,-33.3333333333333,4,3,2,85,0,1
222805,-33.3333333333333,4,3,2,85,0,0
222967,-33.3333333333333,4,3,2,85,0,1
223129,-33.3333333333333,4,3,2,85,0,0
223291,-33.3333333333333,4,3,2,85,0,1
223453,-33.3333333333333,4,3,2,85,0,0
223615,-33.3333333333333,4,3,2,85,0,1
223777,-33.3333333333333,4,3,2,85,0,0
223940,-33.3333333333333,4,3,2,85,0,1
224102,-33.3333333333333,4,3,2,85,0,0
224264,-33.3333333333333,4,3,2,85,0,1
224426,-33.3333333333333,4,3,2,85,0,0
224588,-33.3333333333333,4,3,2,85,0,1
224750,-33.3333333333333,4,3,2,85,0,0
224913,-33.3333333333333,4,3,2,85,0,1
225075,-33.3333333333333,4,3,2,85,0,0
225237,-33.3333333333333,4,3,2,85,0,1
225399,-33.3333333333333,4,3,2,85,0,0
225561,-33.3333333333333,4,3,2,85,0,1
225723,-33.3333333333333,4,3,2,85,0,0
225886,-33.3333333333333,4,3,2,85,0,1
226048,-33.3333333333333,4,3,2,85,0,0
226210,-22.2222222222222,4,3,2,90,0,1
226291,-22.2222222222222,4,3,69,5,0,0
226372,-22.2222222222222,4,3,2,90,0,1
226453,-22.2222222222222,4,3,69,5,0,0
226534,-22.2222222222222,4,3,2,90,0,1
226615,-22.2222222222222,4,3,69,5,0,0
226696,-22.2222222222222,4,3,2,90,0,1
226777,-22.2222222222222,4,3,69,5,0,0
226859,-22.2222222222222,4,3,2,90,0,1
226940,-22.2222222222222,4,3,69,5,0,0
227021,-22.2222222222222,4,3,2,90,0,1
227102,-22.2222222222222,4,3,69,5,0,0
227183,-22.2222222222222,4,3,2,90,0,1
227264,-22.2222222222222,4,3,69,5,0,0
227345,-22.2222222222222,4,3,2,90,0,1
227426,-22.2222222222222,4,3,69,5,0,0
227507,-22.2222222222222,4,3,2,90,0,1
227588,-22.2222222222222,4,3,69,5,0,0
227669,-22.2222222222222,4,3,2,90,0,1
227750,-22.2222222222222,4,3,69,5,0,0
227832,-22.2222222222222,4,3,2,90,0,1
227913,-22.2222222222222,4,3,69,5,0,0
227994,-22.2222222222222,4,3,2,90,0,1
228075,-22.2222222222222,4,3,69,5,0,0
228156,-22.2222222222222,4,3,2,90,0,1
228237,-22.2222222222222,4,3,69,5,0,0
228318,-22.2222222222222,4,3,2,90,0,1
228399,-22.2222222222222,4,3,69,5,0,0
228480,-22.2222222222222,4,3,2,90,0,1
228561,-22.2222222222222,4,3,69,5,0,0
228642,-22.2222222222222,4,3,2,90,0,1
228723,-22.2222222222222,4,3,69,5,0,0
228805,-16.6666666666667,4,3,2,95,0,1
228845,-16.6666666666667,4,3,2,95,0,0
228886,-16.6666666666667,4,3,2,95,0,1
228926,-16.6666666666667,4,3,2,95,0,0
228967,-16.6666666666667,4,3,2,95,0,1
229007,-16.6666666666667,4,3,2,95,0,0
229048,-16.6666666666667,4,3,2,95,0,1
229088,-16.6666666666667,4,3,2,95,0,0
229129,-16.6666666666667,4,3,2,95,0,1
229169,-16.6666666666667,4,3,2,95,0,0
229210,-16.6666666666667,4,3,2,95,0,1
229250,-16.6666666666667,4,3,2,95,0,0
229291,-16.6666666666667,4,3,2,95,0,1
229332,-16.6666666666667,4,3,2,95,0,0
229372,-16.6666666666667,4,3,2,95,0,1
229413,-16.6666666666667,4,3,2,95,0,0
229453,-16.6666666666667,4,3,2,95,0,1
229494,-16.6666666666667,4,3,2,95,0,0
229534,-16.6666666666667,4,3,2,95,0,1
229575,-16.6666666666667,4,3,2,95,0,0
229615,-16.6666666666667,4,3,2,95,0,1
229656,-16.6666666666667,4,3,2,95,0,0
229696,-16.6666666666667,4,3,2,95,0,1
229737,-16.6666666666667,4,3,2,95,0,0
229777,-16.6666666666667,4,3,2,95,0,1
229818,-16.6666666666667,4,3,2,95,0,0
229859,-16.6666666666667,4,3,2,95,0,1
229899,-16.6666666666667,4,3,2,95,0,0
229940,-16.6666666666667,4,3,2,95,0,1
229980,-16.6666666666667,4,3,2,95,0,0
230021,-16.6666666666667,4,3,2,95,0,1
230061,-16.6666666666667,4,3,2,95,0,0
230102,-13.3333333333333,4,3,2,100,0,1
230122,-13.3333333333333,4,3,2,100,0,0
230142,-13.3333333333333,4,3,2,100,0,1
230163,-13.3333333333333,4,3,2,100,0,0
230183,-13.3333333333333,4,3,2,100,0,1
230203,-13.3333333333333,4,3,2,100,0,0
230223,-13.3333333333333,4,3,2,100,0,1
230244,-13.3333333333333,4,3,2,100,0,0
230264,-13.3333333333333,4,3,2,100,0,1
230284,-13.3333333333333,4,3,2,100,0,0
230305,-13.3333333333333,4,3,2,100,0,1
230325,-13.3333333333333,4,3,2,100,0,0
230345,-13.3333333333333,4,3,2,100,0,1
230365,-13.3333333333333,4,3,2,100,0,0
230386,-13.3333333333333,4,3,2,100,0,1
230406,-13.3333333333333,4,3,2,100,0,0
230426,-13.3333333333333,4,3,2,100,0,1
230446,-13.3333333333333,4,3,2,100,0,0
230467,-13.3333333333333,4,3,2,100,0,1
230487,-13.3333333333333,4,3,2,100,0,0
230507,-13.3333333333333,4,3,2,100,0,1
230527,-13.3333333333333,4,3,2,100,0,0
230548,-13.3333333333333,4,3,2,100,0,1
230568,-13.3333333333333,4,3,2,100,0,0
230588,-13.3333333333333,4,3,2,100,0,1
230609,-13.3333333333333,4,3,2,100,0,0
230629,-13.3333333333333,4,3,2,100,0,1
230649,-13.3333333333333,4,3,2,100,0,0
230669,-13.3333333333333,4,3,2,100,0,1
230690,-13.3333333333333,4,3,2,100,0,0
230710,-13.3333333333333,4,3,2,100,0,1
230730,-13.3333333333333,4,3,2,100,0,0
230750,-13.3333333333333,4,3,2,100,0,1
230771,-13.3333333333333,4,3,2,100,0,0
230791,-13.3333333333333,4,3,2,100,0,1
230811,-13.3333333333333,4,3,2,100,0,0
230832,-13.3333333333333,4,3,2,100,0,1
230852,-13.3333333333333,4,3,2,100,0,0
230872,-13.3333333333333,4,3,2,100,0,1
230892,-13.3333333333333,4,3,2,100,0,0
230913,-13.3333333333333,4,3,2,100,0,1
230933,-13.3333333333333,4,3,2,100,0,0
230953,-13.3333333333333,4,3,2,100,0,1
230973,-13.3333333333333,4,3,2,100,0,0
230994,-13.3333333333333,4,3,2,100,0,1
231014,-13.3333333333333,4,3,2,100,0,0
231034,-13.3333333333333,4,3,2,100,0,1
231055,-13.3333333333333,4,3,2,100,0,0
231075,-13.3333333333333,4,3,2,100,0,1
231095,-13.3333333333333,4,3,2,100,0,0
231115,-13.3333333333333,4,3,2,100,0,1
231136,-13.3333333333333,4,3,2,100,0,0
231156,-13.3333333333333,4,3,2,100,0,1
231176,-13.3333333333333,4,3,2,100,0,0
231196,-13.3333333333333,4,3,2,100,0,1
231217,-13.3333333333333,4,3,2,100,0,0
231237,-13.3333333333333,4,3,2,100,0,1
231257,-13.3333333333333,4,3,2,100,0,0
231277,-13.3333333333333,4,3,2,100,0,1
231298,-13.3333333333333,4,3,2,100,0,0
231318,-13.3333333333333,4,3,2,100,0,1
231338,-13.3333333333333,4,3,2,100,0,0
231359,-13.3333333333333,4,3,2,100,0,1
231379,-13.3333333333333,4,3,2,100,0,0
231399,-13.3333333333333,4,3,2,100,0,1
231419,-13.3333333333333,4,3,2,100,0,0
231440,-13.3333333333333,4,3,2,100,0,1
231460,-13.3333333333333,4,3,2,100,0,0
231480,-13.3333333333333,4,3,2,100,0,1
231500,-13.3333333333333,4,3,2,100,0,0
231521,-13.3333333333333,4,3,2,100,0,1
231541,-13.3333333333333,4,3,2,100,0,0
231561,-13.3333333333333,4,3,2,100,0,1
231582,-13.3333333333333,4,3,2,100,0,0
231602,-13.3333333333333,4,3,2,100,0,1
231622,-13.3333333333333,4,3,2,100,0,0
231642,-13.3333333333333,4,3,2,100,0,1
231663,-13.3333333333333,4,3,2,100,0,0
231683,-13.3333333333333,4,3,2,100,0,1
231703,-13.3333333333333,4,3,2,100,0,0
231723,-13.3333333333333,4,3,2,100,0,1
231744,-13.3333333333333,4,3,2,100,0,0
231764,-13.3333333333333,4,3,2,100,0,1
231784,-13.3333333333333,4,3,2,100,0,0
231805,-13.3333333333333,4,3,2,100,0,1
231825,-13.3333333333333,4,3,2,100,0,0
231845,-13.3333333333333,4,3,2,100,0,1
231865,-13.3333333333333,4,3,2,100,0,0
231886,-13.3333333333333,4,3,2,100,0,1
231906,-13.3333333333333,4,3,2,100,0,0
231926,-13.3333333333333,4,3,2,100,0,1
231946,-13.3333333333333,4,3,2,100,0,0
231967,-13.3333333333333,4,3,2,100,0,1
231987,-13.3333333333333,4,3,2,100,0,0
232007,-13.3333333333333,4,3,2,100,0,1
232027,-13.3333333333333,4,3,2,100,0,0
232048,-13.3333333333333,4,3,2,100,0,1
232068,-13.3333333333333,4,3,2,100,0,0
232088,-13.3333333333333,4,3,2,100,0,1
232109,-13.3333333333333,4,3,2,100,0,0
232129,-13.3333333333333,4,3,2,100,0,1
232149,-13.3333333333333,4,3,2,100,0,0
232169,-13.3333333333333,4,3,2,100,0,1
232190,-13.3333333333333,4,3,2,100,0,0
232210,-13.3333333333333,4,3,2,100,0,1
232230,-13.3333333333333,4,3,2,100,0,0
232250,-13.3333333333333,4,3,2,100,0,1
232271,-13.3333333333333,4,3,2,100,0,0
232291,-13.3333333333333,4,3,2,100,0,1
232311,-13.3333333333333,4,3,2,100,0,0
232332,-13.3333333333333,4,3,2,100,0,1
232352,-13.3333333333333,4,3,2,100,0,0
232372,-13.3333333333333,4,3,2,100,0,1
232392,-13.3333333333333,4,3,2,100,0,0
232413,-13.3333333333333,4,3,2,100,0,1
232433,-13.3333333333333,4,3,2,100,0,0
232453,-13.3333333333333,4,3,2,100,0,1
232473,-13.3333333333333,4,3,2,100,0,0
232494,-13.3333333333333,4,3,2,100,0,1
232514,-13.3333333333333,4,3,2,100,0,0
232534,-13.3333333333333,4,3,2,100,0,1
232555,-13.3333333333333,4,3,2,100,0,0
232575,-13.3333333333333,4,3,2,100,0,1
232595,-13.3333333333333,4,3,2,100,0,0
232615,-13.3333333333333,4,3,2,100,0,1
232636,-13.3333333333333,4,3,2,100,0,0
232656,-13.3333333333333,4,3,2,100,0,1
232676,-13.3333333333333,4,3,2,100,0,0
232696,-1000,4,3,99,100,0,1
243074,-10,4,3,99,100,0,0
243095,-10,4,3,99,100,0,1
243115,-10,4,3,99,100,0,0
243136,-10,4,3,99,100,0,1
243156,-10,4,3,99,100,0,0
243176,-10,4,3,99,100,0,1
243196,-10,4,3,99,100,0,0
243217,-10,4,3,99,100,0,1
243237,-10,4,3,99,100,0,0
243257,-10,4,3,99,100,0,1
243277,-10,4,3,99,100,0,0
243298,-10,4,3,99,100,0,1
243318,-10,4,3,99,100,0,0
243338,-10,4,3,99,100,0,1
243359,-10,4,3,99,100,0,0
243379,-10,4,3,99,100,0,1
243399,-10,4,3,99,100,0,0

[Colours]
Combo1 : 196,0,0
Combo2 : 255,255,202
Combo3 : 181,242,251
Combo4 : 199,157,255
Combo5 : 255,174,255
Combo6 : 81,81,81
Combo7 : 140,140,140
Combo8 : 128,0,0
SliderBorder : 250,250,250
SliderTrackOverride : 0,0,20

[HitObjects]
128,96,1778,6,0,B|116:35|116:35|185:113|185:113|82:134|82:134|116:35|116:35|128:96,1,440,8|0,0:3|0:0,0:0:0:0:
384,288,2102,2,0,B|379:311|379:311|387:305|397:301|407:296|407:296|417:288|416:271|403:263|391:266|385:277|385:277|382:264|372:258|357:260|351:275|359:288|359:288|366:295|373:302|379:311|379:311|384:288,1,220,8|0,0:3|0:0,0:0:0:0:
384,96,2426,6,0,B|392:47|392:47|375:79|375:79|342:73|342:73|365:98|365:98|351:129|351:129|380:114|380:114|403:138|403:138|400:104|400:104|430:88|430:88|397:82|397:82|392:47|392:47|384:96,1,440,8|0,0:3|0:0,0:0:0:0:
256,336,2588,2,0,B|255:372|255:372|245:360|233:352|220:342|220:342|205:326|211:303|232:295|249:303|256:321|256:321|262:302|279:295|300:303|306:327|291:342|291:342|278:352|266:360|255:372|255:372|256:336,1,330.000012588501,8|0,0:0|0:0,0:0:0:0:
128,96,2750,2,0,B|123:71|123:71|121:89|121:89|104:92|104:92|119:100|119:100|118:117|118:117|129:105|129:105|144:112|144:112|137:97|137:97|148:84|148:84|132:87|132:87|123:71|123:71|128:96,1,220,8|0,0:0|0:0,0:0:0:0:
384,288,2913,2,0,B|382:296|382:296|397:299|397:299|387:270|387:270|367:293|367:293|382:296|382:296|384:288,1,110,8|0,0:0|0:0,0:0:0:0:
128,288,3075,6,0,B|129:304|129:304|123:300|116:297|108:294|108:294|100:288|100:274|111:268|120:270|125:279|125:279|128:268|135:263|146:265|151:277|144:288|144:288|140:292|134:298|129:304|129:304|128:288,1,165.000006294251,8|0,0:0|0:0,0:0:0:0:
384,96,3237,2,0,B|394:35|394:35|326:116|326:116|430:135|430:135|394:35|394:35|384:96,1,440,8|0,0:0|0:0,0:0:0:0:
256,336,3561,6,0,B|256:384|256:384|241:368|225:357|207:344|207:344|188:322|196:291|223:281|246:291|256:315|256:315|264:290|286:281|314:292|323:323|302:344|302:344|285:357|269:368|256:384|256:384|256:336,1,440,8|0,0:0|0:0,0:0:0:0:
256,48,3723,2,0,B|256:0|256:0|242:29|242:29|208:29|208:29|235:53|235:53|226:86|226:86|256:66|256:66|282:86|282:86|273:53|273:53|300:29|300:29|266:29|266:29|256:0|256:0|256:48,1,440,8|0,0:0|0:0,0:0:0:0:
512,192,4048,22,0,B|507:192|507:192|507:196|507:196|507:192|507:192|487:192|487:192|487:187|487:187|487:192|487:192|468:192|468:192|468:196|468:196|468:192|468:192|449:192|449:192|449:187|449:187|449:192|449:192|429:192|429:192|429:196|429:196|429:192|429:192|410:192|410:192|410:187|410:187|410:192|410:192|405:192,1,165.000006294251,8|0,0:2|0:0,0:0:0:0:
0,192,4210,2,0,B|4:192|4:192|4:196|4:196|4:192|4:192|24:192|24:192|24:187|24:187|24:192|24:192|43:192|43:192|43:196|43:196|43:192|43:192|62:192|62:192|62:187|62:187|62:192|62:192|82:192|82:192|82:196|82:196|82:192|82:192|101:192|101:192|101:187|101:187|101:192|101:192|106:192,1,165.000006294251,8|0,0:2|0:0,0:0:0:0:
425,336,4372,102,0,B|434:281|434:281|427:280|427:280|418:334|418:334|411:333|411:333|421:279|421:279|414:278|414:278|404:332|404:332|397:331|397:331|407:277|407:277|400:275|400:275|391:330|391:330|384:328|384:328|393:274|393:274|387:273|387:273|377:327|377:327|370:326|370:326|380:272,1,550,8|0,1:3|0:0,0:0:0:0:
380,271,6967,118,0,B|389:216|389:216|382:215|382:215|373:269|373:269|366:268|366:268|376:214|376:214|369:213|369:213|359:267|359:267|352:266|352:266|362:212|362:212|355:210|355:210|346:265|346:265|339:263|339:263|348:209|348:209|342:208|342:208|332:262|332:262|325:261|325:261|335:207,1,550,8|0,1:3|0:0,0:0:0:0:
335,206,9561,118,0,B|344:151|344:151|337:150|337:150|328:204|328:204|321:203|321:203|331:149|331:149|324:148|324:148|314:202|314:202|307:201|307:201|317:147|317:147|310:145|310:145|301:200|301:200|294:198|294:198|303:144|303:144|297:143|297:143|287:197|287:197|280:196|280:196|290:142,1,550,8|0,1:3|0:0,0:0:0:0:
290,141,11913,6,0,L|291:130,1,11,0|0,1:0|0:0,0:0:0:0:
290,141,12156,102,0,B|299:86|299:86|292:85|292:85|283:139|283:139|276:138|276:138|286:84|286:84|279:83|279:83|269:137|269:137|262:136|262:136|272:82|272:82|265:80|265:80|256:135|256:135|249:133|249:133|258:79|258:79|252:78|252:78|242:132|242:132|235:131|235:131|245:77,1,550,8|0,1:3|0:0,0:0:0:0:
245,76,13453,6,0,B|254:21|254:21|247:20|247:20|238:74|238:74|231:73|231:73|241:19|241:19|234:18|234:18|224:72|224:72|217:71|217:71|227:17|227:17|220:15|220:15|211:70|211:70|204:68|204:68|213:14|213:14|207:13|207:13|197:67|197:67|190:66|190:66|200:12,1,550,8|0,1:3|0:0,0:0:0:0:
109,361,14102,102,0,B|111:376|111:376|127:374|124:357|124:357|122:341|105:344|105:344|89:346|92:363|92:363|94:379|111:376|111:376|109:361,1,137.5,8|0,1:3|0:0,0:0:0:0:
325,322,14345,6,0,B|340:318|340:318|343:335|327:337|327:337|310:340|308:324|308:324|305:307|321:305|321:305|338:302|340:318|340:318|325:322,1,137.5,8|0,1:3|0:0,0:0:0:0:
328,343,14426,2,0,B|343:339|343:339|346:356|330:358|330:358|313:361|311:345|311:345|308:328|324:326|324:326|341:323|343:339|343:339|328:343,1,137.5,8|0,1:3|0:0,0:0:0:0:
286,106,14588,102,0,B|282:89|282:89|298:86|300:102|300:102|303:118|287:120|287:120|271:123|269:107|269:107|266:91|282:89|282:89|286:106,1,137.5,8|0,1:3|0:0,0:0:0:0:
70,145,14750,54,0,B|54:147|54:147|51:131|67:129|67:129|83:126|85:142|85:142|88:158|72:160|72:160|56:163|54:147|54:147|70:145,1,137.5,8|0,0:0|0:0,0:0:0:0:
39,157,14832,1,0,0:0:0:0:
17,186,14913,1,0,0:0:0:0:
18,225,14994,1,0,0:0:0:0:
40,262,15075,1,8,0:2:0:0:
85,273,15156,1,0,0:0:0:0:
130,253,15237,1,0,0:0:0:0:
179,272,15318,1,0,0:0:0:0:
200,324,15399,5,8,0:2:0:0:
170,344,15480,1,0,0:0:0:0:
130,341,15561,1,0,0:0:0:0:
94,318,15642,1,0,0:0:0:0:
85,273,15723,1,8,0:2:0:0:
110,230,15805,1,0,0:0:0:0:
159,211,15886,1,0,0:0:0:0:
182,160,15967,1,0,0:0:0:0:
158,106,16048,5,8,0:2:0:0:
132,136,16129,1,0,0:0:0:0:
127,178,16210,1,0,0:0:0:0:
159,211,16291,1,0,0:0:0:0:
208,219,16372,1,8,0:2:0:0:
252,190,16453,1,0,0:0:0:0:
306,204,16534,1,0,0:0:0:0:
332,257,16615,1,0,0:0:0:0:
304,313,16696,5,8,0:2:0:0:
239,322,16777,2,0,P|223:293|227:262,1,65.9999979858399
302,60,16940,1,0,0:0:0:0:
334,65,17021,2,0,P|338:96|323:124,1,65.9999979858399,8|0,0:2|0:0,0:0:0:0:
159,211,17183,2,0,L|94:199,1,65.9999979858399,8|0,0:2|0:0,0:0:0:0:
408,345,17345,70,0,B|404:360|404:360|421:363|423:347|423:347|426:330|410:328|410:328|393:325|391:341|391:341|388:358|404:360|404:360|408:345,1,137.5,8|0,0:0|0:0,0:0:0:0:
384,369,17426,1,0,0:0:0:0:
348,375,17507,1,0,0:0:0:0:
314,355,17588,1,0,0:0:0:0:
304,313,17669,1,8,0:2:0:0:
269,283,17750,1,0,0:0:0:0:
219,283,17832,1,0,0:0:0:0:
179,317,17913,1,0,0:0:0:0:
176,373,17994,5,8,0:2:0:0:
212,375,18075,1,0,0:0:0:0:
250,365,18156,1,0,0:0:0:0:
274,329,18237,1,0,0:0:0:0:
269,283,18318,1,8,0:2:0:0:
237,245,18399,1,0,0:0:0:0:
184,243,18480,1,0,0:0:0:0:
141,279,18561,1,0,0:0:0:0:
146,338,18642,5,8,0:2:0:0:
184,328,18723,1,0,0:0:0:0:
198,287,18805,1,0,0:0:0:0:
184,243,18886,1,0,0:0:0:0:
140,221,18967,1,8,0:2:0:0:
90,239,19048,1,0,0:0:0:0:
39,215,19129,1,0,0:0:0:0:
28,157,19210,1,0,0:0:0:0:
64,106,19291,5,8,0:2:0:0:
130,108,19372,2,0,L|117:178,1,65.9999979858399
47,363,19534,1,8,0:2:0:0:
14,357,19615,2,0,L|29:269,1,65.9999979858399,8|0,0:2|0:0,0:0:0:0:
253,196,19777,2,0,P|269:225|265:256,1,65.9999979858399,8|0,0:2|0:0,0:0:0:0:
4,34,19940,70,0,B|0:17|0:17|17:14|19:30|19:30|22:47|6:49|6:49|-9:52|-11:36|-11:36|-14:19|0:17|0:17|4:34,1,137.5,8|0,0:0|0:0,0:0:0:0:
33,18,20021,1,0,0:0:0:0:
67,30,20102,1,0,0:0:0:0:
81,67,20183,1,0,0:0:0:0:
64,106,20264,1,8,0:2:0:0:
78,150,20345,1,0,0:0:0:0:
120,176,20426,1,0,0:0:0:0:
172,169,20507,1,0,0:0:0:0:
205,124,20588,5,8,0:2:0:0:
164,81,20669,1,0,0:0:0:0:
102,88,20750,1,0,0:0:0:0:
78,150,20832,1,0,0:0:0:0:
117,207,20913,2,0,P|149:212|177:197,1,65.9999979858399,8|0,0:2|0:0,0:0:0:0:
296,34,21075,2,0,P|275:59|274:90,1,65.9999979858399
403,349,21237,6,0,B|399:364|399:364|383:362|386:345|386:345|388:329|405:332|405:332|421:334|418:351|418:351|416:367|399:364|399:364|403:349,1,137.5,8|0,0:0|0:0,0:0:0:0:
435,357,21318,1,0,0:0:0:0:
468,342,21399,1,0,0:0:0:0:
484,306,21480,1,0,0:0:0:0:
469,266,21561,1,8,0:2:0:0:
425,252,21642,1,0,0:0:0:0:
404,207,21723,1,0,0:0:0:0:
433,162,21805,1,0,0:0:0:0:
489,162,21886,5,8,0:2:0:0:
479,220,21967,1,0,0:0:0:0:
425,252,22048,1,0,0:0:0:0:
360,240,22129,1,0,0:0:0:0:
331,177,22210,2,0,P|326:145|341:117,1,65.9999979858399,8|0,0:2|0:0,0:0:0:0:
512,10,22372,2,0,P|486:30|455:31,1,65.9999979858399
142,0,22534,70,0,B|126:-2|126:-2|128:-18|145:-15|145:-15|161:-13|158:2|158:2|156:18|139:15|139:15|123:13|126:-2|126:-2|142:0,1,137.5,8|0,0:0|0:0,0:0:0:0:
98,29,22615,1,0,0:0:0:0:
88,81,22696,1,0,0:0:0:0:
118,125,22778,1,0,0:0:0:0:
195,138,22859,5,8,0:2:0:0:
243,103,22940,1,0,0:0:0:0:
301,114,23021,1,0,0:0:0:0:
335,162,23102,1,0,0:0:0:0:
320,246,23183,6,0,B|316:261|316:261|300:259|303:242|303:242|305:226|322:229|322:229|338:231|335:248|335:248|333:264|316:261|316:261|320:246,1,137.5,8|0,0:0|0:0,0:0:0:0:
265,283,23264,1,0,0:0:0:0:
200,271,23345,1,0,0:0:0:0:
162,218,23426,1,0,0:0:0:0:
72,203,23507,5,8,0:2:0:0:
12,245,23588,1,0,0:0:0:0:
0,317,23669,1,0,0:0:0:0:
41,377,23750,1,0,0:0:0:0:
139,359,23832,70,0,P|165:360|190:349,1,55,8|0,1:1|0:0,0:0:0:0:
221,265,24156,6,0,P|209:240|187:225,1,55,8|0,1:1|0:0,0:0:0:0:
98,241,24480,6,0,P|83:263|80:289,1,55,8|0,1:1|0:0,0:0:0:0:
165,369,24805,6,0,B|168:381|168:381|180:379|178:365|178:365|176:353|162:355|162:355|150:357|152:371|152:371|154:383|168:381|168:381|165:369,1,110,14|0,1:1|0:0,0:0:0:0:
227,308,24886,70,0,B|239:309|239:309|241:296|228:294|228:294|215:292|213:306|213:306|211:318|225:320|225:320|237:322|239:309|239:309|227:308,1,110,8|0,1:1|0:0,0:0:0:0:
186,225,24967,6,0,B|191:213|191:213|180:207|174:219|174:219|168:230|180:236|180:236|191:242|197:230|197:230|203:219|191:213|191:213|186:225,1,110,8|0,1:1|0:0,0:0:0:0:
98,241,25048,6,0,B|88:232|88:232|79:241|89:250|89:250|98:259|107:249|107:249|116:240|106:231|106:231|97:222|88:232|88:232|98:241,1,110,8|0,1:1|0:0,0:0:0:0:
86,329,25129,6,0,B|68:354|68:354|154:339|154:339|174:324|174:324|261:309|261:309|243:334,1,263.99999194336,10|2,0:0|1:3,0:0:0:0:
403,352,25372,1,0,1:0:0:0:
381,366,25453,2,0,B|353:385|353:385|372:275,1,131.99999597168,10|0,0:0|1:0,0:0:0:0:
270,144,25615,70,0,B|280:159|280:159|372:175|372:175|383:191,1,131.99999597168,2|0,1:3|1:0,0:0:0:0:
497,368,25777,1,10,0:0:0:0:
384,192,25940,5,2,1:3:0:0:
358,123,26021,1,2,1:3:0:0:
405,67,26102,2,0,B|432:65|452:33|452:33|459:69|485:81,1,121.000003692627,10|0,0:0|1:0,0:0:0:0:
337,248,26264,2,0,B|309:249|289:281|289:281|282:245|256:233,1,121.000003692627,2|0,1:3|1:0,0:0:0:0:
194,54,26426,6,0,B|154:47|131:83|140:125|180:132|180:132|211:138|211:138|220:135|220:135|275:145,1,220,10|2,0:0|1:3,0:0:0:0:
316,18,26669,1,0,1:0:0:0:
338,14,26750,2,0,L|357:124,1,110,10|0,0:0|1:0,0:0:0:0:
256,233,26913,2,0,B|208:224|208:224|198:216|198:216|150:208,1,110,2|0,1:3|1:0,0:0:0:0:
16,85,27075,6,0,B|46:62|45:11|45:11|62:59|98:70,1,165,10|0,0:0|0:0,0:0:0:0:
194,54,27399,70,0,P|222:98|211:150,1,110,10|0,0:0|1:0,0:0:0:0:
74,271,27561,2,0,P|98:223|149:207,1,110,2|0,1:3|1:0,0:0:0:0:
407,339,27723,6,0,B|416:306|443:286|443:286|354:302|354:302|341:312|341:312|251:328,1,263.99999194336,10|2,0:0|1:3,0:0:0:0:
93,379,27967,1,0,1:0:0:0:
119,384,28048,2,0,B|156:358|156:358|172:263,1,131.99999597168,10|0,0:0|1:0,0:0:0:0:
309,157,28210,6,0,B|320:221|320:221|256:233,1,131.99999597168,2|0,1:3|1:0,0:0:0:0:
55,163,28372,1,10,0:0:0:0:
194,54,28534,5,2,1:3:0:0:
240,109,28615,1,2,1:3:0:0:
215,176,28696,2,0,B|171:183|171:183|153:209|153:209|109:217,1,121.000003692627,10|0,0:0|1:0,0:0:0:0:
16,44,28859,2,0,B|25:57|25:57|109:72|109:72|119:87,1,121.000003692627,2|0,1:3|1:0,0:0:0:0:
196,278,29021,70,0,B|213:253|213:253|283:240|283:240|298:245|298:245|369:232|369:232|386:208,1,220,10|2,0:0|1:3,0:0:0:0:
443,98,29264,1,0,1:0:0:0:
465,94,29345,2,0,B|497:137|497:137|481:190,1,110,10|0,0:0|1:0,0:0:0:0:
406,315,29507,2,0,L|386:206,1,110,2|0,1:3|1:0,0:0:0:0:
240,109,29669,6,0,B|280:116|280:116|293:125|293:125|333:132,1,98.9999969787599,10|0,0:0|1:0,0:0:0:0:
480,190,29832,2,0,L|499:300,1,98.9999969787599,2|0,1:3|1:0,0:0:0:0:
271,356,29994,5,10,0:0:0:0:
205,344,30075,5,0,0:0:0:0:
196,278,30156,69,2,0:0:0:0:
255,249,30237,5,0,0:0:0:0:
301,297,30318,6,0,B|277:328|277:328|202:342|202:342|189:351|189:351|174:347|174:347|99:360|99:360|66:337,1,263.99999194336,10|2,0:0|1:3,0:0:0:0:
10,187,30561,1,0,1:0:0:0:
14,213,30643,2,0,B|66:203|66:203|84:187|84:187|136:177,1,131.99999597168,10|0,0:0|1:0,0:0:0:0:
246,37,30805,6,0,B|285:89|285:89|266:152,1,131.99999597168,2|0,0:0|1:0,0:0:0:0:
122,255,30967,1,10,0:0:0:0:
36,36,31129,69,10,0:0:0:0:
103,11,31210,1,10,0:0:0:0:
159,57,31291,2,0,L|136:183,1,121.000003692627,10|0,0:0|1:0,0:0:0:0:
61,366,31453,2,0,B|88:364|108:332|108:332|115:368|141:380,1,121.000003692627,2|0,1:3|1:0,0:0:0:0:
261,229,31615,6,0,B|301:222|324:258|315:300|275:307|275:307|244:313|244:313|235:310|235:310|180:320,1,220,10|2,0:0|1:3,0:0:0:0:
41,293,31859,1,0,1:0:0:0:
19,289,31940,2,0,P|3:238|35:196,1,110,10|0,0:0|1:0,0:0:0:0:
225,145,32102,2,0,P|188:183|136:177,1,110,2|0,1:3|1:0,0:0:0:0:
36,36,32264,6,0,B|55:8|55:8|66:72,1,98.9999969787599,10|0,0:0|1:0,0:0:0:0:
166,214,32426,2,0,B|146:241|146:241|135:177,1,98.9999969787599,2|0,1:3|1:0,0:0:0:0:
244,36,32588,2,0,L|224:144,1,110,10|0,0:0|1:0,0:0:0:0:
41,293,32750,5,10,0:0:0:0:
11,259,32832,1,0,1:0:0:0:
27,218,32913,2,0,B|114:202|114:202|166:238|166:238|254:223,1,242.000007385254,10|2,0:0|1:3,0:0:0:0:
360,150,33156,1,0,1:0:0:0:
383,145,33237,2,0,B|418:193|418:193|401:250,1,121.000003692627,10|0,0:0|1:0,0:0:0:0:
234,341,33399,70,0,L|256:214,1,121.000003692627,2|0,1:3|1:0,0:0:0:0:
145,94,33561,1,10,0:0:0:0:
27,218,33723,5,2,1:3:0:0:
60,182,33805,1,2,1:3:0:0:
108,176,33886,1,10,0:0:0:0:
162,202,33967,1,2,1:3:0:0:
176,261,34048,1,2,1:3:0:0:
240,295,34129,1,2,1:3:0:0:
306,265,34210,6,0,P|324:204|286:153,1,131.99999597168,10|0,1:3|1:0,0:0:0:0:
145,94,34372,2,0,B|155:79|155:79|247:63|247:63|258:47,1,131.99999597168,2|0,1:3|1:0,0:0:0:0:
512,0,34534,5,2,1:3:0:0:
488,130,34696,1,2,1:3:0:0:
512,0,34859,1,2,1:3:0:0:
21,384,35183,70,0,B|2:376|-10:359|-10:359|-14:362|-14:362|-10:359|-10:359|-19:348|-25:335|-27:321|-27:321|-23:321|-23:321|-27:321|-27:321|-29:307|-28:293|-22:281|-22:281|-27:279|-27:279|-22:281|-22:281|-17:266|-9:255|1:247|1:247|3:250|3:250|1:247|1:247|12:237|25:231|38:229|38:229|38:225|38:225|38:229|38:229|52:226|66:228|80:232|80:232|78:236|78:236|80:232|80:232|93:237|105:245|114:256|114:256|117:253|117:253|114:256|114:256|123:267|129:279|132:292|132:292|128:294|128:294|132:292|132:292|135:307|134:321|129:335|129:335|134:335|134:335|129:335|129:335|123:353|109:367,1,495.000018882752,4|0,0:0|0:0,0:0:0:0:
53,309,35507,6,0,B|41:244|41:244|50:212|50:212|39:148,1,165,12|0,0:0|0:0,0:0:0:0:
25,65,35832,1,8,0:2:0:0:
176,0,35994,1,2,1:3:0:0:
118,154,36156,1,10,0:0:0:0:
281,128,36318,2,0,P|312:85|297:35,1,110,2|8,1:3|0:2,0:0:0:0:
460,60,36642,2,0,P|439:11|387:0,1,110,2|8,1:3|0:0,0:0:0:0:
281,128,36967,6,0,L|391:147,1,110,2|8,1:3|0:2,0:0:0:0:
512,258,37291,1,2,1:3:0:0:
350,287,37453,1,8,0:0:0:0:
483,163,37615,1,10,0:0:0:0:
441,328,37777,1,8,0:2:0:0:
389,147,37940,5,2,1:3:0:0:
389,147,38021,1,2,1:3:0:0:
389,147,38102,2,0,B|329:157|329:157|304:192|304:192|245:202,1,165,10|0,0:0|0:0,0:0:0:0:
163,186,38426,1,8,0:2:0:0:
272,301,38588,1,2,1:3:0:0:
117,337,38750,1,10,0:0:0:0:
243,202,38913,2,0,P|257:150|226:109,1,110,2|8,1:3|0:2,0:0:0:0:
35,61,39237,2,0,P|73:99|124:93,1,110,2|8,1:3|0:0,0:0:0:0:
244,0,39561,70,0,L|220:137,1,110,2|8,1:3|0:2,0:0:0:0:
196,272,39886,1,2,1:3:0:0:
70,172,40048,1,8,0:0:0:0:
243,202,40210,1,10,0:0:0:0:
91,254,40372,1,8,0:2:0:0:
125,92,40534,5,2,1:3:0:0:
125,92,40615,1,2,1:3:0:0:
125,92,40696,2,0,B|185:102|185:102|210:137|210:137|269:147,1,165,10|0,0:0|0:0,0:0:0:0:
345,111,41021,2,0,P|359:162|328:203,1,110,8|0,0:2|1:0,0:0:0:0:
158,223,41345,2,0,P|191:152|270:147,1,165,8|0,0:0|0:0,0:0:0:0:
345,111,41669,2,0,L|364:2,1,110,8|0,0:2|1:0,0:0:0:0:
490,137,41994,6,0,B|450:149|450:149|384:100|384:100|344:111,1,165,8|0,0:0|0:0,0:0:0:0:
269,146,42318,2,0,P|236:187|250:238,1,110,8|0,0:2|1:0,0:0:0:0:
407,255,42642,1,8,0:0:0:0:
344,110,42805,1,10,0:0:0:0:
313,283,42967,1,10,0:2:0:0:
422,168,43129,5,2,1:3:0:0:
422,168,43210,1,2,1:3:0:0:
422,168,43291,2,0,P|490:204|488:282,1,165,10|0,0:0|0:0,0:0:0:0:
435,349,43615,2,0,L|310:370,1,110,8|0,0:2|1:0,0:0:0:0:
221,266,43940,70,0,B|195:303|195:303|313:283,1,165,8|0,0:0|0:0,0:0:0:0:
360,215,44264,2,0,L|339:97,1,110,8|0,0:2|1:0,0:0:0:0:
192,22,44588,6,0,B|204:87|204:87|195:119|195:119|206:183,1,165,8|0,0:0|0:0,0:0:0:0:
221,266,44913,2,0,P|180:299|129:285,1,110,8|0,0:2|1:0,0:0:0:0:
47,141,45237,1,8,0:0:0:0:
206,183,45399,1,8,0:0:0:0:
65,322,45561,1,8,0:2:0:0:
192,22,45886,6,0,B|254:33|254:33|280:69|280:69|343:81,1,173.24999471283,12|0,0:0|0:0,0:0:0:0:
429,65,46210,1,8,0:2:0:0:
367,227,46372,1,2,2:0:0:0:
512,143,46534,1,8,0:0:0:0:
344,81,46696,2,0,P|303:118|309:174,1,115.49999647522,2|8,2:0|0:2,0:0:0:0:
387,340,47021,2,0,L|367:227,1,115.49999647522,2|8,2:0|0:0,0:0:0:0:
512,143,47345,6,0,P|458:127|414:161,1,115.49999647522,2|8,2:0|0:2,0:0:0:0:
387,340,47669,1,2,2:0:0:0:
308,173,47832,1,8,0:0:0:0:
466,244,47994,1,10,2:3:0:0:
289,284,48156,1,8,0:2:0:0:
414,161,48318,69,2,2:0:0:0:
414,161,48399,1,2,1:3:0:0:
414,161,48480,2,0,P|382:85|300:81,1,173.24999471283,10|0,0:0|0:0,0:0:0:0:
230,135,48805,1,8,0:2:0:0:
289,284,48967,1,2,2:0:0:0:
142,221,49129,1,8,0:0:0:0:
308,173,49291,2,0,P|325:120|291:74,1,115.49999647522,2|8,2:0|0:2,0:0:0:0:
131,8,49615,2,0,L|153:133,1,115.49999647522,2|8,2:0|0:0,0:0:0:0:
28,241,49940,6,0,L|50:115,1,115.49999647522,2|8,2:0|0:2,0:0:0:0:
131,8,50264,1,2,2:0:0:0:
230,135,50426,1,8,0:0:0:0:
48,127,50588,1,10,2:3:0:0:
214,41,50750,1,8,0:2:0:0:
142,221,50913,5,2,2:0:0:0:
142,221,50994,1,2,1:3:0:0:
142,221,51075,1,10,0:0:0:0:
322,293,51237,1,0,2:0:0:0:
230,135,51399,2,0,P|213:188|247:234,1,115.49999647522,8|0,0:2|2:0,0:0:0:0:
415,263,51723,1,8,0:0:0:0:
308,101,51886,1,0,2:0:0:0:
322,293,52048,2,0,L|344:163,1,115.49999647522,8|0,0:2|2:0,0:0:0:0:
375,0,52372,5,8,0:0:0:0:
493,130,52534,1,0,2:0:0:0:
308,101,52696,2,0,L|439:77,1,115.49999647522,8|0,0:2|2:0,0:0:0:0:
508,233,53021,1,8,0:0:0:0:
336,215,53183,1,10,2:3:0:0:
493,130,53345,1,10,0:2:0:0:
415,290,53507,69,2,2:0:0:0:
415,290,53588,1,2,1:3:0:0:
415,290,53669,1,10,0:0:0:0:
405,118,53832,2,0,P|361:84|308:101,1,115.49999647522,2|8,2:0|0:2,0:0:0:0:
197,241,54156,2,0,P|248:219|260:165,1,115.49999647522,2|8,2:0|0:0,0:0:0:0:
158,20,54480,1,0,2:0:0:0:
86,195,54642,1,8,0:2:0:0:
228,89,54805,1,0,2:0:0:0:
55,95,54967,5,8,0:0:0:0:
213,165,55129,1,0,2:0:0:0:
106,308,55291,2,0,L|85:194,1,115.49999647522,8|0,0:2|2:0,0:0:0:0:
158,20,55615,1,8,0:0:0:0:
299,149,55777,1,8,0:2:0:0:
344,140,55859,1,8,0:2:0:0:
389,132,55939,1,8,0:2:0:0:
512,0,56102,1,8,0:2:0:0:
507,204,56264,6,0,B|439:191|507:202|439:193|506:205|439:192|439:192|411:151|439:191|411:153|439:193|411:152|411:152|344:139|411:151|343:141|411:153|344:140,1,189.750003619194,12|0,0:0|0:0,0:0:0:0:
250,155,56588,1,8,0:2:0:0:
371,297,56750,1,2,2:0:0:0:
187,246,56913,1,8,0:0:0:0:
343,139,57075,2,0,B|359:79|342:139|361:79|343:138|360:79|360:79|322:29|359:79|324:29|361:79|323:29,1,126.500002412796,2|8,2:0|0:2,0:0:0:0:
164,140,57399,2,0,B|40:119|163:140|41:117|164:139|40:118,1,126.500002412796,2|8,2:0|0:0,0:0:0:0:
18,306,57723,6,0,B|-17:255|18:305|-19:255|17:305|-18:255|-18:255|0:195|-17:255|-1:196|-19:255|0:195,1,126.500002412796,2|8,2:0|0:2,0:0:0:0:
164,140,58048,1,2,2:0:0:0:
97,293,58210,1,8,0:0:0:0:
40,118,58372,1,10,2:3:0:0:
187,246,58534,1,8,0:2:0:0:
146,56,58696,69,2,2:0:0:0:
146,56,58777,1,2,1:3:0:0:
146,56,58859,2,0,B|214:69|146:58|214:67|147:55|214:68|214:68|242:109|214:69|242:107|214:67|242:108|242:108|309:121|242:109|310:119|242:107|309:120,1,189.750003619194,10|0,0:0|0:0,0:0:0:0:
403,104,59183,1,8,0:2:0:0:
308,268,59345,1,2,2:0:0:0:
473,174,59507,1,8,0:0:0:0:
420,361,59669,2,0,B|384:310|420:360|382:310|419:360|383:310|383:310|402:250|384:310|400:251|382:310|401:250,1,126.500002412796,2|8,2:0|0:2,0:0:0:0:
215,200,59994,2,0,B|339:179|216:200|338:177|215:199|339:178,1,126.500002412796,2|8,2:0|0:0,0:0:0:0:
493,63,60318,6,0,B|509:123|492:63|511:123|493:64|510:123|510:123|472:173|509:123|474:173|511:123|473:173,1,126.500002412796,2|8,2:0|0:2,0:0:0:0:
304,87,60642,1,2,2:0:0:0:
444,0,60805,1,8,0:0:0:0:
394,187,60967,1,10,2:3:0:0:
291,9,61129,1,8,0:2:0:0:
444,126,61291,5,2,2:0:0:0:
444,126,61372,1,2,1:3:0:0:
444,126,61453,1,10,0:0:0:0:
290,244,61615,1,0,2:0:0:0:
372,63,61777,2,0,B|393:187|372:64|395:186|373:63|394:187,1,126.500002412796,8|0,0:2|2:0,0:0:0:0:
310,358,62102,1,8,0:0:0:0:
240,172,62264,1,0,2:0:0:0:
414,266,62426,2,0,B|290:245|413:266|291:242|413:264|290:243,1,126.500002412796,8|0,0:2|2:0,0:0:0:0:
113,325,62750,5,8,0:0:0:0:
310,358,62913,1,0,2:0:0:0:
240,172,63075,2,0,B|204:222|240:172|202:222|239:172|203:222|203:222|222:282|204:222|220:281|202:222|221:282,1,126.500002412796,8|0,0:2|2:0,0:0:0:0:
408,363,63399,1,8,0:0:0:0:
322,162,63561,1,10,2:3:0:0:
212,353,63723,1,10,0:2:0:0:
145,156,63886,69,2,2:0:0:0:
145,156,63967,1,2,1:3:0:0:
145,156,64048,1,10,0:0:0:0:
306,248,64210,1,0,2:0:0:0:
113,325,64372,2,0,B|77:275|113:325|75:275|112:325|76:275|76:275|95:215|77:275|93:216|75:275|94:215,1,126.500002412796,8|0,0:2|2:0,0:0:0:0:
236,70,64696,1,8,0:0:0:0:
199,253,64859,1,0,2:0:0:0:
21,133,65021,2,0,B|145:154|22:133|144:157|22:135|145:156,1,126.500002412796,8|0,0:2|2:0,0:0:0:0:
319,80,65345,5,8,0:0:0:0:
199,253,65507,1,0,2:0:0:0:
413,243,65669,2,0,B|449:193|413:243|451:193|414:243|450:193|450:193|431:133|449:193|433:134|451:193|432:133,1,126.500002412796,8|0,0:2|2:0,0:0:0:0:
291,5,65994,1,8,0:0:0:0:
301,196,66156,1,8,2:3:0:0:
447,46,66318,1,8,0:2:0:0:
319,80,66480,1,0,2:0:0:0:
413,243,66642,6,0,B|342:256|413:245|342:254|411:241|342:255|342:255|312:298|342:256|312:296|342:254|312:297|312:297|242:310|312:298|241:308|312:296|242:309,1,197.99999395752,12|0,0:0|0:0,0:0:0:0:
144,292,66967,1,8,0:2:0:0:
225,115,67129,1,2,2:0:0:0:
70,206,67291,1,2,1:3:0:0:
301,196,67453,2,0,B|338:144|301:196|340:144|302:196|339:144|339:144|319:81|338:144|321:82|340:144|320:81,1,131.99999597168,2|8,2:0|0:2,0:0:0:0:
139,0,67777,1,2,2:0:0:0:
70,206,68102,6,0,B|197:227|71:206|196:230|71:208|197:229,1,131.99999597168,2|8,2:0|0:2,0:0:0:0:
319,80,68426,1,2,2:0:0:0:
278,301,68750,69,2,2:0:0:0:
459,219,68913,1,8,0:2:0:0:
319,80,69075,5,2,2:0:0:0:
319,80,69156,1,2,1:3:0:0:
319,80,69237,2,0,B|248:93|319:82|248:91|317:78|248:92|248:92|218:135|248:93|218:133|248:91|218:134|218:134|148:147|218:135|147:145|218:133|148:146,1,197.99999395752,2|0,1:3|0:0,0:0:0:0:
50,129,69561,1,8,0:2:0:0:
114,316,69723,1,2,2:0:0:0:
218,132,69886,1,2,1:3:0:0:
28,243,70048,2,0,B|11:181|28:243|9:180|27:242|10:181|10:181|50:128|11:181|48:129|9:180|49:128,1,131.99999597168,2|8,2:0|0:2,0:0:0:0:
224,19,70372,1,2,2:0:0:0:
135,206,70696,6,0,B|262:227|136:206|261:230|136:208|262:229,1,131.99999597168,2|8,2:0|0:2,0:0:0:0:
390,384,71021,1,2,2:0:0:0:
512,197,71345,5,2,2:0:0:0:
326,306,71507,1,8,0:2:0:0:
372,105,71669,69,2,2:0:0:0:
372,105,71750,1,2,1:3:0:0:
372,105,71832,1,2,1:3:0:0:
450,290,71994,1,2,2:0:0:0:
276,150,72156,2,0,B|259:88|276:150|257:87|275:149|258:88|258:88|298:35|259:88|296:36|257:87|297:35,1,131.99999597168,10|2,0:2|2:0,0:0:0:0:
512,197,72642,5,2,2:0:0:0:
426,11,72805,2,0,B|298:32|424:11|299:35|424:13|298:34,1,131.99999597168,10|2,0:2|2:0,0:0:0:0:
181,166,73129,5,2,1:3:0:0:
181,166,73210,1,2,1:3:0:0:
181,166,73291,2,0,B|193:102|181:166|191:102|180:165|192:102,1,65.9999979858399,2|2,2:0|1:3,0:0:0:0:
340,26,73453,5,10,0:2:0:0:
355,47,73534,1,2,1:3:0:0:
363,72,73615,1,2,2:0:0:0:
364,98,73696,1,2,1:3:0:0:
357,123,73777,1,2,1:3:0:0:
343,145,73858,1,2,1:3:0:0:
322,162,73940,70,0,B|258:149|322:161|258:151|321:162|258:150,1,65.9999979858399,2|2,2:0|1:3,0:0:0:0:
115,0,74102,2,0,B|127:63|115:0|125:63|114:0|126:63,1,65.9999979858399,10|2,0:2|1:3,0:0:0:0:
89,232,74264,5,2,2:0:0:0:
121,255,74345,1,2,1:3:0:0:
160,258,74426,1,2,1:3:0:0:
196,242,74507,1,2,1:3:0:0:
220,209,74588,6,0,B|207:145|219:209|209:145|220:208|208:145,3,65.9999979858399,2|2|10|2,2:0|1:3|0:2|1:3,0:0:0:0:
275,14,74913,5,2,2:0:0:0:
313,19,74994,1,2,1:3:0:0:
346,41,75075,1,2,1:3:0:0:
365,75,75156,1,2,1:3:0:0:
368,114,75237,1,2,2:0:0:0:
352,151,75318,1,2,1:3:0:0:
325,179,75399,69,10,0:2:0:0:
310,215,75480,1,2,1:3:0:0:
313,254,75561,1,2,2:0:0:0:
333,288,75642,1,2,1:3:0:0:
366,309,75723,1,2,1:3:0:0:
405,314,75805,1,2,1:3:0:0:
442,301,75886,1,2,2:0:0:0:
469,273,75966,1,2,1:3:0:0:
481,236,76048,5,10,1:2:0:0:
476,197,76128,1,2,1:3:0:0:
453,164,76209,1,2,2:0:0:0:
419,145,76291,1,2,1:3:0:0:
380,141,76372,2,0,B|317:153|380:141|317:151|380:140|317:152,1,65.9999979858399,2|2,1:3|1:3,0:0:0:0:
203,310,76534,5,10,0:2:0:0:
151,322,76615,1,10,0:2:0:0:
107,294,76696,2,0,B|95:230|107:294|97:231|108:294|96:231,1,65.9999979858399,10|2,0:2|1:3,0:0:0:0:
139,0,76859,5,10,0:2:0:0:
139,0,77021,6,0,L|154:86,1,88,6|0,1:3|0:0,0:0:0:0:
169,173,77345,1,2,1:3:0:0:
261,204,77507,1,2,1:3:0:0:
330,124,77669,1,2,1:3:0:0:
268,27,77832,1,2,1:3:0:0:
23,74,78156,5,2,1:3:0:0:
23,74,79615,102,0,L|38:160,1,88,2|0,1:3|0:0,0:0:0:0:
53,247,79939,1,2,1:3:0:0:
143,211,80102,1,2,1:3:0:0:
217,286,80264,1,2,1:3:0:0:
158,384,80426,1,2,1:3:0:0:
38,160,80750,5,2,1:3:0:0:
38,160,82210,102,0,B|68:165|68:165|73:162|73:162|77:167|77:167|107:172|107:172|136:213|136:213|166:218|166:218|169:223|169:223|174:220|174:220|205:225,1,197.99999395752,8|0,0:0|0:0,0:0:0:0:
296,307,82453,5,0,0:0:0:0:
315,303,82534,2,0,B|307:259|307:259|311:254|311:254|306:251|306:251|291:165|291:165|286:162|286:162|289:157|289:157|282:114,1,197.99999395752,8|0,0:0|0:0,0:0:0:0:
246,19,82777,5,0,0:0:0:0:
227,13,82859,2,0,B|212:9|196:14|196:14|193:11|193:11|193:15|193:15|174:21|161:35|154:53|154:53|150:53|150:53|153:56|153:56|147:74|150:94|160:109|160:109|158:112|158:112|162:111|162:111|170:124|185:132,1,197.99999395752,8|0,0:0|0:0,0:0:0:0:
336,53,83102,5,0,0:0:0:0:
355,50,83183,2,0,B|363:93|363:93|368:97|368:97|364:101|364:101|380:187|380:187|376:192|376:192|381:195|381:195|389:237,1,197.99999395752,8|0,0:0|0:0,0:0:0:0:
395,353,83426,69,0,0:0:0:0:
414,356,83507,2,0,B|454:327|454:327|423:321|423:321|420:317|420:317|416:320|416:320|354:309|354:309|351:305|351:305|347:308|347:308|315:302,1,197.99999395752,8|0,0:0|0:0,0:0:0:0:
222,350,83750,5,0,0:0:0:0:
202,353,83832,2,0,B|179:337|179:337|149:342|149:342|145:339|145:339|142:343|142:343|83:354|83:354|80:357|80:357|76:355|76:355|46:360|46:360|23:344,1,197.99999395752,8|0,0:0|0:0,0:0:0:0:
0,196,84075,5,0,0:0:0:0:
17,186,84156,2,0,B|33:176|53:174|53:174|54:170|54:170|57:174|57:174|73:173|89:179|102:186|102:186|105:184|105:184|105:189|105:189|118:199|128:212|132:227|132:227|136:228|136:228|133:230|133:230|138:249|134:269,1,197.99999395752,8|0,0:0|0:0,0:0:0:0:
202,353,84399,5,0,0:0:0:0:
222,350,84480,2,0,B|256:326|256:326|262:293|262:293|267:290|267:290|264:286|264:286|275:220|275:220|272:215|272:215|277:212|277:212|282:179,1,197.99999395752,8|0,0:0|0:0,0:0:0:0:
424,107,84723,69,0,0:0:0:0:
421,126,84805,2,0,B|399:137|376:133|376:133|374:137|374:137|373:132|373:132|351:128|335:109|335:109|321:91|299:86|299:86|298:82|298:82|296:86|296:86|272:83|252:94,1,197.99999395752,8|0,0:0|0:0,0:0:0:0:
135,152,85048,5,0,0:0:0:0:
138,171,85129,2,0,B|178:198|178:198|173:167|173:167|176:163|176:163|172:160|172:160|161:98|161:98|164:94|164:94|160:91|160:91|154:59,1,197.99999395752,8|0,0:0|0:0,0:0:0:0:
35,0,85372,5,0,0:0:0:0:
16,3,85453,2,0,B|23:46|23:46|19:51|19:51|24:54|24:54|39:140|39:140|44:143|44:143|41:148|41:148|48:190,1,197.99999395752,8|0,0:0|0:0,0:0:0:0:
4,311,85696,5,0,0:0:0:0:
0,330,85777,2,0,B|28:334|28:334|31:339|31:339|36:336|36:336|64:341|64:341|105:298|105:298|133:303|133:303|138:300|138:300|141:305|141:305|170:310,1,197.99999395752,8|0,0:0|0:0,0:0:0:0:
313,363,86021,69,0,0:0:0:0:
293,366,86102,2,0,B|251:347|251:347|247:326|247:326|243:323|243:323|246:319|246:319|238:276|238:276|235:273|235:273|237:270|237:270|233:248|233:248|266:217,1,197.99999395752,8|0,0:0|0:0,0:0:0:0:
413,190,86345,5,0,0:0:0:0:
433,187,86426,2,0,B|474:205|474:205|478:226|478:226|482:229|482:229|479:233|479:233|487:276|487:276|490:279|490:279|488:282|488:282|492:304|492:304|459:335,1,197.99999395752,8|0,0:0|0:0,0:0:0:0:
313,363,86669,5,0,0:0:0:0:
293,366,86750,2,0,B|284:323|284:323|279:319|279:319|283:315|283:315|267:229|267:229|271:224|271:224|266:221|266:221|259:179,1,197.99999395752,8|0,0:0|0:0,0:0:0:0:
260,20,86994,5,0,0:0:0:0:
279,23,87075,2,0,B|328:32|328:32|319:80,1,98.9999969787599,8|0,0:0|0:0,0:0:0:0:
472,244,87237,2,0,B|423:235|423:235|432:187,1,98.9999969787599,8|0,0:0|0:0,0:0:0:0:
512,18,87399,70,0,B|473:24|473:24|468:21|468:21|466:26|466:26|427:32|427:32|403:66|403:66|364:73|364:73|361:77|361:77|357:74|357:74|318:81,1,220,8|0,0:0|0:0,0:0:0:0:
200,164,87642,5,0,0:0:0:0:
222,168,87723,2,0,B|228:130|228:130|232:127|232:127|229:124|229:124|242:49|242:49|246:46|246:46|244:42|244:42|250:5|250:5|210:33,1,220,8|0,0:0|0:0,0:0:0:0:
53,38,87967,5,0,0:0:0:0:
31,41,88048,2,0,B|1:46|-15:85|13:117|43:112|43:112|46:114|46:114|49:110|49:110|79:105|79:105|108:100|108:100|112:102|112:102|114:99|114:99|144:94,1,220,8|0,0:0|0:0,0:0:0:0:
194,240,88291,5,0,0:0:0:0:
216,237,88372,2,0,B|245:231|262:192|233:160|203:165|203:165|200:163|200:163|197:167|197:167|167:172|167:172|138:177|138:177|134:175|134:175|132:178|132:178|102:183,1,220,8|0,0:0|0:0,0:0:0:0:
3,300,88615,69,0,0:0:0:0:
0,322,88696,2,0,B|39:328|39:328|44:325|44:325|46:330|46:330|85:336|85:336|109:370|109:370|148:377|148:377|151:381|151:381|155:378|155:378|194:385,1,220,8|0,0:0|0:0,0:0:0:0:
338,339,88940,5,0,0:0:0:0:
359,335,89021,2,0,B|377:309|377:309|371:275|371:275|374:271|374:271|370:268|370:268|358:202|358:202|354:199|354:199|357:194|357:194|351:161|351:161|369:135,1,220,8|0,0:0|0:0,0:0:0:0:
435,8,89264,5,0,0:0:0:0:
456,3,89345,2,0,B|464:46|464:46|468:49|468:49|465:54|465:54|481:142|481:142|477:148|477:148|482:150|482:150|493:211,1,220,8|0,0:0|0:0,0:0:0:0:
471,372,89588,5,0,0:0:0:0:
484,353,89669,2,0,B|515:307|515:307|480:312|480:312|475:310|475:310|472:314|472:314|403:327|403:327|398:323|398:323|395:327|395:327|360:334,1,220,8|0,0:0|0:0,0:0:0:0:
193,384,89913,69,0,0:0:0:0:
185,364,89994,2,0,B|176:346|177:327|177:327|173:325|173:325|177:323|177:323|179:303|188:287|202:274|202:274|201:270|201:270|204:272|204:272|220:260|239:255|256:257|256:257|259:253|259:253|260:257|260:257|279:260|294:272,1,214.500000818253,8|0,0:0|0:0,0:0:0:0:
419,205,90237,5,0,0:0:0:0:
416,226,90318,2,0,B|394:238|369:230|369:230|366:233|366:233|366:229|366:229|343:219|334:196|334:196|324:172|300:162|300:162|300:158|300:158|296:161|296:161|273:154|251:167,1,208.999994419098,8|0,0:0|0:0,0:0:0:0:
131,231,90561,5,0,0:0:0:0:
110,234,90642,2,0,B|72:217|72:217|67:191|67:191|64:189|64:189|66:186|66:186|57:135|57:135|54:132|54:132|56:129|56:129|52:104|52:104|82:75,1,203.499999223709,8|0,0:0|0:0,0:0:0:0:
200,0,90886,5,0,0:0:0:0:
219,3,90967,2,0,B|251:8|251:8|256:5|256:5|259:10|259:10|292:15|292:15|316:50|316:50|349:56|349:56|352:60|352:60|356:57|356:57|389:63,1,197.99999395752,8|0,0:0|0:0,0:0:0:0:
487,159,91210,69,0,0:0:0:0:
483,177,91291,2,0,B|440:169|440:169|436:172|436:172|433:168|433:168|348:153|348:153|346:149|346:149|342:152|342:152|299:144,1,192.500001835823,8|0,0:0|0:0,0:0:0:0:
161,136,91534,5,0,0:0:0:0:
173,122,91615,2,0,B|200:83|200:83|205:112|205:112|209:115|209:115|206:119|206:119|216:178|216:178|220:181|220:181|218:185|218:185|223:214,1,187.000003566742,8|0,0:0|0:0,0:0:0:0:
358,220,91859,5,0,0:0:0:0:
347,235,91940,2,0,B|320:272|320:272|315:243|315:243|311:241|311:241|314:237|314:237|304:180|304:180|300:177|300:177|303:173|303:173|298:145,1,181.500001730919,8|0,0:0|0:0,0:0:0:0:
389,42,92183,5,0,0:0:0:0:
406,38,92264,2,0,B|412:76|412:76|416:79|416:79|413:83|413:83|427:159|427:159|424:163|424:163|428:166|428:166|435:204,1,176,8|0,0:0|0:0,0:0:0:0:
478,325,92507,69,0,0:0:0:0:
474,346,92588,2,0,P|422:357|377:328,1,110,10|0,0:0|1:3,0:0:0:0:
297,144,92750,5,10,0:2:0:0:
239,177,92832,1,2,0:0:0:0:
197,164,92913,1,10,0:0:0:0:
188,122,92994,1,2,1:3:0:0:
123,111,93075,2,0,P|78:139|67:192,1,110,10|0,0:2|0:0,0:0:0:0:
204,372,93237,6,0,L|224:264,1,110,14|0,0:0|1:3,0:0:0:0:
313,58,93399,5,10,0:2:0:0:
353,77,93480,1,2,0:0:0:0:
406,62,93561,1,10,0:0:0:0:
453,108,93642,1,2,1:3:0:0:
441,150,93723,2,0,P|396:178|343:166,1,110,10|0,0:2|0:0,0:0:0:0:
161,256,93886,70,0,P|159:203|196:163,1,110,10|0,0:0|1:3,0:0:0:0:
225,0,94048,2,0,L|246:122,1,110,10|0,0:2|0:0,0:0:0:0:
326,301,94210,5,10,0:0:0:0:
363,261,94291,1,2,1:3:0:0:
356,218,94372,2,0,P|311:190|258:202,1,110,10|0,0:2|0:0,0:0:0:0:
81,353,94534,5,14,0:0:0:0:
65,312,94615,1,2,1:3:0:0:
97,267,94696,1,10,0:2:0:0:
161,256,94777,1,2,0:0:0:0:
170,201,94859,2,0,P|171:148|134:108,1,110,10|0,0:0|1:3,0:0:0:0:
0,7,95021,5,8,0:2:0:0:
21,10,95102,1,0,0:0:0:0:
43,14,95183,70,0,L|155:33,1,110,10|0,0:0|1:3,0:0:0:0:
332,7,95345,2,0,P|285:31|269:83,1,110,10|0,0:2|0:0,0:0:0:0:
268,236,95507,5,10,0:0:0:0:
306,196,95588,1,2,1:3:0:0:
356,218,95669,2,0,P|407:229|453:200,1,110,10|0,0:2|0:0,0:0:0:0:
510,30,95832,5,14,0:0:0:0:
474,56,95913,1,2,1:3:0:0:
422,38,95994,2,0,P|386:76|389:131,1,110,10|0,0:2|0:0,0:0:0:0:
512,314,96156,2,0,P|496:264|447:238,1,110,10|0,0:0|1:3,0:0:0:0:
268,236,96318,5,8,0:2:0:0:
246,232,96399,1,0,0:0:0:0:
224,228,96480,70,0,L|102:206,1,110,10|0,0:0|1:3,0:0:0:0:
55,35,96642,2,0,P|83:80|71:132,1,110,10|0,0:2|0:0,0:0:0:0:
15,315,96805,5,10,0:0:0:0:
66,335,96886,1,2,1:3:0:0:
99,306,96967,2,0,P|127:260|115:208,1,110,10|0,0:2|0:0,0:0:0:0:
185,0,97129,6,0,L|207:129,1,110,14|0,0:0|1:3,0:0:0:0:
363,220,97291,5,10,0:2:0:0:
413,177,97372,1,2,0:0:0:0:
402,123,97453,2,0,P|350:107|303:132,1,110,10|0,0:0|1:3,0:0:0:0:
186,304,97615,69,8,0:2:0:0:
189,326,97696,1,0,0:0:0:0:
234,359,97777,5,10,0:0:0:0:
272,337,97859,2,0,P|300:290|288:239,1,110,2|8,1:3|0:2,0:0:0:0:
145,97,98021,5,2,0:0:0:0:
135,43,98102,1,10,0:0:0:0:
185,0,98183,1,2,1:3:0:0:
239,9,98264,2,0,P|270:51|263:104,1,110,10|0,0:2|0:0,0:0:0:0:
92,236,98426,6,0,L|206:215,1,110,14|0,0:0|1:3,0:0:0:0:
402,123,98588,69,10,0:2:0:0:
429,75,98669,1,2,0:0:0:0:
380,31,98750,2,0,P|329:47|304:95,1,110,10|0,0:0|1:3,0:0:0:0:
358,321,98913,5,8,0:2:0:0:
380,324,98994,1,0,0:0:0:0:
424,292,99075,5,10,0:0:0:0:
413,228,99156,2,0,P|360:216|315:245,1,110,2|8,1:3|0:2,0:0:0:0:
155,360,99318,5,2,0:0:0:0:
105,384,99399,1,10,0:0:0:0:
60,336,99480,2,0,P|48:283|77:238,1,110,2|8,1:3|0:2,0:0:0:0:
253,88,99642,69,2,0:0:0:0:
211,37,99723,2,0,P|156:34|117:70,1,110,14|2,0:0|1:3,0:0:0:0:
33,246,99886,5,8,0:2:0:0:
54,242,99967,1,0,0:0:0:0:
76,238,100048,2,0,L|196:216,1,110,10|0,0:0|1:3,0:0:0:0:
354,164,100210,5,8,0:2:0:0:
350,142,100291,1,0,0:0:0:0:
346,120,100372,6,0,P|306:84|252:87,1,110,10|0,0:0|1:3,0:0:0:0:
39,126,100534,69,10,0:2:0:0:
98,155,100615,1,2,0:0:0:0:
133,127,100696,1,10,0:0:0:0:
124,73,100777,1,2,1:3:0:0:
173,30,100859,2,0,P|224:42|253:87,1,110,10|0,0:2|0:0,0:0:0:0:
270,321,101021,6,0,L|289:212,1,110,14|0,0:0|1:3,0:0:0:0:
363,25,101183,5,10,0:2:0:0:
416,39,101264,1,2,0:0:0:0:
423,82,101345,1,10,0:0:0:0:
476,96,101426,2,0,P|507:137|500:191,1,110,2|8,1:3|0:2,0:0:0:0:
378,340,101588,5,0,0:0:0:0:
356,336,101669,70,0,B|369:257|369:257|417:265,1,115.49999647522,10|0,0:0|1:3,0:0:0:0:
476,96,101832,6,0,B|465:155|465:155|406:144,1,121.000003692627,10|0,0:2|0:0,0:0:0:0:
280,122,101994,6,0,B|319:128|319:128|302:223,1,126.500002412796,10|0,0:0|1:3,0:0:0:0:
270,321,102156,5,10,0:2:0:0:
208,344,102237,1,2,0:0:0:0:
167,310,102318,1,14,0:0:0:0:
178,245,102399,1,2,1:3:0:0:
137,212,102480,1,10,0:2:0:0:
72,224,102561,1,2,0:0:0:0:
7,179,102642,69,10,0:0:0:0:
33,173,102723,2,0,L|10:43,1,131.99999597168,2|8,1:3|0:2,0:0:0:0:
76,0,102886,5,2,0:0:0:0:
101,4,102967,2,0,L|78:131,1,129.249998027802,10|0,0:0|1:3,0:0:0:0:
142,173,103129,5,10,0:2:0:0:
167,168,103210,2,0,L|145:43,1,126.500002412796,2|8,0:0|0:0,0:0:0:0:
208,5,103372,5,2,1:3:0:0:
232,9,103453,2,0,L|210:130,1,123.750004720688,10|0,0:2|0:0,0:0:0:0:
274,167,103615,69,14,0:0:0:0:
298,162,103696,2,0,L|276:42,1,121.000003692627,2|8,1:3|0:2,0:0:0:0:
342,12,103859,5,2,0:0:0:0:
365,15,103940,2,0,L|344:131,1,118.250001804352,10|0,0:0|1:3,0:0:0:0:
407,162,104102,5,10,0:2:0:0:
429,157,104183,2,0,L|408:43,1,115.49999647522,2|8,0:0|0:0,0:0:0:0:
471,17,104345,5,2,1:3:0:0:
490,20,104426,2,0,L|470:131,1,112.750001720429,10|0,0:2|0:0,0:0:0:0:
512,290,104588,70,0,P|460:302|416:273,1,110,10|2,0:0|1:3,0:0:0:0:
343,131,104750,5,8,0:2:0:0:
335,175,104832,1,2,0:0:0:0:
328,218,104913,2,0,L|308:326,1,110,14|0,0:0|1:3,0:0:0:0:
155,384,105075,5,10,0:2:0:0:
126,349,105156,1,2,0:0:0:0:
141,308,105237,2,0,P|185:278|236:291,1,110,8|2,0:0|1:3,0:0:0:0:
381,361,105399,5,10,0:2:0:0:
423,376,105480,1,0,0:0:0:0:
457,348,105561,2,0,P|469:296|440:252,1,110,8|0,0:0|1:3,0:0:0:0:
343,131,105723,69,8,0:2:0:0:
299,138,105805,1,0,0:0:0:0:
256,146,105886,2,0,L|137:166,1,110,8|0,0:0|1:3,0:0:0:0:
99,333,106048,5,8,0:2:0:0:
64,361,106129,1,0,0:0:0:0:
23,346,106210,2,0,P|-6:301|6:250,1,110,12|0,0:0|1:3,0:0:0:0:
56,80,106372,5,8,0:2:0:0:
91,52,106453,1,0,0:0:0:0:
132,67,106534,2,0,P|161:111|148:162,1,110,8|0,0:0|1:3,0:0:0:0:
99,333,106696,5,8,0:2:0:0:
91,290,106777,1,0,0:0:0:0:
83,246,106859,2,0,L|58:108,1,110,8|0,0:0|1:3,0:0:0:0:
214,0,107021,69,8,0:2:0:0:
222,43,107102,1,0,0:0:0:0:
230,87,107184,2,0,L|254:224,1,110,8|0,0:0|1:3,0:0:0:0:
342,375,107345,5,8,0:2:0:0:
370,340,107426,1,0,0:0:0:0:
355,299,107507,1,12,0:0:0:0:
290,310,107588,6,0,B|281:327|281:327|279:294|279:294|308:308|308:308|281:327|281:327|290:310,1,137.5,2|2,1:3|1:3,0:0:0:0:
259,252,107669,2,0,B|240:249|240:249|270:237|270:237|266:269|266:269|240:249|240:249|259:252,1,137.5,10|2,0:2|1:3,0:0:0:0:
304,204,107750,2,0,B|300:185|300:185|321:210|321:210|289:216|289:216|300:185|300:185|304:204,1,137.5,2|2,0:0|1:3,0:0:0:0:
364,233,107832,2,0,B|380:224|380:224|363:251|363:251|347:222|347:222|380:224|380:224|364:233,1,137.5,10|2,0:0|1:3,0:0:0:0:
355,299,107913,2,0,B|368:312|368:312|336:304|336:304|359:280|359:280|368:312|368:312|355:299,1,137.5,2|2,1:3|1:3,0:0:0:0:
290,310,107994,5,10,0:2:0:0:
282,266,108075,1,0,0:0:0:0:
274,223,108156,102,0,B|277:241|277:241|256:216|256:216|288:210|288:210|277:241|277:241|274:223,1,137.5,10|2,2:3|1:3,0:0:0:0:
209,209,108237,2,0,B|198:224|198:224|200:191|200:191|227:210|227:210|198:224|198:224|209:209,1,137.5,2|2,2:3|1:3,0:0:0:0:
173,153,108318,2,0,B|154:156|154:156|179:135|179:135|185:167|185:167|154:156|154:156|173:153,1,137.5,10|2,2:2|1:3,0:0:0:0:
188,89,108399,2,0,B|172:78|172:78|205:80|205:80|186:107|186:107|172:78|172:78|188:89,1,137.5,2|2,2:3|1:3,0:0:0:0:
244,52,108480,2,0,B|240:33|240:33|261:58|261:58|229:64|229:64|240:33|240:33|244:52,1,137.5,10|2,2:3|1:3,0:0:0:0:
308,67,108561,2,0,B|318:51|318:51|316:84|316:84|289:65|289:65|318:51|318:51|308:67,1,137.5,2|2,2:3|1:3,0:0:0:0:
344,123,108642,2,0,B|362:119|362:119|337:140|337:140|331:108|331:108|362:119|362:119|344:123,1,137.5,10|2,2:2|1:3,0:0:0:0:
330,188,108723,2,0,B|345:198|345:198|312:196|312:196|331:169|331:169|345:198|345:198|330:188,1,137.5,2|2,2:3|1:3,0:0:0:0:
277,240,108805,6,0,B|280:258|280:258|259:233|259:233|291:227|291:227|280:258|280:258|277:240,1,137.5,14|2,2:3|1:3,0:0:0:0:
199,223,108886,2,0,B|188:238|188:238|190:205|190:205|217:224|217:224|188:238|188:238|199:223,1,137.5,2|2,2:3|1:3,0:0:0:0:
155,156,108967,2,0,B|136:159|136:159|161:138|161:138|167:170|167:170|136:159|136:159|155:156,1,137.5,10|2,2:2|1:3,0:0:0:0:
173,79,109048,2,0,B|157:68|157:68|190:70|190:70|171:97|171:97|157:68|157:68|173:79,1,137.5,2|2,2:3|1:3,0:0:0:0:
241,34,109129,2,0,B|237:15|237:15|258:40|258:40|226:46|226:46|237:15|237:15|241:34,1,137.5,10|2,2:3|1:3,0:0:0:0:
317,52,109210,2,0,B|327:36|327:36|325:69|325:69|298:50|298:50|327:36|327:36|317:52,1,137.5,2|2,2:3|1:3,0:0:0:0:
361,120,109291,2,0,B|379:116|379:116|354:137|354:137|348:105|348:105|379:116|379:116|361:120,1,137.5,10|2,2:2|1:3,0:0:0:0:
344,198,109372,2,0,B|359:208|359:208|326:206|326:206|345:179|345:179|359:208|359:208|344:198,1,137.5,2|2,2:3|1:3,0:0:0:0:
280,260,109453,69,8,2:3:0:0:
240,232,109534,1,0,2:3:0:0:
192,232,109615,1,8,2:2:0:0:
151,258,109696,1,0,2:3:0:0:
137,304,109777,1,8,2:3:0:0:
96,331,109859,1,0,2:3:0:0:
48,333,109940,2,0,P|2:296|4:239,1,121.000003692627,8|0,2:2|2:3,0:0:0:0:
95,67,110102,5,12,2:3:0:0:
116,23,110183,1,0,2:3:0:0:
159,1,110264,1,8,2:2:0:0:
207,8,110345,1,0,2:3:0:0:
242,42,110426,1,8,2:3:0:0:
251,90,110507,1,0,2:3:0:0:
285,125,110588,1,8,2:2:0:0:
333,132,110669,1,0,2:3:0:0:
378,115,110750,5,8,2:3:0:0:
349,70,110832,1,0,2:3:0:0:
297,63,110913,1,8,2:2:0:0:
251,90,110994,1,0,2:3:0:0:
241,142,111075,1,8,2:3:0:0:
267,188,111156,1,0,2:3:0:0:
318,200,111237,2,0,P|360:247|346:309,1,131.99999597168,8|0,2:2|2:3,0:0:0:0:
148,384,111399,5,12,2:3:0:0:
100,361,111480,1,0,2:3:0:0:
80,312,111561,1,8,2:2:0:0:
94,261,111642,1,0,2:3:0:0:
138,231,111723,1,8,2:3:0:0:
155,180,111805,1,0,2:3:0:0:
137,130,111886,1,8,2:2:0:0:
93,100,111967,1,0,2:3:0:0:
41,105,112048,69,8,2:3:0:0:
66,141,112129,1,0,2:3:0:0:
100,161,112210,1,8,2:2:0:0:
135,161,112291,1,0,2:3:0:0:
164,150,112372,1,8,2:3:0:0:
183,131,112453,1,0,2:3:0:0:
191,110,112534,6,0,P|213:68|260:61,1,98.9999969787599,10|0,2:2|2:3,0:0:0:0:
387,214,112696,2,0,P|339:215|310:178,1,98.9999969787599,14|0,2:3|2:3,0:0:0:0:
404,0,112859,2,0,P|428:40|411:84,1,98.9999969787599,10|0,2:2|2:3,0:0:0:0:
191,110,113021,6,0,B|181:108|181:108|183:98|192:100|192:100|202:102|200:111|200:111|198:121|189:119|189:119|179:117|181:108|181:108|191:110,1,82.5000031471254,10|0,2:3|2:3,0:0:0:0:
156,103,113102,2,0,B|146:101|146:101|148:91|157:93|157:93|167:95|165:104|165:104|163:114|154:112|154:112|144:110|146:101|146:101|156:103,1,82.5000031471254,0|0,2:3|2:3,0:0:0:0:
129,79,113183,6,0,B|119:77|119:77|121:67|130:69|130:69|140:71|138:80|138:80|136:90|127:88|127:88|117:86|119:77|119:77|129:79,1,82.5000031471254,10|0,2:2|2:3,0:0:0:0:
94,72,113264,2,0,B|84:70|84:70|86:60|95:62|95:62|105:64|103:73|103:73|101:83|92:81|92:81|82:79|84:70|84:70|94:72,1,82.5000031471254,0|0,2:3|2:3,0:0:0:0:
33,21,113345,6,0,P|77:-8|128:4,1,110,14|0,0:0|0:0,0:0:0:0:
302,143,113507,2,0,B|255:135|255:135|238:118|238:118|191:110,1,121.000003692627,14|0,0:0|0:0,0:0:0:0:
45,228,113832,6,0,B|72:247|72:247|53:137,1,131.99999597168,14|0,0:0|0:0,0:0:0:0:
172,11,114156,2,0,L|190:109,1,98.9999969787599,14|0,0:0|0:0,0:0:0:0:
403,173,114480,6,0,B|360:165|360:165|344:150|344:150|302:143,1,110,14|0,0:0|0:0,0:0:0:0:
172,11,114642,5,0,0:0:0:0:
133,32,114723,1,0,0:0:0:0:
120,74,114805,1,0,0:0:0:0:
134,116,114886,1,0,0:0:0:0:
174,135,114967,1,0,0:0:0:0:
217,129,115048,1,0,0:0:0:0:
240,92,115129,1,0,0:0:0:0:
282,80,115210,1,0,0:0:0:0:
323,95,115291,1,0,0:0:0:0:
340,136,115372,1,0,0:0:0:0:
328,178,115453,70,0,B|285:185|285:185|269:200|269:200|226:208,1,110,2|0,0:0|0:0,0:0:0:0:
163,318,115615,2,0,B|130:274|130:274|146:221,1,110,2|0,0:0|0:0,0:0:0:0:
240,92,115777,2,0,B|197:99|197:99|181:114|181:114|138:122,1,110,2|0,0:0|0:0,0:0:0:0:
65,335,115940,6,0,L|163:318,1,98.9999969787599,14|0,0:0|0:0,0:0:0:0:
328,178,116102,2,0,P|356:222|345:274,1,110,14|0,0:0|0:0,0:0:0:0:
146,221,116426,6,0,L|243:238,1,98.9999969787599,14|0,0:0|0:0,0:0:0:0:
442,373,116750,2,0,P|470:328|459:276,1,110,14|0,0:0|0:0,0:0:0:0:
243,238,117075,6,0,P|230:180|261:131,1,121.000003692627,14|0,0:0|0:0,0:0:0:0:
414,25,117237,69,0,0:0:0:0:
456,49,117318,1,0,0:0:0:0:
467,96,117399,1,0,0:0:0:0:
444,138,117480,1,0,0:0:0:0:
398,151,117561,1,0,0:0:0:0:
354,131,117642,1,0,0:0:0:0:
309,148,117723,1,0,0:0:0:0:
289,192,117804,1,0,0:0:0:0:
305,237,117885,1,0,0:0:0:0:
347,258,117966,1,0,0:0:0:0:
393,244,118048,6,0,B|450:226|450:226|498:262,1,121.000003692627,2|0,0:0|0:0,0:0:0:0:
253,384,118210,6,0,L|233:275,1,110,14|0,0:0|0:0,0:0:0:0:
268,75,118372,2,0,B|307:127|307:127|288:190,1,131.99999597168,14|0,0:0|0:0,0:0:0:0:
91,238,118534,2,0,B|133:230|133:230|149:215|149:215|192:207,1,110,14|0,0:0|0:0,0:0:0:0:
380,108,118696,2,0,B|332:99|332:99|315:82|315:82|268:74,1,121.000003692627,14|0,0:0|0:0,0:0:0:0:
77,159,119021,6,0,P|64:106|93:62,1,110,14|0,0:0|0:0,0:0:0:0:
400,219,119345,70,0,P|418:158|380:107,1,131.99999597168,14|0,0:0|0:0,0:0:0:0:
212,98,119669,6,0,L|192:206,1,110,14|0,0:0|0:0,0:0:0:0:
27,330,119832,5,0,0:0:0:0:
48,368,119913,1,0,0:0:0:0:
90,382,119994,1,0,0:0:0:0:
132,369,120075,1,0,0:0:0:0:
154,331,120156,1,0,0:0:0:0:
143,288,120237,1,0,0:0:0:0:
160,247,120318,1,0,0:0:0:0:
199,227,120399,1,0,0:0:0:0:
241,240,120480,1,0,0:0:0:0:
267,276,120561,1,0,0:0:0:0:
261,320,120642,6,0,P|303:351|353:336,1,110,2|0,0:0|0:0,0:0:0:0:
439,143,120805,70,0,P|385:166|372:222,1,121.000003692627,14|0,0:0|0:0,0:0:0:0:
512,319,120967,2,0,B|466:310|466:310|449:294|449:294|410:287,1,110,14|0,0:0|0:0,0:0:0:0:
177,346,121129,2,0,L|199:227,1,121.000003692627,14|0,0:0|0:0,0:0:0:0:
439,143,121291,2,0,B|387:152|387:152|368:170|368:170|316:179,1,131.99999597168,14|0,0:0|0:0,0:0:0:0:
114,267,121615,6,0,B|96:209|96:209|132:160,1,121.000003692627,14|0,0:0|0:0,0:0:0:0:
333,82,121940,2,0,L|314:185,1,98.9999969787599,14|0,0:0|0:0,0:0:0:0:
177,346,122264,6,0,L|196:235,1,110,14|0,0:0|0:0,0:0:0:0:
333,82,122426,5,0,0:0:0:0:
372,102,122507,1,0,0:0:0:0:
393,140,122588,1,0,0:0:0:0:
389,184,122669,1,0,0:0:0:0:
361,218,122750,1,0,0:0:0:0:
318,231,122832,1,0,0:0:0:0:
276,219,122913,1,0,0:0:0:0:
253,182,122994,1,0,0:0:0:0:
213,164,123075,1,0,0:0:0:0:
169,169,123156,1,0,0:0:0:0:
135,197,123237,70,0,L|158:327,1,110,2|0,0:0|0:0,0:0:0:0:
388,384,123399,6,0,B|401:309|401:309|421:313|421:313|405:282|405:282|380:306,1,165.000006294251,6|0,0:2|0:0,0:0:0:0:
213,164,123561,2,0,B|199:89|199:89|179:93|179:93|195:62|195:62|220:86,1,165.000006294251,6|0,0:2|0:0,0:0:0:0:
453,0,123723,6,0,B|485:43|485:43|469:96,1,110,14|0,0:0|1:0,0:0:0:0:
318,231,123886,2,0,B|276:201|276:201|453:170,1,220,10|8,1:2|0:0,0:0:0:0:
512,333,124210,5,10,3:2:0:0:
470,345,124291,1,0,0:0:0:0:
435,319,124372,1,8,0:0:0:0:
337,122,124534,70,0,L|317:230,1,110,10|0,1:2|1:0,0:0:0:0:
288,384,124696,1,8,0:0:0:0:
493,209,124859,6,0,B|453:215|453:215|440:228|440:228|401:235,1,98.9999969787599,10|0,1:2|1:0,0:0:0:0:
202,369,125021,2,0,L|236:174,1,197.99999395752,8|8,0:0|1:2,0:0:0:0:
318,118,125264,1,0,1:0:0:0:
337,122,125345,2,0,L|317:230,1,98.9999969787599,8|0,0:0|1:0,0:0:0:0:
120,305,125507,5,8,0:2:0:0:
127,265,125588,1,0,0:0:0:0:
134,226,125669,2,0,L|152:118,1,98.9999969787599,8|0,0:0|1:0,0:0:0:0:
305,8,125832,6,0,B|257:16|257:16|240:33|240:33|193:41,1,121.000003692627,10|0,1:2|1:0,0:0:0:0:
50,212,125994,69,10,0:0:0:0:
88,241,126075,1,0,0:0:0:0:
134,226,126156,2,0,L|157:95,1,121.000003692627,10|0,0:2|0:0,0:0:0:0:
59,0,126318,6,0,B|27:43|27:43|43:96,1,110,10|0,0:0|1:0,0:0:0:0:
278,165,126480,2,0,B|320:135|320:135|143:104,1,220,10|8,1:2|0:0,0:0:0:0:
10,217,126805,5,10,3:2:0:0:
0,260,126886,1,0,0:0:0:0:
24,296,126967,1,8,0:0:0:0:
154,105,127129,6,0,L|176:232,1,110,10|0,1:2|1:0,0:0:0:0:
202,384,127291,1,8,0:0:0:0:
10,217,127453,70,0,B|57:225|57:225|74:242|74:242|121:250,1,121.000003692627,10|0,1:2|1:0,0:0:0:0:
296,367,127615,2,0,L|252:120,1,242.000007385254,8|8,0:0|1:2,0:0:0:0:
154,105,127859,1,0,1:0:0:0:
130,109,127940,2,0,L|151:228,1,121.000003692627,8|0,0:0|1:0,0:0:0:0:
377,288,128102,5,8,0:2:0:0:
368,239,128183,1,0,0:0:0:0:
360,192,128264,2,0,L|338:72,1,121.000003692627,8|0,0:0|1:0,0:0:0:0:
179,0,128426,6,0,B|221:7|221:7|237:22|237:22|280:30,1,110,10|0,1:2|1:0,0:0:0:0:
439,181,128588,5,10,0:0:0:0:
403,206,128669,1,0,0:0:0:0:
360,192,128750,2,0,L|339:76,1,110,10|0,0:2|0:0,0:0:0:0:
256,0,128913,70,0,L|256:112,1,98.9999969787599,10|0,0:0|1:0,0:0:0:0:
256,297,129075,2,0,L|256:73,1,197.99999395752,10|8,1:2|0:0,0:0:0:0:
85,50,129399,5,10,3:2:0:0:
85,90,129480,1,0,0:0:0:0:
85,129,129561,1,8,0:0:0:0:
171,328,129723,6,0,L|171:215,1,98.9999969787599,10|0,1:2|1:0,0:0:0:0:
171,50,129886,1,8,0:0:0:0:
341,297,130048,6,0,L|341:209,1,88,10|0,1:2|1:0,0:0:0:0:
256,0,130210,2,0,L|256:228,1,176,8|8,0:0|1:2,0:0:0:0:
323,297,130453,1,0,1:0:0:0:
341,297,130534,2,0,L|341:171,1,88,8|0,0:0|1:0,0:0:0:0:
171,50,130696,69,8,0:2:0:0:
171,85,130777,1,0,0:0:0:0:
171,121,130859,2,0,L|171:234,1,88,8|0,0:0|1:0,0:0:0:0:
256,384,131021,6,0,L|256:272,1,98.9999969787599,10|0,1:2|1:0,0:0:0:0:
341,88,131183,5,10,0:0:0:0:
341,132,131264,1,0,0:0:0:0:
341,176,131345,2,0,L|341:297,1,121.000003692627,10|0,0:2|0:0,0:0:0:0:
41,344,131507,86,0,B|30:387|30:387|27:365|27:365|6:373|6:373|17:353|17:353|-2:349|-2:349|15:336|15:336|1:319|1:319|22:323|22:323|20:300|20:300|35:317|35:317|50:296|50:296|52:319|52:319|74:310|74:310|63:330|63:330|86:335|86:335|65:347|65:347|80:365|80:365|58:360|58:360|60:384|60:384|45:367|45:367|30:387|30:387|41:344,1,550,14|0,0:0|0:0,0:0:0:0:
471,344,132156,6,0,B|480:387|480:387|483:365|483:365|504:373|504:373|493:353|493:353|515:349|515:349|495:338|495:338|510:321|510:321|488:325|488:325|490:301|490:301|475:319|475:319|462:298|462:298|460:321|460:321|438:312|438:312|448:332|448:332|425:337|425:337|447:347|447:347|432:365|432:365|454:360|454:360|452:383|452:383|467:367|467:367|480:387|480:387|471:344,1,550,14|0,0:0|0:0,0:0:0:0:
256,0,132805,6,0,B|250:-21|250:-21|257:-11|257:-11|265:-20|265:-20|264:-8|264:-8|275:-10|275:-10|267:-1|267:-1|278:3|278:3|266:5|266:5|272:15|272:15|261:11|261:11|260:22|260:22|252:12|252:12|245:20|245:20|246:9|246:9|235:11|235:11|242:2|242:2|232:-2|232:-2|243:-4|243:-4|238:-14|238:-14|248:-10|248:-10|250:-21|250:-21|256:0,1,275,14|0,0:0|0:0,0:0:0:0:
295,226,132967,6,0,B|300:249|300:249|293:238|293:238|285:248|285:248|286:234|286:234|273:237|273:237|282:227|282:227|270:222|270:222|283:220|283:220|277:209|277:209|289:213|289:213|290:201|290:201|298:212|298:212|306:203|306:203|304:216|304:216|317:213|317:213|309:223|309:223|320:228|320:228|308:230|308:230|313:241|313:241|302:237|302:237|300:249|300:249|295:226,1,302.500002884865,14|0,0:0|0:0,0:0:0:0:
509,74,133129,70,0,B|534:66|534:66|522:75|522:75|533:84|533:84|518:83|518:83|521:96|521:96|510:87|510:87|504:100|504:100|501:86|501:86|489:93|489:93|494:80|494:80|481:78|481:78|493:69|493:69|483:60|483:60|497:62|497:62|494:48|494:48|505:57|505:57|511:45|511:45|513:58|513:58|525:52|525:52|521:64|521:64|534:66|534:66|509:74,1,330.000012588501,14|0,0:0|0:0,0:0:0:0:
197,130,133291,6,0,B|168:135|168:135|181:127|181:127|169:117|169:117|185:118|185:118|182:104|182:104|194:114|194:114|199:100|199:100|202:115|202:115|215:108|215:108|210:122|210:122|224:123|224:123|211:132|211:132|222:142|222:142|207:140|207:140|210:155|210:155|198:146|198:146|193:159|193:159|190:144|190:144|177:151|177:151|182:138|182:138|168:135|168:135|197:130,1,357.500010228157,14|0,0:0|0:0,0:0:0:0:
471,344,133453,38,0,B|474:359|474:359|468:352|468:352|463:358|463:358|464:349|464:349|456:351|456:351|461:345|461:345|454:341|454:341|462:339|462:339|458:332|458:332|466:335|466:335|466:327|466:327|472:334|472:334|477:329|477:329|476:337|476:337|484:335|484:335|480:341|480:341|487:345|487:345|479:347|479:347|482:354|482:354|475:351|475:351|474:359|474:359|471:344,1,192.500001835823,6|0,0:2|0:0,0:0:0:0:
457,268,133534,5,8,0:0:0:0:
444,192,133615,101,10,0:0:0:0:
430,116,133696,5,8,0:0:0:0:
416,40,133777,102,0,B|411:18|411:18|417:28|417:28|425:20|425:20|424:32|424:32|435:29|435:29|427:38|427:38|438:43|438:43|426:45|426:45|432:55|432:55|421:51|421:51|420:62|420:62|414:52|414:52|406:60|406:60|407:49|407:49|396:51|396:51|404:42|404:42|394:37|394:37|405:35|405:35|399:25|399:25|410:29|410:29|411:18|411:18|416:40,7,275,6|8|8|8|10|8|8|8,0:2|0:0|0:0|0:0|0:0|0:0|0:0|0:0,0:0:0:0:
324,0,134102,22,0,B|266:10|266:10|244:51|244:51|186:62,1,165,8|0,0:0|0:0,0:0:0:0:
38,104,134426,6,0,B|36:101|36:101|38:104|38:104|42:102|42:101|42:101|44:104|44:104|42:101|42:101|46:100|47:99|47:99|45:96|45:96|47:99|47:99|50:98|51:97|51:97|52:100|52:100|51:97|51:97|54:96|56:95|56:95|55:93|55:93|56:95|56:95|59:95|61:94|61:94|61:97|61:97|61:94|61:94|63:93|66:93|66:93|65:90|65:90|66:93|66:93|68:93|71:92|71:92|71:95|71:95|71:92|71:92|72:92|76:92|76:92|75:89|75:89|76:92|76:92|77:92|81:92|81:92|81:95|81:95|81:92|81:92|83:92|86:92|86:92|86:89|86:89|86:92|86:92|89:93|91:93|91:93|90:96|90:96|91:93|91:93|93:93|95:94|95:94|96:91|96:91|95:94|95:94|98:95|100:95|100:95|99:98|99:98|100:95|100:95|102:96|105:97|105:97|106:94|106:94|105:97|105:97|108:98|110:99|110:99|108:102|108:102|110:99|110:99|113:101|114:101|114:101|115:99|115:99|114:101|114:101|116:103|118:104|118:104|117:106|117:106|118:104|118:104|120:105|122:107|122:107|124:104|124:104|122:107|122:107|124:108|126:110|126:110|124:112|124:112|126:110|126:110|128:112|130:113|130:113|132:111|132:111|130:113|130:113|132:116|133:117|133:117|131:119|131:119|133:117|133:117|135:119|136:121|136:121|139:119|139:119|136:121|136:121|138:123|139:125|139:125|137:127|137:127|139:125|139:125|140:126|142:129|142:129|144:128|144:128|142:129|142:129|143:132|144:134|144:134|141:135|141:135|144:134|144:134|145:137|146:139|146:139|149:137|149:137|146:139|146:139|147:141|147:143|147:143|145:144|145:144|147:143|147:143|148:145|148:145|149:148|149:148|152:147|152:147|149:148|149:148|150:150|151:153|151:153|148:154|148:154|151:153|151:153|151:155|153:157|153:157|155:156|155:156|153:157|153:157|154:160|155:162|155:162|152:163|152:163|155:162|155:162|156:164|158:166|158:166|160:164|160:164|158:166|158:166|159:168|160:170|160:170|158:172|158:172|160:170|160:170|162:172|164:174|164:174|166:172|166:172|164:174|164:174|165:176|167:178|167:178|165:180|165:180|167:178|167:178|168:179|171:181|171:181|173:179|173:179|171:181|171:181|172:182|175:184|175:184|173:186|173:186|175:184|175:184|177:186|179:187|179:187|180:184|180:184|179:187|179:187|180:188|183:189|183:189|182:192|182:192|183:189|183:189|185:190|188:192|188:192|189:189|189:189|188:192|188:192|189:192|192:194|192:194|191:196|191:196|192:194|192:194|194:194|197:195|197:195|198:192|198:192|197:195|197:195|199:196|202:197|202:197|201:199|201:199|202:197|202:197|203:197|207:198|207:198|207:195|207:195|207:198|207:198|208:198|212:198|212:198|211:201|211:201|212:198|212:198|213:198|217:198|217:198|217:195|217:195|217:198|217:198|218:198|222:198|222:198|222:201|222:201|222:198|222:198|223:198|227:198|227:198|226:195|226:195|227:198|227:198|227:198|231:197|231:197|232:200|232:200|231:197|231:197|236:196|236:196|236:193|236:193|236:196|236:196|240:195|241:195|241:195|242:198|242:198|241:195|241:195|244:194|246:193|246:193|245:190|245:190|246:193|246:193|249:192|250:191|250:191|252:194|252:194|250:191|250:191|253:190|255:189|255:189|253:186|253:186|255:189|255:189|257:187|259:186|259:186|261:189|261:189|259:186|259:186|261:185|263:183|263:183|261:181|261:181|263:183|263:183|265:182|267:180|267:180|269:182|269:182|267:180|267:180|268:179|271:176|271:176|268:174|268:174|271:176|271:176|271:176|274:173|274:173|276:175|276:175|274:173|274:173|276:171|277:169|277:169|275:167|275:167|277:169|277:169|279:166|280:165|280:165|282:166|282:166|280:165|280:165|282:162|282:160|282:160|280:159|280:159|282:160|282:160|284:158|285:156|285:156|287:157|287:157|285:156|285:156|285:154|286:151|286:151|284:150|284:150|286:151|286:151|287:149|288:147|288:147|291:147|291:147|288:147|288:147|289:145|289:142|289:142|286:141|286:141|289:142|289:142|290:140|290:137|290:137|293:137|293:137|290:137|290:137|291:135|291:132|291:132|288:132|288:132|291:132|291:132|291:128|291:127|291:127|294:127|294:127|291:127|291:127|291:124|291:122|291:122|288:122|288:122|291:122|291:122|291:119|291:117|291:117|293:116|293:116|291:117|291:117|290:114|290:112|290:112|287:112|287:112|290:112|290:112|289:110|289:107|289:107|292:106|292:106|289:107|289:107|288:105|287:102|287:102|284:103|284:103|287:102|287:102|287:101|285:98|285:98|288:96|288:96|285:98|285:98|284:95|283:93|283:93|281:94|281:94|283:93|283:93|282:90|281:89|281:89|283:87|283:87|281:89|281:89|279:86|278:84|278:84|276:86|276:86|278:84|278:84|277:82|275:80|275:80|277:79|277:79|275:80|275:80|273:78|272:77|272:77|270:79|270:79|272:77|272:77|270:75|268:73|268:73|270:71|270:71|268:73|268:73|267:72|265:70|265:70|263:72|263:72|265:70|265:70|264:69|261:67|261:67|262:64|262:64|261:67|261:67|259:66|256:64|256:64|255:67|255:67|256:64|256:64|253:62|252:62|252:62|253:59|253:59|252:62|252:62|249:60|247:60|247:60|246:62|246:62|247:60|247:60|244:58|243:58|243:58|244:55|244:55|243:58|243:58|240:57|238:56|238:56|237:59|237:59|238:56|238:56|235:56|233:55|233:55|234:52|234:52|233:55|233:55|231:55|228:54|228:54|228:57|228:57|228:54|228:54|225:54|223:54|223:54|223:51|223:51|223:54|223:54|221:54|218:54|218:54|218:57|218:57|218:54|218:54|216:54|213:54|213:54|213:51|213:51|213:54|213:54|211:54|208:55|208:55|209:58|209:58|208:55|208:55|206:55|203:55|203:55|203:53|203:53|203:55|203:55|201:56|198:57|198:57|199:60|199:60|198:57|198:57|196:57|194:58|194:58|193:55|193:55|194:58|194:58|191:59|189:60|189:60|190:63|190:63|189:60|189:60|186:62|185:62|185:62|182:61|182:61|185:62|185:62|185:62,1,1094.99611044955,8|0,0:0|0:0,0:0:0:0:
63,245,134750,102,0,B|60:245|60:245|63:245|63:245|63:241|62:240|62:240|65:240|65:240|62:240|62:240|62:237|62:235|62:235|59:235|59:235|62:235|62:235|62:232|62:230|62:230|65:230|65:230|62:230|62:230|62:228|62:225|62:225|59:225|59:225|62:225|62:225|62:223|63:220|63:220|66:220|66:220|63:220|63:220|63:217|63:215|63:215|61:215|61:215|63:215|63:215|64:212|64:210|64:210|67:211|67:211|64:210|64:210|65:208|66:205|66:205|63:205|63:205|66:205|66:205|66:203|67:201|67:201|70:201|70:201|67:201|67:201|68:198|68:196|68:196|66:195|66:195|68:196|68:196|70:193|70:191|70:191|73:192|73:192|70:191|70:191|71:189|72:187|72:187|70:185|70:185|72:187|72:187|73:185|75:182|75:182|77:183|77:183|75:182|75:182|76:180|77:178|77:178|75:176|75:176|77:178|77:178|79:175|80:174|80:174|82:175|82:175|80:174|80:174|81:171|83:169|83:169|80:168|80:168|83:169|83:169|84:167|86:165|86:165|88:167|88:167|86:165|86:165|88:163|89:162|89:162|87:160|87:160|89:162|89:162|91:160|92:158|92:158|94:160|94:160|92:158|92:158|94:157|96:155|96:155|94:152|94:152|96:155|96:155|97:153|100:151|100:151|102:154|102:154|100:151|100:151|102:150|104:148|104:148|102:146|102:146|104:148|104:148|105:147|108:145|108:145|109:148|109:148|108:145|108:145|109:144|112:142|112:142|110:140|110:140|112:142|112:142|114:141|116:140|116:140|118:143|118:143|116:140|116:140|118:139|121:138|121:138|119:135|119:135|121:138|121:138|122:137|125:136|125:136|126:138|126:138|125:136|125:136|127:135|130:134|130:134|129:131|129:131|130:134|130:134|132:133|134:132|134:132|135:135|135:135|134:132|134:132|136:131|139:130|139:130|138:128|138:128|139:130|139:130|142:130|144:129|144:129|145:132|145:132|144:129|144:129|146:129|149:128|149:128|148:125|148:125|149:128|149:128|151:128|154:128|154:128|154:131|154:131|154:128|154:128|156:127|159:127|159:127|159:124|159:124|159:127|159:127|161:127|164:127|164:127|164:130|164:130|164:127|164:127|166:127|169:127|169:127|169:124|169:124|169:127|169:127|171:127|174:127|174:127|174:130|174:130|174:127|174:127|176:127|179:127|179:127|179:124|179:124|179:127|179:127|181:128|184:128|184:128|183:131|183:131|184:128|184:128|186:128|189:129|189:129|189:126|189:126|189:129|189:129|191:129|194:130|194:130|193:133|193:133|194:130|194:130|195:131|198:132|198:132|199:129|199:129|198:132|198:132|201:132|203:133|203:133|202:136|202:136|203:133|203:133|205:134|208:135|208:135|209:132|209:132|208:135|208:135|210:136|212:137|212:137|211:140|211:140|212:137|212:137|215:138|217:139|217:139|218:137|218:137|217:139|217:139|219:140|221:142|221:142|220:144|220:144|221:142|221:142|223:143|225:144|225:144|227:142|227:142|225:144|225:144|228:146|230:147|230:147|228:150|228:150|230:147|230:147|232:149|232:149|234:150|234:150|235:148|235:148|234:150|234:150|235:152|238:153|238:153|236:156|236:156|238:153|238:153|239:154|242:156|242:156|243:153|243:153|242:156|242:156|244:157|246:158|246:158|245:161|245:161|246:158|246:158|249:160|251:160|251:160|252:158|252:158|251:160|251:160|253:161|255:162|255:162|254:165|254:165|255:162|255:162|258:163|260:164|260:164|261:161|261:161|260:164|260:164|262:165|265:166|265:166|264:169|264:169|265:166|265:166|267:166|270:167|270:167|270:164|270:164|270:167|270:167|272:168|274:168|274:168|274:171|274:171|274:168|274:168|277:169|279:169|279:169|280:166|280:166|279:169|279:169|281:169|284:170|284:170|284:173|284:173|284:170|284:170|287:170|289:170|289:170|289:167|289:167|289:170|289:170|292:170|294:170|294:170|294:173|294:173|294:170|294:170|297:170|299:170|299:170|299:167|299:167|299:170|299:170|302:170|304:170|304:170|305:173|305:173|304:170|304:170|307:170|309:169|309:169|309:166|309:166|309:169|309:169|312:169|314:169|314:169|315:171|315:171|314:169|314:169|316:168|319:168|319:168|318:165|318:165|319:168|319:168|321:167|324:166|324:166|325:169|325:169|324:166|324:166|326:166|329:165|329:165|328:162|328:162|329:165|329:165|331:164|333:163|333:163|334:166|334:166|333:163|333:163|335:162|338:161|338:161|337:158|337:158|338:161|338:161|340:160|343:159|343:159|344:162|344:162|343:159|343:159|344:158|347:157|347:157|346:154|346:154|347:157|347:157|349:156|351:154|351:154|353:157|353:157|351:154|351:154|353:153|355:151|355:151|354:149|354:149|355:151|355:151|357:150|359:148|359:148|361:151|361:151|359:148|359:148|361:147|363:145|363:145|361:143|361:143|363:145|363:145|365:144|367:142|367:142|369:144|369:144|367:142|367:142|368:141|371:138|371:138|369:136|369:136|371:138|371:138|372:137|374:135|374:135|376:137|376:137|374:135|374:135|376:133|377:131|377:131|375:129|375:129|377:131|377:131|378:130|380:127|380:127|383:129|383:129|380:127|380:127|381:125|383:123|383:123|381:121|381:121|383:123|383:123|384:121|386:119|386:119|388:120|388:120|386:119|386:119|387:117|388:114|388:114|386:113|386:113|388:114|388:114|389:113|390:110|390:110|393:111|393:111|390:110|390:110|392:107|392:105|392:105|390:104|390:104|392:105|392:105|394:102|394:100|394:100|397:101|397:101|394:100|394:100|395:97|396:96|396:96|393:95|393:95|396:96|396:96|396:93|397:91|397:91|400:92|400:92|397:91|397:91|398:88|398:86|398:86|395:85|395:85|398:86|398:86|399:83|399:81|399:81|402:82|402:82|399:81|399:81|399:78|400:76|400:76|397:76|397:76|400:76|400:76|400:73|400:71|400:71|403:71|403:71|400:71|400:71|400:68|400:66|400:66|397:66|397:66|400:66|400:66|400:64|400:61|400:61|403:61|403:61|400:61|400:61|400:59|399:56|399:56|396:56|396:56|399:56|399:56|399:55|399:51|399:51|401:49|401:49|399:51|399:51|399:51,1,1094.9956636571,8|0,0:0|0:0,0:0:0:0:
512,168,135075,6,0,B|509:169|509:169|512:168|512:168|510:163|510:163|513:162|513:162|510:163|510:163|509:159|509:159|506:160|506:160|509:159|509:159|508:156|507:154|507:154|510:153|510:153|507:154|507:154|505:149|505:149|502:151|502:151|505:149|505:149|504:147|503:145|503:145|505:143|505:143|503:145|503:145|500:140|500:140|498:142|498:142|500:140|500:140|499:138|498:136|498:136|500:135|500:135|498:136|498:136|495:132|495:132|492:134|492:134|495:132|495:132|493:130|492:128|492:128|494:126|494:126|492:128|492:128|489:124|489:124|487:126|487:126|489:124|489:124|487:122|486:120|486:120|488:118|488:118|486:120|486:120|482:116|482:116|480:118|480:118|482:116|482:116|481:115|479:113|479:113|481:111|481:111|479:113|479:113|475:109|475:109|473:112|473:112|475:109|475:109|473:108|472:106|472:106|473:104|473:104|472:106|472:106|468:103|468:103|466:105|466:105|468:103|468:103|466:101|464:100|464:100|465:97|465:97|464:100|464:100|460:97|460:97|458:100|458:100|460:97|460:97|457:96|455:94|455:94|457:92|457:92|455:94|455:94|451:92|451:92|450:94|450:94|451:92|451:92|449:91|447:89|447:89|448:87|448:87|447:89|447:89|442:87|442:87|441:90|441:90|442:87|442:87|440:86|438:85|438:85|439:82|439:82|438:85|438:85|433:83|433:83|432:86|432:86|433:83|433:83|428:82|428:82|429:79|429:79|428:82|428:82|423:80|423:80|423:83|423:83|423:80|423:80|419:79|419:79|419:76|419:76|419:79|419:79|416:78|414:78|414:78|413:81|413:81|414:78|414:78|409:77|409:77|409:74|409:74|409:77|409:77|406:76|404:76|404:76|404:79|404:79|404:76|404:76|399:76|399:76|399:73|399:73|399:76|399:76|396:75|394:75|394:75|394:78|394:78|394:75|394:75|389:75|389:75|389:72|389:72|389:75|389:75|386:75|384:75|384:75|384:78|384:78|384:75|384:75|379:75|379:75|379:72|379:72|379:75|379:75|376:75|374:76|374:76|374:79|374:79|374:76|374:76|369:76|369:76|369:73|369:73|369:76|369:76|367:77|364:77|364:77|365:80|365:80|364:77|364:77|359:78|359:78|359:75|359:75|359:78|359:78|357:79|354:79|354:79|355:82|355:82|354:79|354:79|349:81|349:81|349:78|349:78|349:81|349:81|347:81|345:82|345:82|346:85|346:85|345:82|345:82|340:84|340:84|339:81|339:81|340:84|340:84|338:85|335:86|335:86|337:88|337:88|335:86|335:86|331:88|331:88|330:85|330:85|331:88|331:88|329:89|326:90|326:90|328:93|328:93|326:90|326:90|322:92|322:92|321:90|321:90|322:92|322:92|320:94|318:95|318:95|319:97|319:97|318:95|318:95|314:98|314:98|312:95|312:95|314:98|314:98|311:99|309:101|309:101|311:103|311:103|309:101|309:101|306:104|306:104|304:101|304:101|306:104|306:104|302:107|302:107|304:109|304:109|302:107|302:107|298:110|298:110|296:108|296:108|298:110|298:110|294:114|294:114|296:116|296:116|294:114|294:114|293:115|291:117|291:117|289:115|289:115|291:117|291:117|288:121|288:121|290:123|290:123|288:121|288:121|286:123|284:125|284:125|282:123|282:123|284:125|284:125|281:129|281:129|284:131|284:131|281:129|281:129|280:131|279:133|279:133|276:131|276:131|279:133|279:133|276:137|276:137|278:139|278:139|276:137|276:137|275:139|273:142|273:142|271:140|271:140|273:142|273:142|271:146|271:146|274:147|274:147|271:146|271:146|270:148|269:150|269:150|266:149|266:149|269:150|269:150|267:155|267:155|270:156|270:156|267:155|267:155|266:157|265:160|265:160|262:159|262:159|265:160|265:160|263:164|263:164|266:165|266:165|263:164|263:164|263:167|262:169|262:169|259:168|259:168|262:169|262:169|260:174|260:174|263:175|263:175|260:174|260:174|260:176|259:179|259:179|256:178|256:178|259:179|259:179|258:184|258:184|261:184|261:184|258:184|258:184|258:186|258:189|258:189|255:188|255:188|258:189|258:189|257:194|257:194|260:194|260:194|257:194|257:194|257:196|257:199|257:199|254:199|254:199|257:199|257:199|257:204|257:204|260:204|260:204|257:204|257:204|257:206|257:209|257:209|254:209|254:209|257:209|257:209|257:214|257:214|260:213|260:213|257:214|257:214|257:219|257:219|254:219|254:219|257:219|257:219|258:224|258:224|261:223|261:223|258:224|258:224|259:229|259:229|256:229|256:229|259:229|259:229|259:231|260:233|260:233|263:233|263:233|260:233|260:233|261:238|261:238|258:239|258:239|261:238|261:238|262:241|262:243|262:243|265:242|265:242|262:243|262:243|264:248|264:248|261:249|261:249|264:248|264:248|265:250|266:253|266:253|268:251|268:251|266:253|266:253|267:257|267:257|265:258|265:258|267:257|267:257|268:259|269:262|269:262|272:260|272:260|269:262|269:262|272:266|272:266|269:268|269:268|272:266|272:266|273:268|274:271|274:271|277:269|277:269|274:271|274:271|277:275|277:275|274:276|274:276|277:275|277:275|278:277|279:279|279:279|282:277|282:277|279:279|279:279|282:283|282:283|280:285|280:285|282:283|282:283|284:285|285:287|285:287|288:285|288:285|285:287|285:287|289:291|289:291|286:293|286:293|289:291|289:291|290:293|292:295|292:295|294:293|294:293|292:295|292:295|295:298|295:298|293:300|293:300|295:298|295:298|297:300|299:302|299:302|301:299|301:299|299:302|299:302|301:303|303:305|303:305|301:307|301:307|303:305|303:305|305:307|307:308|307:308|309:306|309:306|307:308|307:308|309:310|311:311|311:311|311:314|311:314|311:311|311:311|311:311,1,1095.03877664264,8|0,0:0|0:0,0:0:0:0:
512,370,135399,102,0,B|509:370|509:370|512:370|512:370|512:366|512:365|512:365|515:365|515:365|512:365|512:365|512:362|512:360|512:360|509:360|509:360|512:360|512:360|512:358|511:355|511:355|514:355|514:355|511:355|511:355|511:353|511:350|511:350|508:350|508:350|511:350|511:350|511:348|510:345|510:345|513:345|513:345|510:345|510:345|509:342|509:340|509:340|506:341|506:341|509:340|509:340|508:337|508:335|508:335|510:335|510:335|508:335|508:335|507:333|506:331|506:331|503:332|503:332|506:331|506:331|505:329|504:326|504:326|507:325|507:325|504:326|504:326|503:324|502:321|502:321|499:323|499:323|502:321|502:321|501:319|500:317|500:317|503:316|503:316|500:317|500:317|499:315|497:313|497:313|495:314|495:314|497:313|497:313|496:311|495:308|495:308|497:307|497:307|495:308|495:308|493:306|492:304|492:304|490:306|490:306|492:304|492:304|490:302|489:300|489:300|491:298|491:298|489:300|489:300|487:298|486:296|486:296|483:298|483:298|486:296|486:296|484:294|482:293|482:293|484:291|484:291|482:293|482:293|480:291|479:289|479:289|477:292|477:292|479:289|479:289|477:287|475:286|475:286|477:284|477:284|475:286|475:286|474:285|471:283|471:283|469:285|469:285|471:283|471:283|470:282|467:280|467:280|469:277|469:277|467:280|467:280|465:279|463:277|463:277|461:280|461:280|463:277|463:277|461:276|459:275|459:275|460:272|460:272|459:275|459:275|457:274|454:272|454:272|453:275|453:275|454:272|454:272|452:271|450:270|450:270|451:267|451:267|450:270|450:270|448:269|445:268|445:268|444:271|444:271|445:268|445:268|443:267|440:266|440:266|441:264|441:264|440:266|440:266|438:266|436:265|436:265|435:268|435:268|436:265|436:265|434:265|431:264|431:264|431:261|431:261|431:264|431:264|429:263|426:263|426:263|425:266|425:266|426:263|426:263|424:262|421:262|421:262|421:259|421:259|421:262|421:262|418:262|416:261|416:261|416:264|416:264|416:261|416:261|413:261|411:261|411:261|411:258|411:258|411:261|411:261|408:261|406:261|406:261|406:264|406:264|406:261|406:261|403:261|401:261|401:261|401:258|401:258|401:261|401:261|398:262|396:262|396:262|396:265|396:265|396:262|396:262|393:262|391:262|391:262|391:259|391:259|391:262|391:262|388:263|386:263|386:263|387:266|387:266|386:263|386:263|383:264|381:264|381:264|380:262|380:262|381:264|381:264|379:265|376:266|376:266|377:269|377:269|376:266|376:266|373:267|372:267|372:267|371:265|371:265|372:267|372:267|369:269|367:269|367:269|368:272|368:272|367:269|367:269|365:270|362:271|362:271|361:269|361:269|362:271|362:271|360:273|358:274|358:274|359:276|359:276|358:274|358:274|355:275|354:276|354:276|352:273|352:273|354:276|354:276|352:277|349:279|349:279|351:281|351:281|349:279|349:279|348:280|345:282|345:282|344:279|344:279|345:282|345:282|344:283|341:285|341:285|343:287|343:287|341:285|341:285|339:286|338:288|338:288|336:286|336:286|338:288|338:288|336:289|336:289|334:291|334:291|336:293|336:293|334:291|334:291|333:292|330:294|330:294|328:292|328:292|330:294|330:294|328:296|326:297|326:297|328:300|328:300|326:297|326:297|323:299|322:300|322:300|320:298|320:298|322:300|322:300|319:302|318:303|318:303|319:305|319:305|318:303|318:303|316:304|313:305|313:305|312:303|312:303|313:305|313:305|311:306|309:307|309:307|310:310|310:310|309:307|309:307|306:309|304:309|304:309|303:307|303:307|304:309|304:309|301:311|299:311|299:311|300:314|300:314|299:311|299:311|297:312|295:313|295:313|294:310|294:310|295:313|295:313|292:313|290:314|290:314|291:317|291:317|290:314|290:314|288:315|285:315|285:315|284:312|284:312|285:315|285:315|282:316|280:316|280:316|281:319|281:319|280:316|280:316|278:316|275:317|275:317|275:314|275:314|275:317|275:317|273:317|270:317|270:317|270:320|270:320|270:317|270:317|267:317|265:317|265:317|265:314|265:314|265:317|265:317|262:317|260:317|260:317|260:320|260:320|260:317|260:317|258:317|255:317|255:317|255:314|255:314|255:317|255:317|252:317|250:316|250:316|250:319|250:319|250:316|250:316|247:316|245:315|245:315|246:313|246:313|245:315|245:315|243:315|240:314|240:314|240:317|240:317|240:314|240:314|239:314|236:313|236:313|236:310|236:310|236:313|236:313|234:313|231:312|231:312|230:315|230:315|231:312|231:312|229:311|226:310|226:310|227:307|227:307|226:310|226:310|224:309|221:308|221:308|220:311|220:311|221:308|221:308|220:307|217:306|217:306|218:303|218:303|217:306|217:306|215:305|213:303|213:303|211:306|211:306|213:303|213:303|211:303|208:301|208:301|210:298|210:298|208:301|208:301|207:300|204:298|204:298|202:300|202:300|204:298|204:298|202:297|200:295|200:295|202:293|202:293|200:295|200:295|199:294|196:292|196:292|194:294|194:294|196:292|196:292|195:291|193:288|193:288|195:286|195:286|193:288|193:288|191:287|189:285|189:285|187:287|187:287|189:285|189:285|187:283|186:281|186:281|188:279|188:279|186:281|186:281|184:279|183:277|183:277|180:279|180:279|183:277|183:277|181:275|180:273|180:273|182:272|182:272|180:273|180:273|178:271|177:269|177:269|174:271|174:271|177:269|177:269|175:267|174:265|174:265|177:263|177:263|174:265|174:265|173:263|172:261|172:261|169:262|169:262|172:261|172:261|170:258|170:256|170:256|172:255|172:255|170:256|170:256|168:253|168:251|168:251|165:253|165:253|168:251|168:251|167:249|166:247|166:247|169:246|169:246|166:247|166:247|165:244|164:242|164:242|162:243|162:243|164:242|164:242|164:239|163:237|163:237|166:236|166:236|163:237|163:237|162:234|162:232|162:232|159:233|159:233|162:232|162:232|162:231|161:227|161:227|164:227|164:227|161:227|161:227|161:226|161:222|161:222|158:223|158:223|161:222|161:222|160:220|160:217|160:217|163:217|163:217|160:217|160:217|160:215|160:212|160:212|157:212|157:212|160:212|160:212|160:212|160:207|160:207|162:205|162:205|160:207|160:207|160:207,1,1094.99572229323,8|0,0:0|0:0,0:0:0:0:
13,165,135723,6,0,B|11:168|11:168|13:165|13:165|17:167|17:168|17:168|19:165|19:165|17:168|17:168|21:169|22:170|22:170|20:173|20:173|22:170|22:170|25:171|26:172|26:172|27:169|27:169|26:172|26:172|29:173|31:174|31:174|30:176|30:176|31:174|31:174|34:174|36:175|36:175|36:172|36:172|36:175|36:175|38:176|41:176|41:176|40:179|40:179|41:176|41:176|43:176|46:177|46:177|46:174|46:174|46:177|46:177|47:177|51:177|51:177|50:180|50:180|51:177|51:177|52:177|56:177|56:177|56:174|56:174|56:177|56:177|58:177|61:177|61:177|61:180|61:180|61:177|61:177|64:176|66:176|66:176|65:173|65:173|66:176|66:176|68:176|70:175|70:175|71:178|71:178|70:175|70:175|73:174|75:174|75:174|74:171|74:171|75:174|75:174|77:173|80:172|80:172|81:175|81:175|80:172|80:172|83:171|85:170|85:170|83:167|83:167|85:170|85:170|88:168|89:168|89:168|90:170|90:170|89:168|89:168|91:166|93:165|93:165|92:163|92:163|93:165|93:165|95:164|97:162|97:162|99:165|99:165|97:162|97:162|99:161|101:159|101:159|99:157|99:157|101:159|101:159|103:157|105:156|105:156|107:158|107:158|105:156|105:156|107:153|108:152|108:152|106:150|106:150|108:152|108:152|110:150|111:148|111:148|114:150|114:150|111:148|111:148|113:146|114:144|114:144|112:142|112:142|114:144|114:144|115:143|117:140|117:140|119:141|119:141|117:140|117:140|118:137|119:135|119:135|116:134|116:134|119:135|119:135|120:132|121:130|121:130|124:132|124:132|121:130|121:130|122:128|122:126|122:126|120:125|120:125|122:126|122:126|123:124|123:124|124:121|124:121|127:122|127:122|124:121|124:121|125:119|126:116|126:116|123:115|123:115|126:116|126:116|126:114|128:112|128:112|130:113|130:113|128:112|128:112|129:109|130:107|130:107|127:106|127:106|130:107|130:107|131:105|133:103|133:103|135:105|135:105|133:103|133:103|134:101|135:99|135:99|133:97|133:97|135:99|135:99|137:97|139:95|139:95|141:97|141:97|139:95|139:95|140:93|142:91|142:91|140:89|140:89|142:91|142:91|143:90|146:88|146:88|148:90|148:90|146:88|146:88|147:87|150:85|150:85|148:83|148:83|150:85|150:85|152:83|154:82|154:82|155:85|155:85|154:82|154:82|155:81|158:80|158:80|157:77|157:77|158:80|158:80|160:79|163:77|163:77|164:80|164:80|163:77|163:77|164:77|167:75|167:75|166:73|166:73|167:75|167:75|169:75|172:74|172:74|173:77|173:77|172:74|172:74|174:73|177:72|177:72|176:70|176:70|177:72|177:72|178:72|182:71|182:71|182:74|182:74|182:71|182:71|183:71|187:71|187:71|186:68|186:68|187:71|187:71|188:71|192:71|192:71|192:74|192:74|192:71|192:71|193:71|197:71|197:71|197:68|197:68|197:71|197:71|198:71|202:71|202:71|201:74|201:74|202:71|202:71|202:71|206:72|206:72|207:69|207:69|206:72|206:72|211:73|211:73|211:76|211:76|211:73|211:73|215:74|216:74|216:74|217:71|217:71|216:74|216:74|219:75|221:76|221:76|220:79|220:79|221:76|221:76|224:77|225:78|225:78|227:75|227:75|225:78|225:78|228:79|230:80|230:80|228:83|228:83|230:80|230:80|232:82|234:83|234:83|236:80|236:80|234:83|234:83|236:84|238:86|238:86|236:88|236:88|238:86|238:86|240:87|242:89|242:89|244:87|244:87|242:89|242:89|243:90|246:93|246:93|243:95|243:95|246:93|246:93|246:93|249:96|249:96|251:94|251:94|249:96|249:96|251:98|252:100|252:100|250:102|250:102|252:100|252:100|254:103|255:104|255:104|257:103|257:103|255:104|255:104|257:107|257:109|257:109|255:110|255:110|257:109|257:109|259:111|260:113|260:113|262:112|262:112|260:113|260:113|260:115|261:118|261:118|259:119|259:119|261:118|261:118|262:120|263:122|263:122|266:122|266:122|263:122|263:122|264:124|264:127|264:127|261:128|261:128|264:127|264:127|265:129|265:132|265:132|268:132|268:132|265:132|265:132|266:134|266:137|266:137|263:137|263:137|266:137|266:137|266:141|266:142|266:142|269:142|269:142|266:142|266:142|266:145|266:147|266:147|263:147|263:147|266:147|266:147|266:150|266:152|266:152|268:153|268:153|266:152|266:152|265:155|265:157|265:157|262:157|262:157|265:157|265:157|264:159|264:162|264:162|267:163|267:163|264:162|264:162|263:164|262:167|262:167|259:166|259:166|262:167|262:167|262:168|260:171|260:171|263:173|263:173|260:171|260:171|259:174|258:176|258:176|256:175|256:175|258:176|258:176|257:179|256:180|256:180|258:182|258:182|256:180|256:180|254:183|253:185|253:185|251:183|251:183|253:185|253:185|252:187|250:189|250:189|252:190|252:190|250:189|250:189|248:191|247:192|247:192|245:190|245:190|247:192|247:192|245:194|243:196|243:196|245:198|245:198|243:196|243:196|242:197|240:199|240:199|238:197|238:197|240:199|240:199|239:200|236:202|236:202|237:205|237:205|236:202|236:202|234:203|231:205|231:205|230:202|230:202|231:205|231:205|228:207|227:207|227:207|228:210|228:210|227:207|227:207|224:209|222:209|222:209|221:207|221:207|222:209|222:209|219:211|218:211|218:211|219:214|219:214|218:211|218:211|215:212|213:213|213:213|212:210|212:210|213:213|213:213|210:213|208:214|208:214|209:217|209:217|208:214|208:214|206:214|203:215|203:215|203:212|203:212|203:215|203:215|200:215|198:215|198:215|198:218|198:218|198:215|198:215|196:215|193:215|193:215|193:212|193:212|193:215|193:215|191:215|188:215|188:215|188:218|188:218|188:215|188:215|186:215|183:214|183:214|184:211|184:211|183:214|183:214|181:214|178:214|178:214|178:216|178:216|178:214|178:214|176:213|173:212|173:212|174:209|174:209|173:212|173:212|171:212|169:211|169:211|168:214|168:214|169:211|169:211|166:210|164:209|164:209|165:206|165:206|164:209|164:209|161:207|160:207|160:207|157:208|157:208|160:207|160:207|160:207,1,1094.99611044955,8|0,0:0|0:0,0:0:0:0:
310,12,136048,102,0,B|313:11|313:11|310:12|310:12|311:16|312:17|312:17|309:18|309:18|312:17|312:17|313:20|314:21|314:21|316:20|316:20|314:21|314:21|314:24|315:26|315:26|312:27|312:27|315:26|315:26|316:28|316:31|316:31|319:30|319:30|316:31|316:31|317:32|318:36|318:36|315:36|315:36|318:36|318:36|318:38|319:41|319:41|322:40|322:40|319:41|319:41|319:44|319:46|319:46|316:46|316:46|319:46|319:46|320:48|320:51|320:51|323:50|323:50|320:51|320:51|320:53|320:56|320:56|317:56|317:56|320:56|320:56|321:58|321:61|321:61|324:60|324:60|321:61|321:61|321:64|321:66|321:66|318:65|318:65|321:66|321:66|321:68|321:71|321:71|324:71|324:71|321:71|321:71|320:73|320:76|320:76|317:75|317:75|320:76|320:76|320:78|320:80|320:80|323:81|323:81|320:80|320:80|319:84|319:85|319:85|316:85|316:85|319:85|319:85|319:88|318:90|318:90|321:91|321:91|318:90|318:90|318:92|317:95|317:95|314:95|314:95|317:95|317:95|317:97|316:100|316:100|319:101|319:101|316:100|316:100|315:103|314:105|314:105|311:104|311:104|314:105|314:105|314:107|313:110|313:110|316:111|316:111|313:110|313:110|312:112|311:114|311:114|308:113|308:113|311:114|311:114|310:117|309:119|309:119|312:120|312:120|309:119|309:119|308:121|307:123|307:123|304:122|304:122|307:123|307:123|306:125|304:128|304:128|305:131|305:131|304:128|304:128|304:129|303:130|303:131|302:132|302:132|299:131|299:131|302:132|302:132|301:134|299:136|299:136|302:138|302:138|299:136|299:136|298:138|297:141|297:141|294:139|294:139|297:141|297:141|295:143|294:145|294:145|296:146|296:146|294:145|294:145|292:147|291:149|291:149|288:147|288:147|291:149|291:149|289:150|287:152|287:152|290:154|290:154|287:152|287:152|286:154|284:156|284:156|282:154|282:154|284:156|284:156|282:158|280:160|280:160|283:162|283:162|280:160|280:160|279:161|277:163|277:163|275:161|275:161|277:163|277:163|275:165|273:166|273:166|275:169|275:169|273:166|273:166|271:168|269:169|269:169|267:167|267:167|269:169|269:169|268:171|265:172|265:172|267:175|267:175|265:172|265:172|263:174|261:175|261:175|259:173|259:173|261:175|261:175|259:176|257:178|257:178|258:180|258:180|257:178|257:178|255:179|252:180|252:180|251:178|251:178|252:180|252:180|250:182|248:183|248:183|249:185|249:185|248:183|248:183|246:184|243:185|243:185|242:182|242:182|243:185|243:185|241:186|239:187|239:187|240:190|240:190|239:187|239:187|236:188|234:189|234:189|233:186|233:186|234:189|234:189|232:190|230:190|230:190|230:193|230:193|230:190|230:190|227:191|225:192|225:192|224:189|224:189|225:192|225:192|222:193|220:193|220:193|221:196|221:196|220:193|220:193|218:194|215:194|215:194|214:191|214:191|215:194|215:194|213:195|210:195|210:195|211:198|211:198|210:195|210:195|208:196|205:196|205:196|205:193|205:193|205:196|205:196|203:196|203:196|200:196|200:196|201:199|201:199|200:196|200:196|198:197|195:197|195:197|195:194|195:194|195:197|195:197|194:198|190:198|190:198|191:201|191:201|190:198|190:198|188:199|186:199|186:199|185:197|185:197|186:199|186:199|182:200|181:201|181:201|182:204|182:204|181:201|181:201|178:202|176:202|176:202|175:199|175:199|176:202|176:202|174:203|171:204|171:204|172:207|172:207|171:204|171:204|170:205|167:206|167:206|165:203|165:203|167:206|167:206|165:207|162:208|162:208|163:211|163:211|162:208|162:208|159:209|158:210|158:210|156:208|156:208|158:210|158:210|155:211|153:213|153:213|155:215|155:215|153:213|153:213|151:214|149:215|149:215|147:213|147:213|149:215|149:215|146:217|145:218|145:218|146:220|146:220|145:218|145:218|142:220|141:221|141:221|139:218|139:218|141:221|141:221|139:222|137:224|137:224|138:226|138:226|137:224|137:224|135:225|133:227|133:227|131:225|131:225|133:227|133:227|131:228|129:230|129:230|131:232|131:232|129:230|129:230|127:232|125:234|125:234|123:231|123:231|125:234|125:234|124:235|122:237|122:237|124:239|124:239|122:237|122:237|120:239|118:241|118:241|116:239|116:239|118:241|118:241|116:243|115:245|115:245|118:247|118:247|115:245|115:245|114:246|112:249|112:249|110:247|110:247|112:249|112:249|111:250|109:253|109:253|112:254|112:254|109:253|109:253|108:255|106:257|106:257|104:255|104:255|106:257|106:257|105:259|104:261|104:261|106:263|106:263|104:261|104:261|103:263|101:265|101:265|99:264|99:264|101:265|101:265|100:268|99:270|99:270|102:271|102:271|99:270|99:270|98:272|97:274|97:274|94:273|94:273|97:274|97:274|96:276|95:279|95:279|98:280|98:280|95:279|95:279|94:282|93:284|93:284|90:283|90:283|93:284|93:284|92:286|92:288|92:288|95:289|95:289|92:288|92:288|91:290|90:293|90:293|87:292|87:292|90:293|90:293|90:296|89:298|89:298|92:299|92:299|89:298|89:298|88:301|88:303|88:303|85:302|85:302|88:303|88:303|88:305|87:308|87:308|90:308|90:308|87:308|87:308|87:310|86:313|86:313|83:313|83:313|86:313|86:313|86:315|86:318|86:318|89:318|89:318|86:318|86:318|86:320|86:323|86:323|83:323|83:323|86:323|86:323|86:325|86:328|86:328|89:328|89:328|86:328|86:328|86:330|86:333|86:333|83:333|83:333|86:333|86:333|86:335|86:338|86:338|89:338|89:338|86:338|86:338|86:341|86:343|86:343|83:343|83:343|86:343|86:343|87:345|87:348|87:348|90:347|90:347|87:348|87:348|87:350|88:353|88:353|85:353|85:353|88:353|88:353|88:356|89:358|89:358|92:357|92:357|89:358|89:358|89:360|90:362|90:362|87:363|87:363|90:362|90:362|90:365|91:367|91:367|94:366|94:366|91:367|91:367|92:370|93:372|93:372|90:373|90:373|93:372|93:372|93:374|94:377|94:377|97:376|97:376|94:377|94:377|95:378|96:381|96:381|95:384|95:384|96:381|96:381|96:381,1,1094.99742462946,8|0,0:0|0:0,0:0:0:0:
294,384,136372,6,0,B|292:382|292:382|294:384|294:384|297:380|297:380|299:382|299:382|297:380|297:380|300:376|300:376|298:374|298:374|300:376|300:376|301:374|303:372|303:372|305:373|305:373|303:372|303:372|305:368|305:368|303:366|303:366|305:368|305:368|307:365|308:363|308:363|311:365|311:365|308:363|308:363|310:359|310:359|308:357|308:357|310:359|310:359|311:357|312:354|312:354|315:355|315:355|312:354|312:354|314:350|314:350|312:349|312:349|314:350|314:350|315:347|316:345|316:345|319:346|319:346|316:345|316:345|318:340|318:340|315:339|315:339|318:340|318:340|318:338|319:336|319:336|322:336|322:336|319:336|319:336|320:331|320:331|318:330|318:330|320:331|320:331|321:328|322:326|322:326|324:326|324:326|322:326|322:326|322:321|322:321|319:320|319:320|322:321|322:321|323:318|323:316|323:316|326:316|326:316|323:316|323:316|324:311|324:311|321:311|321:311|324:311|324:311|324:308|324:306|324:306|327:306|327:306|324:306|324:306|324:301|324:301|321:301|321:301|324:301|324:301|324:298|324:296|324:296|327:296|327:296|324:296|324:296|324:291|324:291|321:291|321:291|324:291|324:291|324:286|324:286|327:286|327:286|324:286|324:286|323:281|323:281|320:281|320:281|323:281|323:281|322:276|322:276|325:276|325:276|322:276|322:276|322:274|322:271|322:271|319:272|319:272|322:271|322:271|320:266|320:266|323:266|323:266|320:266|320:266|320:264|319:261|319:261|316:262|316:262|319:261|319:261|318:257|318:257|321:256|321:256|318:257|318:257|317:254|316:252|316:252|313:253|313:253|316:252|316:252|314:247|314:247|317:246|317:246|314:247|314:247|313:245|312:243|312:243|310:244|310:244|312:243|312:243|310:238|310:238|313:237|313:237|310:238|310:238|309:236|308:234|308:234|305:235|305:235|308:234|308:234|305:229|305:229|308:228|308:228|305:229|305:229|304:227|303:225|303:225|300:227|300:227|303:225|303:225|300:221|300:221|302:219|302:219|300:221|300:221|299:219|297:217|297:217|295:219|295:219|297:217|297:217|294:213|294:213|296:211|296:211|294:213|294:213|292:211|291:209|291:209|289:211|289:211|291:209|291:209|287:205|287:205|290:203|290:203|287:205|287:205|286:204|284:202|284:202|282:204|282:204|284:202|284:202|280:198|280:198|282:196|282:196|280:198|280:198|277:195|277:195|275:197|275:197|277:195|277:195|273:192|273:192|274:190|274:190|273:192|273:192|269:189|269:189|267:191|267:191|269:189|269:189|267:187|265:186|265:186|266:184|266:184|265:186|265:186|260:183|260:183|259:186|259:186|260:183|260:183|258:182|256:181|256:181|258:178|258:178|256:181|256:181|252:178|252:178|250:181|250:181|252:178|252:178|249:177|247:176|247:176|249:173|249:173|247:176|247:176|243:174|243:174|241:177|241:177|243:174|243:174|240:173|238:172|238:172|239:169|239:169|238:172|238:172|233:170|233:170|232:173|232:173|233:170|233:170|231:170|229:169|229:169|229:166|229:166|229:169|229:169|224:167|224:167|223:170|223:170|224:167|224:167|221:167|219:166|219:166|220:163|220:163|219:166|219:166|214:165|214:165|213:168|213:168|214:165|214:165|212:165|209:164|209:164|210:161|210:161|209:164|209:164|204:164|204:164|204:167|204:167|204:164|204:164|202:163|199:163|199:163|199:160|199:160|199:163|199:163|194:163|194:163|194:166|194:166|194:163|194:163|192:163|189:163|189:163|189:160|189:160|189:163|189:163|184:163|184:163|184:166|184:166|184:163|184:163|182:163|179:163|179:163|179:160|179:160|179:163|179:163|174:164|174:164|175:167|175:167|174:164|174:164|169:164|169:164|169:161|169:161|169:164|169:164|167:165|164:165|164:165|165:168|165:168|164:165|164:165|159:166|159:166|159:163|159:163|159:166|159:166|157:167|155:167|155:167|155:170|155:170|155:167|155:167|150:168|150:168|149:166|149:166|150:168|150:168|147:169|145:170|145:170|146:173|146:173|145:170|145:170|140:172|140:172|139:169|139:169|140:172|140:172|138:173|136:174|136:174|137:176|137:176|136:174|136:174|131:176|131:176|130:173|130:173|131:176|131:176|129:177|127:178|127:178|128:180|128:180|127:178|127:178|122:180|122:180|121:178|121:178|122:180|122:180|120:181|118:183|118:183|119:185|119:185|118:183|118:183|114:185|114:185|112:183|112:183|114:185|114:185|112:187|110:188|110:188|111:191|111:191|110:188|110:188|106:191|106:191|104:189|104:189|106:191|106:191|104:193|102:194|102:194|104:197|104:197|102:194|102:194|98:198|98:198|96:195|96:195|98:198|98:198|96:199|94:201|94:201|96:203|96:203|94:201|94:201|91:205|91:205|89:203|89:203|91:205|91:205|89:206|87:208|87:208|90:210|90:210|87:208|87:208|84:212|84:212|82:210|82:210|84:212|84:212|81:216|81:216|83:218|83:218|81:216|81:216|79:218|78:220|78:220|76:218|76:218|78:220|78:220|75:224|75:224|78:226|78:226|75:224|75:224|74:226|72:228|72:228|70:227|70:227|72:228|72:228|70:233|70:233|73:234|73:234|70:233|70:233|69:235|68:237|68:237|65:236|65:236|68:237|68:237|65:242|65:242|68:243|68:243|65:242|65:242|64:244|63:246|63:246|61:245|61:245|63:246|63:246|62:251|62:251|64:252|64:252|62:251|62:251|61:253|60:256|60:256|57:255|57:255|60:256|60:256|58:260|58:260|61:261|61:261|58:260|58:260|58:263|57:265|57:265|54:264|54:264|57:265|57:265|57:268|56:270|56:270|59:271|59:271|56:270|56:270|56:272|55:275|55:275|53:277|53:277|55:275|55:275|55:275,1,1095.03561078611,8|0,0:0|0:0,0:0:0:0:
0,100,136696,102,0,B|-2:98|-2:98|0:100|0:100|3:97|4:97|4:97|6:99|6:99|4:97|4:97|6:95|8:94|8:94|6:91|6:91|8:94|8:94|10:92|12:91|12:91|14:93|14:93|12:91|12:91|14:89|16:88|16:88|14:86|14:86|16:88|16:88|17:87|20:86|20:86|22:88|22:88|20:86|20:86|23:84|25:83|25:83|23:81|23:81|25:83|25:83|28:82|29:81|29:81|31:84|31:84|29:81|29:81|31:80|34:79|34:79|33:76|33:76|34:79|34:79|36:78|39:77|39:77|40:80|40:80|39:77|39:77|41:77|43:76|43:76|42:73|42:73|43:76|43:76|47:75|48:74|48:74|49:77|49:77|48:74|48:74|51:74|53:73|53:73|52:70|52:70|53:73|53:73|55:73|58:72|58:72|58:75|58:75|58:72|58:72|61:72|63:72|63:72|63:69|63:69|63:72|63:72|66:71|68:71|68:71|68:74|68:74|68:71|68:71|71:71|73:71|73:71|73:68|73:68|73:71|73:71|75:71|78:71|78:71|78:74|78:74|78:71|78:71|80:71|83:71|83:71|83:68|83:68|83:71|83:71|85:71|88:72|88:72|88:75|88:75|88:72|88:72|90:72|93:72|93:72|93:69|93:69|93:72|93:72|95:72|98:73|98:73|97:76|97:76|98:73|98:73|101:74|103:74|103:74|103:71|103:71|103:74|103:74|105:75|107:75|107:75|107:78|107:78|107:75|107:75|110:76|112:77|112:77|113:74|113:74|112:77|112:77|115:78|117:78|117:78|116:81|116:81|117:78|117:78|119:79|122:80|122:80|123:77|123:77|122:80|122:80|124:81|126:82|126:82|125:85|125:85|126:82|126:82|129:84|131:85|131:85|132:82|132:82|131:85|131:85|133:86|135:87|135:87|133:90|133:90|135:87|135:87|137:88|139:90|139:90|141:87|141:87|139:90|139:90|142:91|143:93|143:93|142:95|142:95|143:93|143:93|145:94|147:96|147:96|149:93|149:93|147:96|147:96|149:97|151:99|151:99|149:101|149:101|151:99|151:99|153:101|155:102|155:102|157:100|157:100|155:102|155:102|157:104|158:106|158:106|156:108|156:108|158:106|158:106|160:107|162:109|162:109|164:107|164:107|162:109|162:109|164:112|165:113|165:113|163:115|163:115|165:113|165:113|167:115|168:117|168:117|171:115|171:115|168:117|168:117|169:119|171:121|171:121|169:123|169:123|171:121|171:121|173:124|174:125|174:125|176:124|176:124|174:125|174:125|175:127|176:130|176:130|174:131|174:131|176:130|176:130|177:132|179:134|179:134|181:133|181:133|179:134|179:134|180:137|181:139|181:139|178:140|178:140|181:139|181:139|182:141|183:143|183:143|185:142|185:142|183:143|183:143|184:145|184:148|184:148|182:149|182:149|184:148|184:148|185:151|186:153|186:153|189:152|189:152|186:153|186:153|187:155|187:157|187:157|184:158|184:158|187:157|187:157|188:159|188:162|188:162|191:162|191:162|188:162|188:162|189:165|189:167|189:167|186:168|186:168|189:167|189:167|190:170|190:170|190:172|190:172|193:172|193:172|190:172|190:172|190:175|191:177|191:177|188:178|188:178|191:177|191:177|191:179|192:182|192:182|195:181|195:181|192:182|192:182|192:184|193:187|193:187|190:188|190:188|193:187|193:187|194:190|195:192|195:192|198:191|198:191|195:192|195:192|196:194|196:196|196:196|194:197|194:197|196:196|196:196|197:199|198:201|198:201|201:200|201:200|198:201|198:201|199:202|201:205|201:205|198:207|198:207|201:205|201:205|201:207|203:210|203:210|206:208|206:208|203:210|203:210|204:212|205:214|205:214|203:216|203:216|205:214|205:214|207:216|208:218|208:218|211:217|211:217|208:218|208:218|209:220|211:222|211:222|209:224|209:224|211:222|211:222|213:225|214:226|214:226|216:224|216:224|214:226|214:226|216:228|217:230|217:230|215:232|215:232|217:230|217:230|219:232|221:234|221:234|223:232|223:232|221:234|221:234|223:236|224:237|224:237|222:239|222:239|224:237|224:237|227:239|228:241|228:241|230:238|230:238|228:241|228:241|230:242|232:244|232:244|230:246|230:246|232:244|232:244|234:245|236:247|236:247|238:244|238:244|236:247|236:247|238:248|240:249|240:249|239:252|239:252|240:249|240:249|242:251|245:252|245:252|246:249|246:249|245:252|245:252|246:253|249:254|249:254|247:257|247:257|249:254|249:254|251:255|253:257|253:257|255:254|255:254|253:257|253:257|256:258|258:259|258:259|257:262|257:262|258:259|258:259|260:260|263:261|263:261|264:258|264:258|263:261|263:261|265:261|267:262|267:262|266:265|266:265|267:262|267:262|270:263|272:264|272:264|273:261|273:261|272:264|272:264|274:264|277:265|277:265|276:268|276:268|277:265|277:265|279:265|282:266|282:266|282:263|282:263|282:266|282:266|285:266|287:267|287:267|286:270|286:270|287:267|287:267|289:267|292:267|292:267|292:264|292:264|292:267|292:267|294:268|297:268|297:268|297:271|297:271|297:268|297:268|300:268|302:268|302:268|302:265|302:265|302:268|302:268|304:268|307:268|307:268|307:271|307:271|307:268|307:268|309:268|312:268|312:268|311:265|311:265|312:268|312:268|315:267|317:267|317:267|317:270|317:270|317:267|317:267|319:267|322:266|322:266|321:263|321:263|322:266|322:266|324:266|327:265|327:265|327:268|327:268|327:265|327:265|329:265|331:264|331:264|331:261|331:261|331:264|331:264|334:264|336:263|336:263|337:266|337:266|336:263|336:263|338:262|341:261|341:261|340:259|340:259|341:261|341:261|344:260|346:260|346:260|347:262|347:262|346:260|346:260|348:259|350:258|350:258|349:255|349:255|350:258|350:258|352:257|355:255|355:255|356:258|356:258|355:255|355:255|357:254|359:253|359:253|358:250|358:250|359:253|359:253|361:252|363:251|363:251|365:253|365:253|363:251|363:251|365:249|368:248|368:248|366:245|366:245|368:248|368:248|370:246|372:245|372:245|373:247|373:247|372:245|372:245|373:244|376:242|376:242|374:239|374:239|376:242|376:242|376:241|379:238|379:238|382:239|382:239|379:238|379:238|379:238,1,1094.99664520805,8|0,0:0|0:0,0:0:0:0:
489,118,137021,6,0,B|491:115|491:115|489:118|489:118|485:116|485:115|485:115|483:118|483:118|485:115|485:115|481:114|480:113|480:113|482:110|482:110|480:113|480:113|477:112|476:111|476:111|475:114|475:114|476:111|476:111|473:110|471:109|471:109|472:107|472:107|471:109|471:109|468:109|466:108|466:108|466:111|466:111|466:108|466:108|464:107|461:107|461:107|462:104|462:104|461:107|461:107|459:107|456:106|456:106|456:109|456:109|456:106|456:106|455:106|451:106|451:106|452:103|452:103|451:106|451:106|450:106|446:106|446:106|446:109|446:109|446:106|446:106|444:106|441:106|441:106|441:103|441:103|441:106|441:106|438:107|436:107|436:107|437:110|437:110|436:107|436:107|434:107|432:108|432:108|431:105|431:105|432:108|432:108|429:109|427:109|427:109|428:112|428:112|427:109|427:109|425:110|422:111|422:111|421:108|421:108|422:111|422:111|419:112|417:113|417:113|419:116|419:116|417:113|417:113|414:115|413:115|413:115|412:113|412:113|413:115|413:115|411:117|409:118|409:118|410:120|410:120|409:118|409:118|407:119|405:121|405:121|403:118|403:118|405:121|405:121|403:122|401:124|401:124|403:126|403:126|401:124|401:124|399:126|397:127|397:127|395:125|395:125|397:127|397:127|395:130|394:131|394:131|396:133|396:133|394:131|394:131|392:133|391:135|391:135|388:133|388:133|391:135|391:135|389:137|388:139|388:139|390:141|390:141|388:139|388:139|387:140|385:143|385:143|383:142|383:142|385:143|385:143|384:146|383:148|383:148|386:149|386:149|383:148|383:148|382:151|381:153|381:153|378:151|378:151|381:153|381:153|380:155|380:157|380:157|382:158|382:158|380:157|380:157|379:159|379:159|378:162|378:162|375:161|375:161|378:162|378:162|377:164|376:167|376:167|379:168|379:168|376:167|376:167|376:169|374:171|374:171|372:170|372:170|374:171|374:171|373:174|372:176|372:176|375:177|375:177|372:176|372:176|371:178|369:180|369:180|367:178|367:178|369:180|369:180|368:182|367:184|367:184|369:186|369:186|367:184|367:184|365:186|363:188|363:188|361:186|361:186|363:188|363:188|362:190|360:192|360:192|362:194|362:194|360:192|360:192|359:193|356:195|356:195|354:193|354:193|356:195|356:195|355:196|352:198|352:198|354:200|354:200|352:198|352:198|350:200|348:201|348:201|347:198|347:198|348:201|348:201|347:202|344:203|344:203|345:206|345:206|344:203|344:203|342:204|339:206|339:206|338:203|338:203|339:206|339:206|338:206|335:208|335:208|336:210|336:210|335:208|335:208|333:208|330:209|330:209|329:206|329:206|330:209|330:209|328:210|325:211|325:211|326:213|326:213|325:211|325:211|324:211|320:212|320:212|320:209|320:209|320:212|320:212|319:212|315:212|315:212|316:215|316:215|315:212|315:212|314:212|310:212|310:212|310:209|310:209|310:212|310:212|309:212|305:212|305:212|305:215|305:215|305:212|305:212|304:212|300:212|300:212|301:209|301:209|300:212|300:212|300:212|296:211|296:211|295:214|295:214|296:211|296:211|291:210|291:210|291:207|291:207|291:210|291:210|287:209|286:209|286:209|285:212|285:212|286:209|286:209|283:208|281:207|281:207|282:204|282:204|281:207|281:207|278:206|277:205|277:205|275:208|275:208|277:205|277:205|274:204|272:203|272:203|274:200|274:200|272:203|272:203|270:201|268:200|268:200|266:203|266:203|268:200|268:200|266:199|264:197|264:197|266:195|266:195|264:197|264:197|262:196|260:194|260:194|258:196|258:196|260:194|260:194|259:193|256:190|256:190|259:188|259:188|256:190|256:190|256:190|253:187|253:187|251:189|251:189|253:187|253:187|251:185|250:183|250:183|252:181|252:181|250:183|250:183|248:180|247:179|247:179|245:180|245:180|247:179|247:179|245:176|245:174|245:174|247:173|247:173|245:174|245:174|243:172|242:170|242:170|240:171|240:171|242:170|242:170|242:168|241:165|241:165|243:164|243:164|241:165|241:165|240:163|239:161|239:161|236:161|236:161|239:161|239:161|238:159|238:156|238:156|241:155|241:155|238:156|238:156|237:154|237:151|237:151|234:151|234:151|237:151|237:151|236:149|236:146|236:146|239:146|239:146|236:146|236:146|236:142|236:141|236:141|233:141|233:141|236:141|236:141|236:138|236:136|236:136|239:136|239:136|236:136|236:136|236:133|236:131|236:131|234:130|234:130|236:131|236:131|237:128|237:126|237:126|240:126|240:126|237:126|237:126|238:124|238:121|238:121|235:120|235:120|238:121|238:121|239:119|240:116|240:116|243:117|243:117|240:116|240:116|240:115|242:112|242:112|239:110|239:110|242:112|242:112|243:109|244:107|244:107|246:108|246:108|244:107|244:107|245:104|246:103|246:103|244:101|244:101|246:103|246:103|248:100|249:98|249:98|251:100|251:100|249:98|249:98|250:96|252:94|252:94|250:93|250:93|252:94|252:94|254:92|255:91|255:91|257:93|257:93|255:91|255:91|257:89|259:87|259:87|257:85|257:85|259:87|259:87|260:86|262:84|262:84|264:86|264:86|262:84|262:84|263:83|266:81|266:81|265:78|265:78|266:81|266:81|268:80|271:78|271:78|272:81|272:81|271:78|271:78|274:76|275:76|275:76|274:73|274:73|275:76|275:76|278:74|280:74|280:74|281:76|281:76|280:74|280:74|283:72|284:72|284:72|283:69|283:69|284:72|284:72|287:71|289:70|289:70|290:73|290:73|289:70|289:70|292:70|294:69|294:69|293:66|293:66|294:69|294:69|296:69|299:68|299:68|299:71|299:71|299:68|299:68|302:68|304:68|304:68|304:65|304:65|304:68|304:68|306:68|309:68|309:68|309:71|309:71|309:68|309:68|311:68|314:68|314:68|314:65|314:65|314:68|314:68|316:68|319:69|319:69|318:72|318:72|319:69|319:69|321:69|324:69|324:69|324:67|324:67|324:69|324:69|326:70|329:71|329:71|328:74|328:74|329:71|329:71|331:71|333:72|333:72|334:69|334:69|333:72|333:72|336:73|338:74|338:74|337:77|337:77|338:74|338:74|341:76|342:76|342:76|345:75|345:75|342:76|342:76|342:76,1,1094.99611044955,8|0,0:0|0:0,0:0:0:0:
435,234,137345,102,0,B|437:235|437:235|435:234|435:234|432:238|432:238|429:236|429:236|432:238|432:238|428:241|428:241|430:243|430:243|428:241|428:241|426:243|425:245|425:245|422:243|422:243|425:245|425:245|422:249|422:249|424:250|424:250|422:249|422:249|420:250|418:252|418:252|416:250|416:250|418:252|418:252|414:255|414:255|416:257|416:257|414:255|414:255|413:258|411:259|411:259|408:257|408:257|411:259|411:259|407:262|407:262|408:264|408:264|407:262|407:262|402:264|402:264|401:263|401:263|402:264|402:264|400:267|398:268|398:268|400:271|400:271|398:268|398:268|395:270|395:270|392:268|392:268|395:270|395:270|392:272|390:274|390:274|391:275|391:275|390:274|390:274|386:276|386:276|384:273|384:273|386:276|386:276|383:277|381:278|381:278|382:280|382:280|381:278|381:278|376:280|376:280|375:278|375:278|376:280|376:280|372:282|372:282|374:285|374:285|372:282|372:282|370:283|368:285|368:285|366:282|366:282|368:285|368:285|363:286|363:286|364:289|364:289|363:286|363:286|361:287|358:287|358:287|358:284|358:284|358:287|358:287|353:289|353:289|354:292|354:292|353:289|353:289|351:290|348:290|348:290|348:287|348:287|348:290|348:290|343:292|343:292|344:295|344:295|343:292|343:292|341:292|338:293|338:293|338:290|338:290|338:293|338:293|334:293|334:293|335:296|335:296|334:293|334:293|329:294|329:294|328:291|328:291|329:294|329:294|326:294|324:294|324:294|325:297|325:297|324:294|324:294|319:295|319:295|319:292|319:292|319:295|319:295|316:295|314:295|314:295|314:298|314:298|314:295|314:295|309:296|309:296|309:293|309:293|309:296|309:296|306:295|304:295|304:295|304:298|304:298|304:295|304:295|299:295|299:295|299:292|299:292|299:295|299:295|294:295|294:295|294:298|294:298|294:295|294:295|291:294|289:294|289:294|289:291|289:291|289:294|289:294|284:294|284:294|283:296|283:296|284:294|284:294|281:293|279:292|279:292|280:289|280:289|279:292|279:292|274:292|274:292|273:295|273:295|274:292|274:292|272:291|270:290|270:290|271:287|271:287|270:290|270:290|265:289|265:289|264:292|264:292|265:289|265:289|260:288|260:288|260:285|260:285|260:288|260:288|255:285|255:285|254:288|254:288|255:285|255:285|250:284|250:284|252:282|252:282|250:284|250:284|248:283|246:282|246:282|244:285|244:285|246:282|246:282|241:280|241:280|243:277|243:277|241:280|241:280|239:279|237:278|237:278|236:280|236:280|237:278|237:278|232:275|232:275|234:273|234:273|232:275|232:275|230:274|228:273|228:273|226:276|226:276|228:273|228:273|224:270|224:270|226:268|226:268|224:270|224:270|220:267|220:267|218:270|218:270|220:267|220:267|217:266|215:265|215:265|217:263|217:263|215:265|215:265|211:261|211:261|209:264|209:264|211:261|211:261|210:260|208:258|208:258|210:256|210:256|208:258|208:258|203:255|203:255|202:257|202:257|203:255|203:255|202:254|200:252|200:252|202:250|202:250|200:252|200:252|197:248|197:248|195:250|195:250|197:248|197:248|194:245|194:245|195:242|195:242|194:245|194:245|191:243|190:241|190:241|187:243|187:243|190:241|190:241|187:237|187:237|189:235|189:235|187:237|187:237|186:235|184:233|184:233|182:235|182:235|184:233|184:233|181:229|181:229|183:227|183:227|181:229|181:229|179:227|178:225|178:225|175:226|175:226|178:225|178:225|175:221|175:221|177:219|177:219|175:221|175:221|174:218|173:216|173:216|170:217|170:217|173:216|173:216|171:212|171:212|172:210|172:210|171:212|171:212|168:208|168:208|165:209|165:209|168:208|168:208|167:206|166:203|166:203|169:202|169:202|166:203|166:203|163:198|163:198|160:199|160:199|163:198|163:198|163:196|162:194|162:194|165:193|165:193|162:194|162:194|161:189|161:189|158:190|158:190|161:189|161:189|159:186|158:184|158:184|161:183|161:183|158:184|158:184|157:180|157:180|155:181|155:181|157:180|157:180|156:175|156:175|159:174|159:174|156:175|156:175|155:173|155:170|155:170|152:171|152:171|155:170|155:170|153:165|153:165|156:164|156:164|153:165|153:165|153:163|153:160|153:160|150:160|150:160|153:160|153:160|153:155|153:155|156:155|156:155|153:155|153:155|152:153|152:150|152:150|149:150|149:150|152:150|152:150|152:145|152:145|155:145|155:145|152:145|152:145|152:143|151:140|151:140|148:140|148:140|151:140|151:140|152:135|152:135|155:135|155:135|152:135|152:135|151:130|151:130|148:130|148:130|151:130|151:130|152:128|152:125|152:125|155:125|155:125|152:125|152:125|153:120|153:120|150:120|150:120|153:120|153:120|153:118|153:116|153:116|156:115|156:115|153:116|153:116|154:111|154:111|151:110|151:110|154:111|154:111|154:107|155:105|155:105|158:106|158:106|155:105|155:105|156:100|156:100|153:100|153:100|156:100|156:100|157:95|157:95|160:96|160:96|157:95|157:95|158:93|159:91|159:91|156:90|156:90|159:91|159:91|161:86|161:86|163:87|163:87|161:86|161:86|161:84|162:82|162:82|159:80|159:80|162:82|162:82|164:76|164:76|167:78|167:78|164:76|164:76|165:74|165:72|165:72|163:71|163:71|165:72|165:72|168:68|168:68|171:69|171:69|168:68|168:68|171:63|171:63|168:62|168:62|171:63|171:63|172:59|172:59|175:60|175:60|172:59|172:59|175:54|175:54|173:53|173:53|175:54|175:54|177:52|178:50|178:50|181:52|181:52|178:50|178:50|179:48|181:46|181:46|178:44|178:44|181:46|181:46|182:44|184:43|184:43|187:41|187:41|184:43|184:43|184:43,1,1095.03181248623,8|0,0:0|0:0,0:0:0:0:
370,50,137669,6,0,B|368:52|368:52|370:50|370:50|367:47|367:46|367:46|369:44|369:44|367:46|367:46|364:44|363:43|363:43|361:45|361:45|363:43|363:43|361:41|359:40|359:40|361:37|361:37|359:40|359:40|357:38|355:37|355:37|353:39|353:39|355:37|355:37|354:36|351:34|351:34|353:31|353:31|351:34|351:34|349:32|347:31|347:31|345:33|345:33|347:31|347:31|344:29|343:28|343:28|344:26|344:26|343:28|343:28|341:27|338:26|338:26|337:29|337:29|338:26|338:26|336:25|334:24|334:24|335:21|335:21|334:24|334:24|332:23|329:22|329:22|328:25|328:25|329:22|329:22|326:21|324:20|324:20|325:18|325:18|324:20|324:20|322:20|320:19|320:19|319:22|319:22|320:19|320:19|318:19|315:18|315:18|315:15|315:15|315:18|315:18|312:17|310:17|310:17|309:20|309:20|310:17|310:17|307:16|305:16|305:16|305:13|305:13|305:16|305:16|302:16|300:16|300:16|300:19|300:19|300:16|300:16|298:16|295:15|295:15|295:12|295:12|295:15|295:15|293:15|290:15|290:15|290:18|290:18|290:15|290:15|287:16|285:16|285:16|285:13|285:13|285:16|285:16|283:16|280:16|280:16|280:19|280:19|280:16|280:16|278:16|275:17|275:17|274:14|274:14|275:17|275:17|272:17|270:18|270:18|271:21|271:21|270:18|270:18|268:18|265:19|265:19|264:16|264:16|265:19|265:19|263:19|260:20|260:20|261:23|261:23|260:20|260:20|258:21|256:22|256:22|255:19|255:19|256:22|256:22|253:23|251:24|251:24|252:26|252:26|251:24|251:24|249:25|246:26|246:26|245:23|245:23|246:26|246:26|244:27|242:28|242:28|243:31|243:31|242:28|242:28|240:29|238:31|238:31|236:28|236:28|238:31|238:31|236:32|233:33|233:33|235:36|235:36|233:33|233:33|231:35|229:36|229:36|228:34|228:34|229:36|229:36|227:38|225:39|225:39|227:42|227:42|225:39|225:39|224:41|222:42|222:42|220:40|220:40|222:42|222:42|219:44|218:46|218:46|220:48|220:48|218:46|218:46|216:48|215:50|215:50|212:47|212:47|215:50|215:50|213:51|211:53|211:53|214:55|214:55|211:53|211:53|209:56|208:57|208:57|206:55|206:55|208:57|208:57|207:59|205:61|205:61|208:63|208:63|205:61|205:61|204:63|203:66|203:66|200:64|200:64|203:66|203:66|201:68|200:70|200:70|203:71|203:71|200:70|200:70|199:72|198:74|198:74|195:73|195:73|198:74|198:74|197:76|196:79|196:79|198:80|198:80|196:79|196:79|195:82|194:83|194:83|191:82|191:82|194:83|194:83|193:86|192:88|192:88|195:89|195:89|192:88|192:88|191:90|191:93|191:93|188:92|188:92|191:93|191:93|190:96|190:98|190:98|192:98|192:98|190:98|190:98|189:100|189:103|189:103|186:102|186:102|189:103|189:103|188:104|188:108|188:108|191:108|191:108|188:108|188:108|188:110|187:113|187:113|184:112|184:112|187:113|187:113|187:115|187:115|187:118|187:118|190:118|190:118|187:118|187:118|187:120|187:123|187:123|184:122|184:122|187:123|187:123|186:124|186:128|186:128|189:128|189:128|186:128|186:128|186:130|185:132|185:132|182:132|182:132|185:132|185:132|184:136|184:137|184:137|187:138|187:138|184:137|184:137|183:140|182:142|182:142|180:141|180:141|182:142|182:142|182:145|181:147|181:147|184:148|184:148|181:147|181:147|180:149|179:152|179:152|176:150|176:150|179:152|179:152|178:153|177:156|177:156|180:157|180:157|177:156|177:156|175:159|175:161|175:161|172:159|172:159|175:161|175:161|173:163|172:165|172:165|175:166|175:166|172:165|172:165|171:166|169:169|169:169|167:167|167:167|169:169|169:169|168:171|167:173|167:173|169:175|169:175|167:173|167:173|165:175|163:177|163:177|161:175|161:175|163:177|163:177|162:179|160:181|160:181|162:183|162:183|160:181|160:181|158:183|157:185|157:185|155:182|155:182|157:185|157:185|154:187|153:188|153:188|155:190|155:190|153:188|153:188|151:190|149:191|149:191|147:189|147:189|149:191|149:191|148:192|145:194|145:194|147:197|147:197|145:194|145:194|144:196|141:197|141:197|140:195|140:195|141:197|141:197|139:199|137:200|137:200|139:203|139:203|137:200|137:200|135:201|133:203|133:203|131:200|131:200|133:203|133:203|131:204|128:205|128:205|130:208|130:208|128:205|128:205|126:206|124:207|124:207|123:204|123:204|124:207|124:207|122:208|119:209|119:209|120:212|120:212|119:209|119:209|117:210|115:210|115:210|114:208|114:208|115:210|115:210|112:211|110:212|110:212|111:215|111:215|110:212|110:212|108:212|105:213|105:213|104:210|104:210|105:213|105:213|103:214|100:214|100:214|101:217|101:217|100:214|100:214|97:214|95:215|95:215|95:212|95:212|95:215|95:215|93:215|90:215|90:215|90:218|90:218|90:215|90:215|88:215|85:216|85:216|85:213|85:213|85:216|85:216|83:216|80:216|80:216|80:219|80:219|80:216|80:216|78:215|75:215|75:215|75:212|75:212|75:215|75:215|73:215|70:215|70:215|70:218|70:218|70:215|70:215|68:215|65:214|65:214|66:211|66:211|65:214|65:214|63:214|60:213|60:213|60:216|60:216|60:213|60:213|58:213|55:212|55:212|56:209|56:209|55:212|55:212|53:211|51:211|51:211|50:213|50:213|51:211|51:211|49:210|46:209|46:209|47:206|47:206|46:209|46:209|44:208|41:207|41:207|40:210|40:210|41:207|41:207|39:206|37:205|37:205|38:202|38:202|37:205|37:205|35:204|32:203|32:203|31:205|31:205|32:203|32:203|31:202|28:200|28:200|30:198|30:198|28:200|28:200|26:199|24:197|24:197|22:200|22:200|24:197|24:197|22:196|20:195|20:195|22:192|22:192|20:195|20:195|18:193|16:191|16:191|14:194|14:194|16:191|16:191|14:190|12:188|12:188|14:186|14:186|12:188|12:188|11:187|8:185|8:185|6:187|6:187|8:185|8:185|8:184|5:181|5:181|5:178|5:178|5:181|5:181|5:181,1,1094.99614352293,8|0,0:0|0:0,0:0:0:0:
150,384,137994,102,0,B|148:382|148:382|150:384|150:384|153:381|154:381|154:381|156:383|156:383|154:381|154:381|156:378|157:377|157:377|155:375|155:375|157:377|157:377|159:375|160:373|160:373|163:375|163:375|160:373|160:373|162:371|163:369|163:369|161:367|161:367|163:369|163:369|164:368|166:365|166:365|169:367|169:367|166:365|166:365|168:363|169:361|169:361|166:359|166:359|169:361|169:361|170:358|171:356|171:356|174:358|174:358|171:356|171:356|172:354|174:352|174:352|171:351|171:351|174:352|174:352|174:350|176:347|176:347|178:349|178:349|176:347|176:347|176:345|177:343|177:343|175:342|175:342|177:343|177:343|179:340|179:338|179:338|182:339|182:339|179:338|179:338|180:336|180:333|180:333|178:332|178:332|180:333|180:333|181:331|182:328|182:328|184:329|184:329|182:328|182:328|182:326|182:323|182:323|179:323|179:323|182:323|182:323|183:321|183:318|183:318|186:319|186:319|183:318|183:318|183:316|184:313|184:313|181:313|181:313|184:313|184:313|184:310|184:309|184:309|187:309|187:309|184:309|184:309|184:305|184:304|184:304|181:304|181:304|184:304|184:304|184:301|183:299|183:299|186:298|186:298|183:299|183:299|183:297|183:294|183:294|180:294|180:294|183:294|183:294|183:292|182:289|182:289|185:288|185:288|182:289|182:289|182:286|181:284|181:284|178:284|178:284|181:284|181:284|181:282|180:279|180:279|183:278|183:278|180:279|180:279|179:277|178:274|178:274|176:275|176:275|178:274|178:274|178:272|177:269|177:269|180:268|180:268|177:269|177:269|176:268|175:265|175:265|172:266|172:266|175:265|175:265|174:263|173:260|173:260|175:259|175:259|173:260|173:260|172:258|170:256|170:256|168:257|168:257|170:256|170:256|170:254|168:251|168:251|171:250|171:250|168:251|168:251|167:250|165:247|165:247|163:249|163:249|165:247|165:247|164:245|162:243|162:243|165:241|165:241|162:243|162:243|161:242|159:239|159:239|157:241|157:241|159:239|159:239|158:238|156:236|156:236|158:234|158:234|156:236|156:236|154:234|152:232|152:232|150:234|150:234|152:232|152:232|151:231|149:229|149:229|151:226|151:226|149:229|149:229|147:227|145:225|145:225|143:228|143:228|145:225|145:225|143:224|141:222|141:222|143:220|143:220|141:222|141:222|139:221|137:219|137:219|135:222|135:222|137:219|137:219|135:218|133:217|133:217|134:214|134:214|133:217|133:217|131:216|128:214|128:214|127:217|127:217|128:214|128:214|127:213|124:212|124:212|125:209|125:209|124:212|124:212|122:211|119:210|119:210|118:213|118:213|119:210|119:210|117:209|115:208|115:208|116:205|116:205|115:208|115:208|113:207|110:207|110:207|109:209|109:209|110:207|110:207|108:206|105:205|105:205|106:202|106:202|105:205|105:205|102:205|100:204|100:204|100:207|100:207|100:204|100:204|98:204|95:203|95:203|96:200|96:200|95:203|95:203|93:203|90:202|90:202|90:205|90:205|90:202|90:202|87:202|85:202|85:202|85:199|85:199|85:202|85:202|83:202|83:202|80:202|80:202|80:205|80:205|80:202|80:202|78:202|75:201|75:201|76:198|76:198|75:201|75:201|74:201|70:201|70:201|70:204|70:204|70:201|70:201|68:200|65:200|65:200|66:197|66:197|65:200|65:200|62:199|61:198|61:198|60:201|60:201|61:198|61:198|58:198|56:197|56:197|57:194|57:194|56:197|56:197|53:196|51:195|51:195|50:198|50:198|51:195|51:195|50:195|46:194|46:194|48:191|48:191|46:194|46:194|45:193|42:191|42:191|41:194|41:194|42:191|42:191|39:190|37:189|37:189|39:187|39:187|37:189|37:189|35:188|33:187|33:187|32:189|32:189|33:187|33:187|32:186|29:184|29:184|31:182|31:182|29:184|29:184|27:183|25:181|25:181|23:184|23:184|25:181|25:181|23:179|21:178|21:178|23:176|23:176|21:178|21:178|19:177|17:175|17:175|15:177|15:177|17:175|17:175|15:173|13:171|13:171|16:169|16:169|13:171|13:171|11:169|10:168|10:168|8:170|8:170|10:168|10:168|8:166|7:164|7:164|9:162|9:162|7:164|7:164|6:163|4:160|4:160|1:162|1:162|4:160|4:160|3:159|1:156|1:156|3:154|3:154|1:156|1:156|-1:154|-2:152|-2:152|-5:153|-5:153|-2:152|-2:152|-3:150|-4:147|-4:147|-2:146|-2:146|-4:147|-4:147|-5:146|-7:143|-7:143|-9:144|-9:144|-7:143|-7:143|-8:141|-9:138|-9:138|-6:137|-6:137|-9:138|-9:138|-10:137|-11:134|-11:134|-14:135|-14:135|-11:134|-11:134|-11:132|-12:129|-12:129|-10:128|-10:128|-12:129|-12:129|-13:127|-14:124|-14:124|-17:125|-17:125|-14:124|-14:124|-14:122|-15:119|-15:119|-12:119|-12:119|-15:119|-15:119|-15:118|-16:115|-16:115|-19:115|-19:115|-16:115|-16:115|-16:112|-17:110|-17:110|-14:109|-14:109|-17:110|-17:110|-17:108|-17:105|-17:105|-20:105|-20:105|-17:105|-17:105|-17:103|-17:100|-17:100|-14:100|-14:100|-17:100|-17:100|-17:97|-17:95|-17:95|-20:95|-20:95|-17:95|-17:95|-17:93|-17:90|-17:90|-14:90|-14:90|-17:90|-17:90|-17:88|-17:85|-17:85|-20:84|-20:84|-17:85|-17:85|-16:82|-16:80|-16:80|-13:80|-13:80|-16:80|-16:80|-16:78|-15:75|-15:75|-18:74|-18:74|-15:75|-15:75|-15:73|-14:70|-14:70|-11:71|-11:71|-14:70|-14:70|-13:67|-12:65|-12:65|-15:64|-15:64|-12:65|-12:65|-11:62|-11:60|-11:60|-8:62|-8:62|-11:60|-11:60|-10:57|-9:56|-9:56|-12:55|-12:55|-9:56|-9:56|-8:53|-7:51|-7:51|-4:53|-4:53|-7:51|-7:51|-5:48|-5:47|-5:47|-7:45|-7:45|-5:47|-5:47|-3:44|-2:43|-2:43|1:44|1:44|-2:43|-2:43|-1:40|1:38|1:38|-2:37|-2:37|1:38|1:38|3:36|4:34|4:34|6:36|6:36|4:34|4:34|6:32|7:30|7:30|5:28|5:28|7:30|7:30|8:29|10:27|10:27|12:29|12:29|10:27|10:27|11:25|14:23|14:23|12:21|12:21|14:23|14:23|14:23|17:20|17:20|20:20|20:20|17:20|17:20|17:20,1,1094.99566368857,8|0,0:0|0:0,0:0:0:0:
270,0,138318,6,0,B|272:-2|272:-2|270:0|270:0|273:3|274:3|274:3|272:5|272:5|274:3|274:3|276:6|277:7|277:7|279:5|279:5|277:7|277:7|279:9|281:11|281:11|278:12|278:12|281:11|281:11|282:12|284:14|284:14|286:13|286:13|284:14|284:14|285:16|287:19|287:19|284:20|284:20|287:19|287:19|288:21|289:23|289:23|292:21|292:21|289:23|289:23|291:25|292:27|292:27|289:29|289:29|292:27|292:27|293:29|294:32|294:32|297:30|297:30|294:32|294:32|295:33|296:36|296:36|293:37|293:37|296:36|296:36|296:38|297:41|297:41|300:40|300:40|297:41|297:41|298:44|299:46|299:46|296:47|296:47|299:46|299:46|299:48|300:51|300:51|303:50|303:50|300:51|300:51|300:53|301:56|301:56|298:56|298:56|301:56|301:56|301:59|301:61|301:61|304:60|304:60|301:61|301:61|301:63|301:66|301:66|298:66|298:66|301:66|301:66|302:67|301:71|301:71|304:71|304:71|301:71|301:71|301:73|301:76|301:76|298:75|298:75|301:76|301:76|301:78|301:81|301:81|304:81|304:81|301:81|301:81|300:82|300:85|300:85|297:85|297:85|300:85|300:85|299:88|299:90|299:90|301:91|301:91|299:90|299:90|298:93|297:95|297:95|294:94|294:94|297:95|297:95|296:97|295:100|295:100|298:101|298:101|295:100|295:100|294:102|293:104|293:104|291:103|291:103|293:104|293:104|292:107|291:109|291:109|294:110|294:110|291:109|291:109|290:110|289:113|289:113|286:112|286:112|289:113|289:113|287:115|286:117|286:117|288:119|288:119|286:117|286:117|285:119|283:121|283:121|281:120|281:120|283:121|283:121|282:123|280:125|280:125|282:127|282:127|280:125|280:125|278:127|276:129|276:129|274:127|274:127|276:129|276:129|275:131|273:133|273:133|275:135|275:135|273:133|273:133|271:134|269:136|269:136|267:133|267:133|269:136|269:136|267:138|265:139|265:139|267:141|267:141|265:139|265:139|263:140|261:142|261:142|259:139|259:139|261:142|261:142|259:143|257:144|257:144|258:147|258:147|257:144|257:144|254:146|252:147|252:147|251:144|251:144|252:147|252:147|250:148|248:149|248:149|249:151|249:151|248:149|248:149|246:149|243:151|243:151|242:148|242:148|243:151|243:151|241:151|238:152|238:152|239:155|239:155|238:152|238:152|236:153|234:154|234:154|233:151|233:151|234:154|234:154|232:154|229:155|229:155|229:158|229:158|229:155|229:155|226:155|224:155|224:155|223:152|223:152|224:155|224:155|221:156|219:156|219:156|219:159|219:159|219:156|219:156|216:156|214:156|214:156|214:153|214:153|214:156|214:156|211:156|209:156|209:156|209:159|209:159|209:156|209:156|205:156|204:156|204:156|204:153|204:153|204:156|204:156|201:156|199:155|199:155|198:158|198:158|199:155|199:155|197:155|194:154|194:154|195:151|195:151|194:154|194:154|192:154|189:153|189:153|188:156|188:156|189:153|189:153|186:152|184:152|184:152|185:149|185:149|184:152|184:152|183:152|182:151|182:151|180:150|180:150|179:153|179:153|180:150|180:150|177:150|175:149|175:149|176:146|176:146|175:149|175:149|173:148|170:148|170:148|169:151|169:151|170:148|170:148|168:147|165:147|165:147|165:144|165:144|165:147|165:147|162:146|160:146|160:146|160:149|160:149|160:146|160:146|157:146|155:146|155:146|155:143|155:143|155:146|155:146|153:146|150:146|150:146|150:149|150:149|150:146|150:146|147:146|145:146|145:146|145:143|145:143|145:146|145:146|142:146|140:147|140:147|140:149|140:149|140:147|140:147|138:147|135:147|135:147|135:144|135:144|135:147|135:147|133:148|130:148|130:148|131:151|131:151|130:148|130:148|128:149|125:150|125:150|125:147|125:147|125:150|125:150|123:151|121:151|121:151|122:154|122:154|121:151|121:151|118:152|116:153|116:153|115:151|115:151|116:153|116:153|115:154|112:155|112:155|113:158|113:158|112:155|112:155|109:157|107:158|107:158|106:155|106:155|107:158|107:158|105:159|103:161|103:161|105:163|105:163|103:161|103:161|101:162|99:163|99:163|97:161|97:161|99:163|99:163|97:165|95:167|95:167|97:169|97:169|95:167|95:167|93:168|91:170|91:170|89:168|89:168|91:170|91:170|90:171|88:173|88:173|90:176|90:176|88:173|88:173|86:175|84:177|84:177|82:175|82:175|84:177|84:177|83:179|81:181|81:181|84:183|84:183|81:181|81:181|80:183|78:185|78:185|76:183|76:183|78:185|78:185|77:187|76:189|76:189|78:191|78:191|76:189|76:189|75:191|73:194|73:194|71:192|71:192|73:194|73:194|73:195|71:198|71:198|74:200|74:200|71:198|71:198|70:201|69:203|69:203|66:202|66:202|69:203|69:203|68:205|68:208|68:208|70:209|70:209|68:208|68:208|67:209|66:212|66:212|63:212|63:212|66:212|66:212|66:215|65:217|65:217|68:218|68:218|65:217|65:217|65:220|64:222|64:222|61:222|61:222|64:222|64:222|64:225|64:227|64:227|67:227|67:227|64:227|64:227|63:230|63:232|63:232|60:232|60:232|63:232|63:232|63:235|63:237|63:237|66:237|66:237|63:237|63:237|63:240|64:242|64:242|61:242|61:242|64:242|64:242|64:245|64:247|64:247|67:247|67:247|64:247|64:247|64:249|65:252|65:252|62:253|62:253|65:252|65:252|65:254|66:257|66:257|69:256|69:256|66:257|66:257|67:259|67:262|67:262|65:263|65:263|67:262|67:262|68:264|69:266|69:266|72:265|72:265|69:266|69:266|70:268|71:271|71:271|68:272|68:272|71:271|71:271|72:274|73:276|73:276|76:274|76:274|73:276|73:276|74:278|75:280|75:280|73:282|73:282|75:280|75:280|77:282|78:284|78:284|81:283|81:283|78:284|78:284|80:287|81:288|81:288|79:290|79:290|81:288|81:288|83:291|84:292|84:292|86:290|86:290|84:292|84:292|85:294|87:296|87:296|85:298|85:298|87:296|87:296|89:297|91:300|91:300|93:297|93:297|91:300|91:300|92:300|95:303|95:303|95:306|95:306|95:303|95:303|95:303,1,1094.99343955402,8|0,0:0|0:0,0:0:0:0:
300,382,138642,102,0,B|298:380|298:380|300:382|300:382|303:378|303:378|306:380|306:380|303:378|303:378|306:374|306:374|304:372|304:372|306:374|306:374|308:372|309:370|309:370|312:372|312:372|309:370|309:370|312:366|312:366|310:365|310:365|312:366|312:366|314:364|315:362|315:362|318:364|318:364|315:362|315:362|318:358|318:358|315:356|315:356|318:358|318:358|320:354|320:354|323:355|323:355|320:354|320:354|323:349|323:349|320:348|320:348|323:349|323:349|325:345|325:345|328:346|328:346|325:345|325:345|326:342|327:340|327:340|324:339|324:339|327:340|327:340|329:336|329:336|332:337|332:337|329:336|329:336|330:333|331:331|331:331|328:330|328:330|331:331|331:331|333:326|333:326|336:327|336:327|333:326|333:326|334:322|334:322|332:321|332:321|334:322|334:322|335:319|336:317|336:317|339:318|339:318|336:317|336:317|337:312|337:312|334:311|334:311|337:312|337:312|338:310|338:307|338:307|341:308|341:308|338:307|338:307|339:302|339:302|336:302|336:302|339:302|339:302|340:300|340:297|340:297|343:298|343:298|340:297|340:297|341:292|341:292|338:292|338:292|341:292|341:292|341:287|341:287|344:288|344:288|341:287|341:287|342:285|342:282|342:282|339:282|339:282|342:282|342:282|342:277|342:277|345:278|345:278|342:277|342:277|342:275|342:272|342:272|339:272|339:272|342:272|342:272|342:267|342:267|345:267|345:267|342:267|342:267|342:265|342:262|342:262|339:263|339:263|342:262|342:262|342:257|342:257|345:257|345:257|342:257|342:257|341:252|341:252|338:253|338:253|341:252|341:252|341:250|341:247|341:247|344:247|344:247|341:247|341:247|340:243|340:243|337:243|337:243|340:243|340:243|339:240|339:238|339:238|342:237|342:237|339:238|339:238|338:233|338:233|335:233|335:233|338:233|338:233|337:230|337:228|337:228|340:227|340:227|337:228|337:228|335:223|335:223|332:224|332:224|335:223|335:223|334:218|334:218|337:217|337:217|334:218|334:218|333:216|332:214|332:214|329:215|329:215|332:214|332:214|330:209|330:209|333:208|333:208|330:209|330:209|329:207|329:204|329:204|326:205|326:205|329:204|329:204|326:200|326:200|329:198|329:198|326:200|326:200|325:197|324:195|324:195|322:197|322:197|324:195|324:195|322:191|322:191|325:189|325:189|322:191|322:191|320:186|320:186|317:188|317:188|320:186|320:186|318:184|317:182|317:182|319:181|319:181|317:182|317:182|314:178|314:178|312:180|312:180|314:178|314:178|313:176|311:174|311:174|314:172|314:172|311:174|311:174|308:170|308:170|306:172|306:172|308:170|308:170|307:168|305:166|305:166|308:164|308:164|305:166|305:166|302:162|302:162|300:164|300:164|302:162|302:162|299:158|299:158|301:156|301:156|299:158|299:158|297:156|295:155|295:155|293:157|293:157|295:155|295:155|292:151|292:151|294:149|294:149|292:151|292:151|290:149|288:148|288:148|286:150|286:150|288:148|288:148|285:144|285:144|287:142|287:142|285:144|285:144|283:143|281:141|281:141|279:143|279:143|281:141|281:141|277:138|277:138|279:136|279:136|277:138|277:138|273:135|273:135|271:137|271:137|273:135|273:135|271:133|269:132|269:132|270:130|270:130|269:132|269:132|265:129|265:129|263:132|263:132|265:129|265:129|262:128|260:127|260:127|262:124|262:124|260:127|260:127|256:124|256:124|255:127|255:127|256:124|256:124|254:123|252:122|252:122|253:119|253:119|252:122|252:122|247:120|247:120|246:122|246:122|247:120|247:120|243:117|243:117|244:115|244:115|243:117|243:117|240:116|238:116|238:116|237:118|237:118|238:116|238:116|233:114|233:114|234:111|234:111|233:114|233:114|231:113|229:112|229:112|228:115|228:115|229:112|229:112|224:110|224:110|225:108|225:108|224:110|224:110|221:110|219:109|219:109|218:112|218:112|219:109|219:109|214:108|214:108|215:105|215:105|214:108|214:108|209:107|209:107|209:110|209:110|209:107|209:107|207:106|204:106|204:106|205:103|205:103|204:106|204:106|200:105|200:105|199:108|199:108|200:105|200:105|197:105|195:104|195:104|195:101|195:101|195:104|195:104|190:104|190:104|189:107|189:107|190:104|190:104|187:104|185:103|185:103|185:100|185:100|185:103|185:103|180:103|180:103|180:106|180:106|180:103|180:103|175:103|175:103|175:100|175:100|175:103|175:103|172:103|170:103|170:103|170:106|170:106|170:103|170:103|165:103|165:103|164:100|164:100|165:103|165:103|162:104|160:104|160:104|160:107|160:107|160:104|160:104|155:104|155:104|154:101|154:101|155:104|155:104|152:105|150:105|150:105|150:108|150:108|150:105|150:105|145:106|145:106|144:103|144:103|145:106|145:106|140:107|140:107|140:110|140:110|140:107|140:107|137:107|135:108|135:108|134:105|134:105|135:108|135:108|130:109|130:109|131:112|131:112|130:109|130:109|128:110|125:110|125:110|124:108|124:108|125:110|125:110|121:112|121:112|122:115|122:115|121:112|121:112|118:113|116:114|116:114|115:111|115:111|116:114|116:114|111:116|111:116|112:118|112:118|111:116|111:116|107:117|107:117|105:115|105:115|107:117|107:117|104:119|102:120|102:120|103:122|103:122|102:120|102:120|98:122|98:122|96:119|96:119|98:122|98:122|95:123|93:124|93:124|95:127|95:127|93:124|93:124|89:127|89:127|87:124|87:124|89:127|89:127|87:128|85:129|85:129|86:132|86:132|85:129|85:129|80:132|80:132|79:130|79:130|80:132|80:132|78:133|76:135|76:135|78:137|78:137|76:135|76:135|74:136|72:138|72:138|69:138|69:138|72:138|72:138|72:138,1,1095.03039307515,8|0,0:0|0:0,0:0:0:0:
150,384,138967,6,0,B|154:380|154:380|151:380|151:380|152:377|152:377|150:378|150:378|150:376|150:376|147:378|147:378|144:376|144:376|145:379|145:379|142:379|142:379|144:381|144:381|141:384|141:384|144:384|144:384|143:387|143:387|146:385|146:385|147:388|147:388|150:386|150:386|151:387|151:387|151:385|151:385|154:385|154:385|152:384|152:384|154:380|154:380|150:384,1,72.5999997784424,8|0,0:0|0:0,0:0:0:0:
240,346,139048,102,0,B|247:339|247:339|242:340|242:340|241:335|241:335|239:340|239:340|235:336|235:336|235:341|235:341|230:340|230:340|234:344|234:344|229:346|229:346|234:347|234:347|231:352|231:352|236:350|236:350|237:356|237:356|240:351|240:351|243:355|243:355|243:350|243:350|248:351|248:351|245:347|245:347|250:344|250:344|244:343|244:343|247:339|247:339|240:346,1,127.600003894043
307,273,139129,6,0,B|311:257|311:257|305:263|305:263|301:258|301:258|300:265|300:265|294:263|294:263|297:269|297:269|290:271|290:271|297:275|297:275|293:281|293:281|300:279|300:279|300:287|300:287|305:281|305:281|310:287|310:287|311:279|311:279|318:282|318:282|314:275|314:275|321:273|321:273|314:270|314:270|318:263|318:263|311:265|311:265|311:257|311:257|307:273,1,182.600002646942,4|0,0:0|0:0,0:0:0:0:
336,180,139210,102,0,B|331:161|331:161|330:170|330:170|321:167|321:167|326:176|326:176|316:177|316:177|325:180|325:180|318:186|318:186|328:185|328:185|327:195|327:195|333:187|333:187|336:196|336:196|337:186|337:186|346:190|346:190|342:182|342:182|352:180|352:180|342:178|342:178|349:170|349:170|339:173|339:173|340:162|340:162|336:170|336:170|331:161|331:161|336:180,1,237.600005800781
323,82,139291,6,0,B|320:83|320:83|323:82|323:82|322:77|322:77|325:76|325:76|322:77|322:77|321:75|320:72|320:72|318:73|318:73|320:72|320:72|319:68|319:68|322:67|322:67|319:68|319:68|318:65|317:63|317:63|314:64|314:64|317:63|317:63|315:58|315:58|318:57|318:57|315:58|315:58|314:56|313:54|313:54|310:55|310:55|313:54|313:54|310:50|310:50|313:48|313:48|310:50|310:50|309:48|307:45|307:45|305:47|305:47|307:45|307:45|304:41|304:41|307:40|307:40|304:41|304:41|303:39|301:37|301:37|299:39|299:39|301:37|301:37|298:34|298:34|300:32|300:32|298:34|298:34|296:32|295:30|295:30|293:32|293:32|295:30|295:30|291:27|291:27|293:24|293:24|291:27|291:27|287:23|287:23|285:26|285:26|287:23|287:23|285:22|283:20|283:20|285:18|285:18|283:20|283:20|279:17|279:17|278:20|278:20|279:17|279:17|277:16|275:15|275:15|277:12|277:12|275:15|275:15|271:12|271:12|269:15|269:15|271:12|271:12|268:11|266:10|266:10|268:7|268:7|266:10|266:10|262:8|262:8|261:10|261:10|262:8|262:8|259:7|257:6|257:6|258:3|258:3|257:6|257:6|252:4|252:4|251:7|251:7|252:4|252:4|250:4|248:3|248:3|248:0|248:0|248:3|248:3|243:2|243:2|242:5|242:5|243:2|243:2|240:1|238:1|238:1|238:-2|238:-2|238:1|238:1|235:0|233:0|233:0|233:3|233:3|233:0|233:0|228:0|228:0|228:-3|228:-3|228:0|228:0|225:-1|223:-1|223:-1|223:2|223:2|223:-1|223:-1|218:-1|218:-1|218:-4|218:-4|218:-1|218:-1|215:-1|213:0|213:0|213:3|213:3|213:0|213:0|208:0|208:0|208:-3|208:-3|208:0|208:0|205:0|203:1|203:1|203:4|203:4|203:1|203:1|198:2|198:2|197:-1|197:-1|198:2|198:2|196:2|193:3|193:3|194:6|194:6|193:3|193:3|188:4|188:4|187:2|187:2|188:4|188:4|186:5|184:6|184:6|185:9|185:9|184:6|184:6|179:8|179:8|178:5|178:5|179:8|179:8|177:9|174:10|174:10|176:13|176:13|174:10|174:10|172:11|170:12|170:12|169:10|169:10|170:12|170:12|166:15|166:15|167:17|167:17|166:15|166:15|164:16|162:18|162:18|160:15|160:15|162:18|162:18|157:20|157:20|159:23|159:23|157:20|157:20|155:22|154:24|154:24|152:21|152:21|154:24|154:24|150:27|150:27|152:29|152:29|150:27|150:27|148:29|146:30|146:30|144:28|144:28|146:30|146:30|143:34|143:34|145:36|145:36|143:34|143:34|141:36|139:38|139:38|137:36|137:36|139:38|139:38|136:42|136:42|139:44|139:44|136:42|136:42|135:44|134:46|134:46|131:44|131:44|134:46|134:46|131:50|131:50|133:52|133:52|131:50|131:50|128:54|128:54|126:53|126:53|128:54|128:54|127:57|126:59|126:59|129:60|129:60|126:59|126:59|124:63|124:63|121:62|121:62|124:63|124:63|123:66|122:68|122:68|125:69|125:69|122:68|122:68|121:73|121:73|118:72|118:72|121:73|121:73|120:75|119:78|119:78|122:78|122:78|119:78|119:78|118:82|118:82|115:82|115:82|118:82|118:82|118:85|117:87|117:87|120:88|120:88|117:87|117:87|116:92|116:92|113:92|113:92|116:92|116:92|116:95|116:97|116:97|119:97|119:97|116:97|116:97|116:102|116:102|113:102|113:102|116:102|116:102|116:105|116:107|116:107|119:107|119:107|116:107|116:107|116:112|116:112|113:113|113:113|116:112|116:112|117:117|117:117|120:117|120:117|117:117|117:117|117:120|117:122|117:122|114:123|114:123|117:122|117:122|118:127|118:127|121:126|121:126|118:127|118:127|119:129|120:132|120:132|117:133|117:133|120:132|120:132|121:137|121:137|124:136|124:136|121:137|121:137|122:139|123:141|123:141|120:143|120:143|123:141|123:141|125:146|125:146|127:145|127:145|125:146|125:146|126:148|127:151|127:151|124:152|124:152|127:151|127:151|129:155|129:155|132:154|132:154|129:155|129:155|130:157|131:159|131:159|129:161|129:161|131:159|131:159|134:164|134:164|137:162|137:162|134:164|134:164|136:166|137:168|137:168|135:169|135:169|137:168|137:168|139:170|140:171|140:171|143:170|143:170|140:171|140:171|144:175|144:175|141:177|141:177|144:175|144:175|145:177|147:179|147:179|149:177|149:177|147:179|147:179|151:182|151:182|149:184|149:184|151:182|151:182|153:184|155:185|155:185|156:183|156:183|155:185|155:185|158:189|158:189|157:191|157:191|158:189|158:189|161:190|163:191|163:191|164:189|164:189|163:191|163:191|167:194|167:194|165:197|165:197|167:194|167:194|169:195|171:197|171:197|173:194|173:194|171:197|171:197|176:199|176:199|174:201|174:201|176:199|176:199|178:200|180:201|180:201|181:198|181:198|180:201|180:201|185:203|185:203|184:205|184:205|185:203|185:203|187:203|190:204|190:204|190:201|190:201|190:204|190:204|192:205|194:206|194:206|194:209|194:209|194:206|194:206|199:207|199:207|200:204|200:204|199:207|199:207|202:207|204:208|204:208|204:211|204:211|204:208|204:208|209:208|209:208|209:205|209:205|209:208|209:208|212:209|214:209|214:209|214:212|214:212|214:209|214:209|219:209|219:209|219:206|219:206|219:209|219:209|222:209|224:209|224:209|224:212|224:212|224:209|224:209|229:209|229:209|229:206|229:206|229:209|229:209|232:208|234:208|234:208|234:211|234:211|234:208|234:208|239:207|239:207|239:204|239:204|239:207|239:207|241:207|244:206|244:206|245:209|245:209|244:206|244:206|246:206|249:205,1,1099.99263477362,8|0,0:0|0:0,0:0:0:0:
298,362,139615,102,0,B|300:364|300:364|298:362|298:362|301:360|302:359|302:359|300:357|300:357|302:359|302:359|305:357|307:357|307:357|308:358|308:358|307:357|307:357|308:355|310:353|310:353|308:351|308:351|310:353|310:353|312:351|314:350|314:350|316:352|316:352|314:350|314:350|315:348|318:346|318:346|315:344|315:344|318:346|318:346|319:345|321:343|321:343|323:344|323:344|321:343|321:343|323:340|324:339|324:339|322:337|322:337|324:339|324:339|326:337|326:335|326:335|329:337|329:337|326:335|326:335|328:333|329:330|329:330|327:329|327:329|329:330|329:330|331:329|332:326|332:326|334:327|334:327|332:326|332:326|333:324|335:322|335:322|332:321|332:321|335:322|335:322|336:320|336:317|336:317|340:318|340:318|336:317|336:317|337:315|338:312|338:312|335:311|335:311|338:312|338:312|339:310|340:307|340:307|342:309|342:309|340:307|340:307|340:304|340:303|340:303|338:302|338:302|340:303|340:303|342:300|342:298|342:298|345:298|345:298|342:298|342:298|342:296|342:293|342:293|340:293|340:293|342:293|342:293|342:291|342:288|342:288|346:288|346:288|342:288|342:288|342:285|343:283|343:283|339:283|339:283|343:283|343:283|343:281|343:278|343:278|346:277|346:277|343:278|343:278|342:276|342:273|342:273|339:274|339:274|342:273|342:273|342:269|342:268|342:268|344:267|344:267|342:268|342:268|341:266|341:263|341:263|338:263|338:263|341:263|341:263|340:261|339:259|339:259|342:258|342:258|339:259|339:259|338:255|337:254|337:254|335:255|335:255|337:254|337:254|336:251|336:249|336:249|339:248|339:248|336:249|336:249|335:247|334:245|334:245|331:246|331:246|334:245|334:245|333:242|331:240|331:240|334:238|334:238|331:240|331:240|331:238|329:236|329:236|326:237|326:237|329:236|329:236|328:234|326:232|326:232|329:230|329:230|326:232|326:232|324:230|323:227|323:227|321:229|321:229|323:227|323:227|322:226|320:224|320:224|322:221|322:221|320:224|320:224|319:223|317:220|317:220|314:222|314:222|317:220|317:220|315:219|313:217|313:217|315:214|315:214|313:217|313:217|310:215|309:213|309:213|308:216|308:216|309:213|309:213|307:212|305:211|305:211|307:208|307:208|305:211|305:211|303:209|300:208|300:208|299:210|299:210|300:208|300:208|299:206|296:205|296:205|297:203|297:203|296:205|296:205|295:204|292:202|292:202|291:206|291:206|292:202|292:202|289:201|287:201|287:201|288:198|288:198|287:201|287:201|285:200|282:200|282:200|282:202|282:202|282:200|282:200|281:198|279:198|279:198|279:195|279:195|279:198|279:198|276:197|273:197|273:197|273:199|273:199|273:197|273:197|272:196|268:195|268:195|269:193|269:193|268:195|268:195|265:195|264:195|264:195|262:197|262:197|264:195|264:195|261:194|258:194|258:194|259:191|259:191|258:194|258:194|256:194|254:194|254:194|254:196|254:196|254:194|254:194|251:194|248:194|248:194|248:191|248:191|248:194|248:194|245:194|243:195|243:195|243:197|243:197|243:195|243:195|240:195|238:194|238:194|238:192|238:192|238:194|238:194|236:195|236:195|233:195|233:195|234:198|234:198|233:195|233:195|231:196|229:196|229:196|228:193|228:193|229:196|229:196|227:196|224:196|224:196|224:200|224:200|224:196|224:196|222:196|218:196|218:196|218:193|218:193|218:196|218:196|215:196|213:196|213:196|213:199|213:199|213:196|213:196|211:196|209:196|209:196|209:192|209:192|209:196|209:196|206:195|204:194|204:194|203:198|203:198|204:194|204:194|202:194|199:194|199:194|199:190|199:190|199:194|199:194|197:192|194:192|194:192|193:195|193:195|194:192|194:192|191:191|190:190|190:190|191:187|191:187|190:190|190:190|187:189|185:188|185:188|184:191|184:191|185:188|185:188|183:188|180:187|180:187|182:183|182:183|180:187|180:187|178:184|176:184|176:184|175:187|175:187|176:184|176:184|173:182|172:181|172:181|173:179|173:179|172:181|172:181|170:180|167:179|167:179|166:180|166:180|167:179|167:179|166:177|164:175|164:175|165:173|165:173|164:175|164:175|163:174|160:172|160:172|157:174|157:174|160:172|160:172|158:170|156:169|156:169|159:166|159:166|156:169|156:169|155:167|153:165|153:165|150:167|150:167|153:165|153:165|151:163|149:161|149:161|152:159|152:159|149:161|149:161|148:158|147:156|147:156|144:158|144:158|147:156|147:156|145:155|144:153|144:153|147:151|147:151|144:153|144:153|142:151|142:149|142:149|139:150|139:150|142:149|142:149|140:145|139:144|139:144|141:142|141:142|139:144|139:144|138:141|137:140|137:140|134:141|134:141|137:140|137:140|137:138|136:135|136:135|138:134|138:134|136:135|136:135|134:132|134:130|134:130|131:130|131:130|134:130|134:130|133:127|133:125|133:125|136:124|136:124|133:125|133:125|132:123|131:120|131:120|128:121|128:121|131:120|131:120|131:117|131:115|131:115|134:115|134:115|131:115|131:115|130:112|131:110|131:110|128:110|128:110|131:110|131:110|130:108|130:105|130:105|133:105|133:105|130:105|130:105|130:103|130:101|130:101|127:100|127:100|130:101|130:101|130:97|131:95|131:95|134:95|134:95|131:95|131:95|131:93|132:90|132:90|129:90|129:90|132:90|132:90|132:87|132:85|132:85|136:86|136:86|132:85|132:85|133:82|134:80|134:80|130:79|130:79|134:80|134:80|134:78|135:75|135:75|138:77|138:77|135:75|135:75|136:73|137:71|137:71|134:69|134:69|137:71|137:71|138:68|139:66|139:66|142:68|142:68|139:66|139:66|140:64|141:62|141:62|138:60|138:60|141:62|141:62|142:60|144:57|144:57|146:59|146:59|144:57|144:57|145:56|146:53|146:53|144:52|144:52|146:53|146:53|148:52|149:49|149:49|152:51|152:51|149:49|149:49|151:47|153:46|153:46|150:43|150:43|153:46|153:46|154:44|156:42|156:42|158:44|158:44|156:42|156:42|157:40|160:38|160:38|157:37|157:37|160:38|160:38|161:36|163:35|163:35|165:38|165:38|163:35|163:35|165:34|167:32|167:32|165:29|165:29|167:32|167:32|168:31|172:29|172:29|174:32|174:32|172:29|172:29|172:29|176:27,1,1110.89479864,8|0,0:0|0:0,0:0:0:0:
397,29,139940,6,0,B|400:28|400:28|397:29|397:29|399:33|400:33|400:33|397:35|397:35|400:33|400:33|401:36|403:37|403:37|405:36|405:36|403:37|403:37|403:40|404:42|404:42|401:43|401:43|404:42|404:42|405:45|406:47|406:47|409:45|409:45|406:47|406:47|407:49|408:52|408:52|405:52|405:52|408:52|408:52|409:52|410:56|410:56|413:55|413:55|410:56|410:56|410:58|410:61|410:61|408:62|408:62|410:61|410:61|412:64|413:66|413:66|415:65|415:65|413:66|413:66|412:68|413:71|413:71|410:71|410:71|413:71|413:71|413:73|413:76|413:76|416:75|416:75|413:76|413:76|413:79|413:81|413:81|410:81|410:81|413:81|413:81|413:83|413:86|413:86|416:86|416:86|413:86|413:86|413:88|413:91|413:91|410:90|410:90|413:91|413:91|413:93|412:96|412:96|415:96|415:96|412:96|412:96|412:98|411:101|411:101|408:100|408:100|411:101|411:101|410:103|410:105|410:105|413:106|413:106|410:105|410:105|409:107|408:110|408:110|405:110|405:110|408:110|408:110|408:112|407:115|407:115|409:116|409:116|407:115|407:115|406:117|404:120|404:120|402:119|402:119|404:120|404:120|403:122|403:124|403:124|405:125|405:125|403:124|403:124|402:126|400:128|400:128|397:127|397:127|400:128|400:128|398:131|397:132|397:132|400:134|400:134|397:132|397:132|396:135|394:136|394:136|392:134|392:134|394:136|394:136|393:139|391:141|391:141|393:143|393:143|391:141|391:141|390:142|388:144|388:144|386:142|386:142|388:144|388:144|386:146|384:148|384:148|386:150|386:150|384:148|384:148|383:149|381:151|381:151|379:149|379:149|381:151|381:151|379:152|376:154|376:154|379:156|379:156|376:154|376:154|375:156|372:157|372:157|371:154|371:154|372:157|372:157|371:158|368:160|368:160|370:162|370:162|368:160|368:160|366:161|364:162|364:162|362:160|362:160|364:162|364:162|362:163|360:164|360:164|361:167|361:167|360:164|360:164|357:165|355:166|355:166|353:163|353:163|355:166|355:166|352:167|350:168|350:168|351:171|351:171|350:168|350:168|348:168|345:169|345:169|345:166|345:166|345:169|345:169|342:170|340:170|340:170|340:173|340:173|340:170|340:170|338:171|335:171|335:171|335:168|335:168|335:171|335:171|333:172|331:172|331:172|331:175|331:175|331:172|331:172|328:172|326:173|326:173|325:169|325:169|326:173|326:173|323:173|321:172|321:172|321:175|321:175|321:172|321:172|318:172|315:172|315:172|316:168|316:168|315:172|315:172|314:172|311:172|311:172|310:174|310:174|311:172|311:172|309:171|306:171|306:171|306:168|306:168|306:171|306:171|303:170|300:170|300:170|300:173|300:173|300:170|300:170|298:169|296:168|296:168|297:165|297:165|296:168|296:168|294:168|292:167|292:167|290:170|290:170|292:167|292:167|288:166|287:165|287:165|287:163|287:163|287:165|287:165|284:163|282:163|282:163|280:165|280:165|282:163|282:163|280:162|277:161|277:161|279:158|279:158|277:161|277:161|276:160|273:158|273:158|271:161|271:161|273:158|273:158|273:158|269:156|269:156|269:156|269:156|270:153|270:153|269:156|269:156|265:153|265:153|265:153|263:156|263:156|265:153|265:153|262:151|261:150|261:150|261:148|261:148|261:150|261:150|258:149|256:148|256:148|254:151|254:151|256:148|256:148|253:147|251:146|251:146|253:144|253:144|251:146|251:146|249:146|246:144|246:144|246:148|246:148|246:144|246:144|246:144|244:144|243:144|242:143|242:143|242:140|242:140|242:143|242:143|239:142|237:142|237:142|236:144|236:144|237:142|237:142|234:141|232:141|232:141|233:138|233:138|232:141|232:141|229:140|227:140|227:140|227:143|227:143|227:140|227:140|225:140|222:140|222:140|222:137|222:137|222:140|222:140|219:139|217:139|217:139|217:142|217:142|217:139|217:139|214:140|212:139|212:139|212:136|212:136|212:139|212:139|210:140|207:140|207:140|207:144|207:144|207:140|207:140|205:140|202:141|202:141|202:138|202:138|202:141|202:141|200:141|197:141|197:141|198:144|198:144|197:141|197:141|195:142|193:143|193:143|191:140|191:140|193:143|193:143|191:144|188:144|188:144|188:147|188:147|188:144|188:144|186:145|183:146|183:146|182:144|182:144|183:146|183:146|181:146|179:149|179:149|179:151|179:151|179:149|179:149|176:149|174:150|174:150|173:147|173:147|174:150|174:150|172:151|170:153|170:153|171:156|171:156|170:153|170:153|167:154|166:156|166:156|164:153|164:153|166:156|166:156|163:157|162:158|162:158|164:161|164:161|162:158|162:158|159:160|157:161|157:161|155:159|155:159|157:161|157:161|155:163|154:165|154:165|156:167|156:167|154:165|154:165|152:167|150:168|150:168|148:166|148:166|150:168|150:168|149:170|147:172|147:172|149:174|149:174|147:172|147:172|146:174|144:176|144:176|142:174|142:174|144:176|144:176|142:177|141:180|141:180|144:182|144:182|141:180|141:180|140:182|138:185|138:185|136:182|136:182|138:185|138:185|137:186|135:189|135:189|138:190|138:190|135:189|135:189|135:191|134:193|134:193|131:192|131:192|134:193|134:193|133:196|132:198|132:198|135:199|135:199|132:198|132:198|131:200|130:202|130:202|127:202|127:202|130:202|130:202|130:204|128:207|128:207|132:208|132:208|128:207|128:207|128:211|128:212|128:212|124:211|124:211|128:212|128:212|128:215|127:217|127:217|130:217|130:217|127:217|127:217|126:219|126:222|126:222|123:222|123:222|126:222|126:222|126:225|125:227|125:227|128:227|128:227|125:227|125:227|125:230|126:232|126:232|123:233|123:233|126:232|126:232|125:234|125:237|125:237|128:237|128:237|125:237|125:237|126:240|126:242|126:242|123:242|123:242|126:242|126:242|127:245|127:247|127:247|130:247|130:247|127:247|127:247|128:249|128:252|128:252|125:252|125:252|128:252|128:252|128:254|130:257|130:257|132:256|132:256|130:257|130:257|130:259|130:262|130:262|128:262|128:262|130:262|130:262|132:264|133:267|133:267|135:265|135:265|133:267|133:267|134:268|135:270|135:270|132:272|132:272|135:270|135:270|135:272|137:275|137:275|140:274|140:274|137:275|137:275|138:278|140:279|140:279|137:281|137:281|140:279|140:279|142:284,1,1121.84590369696,8|0,0:0|0:0,0:0:0:0:
367,317,140264,102,0,B|364:316|364:316|367:317|367:317|369:313|369:313|372:314|372:314|369:313|369:313|372:308|372:308|369:307|369:307|372:308|372:308|373:306|374:304|374:304|377:305|377:305|374:304|374:304|376:299|376:299|373:298|373:298|376:299|376:299|377:297|378:294|378:294|380:295|380:295|378:294|378:294|379:290|379:290|377:289|377:289|379:290|379:290|381:285|381:285|384:286|384:286|381:285|381:285|382:283|382:280|382:280|380:279|380:279|382:280|382:280|384:275|384:275|387:276|387:276|384:275|384:275|384:273|385:271|385:271|382:270|382:270|385:271|385:271|386:266|386:266|389:266|389:266|386:266|386:266|387:263|387:261|387:261|384:260|384:260|387:261|387:261|388:256|388:256|391:256|391:256|388:256|388:256|388:251|388:251|385:250|385:250|388:251|388:251|389:248|389:246|389:246|392:246|392:246|389:246|389:246|389:241|389:241|386:241|386:241|389:241|389:241|389:238|389:236|389:236|392:236|392:236|389:236|389:236|389:231|389:231|386:231|386:231|389:231|389:231|389:226|389:226|392:226|392:226|389:226|389:226|389:223|389:221|389:221|386:221|386:221|389:221|389:221|389:216|389:216|392:216|392:216|389:216|389:216|389:213|388:211|388:211|385:211|385:211|388:211|388:211|388:206|388:206|391:206|391:206|388:206|388:206|387:203|387:201|387:201|384:202|384:202|387:201|387:201|386:196|386:196|389:196|389:196|386:196|386:196|385:191|385:191|382:192|382:192|385:191|385:191|384:189|384:186|384:186|386:186|386:186|384:186|384:186|382:182|382:182|379:182|379:182|382:182|382:182|381:179|381:177|381:177|384:176|384:176|381:177|381:177|379:172|379:172|376:173|376:173|379:172|379:172|377:167|377:167|380:166|380:166|377:167|377:167|375:163|375:163|373:164|373:164|375:163|375:163|373:158|373:158|376:157|376:157|373:158|373:158|372:156|371:154|371:154|369:155|369:155|371:154|371:154|369:149|369:149|372:148|372:148|369:149|369:149|368:147|367:145|367:145|364:146|364:146|367:145|367:145|364:141|364:141|366:139|366:139|364:141|364:141|361:136|361:136|359:138|359:138|361:136|361:136|360:134|358:132|358:132|361:130|361:130|358:132|358:132|356:128|356:128|353:130|353:130|356:128|356:128|354:126|353:124|353:124|355:122|355:122|353:124|353:124|349:120|349:120|347:122|347:122|349:120|349:120|348:118|346:116|346:116|348:114|348:114|346:116|346:116|343:113|343:113|341:115|341:115|343:113|343:113|339:109|339:109|342:107|342:107|339:109|339:109|338:107|336:106|336:106|334:108|334:108|336:106|336:106|332:102|332:102|334:100|334:100|332:102|332:102|330:100|328:99|328:99|327:101|327:101|328:99|328:99|325:96|325:96|326:93|326:93|325:96|325:96|321:93|321:93|319:95|319:95|321:93|321:93|319:91|317:90|317:90|318:87|318:87|317:90|317:90|313:87|313:87|311:89|311:89|313:87|313:87|310:85|308:84|308:84|310:81|310:81|308:84|308:84|304:81|304:81|303:84|303:84|304:81|304:81|302:80|300:79|300:79|301:76|301:76|300:79|300:79|295:77|295:77|294:79|294:79|295:77|295:77|291:74|291:74|292:72|292:72|291:74|291:74|289:73|286:72|286:72|285:75|285:75|286:72|286:72|282:70|282:70|283:67|283:67|282:70|282:70|279:69|277:68|277:68|276:71|276:71|277:68|277:68|272:67|272:67|273:64|273:64|272:67|272:67|268:65|268:65|267:68|267:68|268:65|268:65|263:64|263:64|264:61|264:61|263:64|263:64|258:62|258:62|257:65|257:65|258:62|258:62|256:62|253:61|253:61|254:58|254:58|253:61|253:61|248:60|248:60|248:63|248:63|248:60|248:60|246:60|243:59|243:59|244:56|244:56|243:59|243:59|238:59|238:59|238:62|238:62|238:59|238:59|233:58|233:58|234:55|234:55|233:58|233:58|231:58|228:57|228:57|228:60|228:60|228:57|228:57|223:57|223:57|224:54|224:54|223:57|223:57|221:57|218:57|218:57|218:60|218:60|218:57|218:57|213:57|213:57|213:54|213:54|213:57|213:57|211:57|208:57|208:57|209:60|209:60|208:57|208:57|204:57|204:57|203:54|203:54|204:57|204:57|199:58|199:58|199:61|199:61|199:58|199:58|196:58|194:58|194:58|193:55|193:55|194:58|194:58|189:59|189:59|189:62|189:62|189:59|189:59|186:59|184:60|184:60|183:57|183:57|184:60|184:60|179:61|179:61|179:64|179:64|179:61|179:61|174:62|174:62|173:59|173:59|174:62|174:62|169:63|169:63|170:66|170:66|169:63|169:63|164:64|164:64|163:62|163:62|164:64|164:64|162:65|159:66|159:66|160:69|160:69|159:66|159:66|155:68|155:68|154:65|154:65|155:68|155:68|152:69|150:69|150:69|151:72|151:72|150:69|150:69|145:71|145:71|144:69|144:69|145:71|145:71|141:73|141:73|142:76|142:76|141:73|141:73|139:75|136:76|136:76|135:73|135:73|136:76|136:76|132:78|132:78|133:81|133:81|132:78|132:78|130:79|128:80|128:80|126:78|126:78|128:80|128:80|123:83|123:83|125:86|125:86|123:83|123:83|121:84|119:86|119:86|117:83|117:83|119:86|119:86|115:89|115:89|117:91|117:91|115:89|115:89|111:91|111:91|109:89|109:89|111:91|111:91|109:93|107:94|107:94|109:97|109:97|107:94|107:94|103:98|103:98|101:95|101:95|103:98|103:98|101:99|99:101|99:101|101:103|101:103|99:101|99:101|96:104|96:104|94:102|94:102|96:104|96:104|92:108|92:108|94:110|94:110|92:108|92:108|90:109|89:111|89:111|86:109|86:109|89:111|89:111|87:113|85:115|85:115|87:117|87:117|85:115|85:115|84:117|82:119,1,1132.82920071812,8|0,0:0|0:0,0:0:0:0:
52,318,140588,6,0,B|54:316|54:316|52:318|52:318|55:321|55:322|55:322|53:324|53:324|55:322|55:322|58:324|59:325|59:325|61:323|61:323|59:325|59:325|61:327|63:328|63:328|61:331|61:331|63:328|63:328|65:330|67:331|67:331|69:329|69:329|67:331|67:331|69:333|71:334|71:334|69:337|69:337|71:334|71:334|72:335|75:337|75:337|77:335|77:335|75:337|75:337|76:338|79:340|79:340|78:342|78:342|79:340|79:340|82:341|84:342|84:342|85:339|85:339|84:342|84:342|87:343|88:344|88:344|87:347|87:347|88:344|88:344|91:345|93:346|93:346|94:343|94:343|93:346|93:346|95:347|98:348|98:348|97:351|97:351|98:348|98:348|99:348|102:349|102:349|103:346|103:346|102:349|102:349|105:350|107:351|107:351|107:353|107:353|107:351|107:351|110:351|112:352|112:352|113:349|113:349|112:352|112:352|114:352|117:352|117:352|117:355|117:355|117:352|117:352|119:353|122:353|122:353|122:350|122:350|122:353|122:353|124:353|127:353|127:353|127:356|127:356|127:353|127:353|130:354|132:354|132:354|132:351|132:351|132:354|132:354|135:354|137:354|137:354|137:357|137:357|137:354|137:354|139:353|142:353|142:353|142:350|142:350|142:353|142:353|145:353|147:353|147:353|147:356|147:356|147:353|147:353|150:352|152:352|152:352|151:349|151:349|152:352|152:352|154:352|157:351|157:351|157:354|157:354|157:351|157:351|159:351|162:350|162:350|161:347|161:347|162:350|162:350|164:349|166:348|166:348|167:351|167:351|166:348|166:348|169:347|171:347|171:347|170:344|170:344|171:347|171:347|173:346|176:345|176:345|177:348|177:348|176:345|176:345|178:344|180:343|180:343|179:340|179:340|180:343|180:343|183:342|185:341|185:341|186:343|186:343|185:341|185:341|187:339|189:338|189:338|188:336|188:336|189:338|189:338|191:337|193:336|193:336|195:338|195:338|193:336|193:336|196:334|198:333|198:333|196:330|196:330|198:333|198:333|200:331|202:330|202:330|203:332|203:332|202:330|202:330|203:328|205:326|205:326|203:324|203:324|205:326|205:326|207:325|209:323|209:323|211:325|211:325|209:323|209:323|211:322|213:320|213:320|210:317|210:317|213:320|213:320|215:317|216:316|216:316|218:318|218:318|216:316|216:316|218:314|219:312|219:312|217:310|217:310|219:312|219:312|220:311|222:308|222:308|225:310|225:310|222:308|222:308|224:306|225:304|225:304|222:302|222:302|225:304|225:304|226:302|228:300|228:300|230:301|230:301|228:300|228:300|229:298|230:295|230:295|227:294|227:294|230:295|230:295|231:293|232:291|232:291|235:292|235:292|232:291|232:291|234:288|234:286|234:286|232:285|232:285|234:286|234:286|235:284|236:282|236:282|239:283|239:283|236:282|236:282|237:280|238:277|238:277|235:276|235:276|238:277|238:277|238:275|239:272|239:272|242:273|242:273|239:272|239:272|240:269|240:267|240:267|237:267|237:267|240:267|240:267|241:265|241:262|241:262|244:263|244:263|241:262|241:262|242:260|242:257|242:257|239:257|239:257|242:257|242:257|242:254|243:252|243:252|246:253|246:253|243:252|243:252|243:249|243:249|243:247|243:247|240:247|240:247|243:247|243:247|243:244|243:242|243:242|246:243|246:243|243:242|243:242|244:240|244:237|244:237|241:237|241:237|244:237|244:237|244:235|245:232|245:232|248:233|248:233|245:232|245:232|245:230|246:228|246:228|243:227|243:227|246:228|246:228|246:226|247:223|247:223|250:224|250:224|247:223|247:223|247:222|249:218|249:218|246:217|246:217|249:218|249:218|249:216|250:213|250:213|253:214|253:214|250:213|250:213|252:210|252:209|252:209|249:207|249:207|252:209|252:209|253:206|254:204|254:204|257:205|257:205|254:204|254:204|256:202|257:200|257:200|254:198|254:198|257:200|257:200|258:198|259:195|259:195|262:197|262:197|259:195|259:195|260:193|262:191|262:191|259:189|259:189|262:191|262:191|264:188|265:187|265:187|267:189|267:189|265:187|265:187|266:185|268:183|268:183|265:181|265:181|268:183|268:183|269:181|271:179|271:179|273:181|273:181|271:179|271:179|272:178|274:176|274:176|272:174|272:174|274:176|274:176|276:174|278:172|278:172|280:174|280:174|278:172|278:172|280:170|282:169|282:169|280:167|280:167|282:169|282:169|284:167|286:166|286:166|287:168|287:168|286:166|286:166|287:164|290:163|290:163|288:160|288:160|290:163|290:163|292:161|294:160|294:160|295:162|295:162|294:160|294:160|297:158|298:157|298:157|296:155|296:155|298:157|298:157|300:156|302:155|302:155|304:157|304:157|302:155|302:155|304:154|307:153|307:153|306:150|306:150|307:153|307:153|309:152|311:151|311:151|313:153|313:153|311:151|311:151|314:149|316:149|316:149|315:146|315:146|316:149|316:149|318:148|321:147|321:147|322:150|322:150|321:147|321:147|323:147|326:146|326:146|325:143|325:143|326:146|326:146|328:145|330:145|330:145|331:148|331:148|330:145|330:145|333:144|335:144|335:144|335:141|335:141|335:144|335:144|338:143|340:143|340:143|341:146|341:146|340:143|340:143|342:143|345:143|345:143|345:140|345:140|345:143|345:143|347:142|350:142|350:142|350:145|350:145|350:142|350:142|353:142|355:142|355:142|355:139|355:139|355:142|355:142|357:142|360:142|360:142|360:145|360:145|360:142|360:142|362:143|365:143|365:143|366:140|366:140|365:143|365:143|368:143|370:144|370:144|370:147|370:147|370:144|370:144|373:144|375:144|375:144|376:142|376:142|375:144|375:144|377:145|380:146|380:146|379:148|379:148|380:146|380:146|383:146|385:147|385:147|386:144|386:144|385:147|385:147|387:148|390:148|390:148|389:151|389:151|390:148|390:148|392:149|394:150|394:150|395:147|395:147|394:150|394:150|397:151|399:152|399:152|398:155|398:155|399:152|399:152|402:154|403:154|403:154|405:152|405:152|403:154|403:154|406:156|408:157|408:157|406:159|406:159|408:157|408:157|410:158|412:159|412:159|414:157|414:157|412:159|412:159|414:161|416:162|416:162|414:165|414:165|416:162|416:162|419:164|420:165|420:165|422:163|422:163|420:165|420:165|422:167|424:168|424:168|422:171|422:171|424:168|424:168|426:170|428:172|428:172|430:169|430:169|428:172|428:172|430:174|431:175|431:175|429:177|429:177|431:175|431:175|433:177|435:178,1,1143.74760615975,8|0,0:0|0:0,0:0:0:0:
400,366,140913,102,0,B|401:369|401:369|400:366|400:366|396:368|396:368|394:366|394:366|396:368|396:368|391:370|391:370|392:373|392:373|391:370|391:370|389:371|386:372|386:372|385:370|385:370|386:372|386:372|382:374|382:374|383:377|383:377|382:374|382:374|379:375|377:376|377:376|376:373|376:373|377:376|377:376|372:377|372:377|373:380|373:380|372:377|372:377|370:378|367:379|367:379|367:376|367:376|367:379|367:379|363:380|363:380|363:383|363:383|363:380|363:380|360:380|358:381|358:381|357:378|357:378|358:381|358:381|353:381|353:381|353:384|353:384|353:381|353:381|350:382|348:382|348:382|347:379|347:379|348:382|348:382|343:382|343:382|343:385|343:385|343:382|343:382|340:383|338:383|338:383|338:380|338:380|338:383|338:383|333:383|333:383|333:386|333:386|333:383|333:383|330:383|328:383|328:383|328:380|328:380|328:383|328:383|323:382|323:382|323:385|323:385|323:382|323:382|318:382|318:382|318:379|318:379|318:382|318:382|313:381|313:381|312:384|312:384|313:381|313:381|308:380|308:380|308:377|308:377|308:380|308:380|305:380|303:379|303:379|302:382|302:382|303:379|303:379|298:378|298:378|299:375|299:375|298:378|298:378|296:377|293:377|293:377|292:379|292:379|293:377|293:377|289:375|289:375|290:372|290:372|289:375|289:375|286:374|284:373|284:373|283:376|283:376|284:373|284:373|279:371|279:371|280:369|280:369|279:371|279:371|277:370|275:369|275:369|273:372|273:372|275:369|275:369|270:367|270:367|272:364|272:364|270:367|270:367|268:366|266:365|266:365|264:367|264:367|266:365|266:365|262:362|262:362|263:360|263:360|262:362|262:362|259:361|257:360|257:360|256:362|256:362|257:360|257:360|253:357|253:357|255:354|255:354|253:357|253:357|251:355|249:354|249:354|247:356|247:356|249:354|249:354|245:351|245:351|247:348|247:348|245:351|245:351|242:347|242:347|240:350|240:350|242:347|242:347|240:346|238:344|238:344|240:342|240:342|238:344|238:344|234:340|234:340|232:343|232:343|234:340|234:340|233:339|231:337|231:337|233:335|233:335|231:337|231:337|228:333|228:333|225:335|225:335|228:333|228:333|226:331|225:329|225:329|227:327|227:327|225:329|225:329|221:325|221:325|219:327|219:327|221:325|221:325|220:323|219:321|219:321|221:319|221:319|219:321|219:321|216:317|216:317|213:318|213:318|216:317|216:317|215:315|213:312|213:312|216:311|216:311|213:312|213:312|211:308|211:308|208:309|208:309|211:308|211:308|210:306|209:304|209:304|212:302|212:302|209:304|209:304|207:299|207:299|204:300|204:300|207:299|207:299|206:297|205:294|205:294|208:293|208:293|205:294|205:294|203:290|203:290|200:291|200:291|203:290|203:290|202:287|202:285|202:285|204:284|204:284|202:285|202:285|200:280|200:280|197:281|197:281|200:280|200:280|199:275|199:275|202:275|202:275|199:275|199:275|198:273|198:270|198:270|195:271|195:271|198:270|198:270|197:265|197:265|200:265|200:265|197:265|197:265|197:263|196:261|196:261|193:261|193:261|196:261|196:261|196:256|196:256|199:255|199:255|196:256|196:256|196:253|196:251|196:251|193:251|193:251|196:251|196:251|195:246|195:246|198:246|198:246|195:246|195:246|195:243|195:241|195:241|192:240|192:240|195:241|195:241|196:236|196:236|199:236|199:236|196:236|196:236|196:233|196:231|196:231|193:230|193:230|196:231|196:231|197:226|197:226|200:226|200:226|197:226|197:226|197:223|197:221|197:221|194:220|194:220|197:221|197:221|198:216|198:216|201:216|201:216|198:216|198:216|199:213|199:211|199:211|196:210|196:210|199:211|199:211|201:206|201:206|204:207|204:207|201:206|201:206|201:204|202:201|202:201|199:200|199:200|202:201|202:201|204:197|204:197|207:198|207:198|204:197|204:197|206:192|206:192|203:191|203:191|206:192|206:192|207:190|208:187|208:187|210:189|210:189|208:187|208:187|210:183|210:183|207:181|207:181|210:183|210:183|211:181|212:178|212:178|215:180|215:180|212:178|212:178|214:174|214:174|212:172|212:172|214:174|214:174|216:172|217:170|217:170|220:171|220:171|217:170|217:170|220:166|220:166|217:164|217:164|220:166|220:166|221:163|223:161|223:161|225:163|225:163|223:161|223:161|226:157|226:157|223:156|223:156|226:157|226:157|227:156|229:154|229:154|231:156|231:156|229:154|229:154|232:150|232:150|230:148|230:148|232:150|232:150|234:148|236:146|236:146|238:148|238:148|236:146|236:146|239:143|239:143|237:141|237:141|239:143|239:143|241:141|243:139|243:139|245:142|245:142|243:139|243:139|247:136|247:136|245:134|245:134|247:136|247:136|251:133|251:133|253:136|253:136|251:133|251:133|255:130|255:130|253:128|253:128|255:130|255:130|259:127|259:127|261:130|261:130|259:127|259:127|261:126|263:125|263:125|262:122|262:122|263:125|263:125|268:122|268:122|269:125|269:125|268:122|268:122|270:121|272:120|272:120|271:117|271:117|272:120|272:120|277:118|277:118|278:121|278:121|277:118|277:118|279:117|281:116|281:116|280:113|280:113|281:116|281:116|286:114|286:114|287:117|287:117|286:114|286:114|288:113|291:112|291:112|290:110|290:110|291:112|291:112|295:111|295:111|296:114|296:114|295:111|295:111|298:110|300:110|300:110|299:107|299:107|300:110|300:110|305:109|305:109|306:111|306:111|305:109|305:109|307:108|310:108|310:108|309:105|309:105|310:108|310:108|315:107|315:107|315:110|315:110|315:107|315:107|317:106|320:106|320:106|320:103|320:103|320:106|320:106|325:106|325:106|325:109|325:109|325:106|325:106|330:105|330:105|330:102|330:102|330:105|330:105|335:105|335:105|335:108|335:108|335:105|335:105|340:106|340:106|340:103|340:103|340:106|340:106|342:106|345:106|345:106|345:109|345:109|345:106|345:106|347:106|350:106|350:106|350:103|350:103|350:106|350:106|352:107|354:107,1,1154.73779076249,8|0,0:0|0:0,0:0:0:0:
512,222,141237,6,0,B|510:225|510:225|512:222|512:222|508:219|508:219|509:217|509:217|508:219|508:219|503:217|503:217|502:220|502:220|503:217|503:217|503:217|499:215|499:215|500:212|500:212|499:215|499:215|498:215|494:213|494:213|493:216|493:216|494:213|494:213|493:213|489:212|489:212|490:209|490:209|489:212|489:212|489:212|484:211|484:211|484:214|484:214|484:211|484:211|480:210|480:210|480:207|480:207|480:210|480:210|475:209|475:209|475:209|474:212|474:212|475:209|475:209|471:209|470:209|470:209|470:206|470:206|470:209|470:209|466:209|465:209|465:209|465:212|465:212|465:209|465:209|461:209|460:209|460:209|459:206|459:206|460:209|460:209|456:210|455:210|455:210|455:213|455:213|455:210|455:210|452:211|450:211|450:211|449:208|449:208|450:211|450:211|447:212|445:212|445:212|446:215|446:215|445:212|445:212|443:213|440:214|440:214|439:211|439:211|440:214|440:214|438:215|436:216|436:216|437:219|437:219|436:216|436:216|433:217|431:218|431:218|430:215|430:215|431:218|431:218|429:219|427:220|427:220|428:223|428:223|427:220|427:220|425:221|422:223|422:223|421:221|421:221|422:223|422:223|421:224|418:226|418:226|420:228|420:228|418:226|418:226|417:227|415:229|415:229|413:227|413:227|415:229|415:229|412:232|411:233|411:233|413:235|413:235|411:233|411:233|409:235|407:236|407:236|405:234|405:234|407:236|407:236|405:239|404:240|404:240|407:242|407:242|404:240|404:240|403:242|401:244|401:244|399:242|399:242|401:244|401:244|400:246|399:248|399:248|401:250|401:250|399:248|399:248|397:250|396:253|396:253|394:251|394:251|396:253|396:253|395:255|394:257|394:257|397:258|397:258|394:257|394:257|393:259|392:262|392:262|389:261|389:261|392:262|392:262|392:263|391:267|391:267|393:268|393:268|391:267|391:267|390:267|390:267|390:270|389:271|389:271|386:270|386:270|389:271|389:271|388:274|387:276|387:276|390:277|390:277|387:276|387:276|386:278|385:281|385:281|382:279|382:279|385:281|385:281|384:282|383:285|383:285|385:286|385:286|383:285|383:285|382:287|380:289|380:289|378:287|378:287|380:289|380:289|379:291|377:293|377:293|379:295|379:295|377:293|377:293|375:296|374:297|374:297|372:295|372:295|374:297|374:297|370:301|370:301|373:303|373:303|370:301|370:301|367:304|367:304|365:302|365:302|367:304|367:304|366:305|363:307|363:307|365:310|365:310|363:307|363:307|362:308|359:310|359:310|357:308|357:308|359:310|359:310|358:311|355:313|355:313|356:315|356:315|355:313|355:313|354:314|350:315|350:315|349:313|349:313|350:315|350:315|349:316|346:317|346:317|347:320|347:320|346:317|346:317|344:318|341:319|341:319|340:316|340:316|341:319|341:319|340:320|336:321|336:321|337:324|337:324|336:321|336:321|335:321|332:322|332:322|331:319|331:319|332:322|332:322|330:322|327:323|327:323|327:326|327:326|327:323|327:323|325:323|322:324|322:324|321:321|321:321|322:324|322:324|320:324|317:324|317:324|317:327|317:327|317:324|317:324|316:324|312:324|312:324|312:321|312:321|312:324|312:324|311:324|307:324|307:324|306:327|306:327|307:324|307:324|302:323|302:323|302:320|302:320|302:323|302:323|298:323|297:322|297:322|296:325|296:325|297:322|297:322|293:321|292:321|292:321|293:318|293:318|292:321|292:321|289:320|287:320|287:320|286:322|286:322|287:320|287:320|284:319|283:318|283:318|284:315|284:315|283:318|283:318|280:317|278:316|278:316|277:318|277:318|278:316|278:316|276:315|274:313|274:313|275:311|275:311|274:313|274:313|271:312|269:311|269:311|268:313|268:313|269:311|269:311|267:309|265:308|265:308|267:305|267:305|265:308|265:308|264:307|261:305|261:305|259:307|259:307|261:305|261:305|260:304|258:301|258:301|260:299|260:299|258:301|258:301|257:301|254:298|254:298|252:300|252:300|254:298|254:298|253:296|251:294|251:294|253:292|253:292|251:294|251:294|249:291|248:290|248:290|246:292|246:292|248:290|248:290|246:287|245:286|245:286|248:284|248:284|245:286|245:286|244:283|243:281|243:281|240:283|240:283|243:281|243:281|242:279|241:277|241:277|243:276|243:276|241:277|241:277|240:275|239:272|239:272|236:273|236:273|239:272|239:272|238:271|237:267|237:267|240:267|240:267|237:267|237:267|237:266|236:263|236:263|233:263|233:263|236:263|236:263|235:260|235:258|235:258|238:257|238:257|235:258|235:258|235:254|234:253|234:253|231:253|231:253|234:253|234:253|234:250|234:248|234:248|237:248|237:248|234:248|234:248|234:245|234:243|234:243|231:243|231:243|234:243|234:243|234:240|234:238|234:238|237:238|237:238|234:238|234:238|234:236|235:233|235:233|232:232|232:232|235:233|235:233|235:231|236:228|236:228|239:228|239:228|236:228|236:228|236:227|237:223|237:223|234:222|234:222|237:223|237:223|238:221|238:218|238:218|241:219|241:219|238:218|238:218|240:215|240:214|240:214|238:212|238:212|240:214|240:214|242:211|242:209|242:209|245:210|245:210|242:209|242:209|244:207|245:205|245:205|242:203|242:203|245:205|245:205|246:203|247:200|247:200|250:202|250:202|247:200|247:200|249:198|250:196|250:196|248:195|248:195|250:196|250:196|251:195|253:192|253:192|256:194|256:194|253:192|253:192|254:191|257:189|257:189|255:187|255:187|257:189|257:189|258:188|260:185|260:185|262:188|262:188|260:185|260:185|262:184|264:182|264:182|262:180|262:180|264:182|264:182|267:180|268:179|268:179|270:182|270:182|268:179|268:179|271:177|272:176|272:176|271:174|271:174|272:176|272:176|275:175|277:174|277:174|278:177|278:177|277:174|277:174|279:173|281:172|281:172|280:169|280:169|281:172|281:172|284:171|286:170|286:170|287:173|287:173|286:170|286:170|288:169|291:168|291:168|290:165|290:165|291:168|291:168|293:168|296:167|296:167|296:170|296:170|296:167|296:167|298:167|300:166|300:166|300:163|300:163|300:166|300:166|302:166|305:165|305:165|306:168|306:168|305:165|305:165|307:165|310:165|310:165|310:162|310:162|310:165|310:165|312:165|315:165|315:165|315:168|315:168|315:165|315:165|317:165|320:165|320:165|321:162|321:162|320:165|320:165|322:165|325:166|325:166|325:169|325:169|325:166|325:166|326:166|330:166|330:166|331:164|331:164|330:166|330:166|332:167|335:168|335:168|334:170|334:170|335:168|335:168|336:168|340:169,1,1165.65064727755,8|0,0:0|0:0,0:0:0:0:
497,384,141561,102,0,B|494:383|494:383|497:384|497:384|499:380|499:379|499:379|502:380|502:380|499:379|499:379|500:376|500:375|500:375|498:374|498:374|500:375|500:375|501:371|502:370|502:370|505:371|505:371|502:370|502:370|502:367|503:365|503:365|500:364|500:364|503:365|503:365|503:362|504:360|504:360|507:361|507:361|504:360|504:360|504:357|505:355|505:355|502:355|502:355|505:355|505:355|505:353|505:350|505:350|508:350|508:350|505:350|505:350|505:348|505:345|505:345|502:345|502:345|505:345|505:345|505:343|505:340|505:340|508:340|508:340|505:340|505:340|505:336|505:335|505:335|502:335|502:335|505:335|505:335|505:332|505:330|505:330|508:330|508:330|505:330|505:330|505:328|504:325|504:325|501:326|501:326|504:325|504:325|504:323|504:320|504:320|507:320|507:320|504:320|504:320|503:318|503:315|503:315|500:316|500:316|503:315|503:315|502:312|501:310|501:310|504:310|504:310|501:310|501:310|500:307|500:306|500:306|497:307|497:307|500:306|500:306|499:303|498:301|498:301|501:300|501:300|498:301|498:301|497:299|496:296|496:296|494:298|494:298|496:296|496:296|496:294|494:292|494:292|497:290|497:290|494:292|494:292|493:289|492:287|492:287|489:289|489:289|492:287|492:287|490:284|490:283|490:283|492:281|492:281|490:283|490:283|488:281|487:279|487:279|484:280|484:280|487:279|487:279|485:277|484:275|484:275|486:273|486:273|484:275|484:275|483:273|481:271|481:271|479:272|479:272|481:271|481:271|479:268|478:267|478:267|480:265|480:265|478:267|478:267|476:264|474:263|474:263|472:265|472:265|474:263|474:263|473:261|471:260|471:260|473:257|473:257|471:260|471:260|469:258|467:256|467:256|465:258|465:258|467:256|467:256|466:255|463:253|463:253|465:251|465:251|463:253|463:253|461:251|460:250|460:250|458:252|458:252|460:250|460:250|457:248|455:247|455:247|457:244|457:244|455:247|455:247|454:246|451:244|451:244|450:247|450:247|451:244|451:244|449:243|447:242|447:242|448:239|448:239|447:242|447:242|444:240|442:240|442:240|441:242|441:242|442:240|442:240|440:238|438:237|438:237|439:235|439:235|438:237|438:237|436:236|433:235|433:235|432:238|432:238|433:235|433:235|432:235|429:234|429:234|430:231|430:231|429:234|429:234|426:233|424:232|424:232|423:235|423:235|424:232|424:232|421:232|419:231|419:231|420:228|420:228|419:231|419:231|416:230|414:230|414:230|414:233|414:233|414:230|414:230|412:230|409:229|409:229|410:226|410:226|409:229|409:229|407:229|404:228|404:228|404:231|404:231|404:228|404:228|401:228|399:228|399:228|399:225|399:225|399:228|399:228|397:228|394:228|394:228|394:231|394:231|394:228|394:228|392:228|389:228|389:228|389:225|389:225|389:228|389:228|386:228|384:228|384:228|384:231|384:231|384:228|384:228|381:228|379:228|379:228|379:226|379:226|379:228|379:228|376:229|374:229|374:229|375:232|375:232|374:229|374:229|372:230|369:230|369:230|369:227|369:227|369:230|369:230|367:230|364:231|364:231|365:234|365:234|364:231|364:231|362:232|360:232|360:232|359:229|359:229|360:232|360:232|356:233|355:234|355:234|356:237|356:237|355:234|355:234|352:235|350:235|350:235|349:233|349:233|350:235|350:235|348:236|348:236|345:237|345:237|347:240|347:240|345:237|345:237|343:238|341:239|341:239|340:236|340:236|341:239|341:239|339:240|336:240|336:240|337:243|337:243|336:240|336:240|334:241|331:242|331:242|330:239|330:239|331:242|331:242|330:242|326:243|326:243|327:246|327:246|326:243|326:243|324:243|321:244|321:244|321:241|321:241|321:244|321:244|318:244|316:244|316:244|317:247|317:247|316:244|316:244|313:245|311:245|311:245|311:242|311:242|311:245|311:245|309:245|306:245|306:245|306:248|306:248|306:245|306:245|304:245|301:245|301:245|302:242|302:242|301:245|301:245|300:245|296:245|296:245|296:248|296:248|296:245|296:245|295:245|291:244|291:244|292:241|292:241|291:244|291:244|290:244|287:244|287:244|286:247|286:247|287:244|287:244|283:243|282:243|282:243|282:240|282:240|282:243|282:243|279:242|277:242|277:242|276:244|276:244|277:242|277:242|274:241|272:240|272:240|273:237|273:237|272:240|272:240|270:240|267:239|267:239|266:241|266:241|267:239|267:239|265:238|263:237|263:237|264:234|264:234|263:237|263:237|259:236|258:235|258:235|257:238|257:238|258:235|258:235|256:234|253:233|253:233|255:230|255:230|253:233|253:233|251:232|249:230|249:230|248:233|248:233|249:230|249:230|248:230|245:228|245:228|246:225|246:225|245:228|245:228|243:227|241:225|241:225|239:227|239:227|241:225|241:225|238:223|237:222|237:222|238:220|238:220|237:222|237:222|234:220|233:219|233:219|231:221|231:221|233:219|233:219|231:218|229:216|229:216|231:213|231:213|229:216|229:216|227:214|225:212|225:212|223:214|223:214|225:212|225:212|223:210|222:209|222:209|224:207|224:207|222:209|222:209|220:207|218:205|218:205|216:207|216:207|218:205|218:205|217:203|215:201|215:201|218:199|218:199|215:201|215:201|214:199|212:197|212:197|210:199|210:199|212:197|212:197|210:194|210:193|210:193|212:191|212:191|210:193|210:193|208:190|207:188|207:188|204:190|204:190|207:188|207:188|206:186|205:184|205:184|207:183|207:183|205:184|205:184|204:183|202:180|202:180|200:181|200:181|202:180|202:180|202:178|200:175|200:175|203:174|203:174|200:175|200:175|199:172|199:170|199:170|196:171|196:171|199:170|199:170|198:168|197:166|197:166|200:165|200:165|197:166|197:166|196:164|196:161|196:161|193:162|193:162|196:161|196:161|195:158|194:156|194:156|197:155|197:155|194:156|194:156|194:153|193:151|193:151|190:152|190:152|193:151|193:151|193:148|193:146|193:146|196:146|196:146|193:146|193:146|192:144|192:141|192:141|189:141|189:141|192:141|192:141|192:139|192:136|192:136|195:136|195:136|192:136|192:136|192:133|192:131|192:131|189:131|189:131|192:131|192:131|192:129|192:126|192:126|195:126|195:126|192:126|192:126|192:124|192:121|192:121|189:121|189:121|192:121|192:121|192:118|193:116|193:116|196:117|196:117|193:116|193:116|193:113|193:111|193:111|191:111|191:111|193:111|193:111|194:108|194:106|194:106|197:107|197:107|194:106|194:106|195:104|196:101|196:101|193:101|193:101|196:101|196:101|196:100|197:97|197:97|200:98|200:98|197:97|197:97|198:94|199:92|199:92|196:91|196:91|199:92|199:92|200:90|200:88,1,1176.59839067573,8|0,0:0|0:0,0:0:0:0:
10,32,141886,6,0,B|7:33|9:31|9:31|11:34|11:34|9:31|9:31|10:30|13:28|13:28|11:26|11:26|13:28|13:28|15:26|17:25|17:25|18:28|18:28|17:25|17:25|19:24|21:22|21:22|19:20|19:20|21:22|21:22|23:21|25:20|25:20|26:22|26:22|25:20|25:20|26:19|29:17|29:17|28:15|28:15|29:17|29:17|31:16|34:15|34:15|35:18|35:18|34:15|34:15|37:14|38:13|38:13|37:10|37:10|38:13|38:13|40:12|43:11|43:11|44:14|44:14|43:11|43:11|45:10|48:9|48:9|47:6|47:6|48:9|48:9|50:8|52:8|52:8|53:11|53:11|52:8|52:8|56:7|57:6|57:6|56:3|56:3|57:6|57:6|60:6|62:5|62:5|63:8|63:8|62:5|62:5|64:5|67:4|67:4|66:1|66:1|67:4|67:4|68:4|72:3|72:3|72:6|72:6|72:3|72:3|75:3|77:3|77:3|77:0|77:0|77:3|77:3|80:3|82:2|82:2|82:5|82:5|82:2|82:2|84:2|87:2|87:2|87:-1|87:-1|87:2|87:2|89:2|92:2|92:2|92:5|92:5|92:2|92:2|94:2|97:2|97:2|97:-1|97:-1|97:2|97:2|100:3|102:3|102:3|101:6|101:6|102:3|102:3|104:3|107:3|107:3|107:0|107:0|107:3|107:3|109:4|112:4|112:4|111:7|111:7|112:4|112:4|115:5|117:5|117:5|117:2|117:2|117:5|117:5|120:6|121:6|121:6|121:9|121:9|121:6|121:6|124:7|126:8|126:8|127:5|127:5|126:8|126:8|129:9|131:9|131:9|130:12|130:12|131:9|131:9|133:10|136:11|136:11|137:8|137:8|136:11|136:11|138:12|140:13|140:13|139:16|139:16|140:13|140:13|143:14|145:15|145:15|146:13|146:13|145:15|145:15|147:16|149:18|149:18|148:20|148:20|149:18|149:18|151:19|154:20|154:20|155:17|155:17|154:20|154:20|155:21|158:23|158:23|156:25|156:25|158:23|158:23|160:24|162:26|162:26|164:23|164:23|162:26|162:26|164:27|166:29|166:29|164:31|164:31|166:29|166:29|168:30|170:32|170:32|172:29|172:29|170:32|170:32|171:33|174:35|174:35|171:37|171:37|174:35|174:35|175:36|177:38|177:38|179:36|179:36|177:38|177:38|179:41|181:42|181:42|178:44|178:44|181:42|181:42|183:45|184:46|184:46|186:44|186:44|184:46|184:46|186:48|187:50|187:50|185:52|185:52|187:50|187:50|189:52|190:54|190:54|193:52|193:52|190:54|190:54|191:55|193:58|193:58|190:59|190:59|193:58|193:58|194:59|196:62|196:62|198:60|198:60|196:62|196:62|197:64|198:66|198:66|196:68|196:68|198:66|198:66|200:70|200:71|200:71|203:69|203:69|200:71|200:71|202:74|203:75|203:75|200:76|200:76|203:75|203:75|204:78|205:80|205:80|207:79|207:79|205:80|205:80|205:82|206:84|206:84|204:86|204:86|206:84|206:84|207:87|208:89|208:89|211:88|211:88|208:89|208:89|209:91|209:94|209:94|207:95|207:95|209:94|209:94|210:96|211:99|211:99|214:98|214:98|211:99|211:99|211:100|212:104|212:104|209:104|209:104|212:104|212:104|212:105|213:109|213:109|216:108|216:108|213:109|213:109|213:109|213:109|213:112|213:114|213:114|210:114|210:114|213:114|213:114|214:117|214:118|214:118|217:118|217:118|214:118|214:118|215:121|216:123|216:123|213:124|213:124|216:123|216:123|216:125|217:128|217:128|220:127|220:127|217:128|217:128|217:130|219:133|219:133|216:134|216:134|219:133|219:133|220:135|220:138|220:138|223:136|223:136|220:138|220:138|222:140|222:142|222:142|220:143|220:143|222:142|222:142|223:144|224:147|224:147|227:145|227:145|224:147|224:147|225:149|227:151|227:151|224:153|224:153|227:151|227:151|228:153|229:156|229:156|232:154|232:154|229:156|229:156|231:159|232:160|232:160|229:161|229:161|232:160|232:160|233:162|235:164|235:164|237:162|237:162|235:164|235:164|236:166|238:168|238:168|235:170|235:170|238:168|238:168|239:169|241:172|241:172|243:170|243:170|241:172|241:172|242:173|244:176|244:176|242:178|242:178|244:176|244:176|246:178|247:179|247:179|249:177|249:177|247:179|247:179|249:181|251:183|251:183|249:185|249:185|251:183|251:183|252:184|255:186|255:186|257:184|257:184|255:186|255:186|257:188|258:189|258:189|257:192|257:192|258:189|258:189|261:192|262:192|262:192|264:190|264:190|262:192|262:192|265:194|266:195|266:195|265:198|265:198|266:195|266:195|269:197|271:198|271:198|272:196|272:196|271:198|271:198|272:199|275:201|275:201|273:203|273:203|275:201|275:201|277:202|279:203|279:203|281:200|281:200|279:203|279:203|282:204|284:205|284:205|283:208|283:208|284:205|284:205|286:206|288:207|288:207|290:205|290:205|288:207|288:207|290:208|293:209|293:209|292:212|292:212|293:209|293:209|295:210|298:211|298:211|299:208|299:208|298:211|298:211|301:212|303:212|303:212|302:215|302:215|303:212|303:212|305:213|307:214|307:214|308:211|308:211|307:214|307:214|310:214|312:215|312:215|312:218|312:218|312:215|312:215|314:215|317:216|317:216|318:213|318:213|317:216|317:216|319:216|322:216|322:216|322:219|322:219|322:216|322:216|326:217|327:217|327:217|327:214|327:214|327:217|327:217|330:217|332:217|332:217|332:220|332:220|332:217|332:217|335:217|337:217|337:217|337:214|337:214|337:217|337:217|339:217|342:217|342:217|342:220|342:220|342:217|342:217|343:217|347:217|347:217|347:214|347:214|347:217|347:217|350:216|352:216|352:216|352:219|352:219|352:216|352:216|355:216|357:215|357:215|356:212|356:212|357:215|357:215|360:215|362:214|362:214|363:217|363:217|362:214|362:214|364:214|367:213|367:213|366:210|366:210|367:213|367:213|369:213|372:212|372:212|372:215|372:215|372:212|372:212|373:212|376:210|376:210|375:208|375:208|376:210|376:210|378:210|381:209|381:209|382:211|382:211|381:209|381:209|384:207|386:207|386:207|384:204|384:204|386:207|386:207|388:205|390:205|390:205|391:207|391:207|390:205|390:205|392:204|395:202|395:202|393:200|393:200|395:202|395:202|397:201|399:200|399:200|400:202|400:202|399:200|399:200|401:199|403:197|403:197|402:195|402:195|403:197|403:197|405:196|407:194|407:194|409:197|409:197|407:194|407:194|409:194|411:191|411:191|410:189|410:189|411:191|411:191|412:191|415:188|415:188|417:191|417:191|415:188|415:188|416:188|419:185|419:185|417:183|417:183|419:185,1,1187.54874611562,8|0,0:0|0:0,0:0:0:0:
395,25,142210,102,0,B|397:23|397:23|395:25|395:25|398:28|399:28|399:28|397:30|397:30|399:28|399:28|402:31|403:32|403:32|405:30|405:30|403:32|403:32|405:34|407:35|407:35|405:37|405:37|407:35|407:35|409:37|410:38|410:38|412:36|412:36|410:38|410:38|412:41|413:42|413:42|411:45|411:45|413:42|413:42|415:44|416:46|416:46|419:44|419:44|416:46|416:46|418:48|419:51|419:51|417:52|417:52|419:51|419:51|420:52|422:54|422:54|424:53|424:53|422:54|422:54|423:56|425:59|425:59|422:60|422:60|425:59|425:59|426:61|427:63|427:63|430:62|430:62|427:63|427:63|428:67|429:67|429:67|426:69|426:69|429:67|429:67|430:71|430:72|430:72|433:71|433:71|430:72|430:72|431:75|432:78|432:78|429:78|429:78|432:78|432:78|433:79|434:82|434:82|436:82|436:82|434:82|434:82|434:84|435:87|435:87|431:87|431:87|435:87|435:87|435:89|435:92|435:92|438:91|438:91|435:92|435:92|435:95|435:97|435:97|433:97|433:97|435:97|435:97|436:99|436:102|436:102|439:102|439:102|436:102|436:102|437:104|436:107|436:107|433:107|433:107|436:107|436:107|436:108|436:112|436:112|439:111|439:111|436:112|436:112|435:113|435:117|435:117|432:116|432:116|435:117|435:117|435:120|435:122|435:122|438:122|438:122|435:122|435:122|434:124|434:127|434:127|431:126|431:126|434:127|434:127|433:129|432:132|432:132|436:132|436:132|432:132|432:132|432:133|431:137|431:137|428:135|428:135|431:137|431:137|431:138|429:141|429:141|432:142|432:142|429:141|429:141|428:143|427:146|427:146|424:145|424:145|427:146|427:146|426:148|425:150|425:150|428:152|428:152|425:150|425:150|424:151|423:155|423:155|420:153|420:153|423:155|423:155|421:156|420:159|420:159|422:160|422:160|420:159|420:159|418:161|417:162|417:162|414:161|414:161|417:162|417:162|416:165|414:166|414:166|416:168|416:168|414:166|414:166|412:168|411:170|411:170|409:168|409:168|411:170|411:170|409:172|407:174|407:174|409:176|409:176|407:174|407:174|405:176|404:177|404:177|401:175|401:175|404:177|404:177|401:179|400:181|400:181|402:183|402:183|400:181|400:181|398:182|396:183|396:183|394:181|394:181|396:183|396:183|394:185|391:187|391:187|394:189|394:189|391:187|391:187|390:187|387:189|387:189|386:186|386:186|387:189|387:189|384:191|383:191|383:191|384:194|384:194|383:191|383:191|381:193|378:194|378:194|377:191|377:191|378:194|378:194|376:194|374:195|374:195|375:198|375:198|374:195|374:195|371:196|369:197|369:197|368:194|368:194|369:197|369:197|368:198|364:198|364:198|364:202|364:202|364:198|364:198|361:199|359:199|359:199|359:197|359:197|359:199|359:199|356:200|354:200|354:200|355:204|355:204|354:200|354:200|351:201|349:201|349:201|350:198|350:198|349:201|349:201|347:201|345:201|345:201|344:204|344:204|345:201|345:201|343:202|339:202|339:202|339:199|339:199|339:202|339:202|337:202|335:202|335:202|334:205|334:205|335:202|335:202|331:202|329:202|329:202|330:199|330:199|329:202|329:202|326:201|324:201|324:201|324:204|324:204|324:201|324:201|322:201|320:201|320:201|320:197|320:197|320:201|320:201|317:199|315:199|315:199|313:202|313:202|315:199|315:199|313:199|313:199|310:198|310:198|310:195|310:195|310:198|310:198|308:197|305:197|305:197|304:200|304:200|305:197|305:197|303:196|300:196|300:196|300:193|300:193|300:196|300:196|299:196|295:196|295:196|295:199|295:199|295:196|295:196|292:196|290:196|290:196|290:192|290:192|290:196|290:196|286:196|285:195|285:195|285:199|285:199|285:195|285:195|281:196|280:195|280:195|279:193|279:193|280:195|280:195|277:196|275:196|275:196|275:200|275:200|275:196|275:196|273:197|270:198|270:198|270:194|270:194|270:198|270:198|268:198|266:199|266:199|266:201|266:201|266:199|266:199|263:199|261:200|261:200|260:197|260:197|261:200|261:200|259:200|255:202|255:202|256:204|256:204|255:202|255:202|254:202|251:203|251:203|249:200|249:200|251:203|251:203|247:204|246:205|246:205|248:208|248:208|246:205|246:205|244:206|242:207|242:207|241:205|241:205|242:207|242:207|240:209|237:210|237:210|239:213|239:213|237:210|237:210|235:211|234:212|234:212|231:210|231:210|234:212|234:212|232:214|229:216|229:216|231:218|231:218|229:216|229:216|227:218|225:218|225:218|223:216|223:216|225:218|225:218|223:221|221:222|221:222|224:224|224:224|221:222|221:222|220:224|218:225|218:225|217:223|217:223|218:225|218:225|217:227|215:229|215:229|217:231|217:231|215:229|215:229|213:230|212:233|212:233|210:231|210:231|212:233|212:233|210:235|209:237|209:237|212:238|212:238|209:237|209:237|207:240|206:241|206:241|204:239|204:239|206:241|206:241|204:243|203:245|203:245|206:247|206:247|203:245|203:245|202:247|201:250|201:250|198:249|198:249|201:250|201:250|200:252|199:255|199:255|201:256|201:256|199:255|199:255|197:257|196:259|196:259|194:258|194:258|196:259|196:259|196:261|195:264|195:264|198:264|198:264|195:264|195:264|194:266|193:269|193:269|191:268|191:268|193:269|193:269|194:270|192:273|192:273|195:274|195:274|192:273|192:273|192:275|192:278|192:278|189:278|189:278|192:278|192:278|192:281|191:283|191:283|194:283|194:283|191:283|191:283|191:286|191:288|191:288|187:288|187:288|191:288|191:288|191:291|191:293|191:293|194:293|194:293|191:293|191:293|190:296|190:298|190:298|187:298|187:298|190:298|190:298|191:302|191:303|191:303|194:303|194:303|191:303|191:303|191:306|191:308|191:308|189:308|189:308|191:308|191:308|192:311|192:313|192:313|196:313|196:313|192:313|192:313|193:315|193:318|193:318|191:318|191:318|193:318|193:318|194:321|195:322|195:322|198:322|198:322|195:322|195:322|196:326|197:327|197:327|194:328|194:328|197:327|197:327|198:330|199:332|199:332|201:331|201:331|199:332|199:332|199:334|200:337|200:337|197:338|197:338|200:337|200:337|201:339|202:341|202:341|205:339|205:339|202:341|202:341|205:343|205:346|205:346|203:347|203:347|205:346|205:346|207:348|208:350|208:350|210:348|210:348|208:350|208:350|209:352|211:354|211:354|209:355|209:355|211:354|211:354|212:356|214:358|214:358|217:356|217:356|214:358|214:358|215:359|217:361|217:361|215:363|215:363|217:361|217:361|219:362|221:364|221:364|223:363|223:363|221:364|221:364|223:366|225:368|225:368|223:371|223:371|225:368|225:368|227:370|228:371|228:371|230:369|230:369|228:371|228:371|230:373|232:374,1,1198.49832906604,8|0,0:0|0:0,0:0:0:0:
414,384,142534,6,0,B|412:382|412:382|414:384|414:384|417:380|417:380|419:382|419:382|417:380|417:380|420:376|420:376|417:374|417:374|420:376|420:376|421:374|422:371|422:371|425:373|425:373|422:371|422:371|425:367|425:367|422:366|422:366|425:367|425:367|426:365|427:363|427:363|430:364|430:364|427:363|427:363|429:358|429:358|426:357|426:357|429:358|429:358|430:356|431:353|431:353|434:355|434:355|431:353|431:353|433:349|433:349|430:348|430:348|433:349|433:349|435:344|435:344|437:345|437:345|435:344|435:344|436:339|436:339|433:338|433:338|436:339|436:339|437:335|437:335|440:335|440:335|437:335|437:335|438:332|439:330|439:330|436:329|436:329|439:330|439:330|440:325|440:325|443:325|443:325|440:325|440:325|440:322|441:320|441:320|438:319|438:319|441:320|441:320|441:315|441:315|444:315|444:315|441:315|441:315|442:312|442:310|442:310|439:310|439:310|442:310|442:310|442:305|442:305|445:305|445:305|442:305|442:305|443:300|443:300|440:300|440:300|443:300|443:300|443:295|443:295|446:295|446:295|443:295|443:295|443:290|443:290|440:290|440:290|443:290|443:290|442:288|442:285|442:285|445:285|445:285|442:285|442:285|442:280|442:280|439:280|439:280|442:280|442:280|442:278|441:275|441:275|444:275|444:275|441:275|441:275|441:270|441:270|438:271|438:271|441:270|441:270|440:268|440:265|440:265|443:265|443:265|440:265|440:265|439:260|439:260|436:261|436:261|439:260|439:260|437:255|437:255|440:255|440:255|437:255|437:255|436:251|436:251|433:252|433:252|436:251|436:251|435:246|435:246|437:245|437:245|435:246|435:246|434:244|433:241|433:241|430:242|430:242|433:241|433:241|431:237|431:237|434:235|434:235|431:237|431:237|430:234|429:232|429:232|426:233|426:233|429:232|429:232|427:227|427:227|430:226|430:226|427:227|427:227|426:225|425:223|425:223|422:224|422:224|425:223|425:223|422:219|422:219|425:217|425:217|422:219|422:219|421:217|420:214|420:214|417:216|417:216|420:214|420:214|417:210|417:210|419:209|419:209|417:210|417:210|414:206|414:206|411:208|411:208|414:206|414:206|412:204|411:202|411:202|413:200|413:200|411:202|411:202|408:198|408:198|405:200|405:200|408:198|408:198|406:196|405:194|405:194|407:192|407:192|405:194|405:194|401:191|401:191|399:193|399:193|401:191|401:191|399:189|398:187|398:187|400:185|400:185|398:187|398:187|394:184|394:184|392:186|392:186|394:184|394:184|392:182|390:180|390:180|392:178|392:178|390:180|390:180|387:177|387:177|385:179|385:179|387:177|387:177|383:174|383:174|384:172|384:172|383:174|383:174|381:172|379:171|379:171|377:173|377:173|379:171|379:171|374:168|374:168|376:166|376:166|374:168|374:168|372:167|370:166|370:166|369:168|369:168|370:166|370:166|366:163|366:163|367:160|367:160|366:163|366:163|364:162|362:161|362:161|360:163|360:163|362:161|362:161|357:158|357:158|358:156|358:156|357:158|357:158|355:157|353:156|353:156|351:159|351:159|353:156|353:156|348:154|348:154|349:151|349:151|348:154|348:154|343:152|343:152|342:155|342:155|343:152|343:152|341:152|339:151|339:151|340:148|340:148|339:151|339:151|334:149|334:149|333:152|333:152|334:149|334:149|331:149|329:148|329:148|330:145|330:145|329:148|329:148|324:147|324:147|323:150|323:150|324:147|324:147|322:146|319:146|319:146|320:143|320:143|319:146|319:146|314:145|314:145|314:148|314:148|314:145|314:145|312:144|309:144|309:144|310:141|310:141|309:144|309:144|304:144|304:144|304:147|304:147|304:144|304:144|299:143|299:143|300:140|300:140|299:143|299:143|297:143|294:143|294:143|294:146|294:146|294:143|294:143|289:143|289:143|289:140|289:140|289:143|289:143|287:143|284:143|284:143|285:146|285:146|284:143|284:143|279:143|279:143|279:140|279:140|279:143|279:143|277:144|274:144|274:144|275:147|275:147|274:144|274:144|270:144|270:144|269:141|269:141|270:144|270:144|267:145|265:145|265:145|265:148|265:148|265:145|265:145|260:146|260:146|259:143|259:143|260:146|260:146|255:147|255:147|255:150|255:150|255:147|255:147|252:148|250:148|250:148|249:146|249:146|250:148|250:148|245:150|245:150|246:153|246:153|245:150|245:150|243:151|240:151|240:151|239:149|239:149|240:151|240:151|236:153|236:153|237:156|237:156|236:153|236:153|233:154|231:155|231:155|230:152|230:152|231:155|231:155|226:157|226:157|228:160|228:160|226:157|226:157|224:158|222:159|222:159|221:157|221:157|222:159|222:159|218:162|218:162|219:164|219:164|218:162|218:162|213:164|213:164|212:161|212:161|213:164|213:164|211:165|209:167|209:167|211:169|211:169|209:167|209:167|205:169|205:169|203:167|203:167|205:169|205:169|203:171|201:172|201:172|202:175|202:175|201:172|201:172|197:175|197:175|195:173|195:173|197:175|197:175|195:177|193:178|193:178|195:181|195:181|193:178|193:178|189:182|189:182|187:180|187:180|189:182|189:182|187:183|185:185|185:185|187:187|187:187|185:185|185:185|182:189|182:189|180:187|180:187|182:189|182:189|178:192|178:192|181:194|181:194|178:192|178:192|177:194|175:196|175:196|173:194|173:194|175:196|175:196|172:200|172:200|174:202|174:202|172:200|172:200|170:202|169:204|169:204|166:202|166:202|169:204|169:204|166:208|166:208|168:210|168:210|166:208|166:208|164:210|163:212|163:212|161:210|161:210|163:212|163:212|160:216|160:216|163:218|163:218|160:216|160:216|159:218|158:221|158:221|155:219|155:219|158:221|158:221|156:225|156:225|158:226|158:226|156:225|156:225|153:229|153:229|151:228|151:228|153:229|153:229|152:232|151:234|151:234|154:235|154:235|151:234|151:234|149:239|149:239|146:237|146:237|149:239|149:239|148:241|147:243|147:243|150:244|150:244|147:243|147:243|146:248|146:248|143:247|143:247|146:248|146:248|145:250|144:253|144:253|147:254|147:254|144:253|144:253|143:258|143:258|140:257|140:257|143:258|143:258|143:260|142:262|142:262|145:263|145:263|142:262|142:262|141:265|141:267|141:267|138:267|138:267|141:267|141:267|140:272,1,1209.48504041609,8|0,0:0|0:0,0:0:0:0:
0,384,142859,102,0,B|2:382|2:382|0:384|0:384|-2:379|-2:379|-5:380|-5:380|-2:379|-2:379|-3:375|-4:375|-4:375|-1:373|-1:373|-4:375|-4:375|-5:371|-6:371|-6:371|-8:371|-8:371|-6:371|-6:371|-7:366|-8:365|-8:365|-5:365|-5:365|-8:365|-8:365|-9:362|-9:360|-9:360|-12:361|-12:361|-9:360|-9:360|-9:357|-10:355|-10:355|-7:355|-7:355|-10:355|-10:355|-11:353|-11:350|-11:350|-14:351|-14:351|-11:350|-11:350|-12:348|-12:346|-12:346|-9:345|-9:345|-12:346|-12:346|-12:343|-12:341|-12:341|-15:342|-15:342|-12:341|-12:341|-13:339|-13:336|-13:336|-10:335|-10:335|-13:336|-13:336|-13:334|-13:331|-13:331|-15:331|-15:331|-13:331|-13:331|-13:329|-12:326|-12:326|-10:325|-10:325|-12:326|-12:326|-12:324|-12:321|-12:321|-16:320|-16:320|-12:321|-12:321|-12:317|-12:316|-12:316|-10:316|-10:316|-12:316|-12:316|-12:313|-12:311|-12:311|-14:311|-14:311|-12:311|-12:311|-11:309|-11:306|-11:306|-7:307|-7:307|-11:306|-11:306|-9:303|-9:301|-9:301|-12:301|-12:301|-9:301|-9:301|-8:299|-9:296|-9:296|-5:297|-5:297|-9:296|-9:296|-7:295|-6:292|-6:292|-9:291|-9:291|-6:292|-6:292|-6:290|-4:287|-4:287|-1:288|-1:288|-4:287|-4:287|-3:284|-3:282|-3:282|-5:281|-5:281|-3:282|-3:282|-1:280|-1:278|-1:278|1:279|1:279|-1:278|-1:278|0:276|1:273|1:273|-1:271|-1:271|1:273|1:273|2:272|3:269|3:269|6:270|6:270|3:269|3:269|4:268|5:264|5:264|4:263|4:263|5:264|5:264|7:262|9:261|9:261|11:263|11:263|9:261|9:261|11:258|12:257|12:257|10:255|10:255|12:257|12:257|13:255|15:253|15:253|17:255|17:255|15:253|15:253|16:251|18:249|18:249|16:247|16:247|18:249|18:249|20:248|21:245|21:245|24:247|24:247|21:245|21:245|24:244|25:242|25:242|23:240|23:240|25:242|25:242|27:240|29:239|29:239|31:242|31:242|29:239|29:239|31:237|33:236|33:236|31:234|31:234|33:236|33:236|35:234|37:233|37:233|39:235|39:235|37:233|37:233|38:232|41:230|41:230|40:228|40:228|41:230|41:230|43:228|45:228|45:228|47:230|47:230|45:228|45:228|48:226|50:225|50:225|49:222|49:222|50:225|50:225|52:224|54:223|54:223|56:226|56:226|54:223|54:223|57:222|59:221|59:221|58:219|58:219|59:221|59:221|60:221|64:220|64:220|65:222|65:222|64:220|64:220|67:218|68:218|68:218|68:215|68:215|68:218|68:218|72:217|74:216|74:216|75:219|75:219|74:216|74:216|76:216|78:215|78:215|78:213|78:213|78:215|78:215|81:215|83:214|83:214|84:217|84:217|83:214|83:214|85:213|88:214|88:214|87:210|87:210|88:214|88:214|91:214|93:213|93:213|93:216|93:216|93:213|93:213|97:213|98:213|98:213|99:209|99:209|98:213|98:213|101:213|103:212|103:212|103:215|103:215|103:212|103:212|105:212|108:212|108:212|108:209|108:209|108:212|108:212|110:213|113:212|113:212|113:216|113:216|113:212|113:212|115:213|118:213|118:213|119:211|119:211|118:213|118:213|120:213|123:214|123:214|123:217|123:217|123:214|123:214|127:215|128:215|128:215|129:212|129:212|128:215|128:215|131:216|132:216|132:216|132:219|132:219|132:216|132:216|135:217|138:217|138:217|139:214|139:214|138:217|138:217|140:218|140:218|143:219|143:219|142:222|142:222|143:219|143:219|145:220|147:220|147:220|148:217|148:217|147:220|147:220|149:221|152:220|152:220|152:224|152:224|152:220|152:220|154:222|157:222|157:222|158:218|158:218|157:222|157:222|159:222|162:222|162:222|162:226|162:226|162:222|162:222|164:222|167:223|167:223|167:220|167:220|167:223|167:223|168:223|172:223|172:223|172:226|172:226|172:223|172:223|174:223|177:223|177:223|177:220|177:220|177:223|177:223|181:224|182:223|182:223|182:226|182:226|182:223|182:223|186:222|187:222|187:222|187:219|187:219|187:222|187:222|190:222|191:222|191:222|193:225|193:225|191:222|191:222|194:222|197:221|197:221|196:218|196:218|197:221|197:221|199:221|202:220|202:220|202:223|202:223|202:220|202:220|204:219|207:219|207:219|206:216|206:216|207:219|207:219|208:218|211:217|211:217|212:220|212:220|211:217|211:217|214:216|216:215|216:215|215:213|215:213|216:215|216:215|220:214|220:214|220:214|222:216|222:216|220:214|220:214|224:213|225:211|225:211|224:209|224:209|225:211|225:211|227:210|229:209|229:209|231:212|231:212|229:209|229:209|232:208|234:207|234:207|232:204|232:204|234:207|234:207|236:206|239:204|239:204|240:207|240:207|239:204|239:204|239:204|243:201|243:201|240:199|240:199|243:201|243:201|245:200|246:199|246:199|248:201|248:201|246:199|246:199|249:196|250:195|250:195|248:193|248:193|250:195|250:195|253:194|254:192|254:192|256:194|256:194|254:192|254:192|256:190|258:189|258:189|256:186|256:186|258:189|258:189|259:188|261:185|261:185|263:187|263:187|261:185|261:185|263:183|264:181|264:181|262:180|262:180|264:181|264:181|267:178|268:178|268:178|270:180|270:180|268:178|268:178|269:175|271:174|271:174|268:172|268:172|271:174|271:174|273:172|273:169|273:169|276:170|276:170|273:169|273:169|274:168|276:165|276:165|274:164|274:164|276:165|276:165|277:163|279:161|279:161|282:162|282:162|279:161|279:161|279:159|281:157|281:157|278:155|278:155|281:157|281:157|282:154|283:151|283:151|286:153|286:153|283:151|283:151|284:150|285:147|285:147|283:146|283:146|285:147|285:147|286:145|286:143|286:143|289:144|289:144|286:143|286:143|288:141|288:137|288:137|285:136|285:136|288:137|288:137|289:135|289:133|289:133|293:134|293:134|289:133|289:133|290:130|291:128|291:128|287:128|287:128|291:128|291:128|291:126|291:123|291:123|295:123|295:123|291:123|291:123|292:121|292:119|292:119|289:118|289:118|292:119|292:119|293:117|292:114|292:114|295:113|295:113|292:114|292:114|293:112|293:109|293:109|290:108|290:108|293:109|293:109|293:105|292:103|292:103|296:103|296:103|292:103|292:103|293:101|293:98|293:98|290:98|290:98|293:98|293:98|292:95|292:94|292:94|296:93|296:93|292:94|292:94|292:91|292:88|292:88|289:88|289:88|292:88|292:88|291:86|291:83|291:83|293:83|293:83|291:83|291:83|290:80|289:78|289:78|287:79|287:79|289:78|289:78|289:76|288:74|288:74|292:73|292:73|288:74|288:74|288:71|287:69|287:69|284:70|284:70|287:69|287:69|286:67|285:65|285:65|288:63|288:63|285:65|285:65|284:63|283:59|283:59|281:61|281:61|283:59|283:59|283:57|282:55|282:55|284:54|284:54|282:55|282:55|281:53|279:52,1,1220.39900898107,8|0,0:0|0:0,0:0:0:0:
60,40,143183,6,0,B|58:38|58:38|60:40|60:40|63:36|63:36|66:39|66:39|63:36|63:36|66:33|67:33|67:33|65:31|65:31|67:33|67:33|70:30|71:30|71:30|73:32|73:32|71:30|71:30|74:27|75:26|75:26|73:24|73:24|75:26|75:26|78:24|79:24|79:24|80:26|80:26|79:24|79:24|81:22|83:21|83:21|81:18|81:18|83:21|83:21|85:19|87:18|87:18|89:21|89:21|87:18|87:18|89:17|92:16|92:16|90:13|90:13|92:16|92:16|94:14|96:13|96:13|97:16|97:16|96:13|96:13|98:12|101:11|101:11|99:9|99:9|101:11|101:11|102:11|105:10|105:10|106:12|106:12|105:10|105:10|107:9|110:8|110:8|109:5|109:5|110:8|110:8|111:7|115:6|115:6|115:9|115:9|115:6|115:6|117:6|119:5|119:5|119:2|119:2|119:5|119:5|123:4|124:4|124:4|125:7|125:7|124:4|124:4|127:4|129:3|129:3|129:0|129:0|129:3|129:3|132:3|134:3|134:3|135:6|135:6|134:3|134:3|137:2|139:2|139:2|139:-1|139:-1|139:2|139:2|141:2|144:2|144:2|144:5|144:5|144:2|144:2|146:2|149:2|149:2|149:-1|149:-1|149:2|149:2|152:2|154:2|154:2|154:5|154:5|154:2|154:2|158:2|159:2|159:2|160:-1|160:-1|159:2|159:2|162:3|164:3|164:3|164:6|164:6|164:3|164:3|166:3|169:4|169:4|170:1|170:1|169:4|169:4|171:4|174:5|174:5|173:8|173:8|174:5|174:5|176:5|179:6|179:6|180:3|180:3|179:6|179:6|181:7|184:8|184:8|183:10|183:10|184:8|184:8|187:9|188:9|188:9|189:6|189:6|188:9|188:9|191:10|193:11|193:11|192:14|192:14|193:11|193:11|195:12|198:13|198:13|199:10|199:10|198:13|198:13|200:14|202:15|202:15|201:18|201:18|202:15|202:15|203:16|206:18|206:18|208:15|208:15|206:18|206:18|209:19|211:20|211:20|209:23|209:23|211:20|211:20|214:22|215:23|215:23|217:21|217:21|215:23|215:23|217:25|219:26|219:26|217:28|217:28|219:26|219:26|221:27|223:29|223:29|225:27|225:27|223:29|223:29|224:30|227:32|227:32|225:35|225:35|227:32|227:32|229:34|230:36|230:36|232:34|232:34|230:36|230:36|233:38|234:39|234:39|232:41|232:41|234:39|234:39|236:41|237:43|237:43|239:41|239:41|237:43|237:43|239:45|240:47|240:47|238:49|238:49|240:47|240:47|242:49|243:51|243:51|246:49|246:49|243:51|243:51|244:52|246:55|246:55|244:57|244:57|246:55|246:55|247:57|249:59|249:59|251:58|251:58|249:59|249:59|251:62|251:64|251:64|249:65|249:65|251:64|251:64|253:66|254:68|254:68|256:67|256:67|254:68|254:68|255:70|256:72|256:72|253:74|253:74|256:72|256:72|257:74|258:77|258:77|261:76|261:76|258:77|258:77|258:78|260:82|260:82|257:83|257:83|260:82|260:82|260:84|261:87|261:87|264:86|264:86|261:87|261:87|262:90|262:91|262:91|259:92|259:92|262:91|262:91|263:94|264:96|264:96|266:96|266:96|264:96|264:96|264:98|264:101|264:101|262:102|262:102|264:101|264:101|265:103|265:106|265:106|268:106|268:106|265:106|265:106|265:108|266:111|266:111|263:111|263:111|266:111|266:111|266:112|266:116|266:116|269:116|269:116|266:116|266:116|266:116|266:116|266:121|266:121|263:121|263:121|266:121|266:121|267:125|267:126|267:126|270:126|270:126|267:126|267:126|268:130|268:131|268:131|265:131|265:131|268:131|268:131|268:135|269:136|269:136|272:135|272:135|269:136|269:136|269:139|270:141|270:141|267:141|267:141|270:141|270:141|271:144|271:146|271:146|274:145|274:145|271:146|271:146|272:148|273:150|273:150|270:151|270:151|273:150|273:150|274:153|275:155|275:155|277:154|277:154|275:155|275:155|275:157|277:160|277:160|274:161|274:161|277:160|277:160|278:162|279:164|279:164|281:163|281:163|279:164|279:164|280:166|281:168|281:168|278:170|278:170|281:168|281:168|282:170|284:173|284:173|286:171|286:171|284:173|284:173|284:174|286:177|286:177|284:179|284:179|286:177|286:177|288:179|289:181|289:181|292:179|292:179|289:181|289:181|291:184|292:185|292:185|290:187|290:187|292:185|292:185|294:187|295:189|295:189|298:187|298:187|295:189|295:189|297:191|299:192|299:192|297:195|297:195|299:192|299:192|301:194|302:196|302:196|304:194|304:194|302:196|302:196|304:197|306:199|306:199|304:202|304:202|306:199|306:199|307:200|310:203|310:203|312:200|312:200|310:203|310:203|312:204|314:206|314:206|312:208|312:208|314:206|314:206|317:208|318:209|318:209|320:206|320:206|318:209|318:209|320:210|322:211|322:211|321:214|321:214|322:211|322:211|324:213|326:214|326:214|328:211|328:211|326:214|326:214|328:215|331:216|331:216|329:219|329:219|331:216|331:216|332:217|335:218|335:218|337:216|337:216|335:218|335:218|337:219|340:220|340:220|339:223|339:223|340:220|340:220|343:222|345:222|345:222|346:219|346:219|345:222|345:222|347:223|349:224|349:224|348:227|348:227|349:224|349:224|351:225|354:225|354:225|355:222|355:222|354:225|354:225|356:226|359:226|359:226|358:229|358:229|359:226|359:226|360:227|364:227|364:227|364:224|364:224|364:227|364:227|367:228|369:228|369:228|368:231|368:231|369:228|369:228|372:229|374:229|374:229|374:226|374:226|374:229|374:229|376:229|379:229|379:229|379:232|379:232|379:229|379:229|381:229|384:229|384:229|384:226|384:226|384:229|384:229|386:229|389:229|389:229|389:232|389:232|389:229|389:229|392:229|394:229|394:229|393:226|393:226|394:229|394:229|397:229|399:229|399:229|399:232|399:232|399:229|399:229|402:228|404:228|404:228|403:225|403:225|404:228|404:228|406:228|409:227|409:227|409:230|409:230|409:227|409:227|411:227|413:226|413:226|413:223|413:223|413:226|413:226|415:226|418:225|418:225|419:228|419:228|418:225|418:225|420:224|423:223|423:223|422:220|422:220|423:223|423:223|426:222|428:221|428:221|429:224|429:224|428:221|428:221|430:220|432:220|432:220|431:217|431:217|432:220|432:220|435:219|437:217|437:217|438:220|438:220|437:217|437:217|439:217|441:215|441:215|440:213|440:213|441:215|441:215|443:214|446:213|446:213|447:215|447:215|446:213|446:213|449:211|450:210|450:210|448:208|448:208|450:210|450:210|453:208|454:207|454:207|456:210|456:210|454:207|454:207|456:206|458:204|458:204|456:202|456:202|458:204|458:204|460:203|462:201|462:201|464:203|464:203|462:201|462:201|463:200|466:198|466:198|464:196|464:196|466:198|466:198|467:197|469:194|469:194|471:197|471:197|469:194|469:194|472:191,1,1231.34923589881,8|0,0:0|0:0,0:0:0:0:
425,5,143507,102,0,B|424:8|424:8|425:5|425:5|420:4|420:4|421:1|421:1|420:4|420:4|415:3|415:3|415:5|415:5|415:3|415:3|413:2|410:2|410:2|411:-1|411:-1|410:2|410:2|405:1|405:1|405:4|405:4|405:1|405:1|403:0|401:0|401:0|401:-3|401:-3|401:0|401:0|396:0|396:0|395:3|395:3|396:0|396:0|393:0|391:-1|391:-1|391:-4|391:-4|391:-1|391:-1|386:-1|386:-1|386:2|386:2|386:-1|386:-1|383:-1|381:-1|381:-1|380:-4|380:-4|381:-1|381:-1|376:0|376:0|376:3|376:3|376:0|376:0|373:0|371:0|371:0|370:-3|370:-3|371:0|371:0|366:1|366:1|366:4|366:4|366:1|366:1|363:1|361:2|361:2|360:-1|360:-1|361:2|361:2|356:3|356:3|356:6|356:6|356:3|356:3|351:4|351:4|350:1|350:1|351:4|351:4|346:5|346:5|347:8|347:8|346:5|346:5|341:7|341:7|340:4|340:4|341:7|341:7|339:7|337:8|337:8|338:11|338:11|337:8|337:8|332:10|332:10|331:7|331:7|332:10|332:10|330:11|327:12|327:12|329:15|329:15|327:12|327:12|323:14|323:14|322:12|322:12|323:14|323:14|321:15|318:17|318:17|320:19|320:19|318:17|318:17|314:19|314:19|313:17|313:17|314:19|314:19|312:20|310:22|310:22|312:24|312:24|310:22|310:22|306:25|306:25|304:22|304:22|306:25|306:25|304:26|302:28|302:28|304:30|304:30|302:28|302:28|298:31|298:31|296:28|296:28|298:31|298:31|296:32|294:34|294:34|296:36|296:36|294:34|294:34|290:37|290:37|288:35|288:35|290:37|290:37|287:41|287:41|289:43|289:43|287:41|287:41|283:44|283:44|281:42|281:42|283:44|283:44|280:48|280:48|282:50|282:50|280:48|280:48|278:50|277:52|277:52|274:50|274:50|277:52|277:52|274:56|274:56|276:58|276:58|274:56|274:56|272:58|271:60|271:60|268:58|268:58|271:60|271:60|268:64|268:64|271:66|271:66|268:64|268:64|267:66|266:68|266:68|263:67|263:67|266:68|266:68|263:73|263:73|266:74|266:74|263:73|263:73|262:75|261:77|261:77|258:76|258:76|261:77|261:77|259:82|259:82|261:83|261:83|259:82|259:82|258:84|257:86|257:86|254:85|254:85|257:86|257:86|255:91|255:91|258:92|258:92|255:91|255:91|254:93|253:96|253:96|250:95|250:95|253:96|253:96|252:101|252:101|255:101|255:101|252:101|252:101|251:105|251:105|248:105|248:105|251:105|251:105|250:110|250:110|253:111|253:111|250:110|250:110|249:115|249:115|246:115|246:115|249:115|249:115|248:118|248:120|248:120|251:121|251:121|248:120|248:120|247:125|247:125|244:125|244:125|247:125|247:125|247:128|247:130|247:130|250:130|250:130|247:130|247:130|247:135|247:135|244:135|244:135|247:135|247:135|247:138|247:140|247:140|250:140|250:140|247:140|247:140|247:145|247:145|244:145|244:145|247:145|247:145|247:148|247:150|247:150|250:150|250:150|247:150|247:150|248:155|248:155|245:155|245:155|248:155|248:155|248:158|248:160|248:160|251:160|251:160|248:160|248:160|249:165|249:165|246:166|246:166|249:165|249:165|250:167|250:170|250:170|253:169|253:169|250:170|250:170|252:175|252:175|249:176|249:176|252:175|252:175|253:180|253:180|256:179|256:179|253:180|253:180|255:184|255:184|252:185|252:185|255:184|255:184|256:189|256:189|259:188|259:188|256:189|256:189|257:191|258:194|258:194|256:195|256:195|258:194|258:194|260:198|260:198|263:197|263:197|260:198|260:198|261:200|263:203|263:203|260:204|260:204|263:203|263:203|265:207|265:207|268:206|268:206|265:207|265:207|266:209|268:211|268:211|265:213|265:213|268:211|268:211|270:215|270:215|273:214|273:214|270:215|270:215|272:218|273:220|273:220|271:221|271:221|273:220|273:220|276:224|276:224|279:222|279:222|276:224|276:224|278:226|279:227|279:227|277:229|277:229|279:227|279:227|283:231|283:231|285:229|285:229|283:231|283:231|284:233|286:235|286:235|284:237|284:237|286:235|286:235|290:238|290:238|292:236|292:236|290:238|290:238|293:242|293:242|291:244|291:244|293:242|293:242|297:245|297:245|299:243|299:243|297:245|297:245|301:248|301:248|299:251|299:251|301:248|301:248|303:250|305:251|305:251|307:249|307:249|305:251|305:251|309:254|309:254|307:257|307:257|309:254|309:254|311:255|313:257|313:257|315:254|315:254|313:257|313:257|318:259|318:259|316:262|316:262|318:259|318:259|320:260|322:262|322:262|323:259|323:259|322:262|322:262|326:264|326:264|325:267|325:267|326:264|326:264|329:265|331:266|331:266|332:263|332:263|331:266|331:266|336:268|336:268|335:271|335:271|336:268|336:268|338:269|340:269|340:269|341:267|341:267|340:269|340:269|345:271|345:271|344:274|344:274|345:271|345:271|347:272|350:272|350:272|351:269|351:269|350:272|350:272|355:274|355:274|354:276|354:276|355:274|355:274|360:275|360:275|360:272|360:272|360:275|360:275|365:275|365:275|364:278|364:278|365:275|365:275|370:276|370:276|370:273|370:273|370:276|370:276|372:276|374:277|374:277|374:280|374:280|374:277|374:277|379:277|379:277|380:274|380:274|379:277|379:277|382:277|384:277|384:277|384:280|384:280|384:277|384:277|389:277|389:277|389:274|389:274|389:277|389:277|392:277|394:277|394:277|395:280|395:280|394:277|394:277|399:276|399:276|399:273|399:273|399:276|399:276|402:276|404:276|404:276|405:279|405:279|404:276|404:276|409:275|409:275|409:272|409:272|409:275|409:275|412:275|414:274|414:274|415:277|415:277|414:274|414:274|419:273|419:273|418:270|418:270|419:273|419:273|422:272|424:272|424:272|425:275|425:275|424:272|424:272|429:270|429:270|428:267|428:267|429:270|429:270|433:269|433:269|435:271|435:271|433:269|433:269|438:267|438:267|437:264|437:264|438:267|438:267|443:265|443:265|444:268|444:268|443:265|443:265|445:264|447:263|447:263|446:260|446:260|447:263|447:263|452:260|452:260|453:263|453:263|452:260|452:260|454:259|456:258|456:258|455:255|455:255|456:258|456:258|458:257|460:255|460:255|462:258|462:258|460:255|460:255|462:254|464:252|464:252|463:250|463:250|464:252|464:252|466:251|468:250,1,1242.33901265052,8|0,0:0|0:0,0:0:0:0:
485,69,143832,6,0,B|483:71|483:71|485:69|485:69|482:65|482:65|484:63|484:63|482:65|482:65|478:62|478:62|476:64|476:64|478:62|478:62|474:59|474:59|476:56|476:56|474:59|474:59|471:56|470:55|470:55|468:58|468:58|470:55|470:55|467:53|466:52|466:52|468:50|468:50|466:52|466:52|463:50|462:50|462:50|461:52|461:52|462:50|462:50|459:48|458:47|458:47|459:44|459:44|458:47|458:47|455:45|454:45|454:45|452:47|452:47|454:45|454:45|451:43|449:42|449:42|450:40|450:40|449:42|449:42|447:41|445:40|445:40|443:43|443:43|445:40|445:40|442:39|440:38|440:38|441:35|441:35|440:38|440:38|438:37|435:36|435:36|434:39|434:39|435:36|435:36|433:36|431:35|431:35|431:32|431:32|431:35|431:35|429:34|426:34|426:34|425:37|425:37|426:34|426:34|424:33|421:33|421:33|421:30|421:30|421:33|421:33|418:32|416:32|416:32|415:35|415:35|416:32|416:32|412:31|411:31|411:31|411:28|411:28|411:31|411:31|408:31|406:30|406:30|406:33|406:33|406:30|406:30|403:30|401:30|401:30|401:27|401:27|401:30|401:30|399:30|396:30|396:30|396:33|396:33|396:30|396:30|394:30|391:30|391:30|391:27|391:27|391:30|391:30|389:30|386:30|386:30|386:33|386:33|386:30|386:30|385:31|381:31|381:31|381:28|381:28|381:31|381:31|379:31|376:32|376:32|377:35|377:35|376:32|376:32|373:32|371:33|371:33|371:30|371:30|371:33|371:33|368:33|366:34|366:34|367:37|367:37|366:34|366:34|364:34|362:35|362:35|361:32|361:32|362:35|362:35|359:36|357:37|357:37|358:40|358:40|357:37|357:37|355:37|352:38|352:38|351:36|351:36|352:38|352:38|351:39|347:40|347:40|349:43|349:43|347:40|347:40|346:41|343:43|343:43|342:40|342:40|343:43|343:43|340:44|339:45|339:45|340:47|340:47|339:45|339:45|336:46|334:47|334:47|333:45|333:45|334:47|334:47|332:49|330:50|330:50|332:53|332:53|330:50|330:50|328:51|326:53|326:53|324:50|324:50|326:53|326:53|325:54|322:56|322:56|324:58|324:58|322:56|322:56|320:58|318:59|318:59|316:57|316:57|318:59|318:59|316:61|314:62|314:62|316:65|316:65|314:62|314:62|312:64|311:66|311:66|309:64|309:64|311:66|311:66|309:68|307:70|307:70|309:72|309:72|307:70|307:70|306:71|304:73|304:73|302:71|302:71|304:73|304:73|303:74|301:77|301:77|303:79|303:79|301:77|301:77|300:79|298:81|298:81|295:80|295:80|298:81|298:81|296:84|295:85|295:85|298:87|298:87|295:85|295:85|294:88|293:90|293:90|290:88|290:88|293:90|293:90|291:92|290:94|290:94|293:95|293:95|290:94|290:94|289:96|288:98|288:98|285:97|285:97|288:98|288:98|287:100|286:103|286:103|288:104|288:104|286:103|286:103|285:106|284:108|284:108|281:107|281:107|284:108|284:108|283:111|282:112|282:112|285:113|285:113|282:112|282:112|281:115|281:117|281:117|278:116|278:116|281:117|281:117|280:120|279:122|279:122|282:123|282:123|279:122|279:122|279:125|278:127|278:127|275:126|275:126|278:127|278:127|278:129|277:132|277:132|280:132|280:132|277:132|277:132|277:133|276:137|276:137|273:136|273:136|276:137|276:137|276:138|276:142|276:142|279:142|279:142|276:142|276:142|276:146|276:146|276:147|276:147|273:146|273:146|276:147|276:147|275:151|275:152|275:152|278:152|278:152|275:152|275:152|275:156|275:157|275:157|272:156|272:156|275:157|275:157|274:160|274:161|274:161|277:162|277:162|274:161|274:161|273:165|273:166|273:166|270:166|270:166|273:166|273:166|272:170|272:171|272:171|275:172|275:172|272:171|272:171|271:174|270:176|270:176|267:175|267:175|270:176|270:176|269:179|269:181|269:181|271:182|271:182|269:181|269:181|268:183|267:185|267:185|264:184|264:184|267:185|267:185|266:188|265:190|265:190|268:191|268:191|265:190|265:190|264:193|263:195|263:195|260:193|260:193|263:195|263:195|262:197|260:199|260:199|263:200|263:200|260:199|260:199|259:201|258:203|258:203|255:202|255:202|258:203|258:203|257:205|255:208|255:208|258:209|258:209|255:208|255:208|254:209|252:212|252:212|250:210|250:210|252:212|252:212|251:213|249:216|249:216|252:217|252:217|249:216|249:216|247:219|246:219|246:219|244:217|244:217|246:219|246:219|244:222|243:223|243:223|245:225|245:225|243:223|243:223|241:225|239:227|239:227|237:225|237:225|239:227|239:227|237:228|236:230|236:230|238:232|238:232|236:230|236:230|234:232|232:233|232:233|230:231|230:231|232:233|232:233|230:235|228:237|228:237|230:239|230:239|228:237|228:237|227:237|224:239|224:239|222:237|222:237|224:239|224:239|221:241|220:242|220:242|221:245|221:245|220:242|220:242|217:244|215:245|215:245|214:242|214:242|215:245|215:245|213:246|211:247|211:247|212:250|212:250|211:247|211:247|209:248|207:250|207:250|205:247|205:247|207:250|207:250|204:251|202:252|202:252|203:254|203:254|202:252|202:252|200:252|197:253|197:253|196:251|196:251|197:253|197:253|196:254|193:255|193:255|194:258|194:258|193:255|193:255|190:256|188:257|188:257|187:254|187:254|188:257|188:257|185:258|183:258|183:258|184:261|184:261|183:258|183:258|180:259|178:259|178:259|178:256|178:256|178:259|178:259|176:259|173:260|173:260|174:263|174:263|173:260|173:260|171:260|168:261|168:261|168:258|168:258|168:261|168:261|167:261|163:261|163:261|164:264|164:264|163:261|163:261|161:261|158:261|158:261|158:258|158:258|158:261|158:261|155:261|153:261|153:261|153:264|153:264|153:261|153:261|150:261|148:261|148:261|149:258|149:258|148:261|148:261|146:261|143:261|143:261|143:264|143:264|143:261|143:261|141:261|138:260|138:260|139:257|139:257|138:260|138:260|137:260|133:260|133:260|133:263|133:263|133:260|133:260|131:259|129:259|129:259|129:256|129:256|129:259|129:259|125:258|124:257|124:257|123:260|123:260|124:257|124:257|121:257|119:256|119:256|120:253|120:253|119:256|119:256|117:255|114:255|114:255|113:257|113:257|114:255|114:255|112:254|109:253|109:253|111:250|111:250|109:253|109:253|108:252|105:251|105:251|104:254|104:254|105:251|105:251|103:250|100:249|100:249|102:246|102:246|100:249|100:249|97:247|96:246|96:246|94:249|94:249|96:246|96:246|93:245|92:244|92:244|93:241|93:241|92:244|92:244|89:242|87:241|87:241|86:244|86:244|87:241|87:241|85:240|83:238|83:238|85:236|85:236|83:238|83:238|82:237|79:235|79:235|77:238|77:238|79:235|79:235|78:234|75:232|75:232|77:230|77:230|75:232|75:232|74:231|72:229|72:229|70:231|70:231|72:229|72:229|69:226|68:225|68:225|70:223|70:223|68:225|68:225|67:224|65:222,1,1253.24960825112,8|0,0:0|0:0,0:0:0:0:
0,0,144156,102,0,B|-4:-21|-4:-21|0:-11|0:-11|8:-19|8:-19|7:-7|7:-7|18:-10|18:-10|10:-1|10:-1|21:2|21:2|9:4|9:4|15:14|15:14|4:10|4:10|3:21|3:21|-1:11|-1:11|-9:19|-9:19|-8:8|-8:8|-19:10|-19:10|-11:1|-11:1|-21:-2|-21:-2|-10:-4|-10:-4|-16:-14|-16:-14|-5:-10|-5:-10|-4:-21|-4:-21|0:0,7,275
102,16,144480,21,2,2:0:0:0:
140,120,144642,1,2,2:0:0:0:
210,35,144805,1,2,2:0:0:0:
102,16,144967,5,2,2:0:0:0:
31,100,145129,1,2,2:0:0:0:
68,203,145291,5,2,2:0:0:0:
89,206,145372,1,2,2:0:0:0:
111,210,145453,1,2,2:0:0:0:
148,313,145615,1,2,2:0:0:0:
249,140,145777,5,2,2:0:0:0:
299,227,145940,1,2,2:0:0:0:
349,314,146102,1,2,2:0:0:0:
436,264,146264,1,2,2:0:0:0:
249,140,146426,69,2,2:0:0:0:
162,190,146588,1,2,2:0:0:0:
75,240,146750,1,2,2:0:0:0:
125,327,146913,1,2,2:0:0:0:
249,140,147075,5,2,2:0:0:0:
357,159,147237,1,2,2:0:0:0:
287,244,147399,1,2,2:0:0:0:
249,140,147561,5,2,2:0:0:0:
320,55,147723,1,2,2:0:0:0:
429,73,147886,5,2,2:0:0:0:
450,70,147967,1,2,2:0:0:0:
472,66,148048,1,2,2:0:0:0:
465,178,148210,1,2,2:0:0:0:
287,244,148372,70,0,P|255:240|232:218,1,65.9999979858399,2|0,2:0|0:0,0:0:0:0:
112,281,148696,6,0,P|89:245|98:203,1,88,2|0,2:0|0:0,0:0:0:0:
5,90,149021,6,0,P|7:36|46:0,1,110,2|0,2:0|0:0,0:0:0:0:
22,189,149345,6,0,L|163:214,1,132,2|0,2:0|0:0,0:0:0:0:
174,216,149669,69,2,2:0:0:0:
195,336,149832,1,2,2:0:0:0:
288,257,149994,1,2,2:0:0:0:
174,216,150156,5,2,2:0:0:0:
80,294,150318,1,2,2:0:0:0:
195,336,150480,5,2,2:0:0:0:
191,314,150561,1,2,2:0:0:0:
187,292,150642,1,2,2:0:0:0:
319,374,150805,1,2,2:0:0:0:
174,216,150967,5,2,2:0:0:0:
288,257,151129,1,2,2:0:0:0:
329,143,151291,1,2,2:0:0:0:
215,102,151453,1,2,2:0:0:0:
174,216,151615,69,2,2:0:0:0:
251,179,151777,1,2,2:0:0:0:
402,298,151940,5,2,2:0:0:0:
288,257,152102,1,2,2:0:0:0:
407,107,152264,5,2,2:0:0:0:
329,143,152426,1,2,2:0:0:0:
365,221,152588,1,2,2:0:0:0:
443,185,152750,1,2,2:0:0:0:
407,107,152913,5,2,2:0:0:0:
365,221,153075,1,2,2:0:0:0:
251,179,153237,1,2,2:0:0:0:
293,65,153399,1,2,2:0:0:0:
443,185,153561,69,2,2:0:0:0:
365,221,153723,1,2,2:0:0:0:
329,143,153886,1,2,2:0:0:0:
407,107,154048,1,2,2:0:0:0:
338,295,154210,5,2,2:0:0:0:
251,179,154372,1,2,2:0:0:0:
195,313,154534,1,2,2:0:0:0:
338,295,154696,1,2,2:0:0:0:
147,214,154859,6,0,P|108:250|114:302,1,110,2|0,2:0|0:0,0:0:0:0:
276,376,155183,1,2,2:0:0:0:
402,253,155507,6,0,P|390:201|342:180,1,110,2|0,2:0|0:0,0:0:0:0:
147,214,155832,1,2,2:0:0:0:
276,376,156115,70,0,L|269:338,2,27.5,2|2|2,2:0|2:0|2:0,0:0:0:0:
102,15,156967,5,2,2:0:0:0:
188,32,157129,1,2,2:0:0:0:
102,15,157291,1,2,2:0:0:0:
45,81,157453,5,2,2:0:0:0:
256,192,157534,12,0,158669,0:0:0:0:
0,384,158750,22,0,B|-9:329|-9:329|-2:328|-2:328|7:382|7:382|14:381|14:381|4:327|4:327|11:326|11:326|21:380|21:380|28:379|28:379|18:325|18:325|25:323|25:323|34:378|34:378|41:376|41:376|32:322|32:322|38:321|38:321|48:375|48:375|55:374|55:374|45:320,1,550,8|0,1:3|0:0,0:0:0:0:
45,321,161345,118,0,B|36:266|36:266|43:265|43:265|52:319|52:319|59:318|59:318|49:264|49:264|56:263|56:263|66:317|66:317|73:316|73:316|63:262|63:262|70:260|70:260|79:315|79:315|86:313|86:313|77:259|77:259|83:258|83:258|93:312|93:312|100:311|100:311|90:257,1,550,8|0,1:3|0:0,0:0:0:0:
90,258,163940,118,0,B|81:203|81:203|88:202|88:202|97:256|97:256|104:255|104:255|94:201|94:201|101:200|101:200|111:254|111:254|118:253|118:253|108:199|108:199|115:197|115:197|124:252|124:252|131:250|131:250|122:196|122:196|128:195|128:195|138:249|138:249|145:248|145:248|135:194,1,550,8|0,1:3|0:0,0:0:0:0:
135,195,166291,6,0,L|132:182,1,11,0|0,1:0|0:0,0:0:0:0:
135,195,166534,102,0,B|126:140|126:140|133:139|133:139|142:193|142:193|149:192|149:192|139:138|139:138|146:137|146:137|156:191|156:191|163:190|163:190|153:136|153:136|160:134|160:134|169:189|169:189|176:187|176:187|167:133|167:133|173:132|173:132|183:186|183:186|190:185|190:185|180:131,1,550,8|0,1:3|0:0,0:0:0:0:
180,132,167832,6,0,B|171:77|171:77|178:76|178:76|187:130|187:130|194:129|194:129|184:75|184:75|191:74|191:74|201:128|201:128|208:127|208:127|198:73|198:73|205:71|205:71|214:126|214:126|221:124|221:124|212:70|212:70|218:69|218:69|228:123|228:123|235:122|235:122|225:68,1,550,8|0,1:3|0:0,0:0:0:0:
464,336,168480,102,0,B|462:346|462:346|480:349|480:349|467:314|467:314|441:343|441:343|462:346|462:346|464:336,1,137.5,8|0,1:3|0:0,0:0:0:0:
212,292,168723,6,0,B|210:302|210:302|228:305|228:305|215:270|215:270|189:299|189:299|210:302|210:302|212:292,1,137.5,8|0,1:3|0:0,0:0:0:0:
207,324,168805,2,0,B|205:334|205:334|223:337|223:337|210:302|210:302|184:331|184:331|205:334|205:334|207:324,1,137.5,8|0,1:3|0:0,0:0:0:0:
256,40,168967,102,0,B|259:21|259:21|238:46|238:46|270:52|270:52|259:21|259:21|256:40,1,137.5,8|0,1:3|0:0,0:0:0:0:
508,83,169129,54,0,B|505:93|505:93|484:90|484:90|510:61|510:61|523:96|523:96|505:93|505:93|508:83,1,137.5,8|0,0:0|0:0,0:0:0:0:
502,114,169210,1,0,0:0:0:0:
479,140,169291,1,0,0:0:0:0:
442,151,169372,1,0,0:0:0:0:
401,140,169453,1,8,0:2:0:0:
375,102,169534,1,0,0:0:0:0:
380,52,169615,1,0,0:0:0:0:
347,9,169696,1,0,0:0:0:0:
290,0,169777,5,8,0:2:0:0:
285,35,169859,1,0,0:0:0:0:
303,69,169940,1,0,0:0:0:0:
343,80,170021,1,0,0:0:0:0:
380,52,170102,1,8,0:2:0:0:
429,59,170183,1,0,0:0:0:0:
459,104,170264,1,0,0:0:0:0:
438,158,170345,1,0,0:0:0:0:
377,168,170426,5,8,0:2:0:0:
380,130,170507,1,0,0:0:0:0:
413,104,170588,1,0,0:0:0:0:
459,104,170669,1,0,0:0:0:0:
493,141,170750,1,8,0:2:0:0:
479,194,170832,1,0,0:0:0:0:
425,214,170913,1,0,0:0:0:0:
405,272,170994,1,0,0:0:0:0:
438,328,171075,5,8,0:2:0:0:
465,296,171156,1,0,0:0:0:0:
460,250,171237,1,0,0:0:0:0:
425,214,171318,1,0,0:0:0:0:
372,223,171399,2,0,P|341:245|331:281,1,76.9999976501466,8|0,0:2|0:0,0:0:0:0:
159,384,171561,2,0,L|172:305,1,76.9999976501466,8|0,0:2|0:0,0:0:0:0:
0,95,171723,70,0,B|1:84|1:84|22:87|22:87|-2:116|-2:116|-15:81|-15:81|1:84|1:84|0:95,1,137.5,8|0,0:0|0:0,0:0:0:0:
16,68,171805,1,0,0:0:0:0:
48,55,171886,1,0,0:0:0:0:
85,61,171967,1,0,0:0:0:0:
115,91,172048,1,8,0:2:0:0:
114,137,172129,1,0,0:0:0:0:
148,174,172210,1,0,0:0:0:0:
202,175,172291,1,0,0:0:0:0:
241,133,172372,5,8,0:2:0:0:
216,109,172453,1,0,0:0:0:0:
178,102,172534,1,0,0:0:0:0:
144,127,172615,1,0,0:0:0:0:
148,174,172696,1,8,0:2:0:0:
118,214,172777,1,0,0:0:0:0:
64,222,172859,1,0,0:0:0:0:
19,186,172940,1,0,0:0:0:0:
19,124,173021,5,8,0:2:0:0:
55,137,173102,1,0,0:0:0:0:
71,176,173183,1,0,0:0:0:0:
64,222,173264,1,0,0:0:0:0:
19,244,173345,1,8,0:2:0:0:
1,295,173426,1,0,0:0:0:0:
28,346,173507,1,0,0:0:0:0:
89,356,173588,1,0,0:0:0:0:
134,309,173669,6,0,P|139:272|121:239,2,76.9999976501466,8|0|0,0:2|0:0|0:0,0:0:0:0:
322,384,173913,1,8,0:2:0:0:
360,377,173994,2,0,L|346:302,1,76.9999976501466,8|0,0:2|0:0,0:0:0:0:
210,155,174156,2,0,L|223:229,1,76.9999976501466,8|0,0:2|0:0,0:0:0:0:
460,319,174318,70,0,B|469:316|469:316|472:334|472:334|437:321|437:321|466:295|466:295|469:316|469:316|460:319,1,137.5,8|0,0:0|0:0,0:0:0:0:
486,303,174399,1,0,0:0:0:0:
494,269,174480,1,0,0:0:0:0:
469,240,174561,1,0,0:0:0:0:
427,244,174642,1,8,0:2:0:0:
388,219,174723,1,0,0:0:0:0:
375,170,174805,1,0,0:0:0:0:
398,121,174886,1,0,0:0:0:0:
454,108,174967,5,8,0:2:0:0:
491,157,175048,1,0,0:0:0:0:
457,213,175129,1,0,0:0:0:0:
388,219,175210,1,0,0:0:0:0:
345,160,175291,2,0,P|312:142|275:147,1,76.9999976501466,8|0,0:2|0:0,0:0:0:0:
134,309,175453,2,0,P|165:289|179:254,1,76.9999976501466
90,0,175615,6,0,B|79:1|79:1|76:-15|76:-15|111:-2|111:-2|82:22|82:22|79:1|79:1|90:0,1,137.5,8|0,0:0|0:0,0:0:0:0:
59,3,175696,1,0,0:0:0:0:
30,22,175777,1,0,0:0:0:0:
15,58,175859,1,0,0:0:0:0:
27,99,175940,1,8,0:2:0:0:
67,122,176021,1,0,0:0:0:0:
115,109,176102,1,0,0:0:0:0:
160,139,176183,1,0,0:0:0:0:
162,197,176264,6,0,P|129:214|92:209,3,76.9999976501466,8|0|0|0,0:2|0:0|0:0|0:0,0:0:0:0:
262,52,176588,2,0,P|294:34|331:39,3,76.9999976501466,8|0|0|0,0:2|0:0|0:0|0:0,0:0:0:0:
512,236,176913,70,0,B|513:245|513:245|495:248|495:248|508:213|508:213|534:242|534:242|513:245|513:245|512:236,1,137.5,8|0,0:0|0:0,0:0:0:0:
481,280,176994,1,0,0:0:0:0:
427,289,177075,1,0,0:0:0:0:
383,258,177156,1,0,0:0:0:0:
370,182,177237,5,8,0:2:0:0:
407,133,177318,1,0,0:0:0:0:
397,72,177399,1,0,0:0:0:0:
346,37,177480,1,0,0:0:0:0:
262,52,177561,6,0,B|251:53|251:53|248:35|248:35|283:48|283:48|254:74|254:74|251:53|251:53|262:52,1,137.5,8|0,0:0|0:0,0:0:0:0:
221,108,177642,1,0,0:0:0:0:
233,177,177723,1,0,0:0:0:0:
290,218,177805,1,0,0:0:0:0:
307,309,177886,5,8,0:2:0:0:
262,371,177967,1,0,0:0:0:0:
186,384,178048,1,0,0:0:0:0:
122,341,178129,1,0,0:0:0:0:
104,243,178210,70,0,P|100:216|112:193,1,55,8|0,1:1|0:0,0:0:0:0:
282,87,178534,6,0,P|255:107|222:108,1,68.75,8|0,1:1|0:0,0:0:0:0:
58,11,178859,6,0,P|95:25|116:59,1,82.5000031471254,8|0,1:1|0:0,0:0:0:0:
104,243,179183,6,0,B|93:263|93:263|90:224|90:224|126:241|126:241|93:263|93:263|104:243,1,165.000006294251,14|0,1:1|0:0,0:0:0:0:
57,155,179264,70,0,B|34:151|34:151|70:136|70:136|65:175|65:175|34:151|34:151|57:155,1,165.000006294251,8|0,1:1|0:0,0:0:0:0:
126,84,179345,6,0,B|122:61|122:61|147:91|147:91|109:98|109:98|122:61|122:61|126:84,1,165.000006294251,8|0,1:1|0:0,0:0:0:0:
215,127,179426,6,0,B|235:115|235:115|213:149|213:149|195:114|195:114|235:115|235:115|215:127,1,165.000006294251,8|0,1:1|0:0,0:0:0:0:
201,225,179507,6,0,B|227:262|227:262|140:246|140:246|125:236|125:236|38:220|38:220|64:258,1,285.99998690796,10|0,0:0|2:3,0:0:0:0:
0,115,179750,1,0,1:0:0:0:
16,138,179832,2,0,B|63:146|63:146|85:136|85:136|132:144,1,121.000003692627,10|0,0:0|1:0,0:0:0:0:
182,58,179994,2,0,B|198:34|198:34|214:129,1,121.000003692627,0|0,2:3|1:0,0:0:0:0:
285,301,180156,69,10,0:0:0:0:
310,313,180237,1,0,1:0:0:0:
338,309,180318,2,0,P|375:258|357:197,1,131.99999597168,2|0,2:3|1:0,0:0:0:0:
182,58,180480,2,0,P|209:120|275:136,1,142.99999345398,10|0,0:0|1:0,0:0:0:0:
455,75,180642,6,0,B|461:37|427:7|385:23|379:61|379:61|354:203,1,263.99999194336,2|8,2:3|0:0,0:0:0:0:
433,305,180886,1,0,1:0:0:0:
458,309,180967,2,0,B|495:283|495:283|514:172,1,142.99999345398,2|0,2:3|1:0,0:0:0:0:
379,62,181129,6,0,B|341:87|341:87|322:198,1,131.99999597168,10|0,0:0|1:0,0:0:0:0:
433,305,181291,2,0,P|401:256|343:253,1,121.000003692627,2|0,2:3|1:0,0:0:0:0:
184,336,181453,5,10,0:0:0:0:
162,340,181534,1,0,1:0:0:0:
140,344,181615,2,0,B|60:358|60:358|76:335,1,110,0|0,2:3|1:0,0:0:0:0:
137,138,181777,70,0,B|163:120|175:92|175:92|177:123|195:148,1,121.000003692627,10|0,0:0|1:0,0:0:0:0:
342,253,181940,2,0,B|321:283|318:319|318:319|304:286|273:265,1,142.99999345398,2|0,2:3|1:0,0:0:0:0:
59,241,182102,6,0,B|129:229|129:229|170:257|170:257|310:233,1,263.99999194336,10|2,0:0|2:3,0:0:0:0:
433,305,182345,1,0,1:0:0:0:
436,325,182426,2,0,P|392:361|337:342,1,121.000003692627,10|0,0:0|1:0,0:0:0:0:
299,155,182588,2,0,B|327:136|327:136|309:238,1,131.99999597168,2|0,2:3|1:0,0:0:0:0:
140,344,182750,5,10,0:0:0:0:
110,348,182832,1,0,1:0:0:0:
84,334,182913,2,0,P|66:273|104:223,1,131.99999597168,2|0,2:3|1:0,0:0:0:0:
299,155,183075,2,0,P|259:197|202:190,1,121.000003692627,10|0,0:0|1:0,0:0:0:0:
39,73,183237,6,0,B|6:118|6:118|100:102|100:102|114:91|114:91|207:75,1,263.99999194336,2|8,2:3|0:0,0:0:0:0:
374,32,183480,1,0,1:0:0:0:
346,28,183561,2,0,B|318:47|318:47|297:165,1,142.99999345398,2|0,2:3|1:0,0:0:0:0:
105,194,183723,70,0,B|98:233|134:256|176:247|183:207|183:207|208:66,1,263.99999194336,10|0,0:0|2:3,0:0:0:0:
129,9,183967,1,0,1:0:0:0:
102,13,184048,2,0,B|30:25|30:25|38:72,1,121.000003692627,10|0,0:0|1:0,0:0:0:0:
32,247,184210,2,0,B|25:207|25:207|104:193,1,121.000003692627,0|0,2:3|1:0,0:0:0:0:
346,28,184372,5,8,0:0:0:0:
407,67,184453,1,0,0:0:0:0:
422,137,184534,1,0,0:0:0:0:
383,199,184615,1,0,0:0:0:0:
313,214,184696,6,0,B|215:196|215:196|188:158|188:158|91:141|91:141|114:174,1,285.99998690796,10|0,0:0|2:3,0:0:0:0:
32,247,184940,1,0,1:0:0:0:
48,271,185021,2,0,B|95:279|95:279|117:269|117:269|164:277,1,121.000003692627,10|0,0:0|1:0,0:0:0:0:
278,348,185183,2,0,B|258:375|258:375|241:281,1,121.000003692627,0|0,2:3|1:0,0:0:0:0:
392,148,185345,5,10,0:0:0:0:
387,173,185426,1,0,1:0:0:0:
383,199,185507,2,0,P|322:217|271:179,1,131.99999597168,0|0,2:3|1:0,0:0:0:0:
182,16,185669,2,0,P|223:55|217:113,1,121.000003692627,10|0,0:0|1:0,0:0:0:0:
32,247,185832,70,0,B|4:227|4:227|91:212|91:212|108:217|108:217|195:201|195:201|167:182,1,263.99999194336,2|8,2:3|0:0,0:0:0:0:
162,82,186075,1,0,1:0:0:0:
136,77,186156,2,0,B|108:96|108:96|218:115,1,142.99999345398,2|0,2:3|1:0,0:0:0:0:
339,245,186318,6,0,B|311:225|311:225|293:123,1,131.99999597168,10|0,0:0|1:0,0:0:0:0:
260,29,186480,2,0,B|311:38|311:38|330:56|330:56|382:65,1,131.99999597168,0|0,2:3|1:0,0:0:0:0:
512,142,186642,5,10,0:0:0:0:
488,147,186723,1,0,1:0:0:0:
464,151,186805,2,0,B|378:166|378:166|406:185,1,121.000003692627,0|0,2:3|1:0,0:0:0:0:
398,318,186967,6,0,P|355:349|305:334,1,110,10|0,0:0|1:0,0:0:0:0:
304,174,187129,2,0,B|316:159|320:128|320:128|334:156|351:165,1,98.9999969787599,2|0,2:3|1:0,0:0:0:0:
484,302,187291,69,10,0:0:0:0:
502,271,187372,1,0,1:0:0:0:
494,236,187453,2,0,B|451:228|451:228|430:237|430:237|388:229,1,110,2|0,2:3|1:0,0:0:0:0:
218,318,187615,6,0,L|196:198,1,121.000003692627,10|0,0:0|1:0,0:0:0:0:
342,94,187777,2,0,B|322:66|322:66|303:176,1,142.99999345398,2|0,2:3|1:0,0:0:0:0:
100,291,187940,5,10,0:0:0:0:
85,268,188021,1,0,1:0:0:0:
91,241,188102,2,0,B|110:213|110:213|196:198,1,121.000003692627,2|0,2:3|1:0,0:0:0:0:
381,259,188264,2,0,B|353:278|339:308|339:308|337:275|317:247,1,131.99999597168,10|0,0:0|1:0,0:0:0:0:
243,52,188426,6,0,B|161:66|161:66|131:134|131:134|49:149,1,242.000007385254,2|8,2:3|0:0,0:0:0:0:
62,273,188669,1,0,1:0:0:0:
85,268,188750,2,0,B|178:251|178:251|170:204,1,142.99999345398,2|0,2:3|1:0,0:0:0:0:
342,94,188913,69,10,0:0:0:0:
413,60,188994,5,0,0:0:0:0:
469,117,189075,5,0,0:0:0:0:
431,186,189156,5,0,0:0:0:0:
353,173,189237,70,0,B|305:164|305:164|283:174|283:174|236:166,1,121.000003692627,10|0,0:0|1:0,0:0:0:0:
122,67,189399,2,0,B|141:39|141:39|156:124,1,121.000003692627,0|0,0:0|1:0,0:0:0:0:
256,384,189561,6,0,B|225:336|254:267|324:256|365:293|365:293|365:293|365:293|418:341|509:318|531:228|485:174|485:174|483:195|474:209,1,495.000018882752,12|0,0:0|1:0,0:0:0:0:
413,60,189886,6,0,B|386:35|386:35|316:48|316:48|284:111|284:111|214:123|214:123|188:99,1,285.99998690796,10|0,0:0|2:3,0:0:0:0:
60,10,190129,1,0,1:0:0:0:
32,5,190210,2,0,P|-2:51|13:107,1,121.000003692627,10|0,0:0|1:0,0:0:0:0:
102,158,190372,2,0,B|149:149|149:149|166:132|166:132|213:124,1,121.000003692627,0|0,2:3|1:0,0:0:0:0:
413,60,190534,5,10,0:0:0:0:
390,45,190615,1,0,1:0:0:0:
363,51,190696,2,0,P|325:101|343:162,1,131.99999597168,0|0,2:3|1:0,0:0:0:0:
510,245,190859,2,0,P|486:191|430:178,1,121.000003692627,10|0,0:0|1:0,0:0:0:0:
242,281,191021,70,0,B|235:320|270:347|313:334|320:294|320:294|345:153,1,263.99999194336,2|8,2:3|0:0,0:0:0:0:
413,60,191264,1,0,1:0:0:0:
417,85,191345,2,0,B|361:94|361:94|334:83|334:83|279:92,1,142.99999345398,2|0,2:3|1:0,0:0:0:0:
104,44,191507,6,0,B|131:24|131:24|113:126,1,131.99999597168,10|0,0:0|1:0,0:0:0:0:
5,195,191669,2,0,B|32:214|32:214|135:196,1,131.99999597168,0|0,2:3|1:0,0:0:0:0:
278,93,191832,5,10,0:0:0:0:
256,81,191913,1,0,1:0:0:0:
232,85,191994,2,0,L|209:211,1,121.000003692627,0|0,2:3|1:0,0:0:0:0:
349,311,192156,6,0,B|329:329|327:359|327:359|315:331|290:321,1,110,10|0,0:0|1:0,0:0:0:0:
145,215,192318,2,0,B|166:194|168:161|168:161|182:191|209:203,1,121.000003692627,2|0,2:3|1:0,0:0:0:0:
438,269,192480,70,0,B|338:251|338:251|296:295|296:295|196:277,1,263.99999194336,10|2,0:0|2:3,0:0:0:0:
87,344,192723,1,0,1:0:0:0:
104,355,192805,2,0,B|131:374|131:374|115:279,1,121.000003692627,10|0,0:0|1:0,0:0:0:0:
0,110,192967,2,0,P|43:156|106:149,1,131.99999597168,2|0,2:3|1:0,0:0:0:0:
310,15,193129,5,10,0:0:0:0:
338,19,193210,1,0,1:0:0:0:
366,24,193291,2,0,B|462:40|462:40|425:66,1,142.99999345398,0|0,2:3|1:0,0:0:0:0:
362,234,193453,2,0,L|339:104,1,131.99999597168,10|0,0:0|1:0,0:0:0:0:
200,0,193615,6,0,B|218:104|218:104|209:132|209:132|228:236,1,242.000007385254,2|8,2:3|0:0,0:0:0:0:
170,352,193859,1,0,1:0:0:0:
155,331,193940,2,0,B|135:303|135:303|245:322,1,142.99999345398,2|0,2:3|1:0,0:0:0:0:
432,322,194102,2,0,B|457:359|457:359|237:320,1,263.99999194336,10|0,0:0|2:3,0:0:0:0:
201,198,194345,5,0,1:0:0:0:
224,214,194426,2,0,B|283:203|283:203|272:144,1,121.000003692627,10|0,0:0|1:0,0:0:0:0:
398,40,194588,2,0,B|350:31|350:31|338:103,1,121.000003692627,0|0,2:3|1:0,0:0:0:0:
155,331,194750,69,10,0:0:0:0:
90,319,194832,5,0,0:0:0:0:
25,308,194913,5,2,0:0:0:0:
37,236,194994,5,0,0:0:0:0:
50,165,195075,70,0,B|149:147|149:147|191:191|191:191|291:173,1,263.99999194336,10|0,0:0|2:3,0:0:0:0:
457,235,195318,1,0,1:0:0:0:
437,251,195399,2,0,P|388:230|376:178,1,110,10|0,0:0|1:0,0:0:0:0:
432,61,195561,2,0,B|412:88|412:88|337:102,1,110,0|0,2:3|1:0,0:0:0:0:
132,66,195723,6,0,B|169:40|169:40|150:147,1,153.999995300293,10|0,0:0|1:0,0:0:0:0:
226,365,195886,1,2,0:0:0:0:
281,377,195967,1,0,0:0:0:0:
330,346,196048,2,0,P|348:285|310:234,1,131.99999597168,10|0,0:0|1:0,0:0:0:0:
150,147,196210,6,0,B|133:171|133:171|215:156|215:156|227:147|227:147|309:132|309:132|292:157,1,242.000007385254,2|8,1:3|0:0,0:0:0:0:
400,240,196453,1,0,1:0:0:0:
380,253,196534,2,0,B|352:272|352:272|365:197,1,110,2|0,2:3|1:0,0:0:0:0:
512,55,196696,6,0,P|461:92|400:74,1,131.99999597168,10|0,0:0|1:0,0:0:0:0:
305,0,196859,2,0,P|242:14|217:72,1,131.99999597168,0|0,2:3|1:0,0:0:0:0:
327,263,197021,69,10,0:0:0:0:
355,268,197102,1,0,1:0:0:0:
380,253,197183,2,0,P|402:188|359:136,1,142.99999345398,0|0,2:3|1:0,0:0:0:0:
150,147,197345,6,0,B|177:166|177:166|272:149,1,121.000003692627,10|0,0:0|1:0,0:0:0:0:
399,41,197507,2,0,B|371:60|371:60|355:147,1,110,2|0,2:3|1:0,0:0:0:0:
480,280,197669,6,0,B|505:242|505:242|354:268,1,197.99999395752,10|2,0:0|2:3,0:0:0:0:
231,347,197913,1,0,1:0:0:0:
210,350,197994,2,0,P|172:299|190:238,1,131.99999597168,10|0,0:0|1:0,0:0:0:0:
399,41,198156,6,0,B|438:47|451:90|424:126|385:119|385:119|227:92,1,285.99998690796,2|8,2:3|0:0,0:0:0:0:
92,64,198399,1,0,1:0:0:0:
112,32,198480,2,0,B|131:4|131:4|150:114,1,131.99999597168,2|0,2:3|1:0,0:0:0:0:
45,257,198642,2,0,P|96:245|117:196,1,110,10|0,0:0|1:0,0:0:0:0:
222,0,198805,70,0,B|240:100|240:100|229:136|229:136|247:237,1,242.000007385254,2|8,2:3|0:0,0:0:0:0:
187,351,199048,1,0,1:0:0:0:
173,331,199129,2,0,B|154:303|154:303|264:323,1,142.99999345398,2|0,2:3|1:0,0:0:0:0:
398,145,199291,5,10,0:0:0:0:
477,133,199372,5,0,0:0:0:0:
511,204,199453,5,0,0:0:0:0:
454,260,199534,69,0,0:0:0:0:
384,222,199615,6,0,P|367:166|402:120,1,121.000003692627,10|0,0:0|1:0,0:0:0:0:
512,36,199777,2,0,B|484:55|484:55|398:40,1,121.000003692627,0|0,0:0|1:0,0:0:0:0:
100,0,199940,6,0,B|45:18|31:89|76:137|130:137|164:110|164:110|220:57|328:112|292:239|194:245|156:193,1,528,14|0,0:0|1:0,0:0:0:0:
0,340,200264,6,0,B|-24:375|-24:375|65:359|65:359|78:349|78:349|168:333|168:333|143:368,1,285.99998690796,10|2,0:0|1:3,0:0:0:0:
315,338,200507,1,0,1:0:0:0:
290,354,200588,2,0,B|252:379|252:379|272:269,1,142.99999345398,10|0,0:0|1:0,0:0:0:0:
118,239,200750,70,0,B|173:229|173:229|194:209|194:209|250:199,1,142.99999345398,2|0,1:3|1:0,0:0:0:0:
467,150,200913,1,10,0:0:0:0:
315,338,201075,5,2,1:3:0:0:
287,263,201156,1,2,1:3:0:0:
338,201,201237,2,0,B|369:198|391:167|391:167|400:204|429:217,1,131.99999597168,10|0,0:0|1:0,0:0:0:0:
425,384,201399,2,0,B|388:358|388:358|373:273,1,131.99999597168,2|0,1:3|1:0,0:0:0:0:
435,104,201561,6,0,B|466:149|466:149|389:135|389:135|368:116|368:116|291:102,1,242.000007385254,10|2,0:0|1:3,0:0:0:0:
214,35,201805,1,0,1:0:0:0:
189,30,201886,2,0,B|153:78|153:78|170:135,1,121.000003692627,10|0,0:0|1:0,0:0:0:0:
225,298,202048,2,0,L|247:172,1,121.000003692627,2|0,1:3|1:0,0:0:0:0:
384,28,202210,6,0,P|467:26|437:103,1,197.99999395752,10|0,0:0|0:0,0:0:0:0:
363,181,202534,70,0,B|315:172|315:172|298:155|298:155|251:147,1,121.000003692627,10|0,0:0|1:0,0:0:0:0:
69,51,202696,2,0,B|88:23|88:23|103:108,1,121.000003692627,2|0,1:3|1:0,0:0:0:0:
225,298,202859,6,0,B|265:290|278:246|251:209|210:216|210:216|145:228|145:228|130:239|130:239|65:250,1,285.99998690796,10|2,0:0|1:3,0:0:0:0:
0,123,203102,1,0,1:0:0:0:
4,151,203183,2,0,B|59:141|59:141|86:152|86:152|141:143,1,142.99999345398,10|0,0:0|1:0,0:0:0:0:
302,43,203345,6,0,B|276:5|276:5|256:116,1,142.99999345398,2|0,1:3|1:0,0:0:0:0:
225,298,203507,1,10,0:0:0:0:
381,107,203669,5,2,1:3:0:0:
409,180,203751,1,2,1:3:0:0:
358,242,203832,2,0,B|308:233|308:233|290:208|290:208|241:199,1,131.99999597168,10|0,0:0|1:0,0:0:0:0:
138,25,203994,2,0,B|73:36|73:36|84:100,1,131.99999597168,2|0,1:3|1:0,0:0:0:0:
225,298,204156,70,0,B|279:259|279:259|202:246|202:246|185:251|185:251|108:237,1,242.000007385254,10|2,0:0|1:3,0:0:0:0:
4,151,204399,1,0,1:0:0:0:
8,127,204480,2,0,B|35:107|35:107|122:122,1,121.000003692627,10|0,0:0|1:0,0:0:0:0:
280,260,204642,2,0,B|260:287|260:287|243:193,1,121.000003692627,2|0,1:3|1:0,0:0:0:0:
138,25,204805,6,0,P|109:69|120:121,1,110,10|0,0:0|1:0,0:0:0:0:
347,232,204967,2,0,B|304:224|304:224|288:209|288:209|245:201,1,110,2|0,1:3|1:0,0:0:0:0:
70,91,205129,5,10,0:0:0:0:
8,127,205210,5,0,0:0:0:0:
23,199,205291,69,2,0:0:0:0:
95,205,205372,5,0,0:0:0:0:
124,139,205453,6,0,B|150:114|150:114|220:127|220:127|252:190|252:190|322:202|322:202|322:202|348:178,1,285.99998690796,10|2,0:0|1:3,0:0:0:0:
450,65,205696,1,0,1:0:0:0:
425,48,205777,2,0,B|397:28|397:28|418:146,1,142.99999345398,10|0,0:0|1:0,0:0:0:0:
512,280,205940,6,0,P|464:230|395:238,1,142.99999345398,2|0,1:3|1:0,0:0:0:0:
262,384,206102,1,10,0:0:0:0:
95,205,206264,69,2,1:3:0:0:
68,280,206345,1,2,1:3:0:0:
119,341,206426,2,0,B|170:331|170:331|189:313|189:313|241:304,1,131.99999597168,10|0,0:0|1:0,0:0:0:0:
348,177,206588,2,0,B|361:195|361:195|445:210|445:210|458:229,1,131.99999597168,2|0,1:3|1:0,0:0:0:0:
262,384,206750,6,0,B|243:279|243:279|252:251|252:251|233:147,1,242.000007385254,10|2,0:0|1:3,0:0:0:0:
304,63,206994,1,0,1:0:0:0:
328,58,207075,2,0,L|348:177,1,121.000003692627,10|0,0:0|1:0,0:0:0:0:
483,314,207237,2,0,B|500:256|500:256|464:208,1,121.000003692627,2|0,1:3|1:0,0:0:0:0:
232,146,207399,6,0,P|188:216|270:228,1,197.99999395752,10|0,0:0|0:0,0:0:0:0:
349,177,207723,2,0,L|328:61,1,110,10|0,0:0|1:0,0:0:0:0:
512,5,207886,2,0,L|492:113,1,110,2|0,1:3|1:0,0:0:0:0:
330,278,208048,6,0,B|238:261|238:261|213:225|213:225|121:209|121:209|152:254,1,285.99998690796,10|2,0:0|1:3,0:0:0:0:
33,333,208291,1,0,1:0:0:0:
55,349,208372,2,0,B|82:368|82:368|61:250,1,142.99999345398,10|0,0:0|1:0,0:0:0:0:
232,146,208534,70,0,B|287:155|287:155|308:175|308:175|364:185,1,142.99999345398,2|0,1:3|1:0,0:0:0:0:
512,318,208696,1,10,0:0:0:0:
256,282,208859,5,2,1:3:0:0:
205,221,208940,1,2,1:3:0:0:
232,146,209021,2,0,P|282:108|343:126,1,131.99999597168,10|0,0:0|1:0,0:0:0:0:
408,317,209183,2,0,B|380:336|380:336|398:240,1,131.99999597168,2|0,1:3|1:0,0:0:0:0:
362,20,209345,6,0,B|326:68|326:68|343:125,1,121.000003692627,10|0,0:0|1:0,0:0:0:0:
493,153,209507,2,0,B|528:104|528:104|511:47,1,121.000003692627,2|0,1:3|1:0,0:0:0:0:
362,20,209669,5,10,0:0:0:0:
283,32,209750,69,0,0:0:0:0:
269,110,209832,5,2,0:0:0:0:
340,148,209913,5,0,0:0:0:0:
396,91,209994,6,0,P|369:28|302:25,1,142.99999345398,10|0,0:0|1:0,0:0:0:0:
232,215,210156,2,0,B|269:240|269:240|252:144,1,142.99999345398,2|0,0:0|1:0,0:0:0:0:
0,0,210318,70,0,B|-37:52|-13:124|51:151|106:133|134:93|134:93|134:93|134:93|170:40|247:38|294:89|296:147|268:186|268:186|268:187|268:187|265:160|250:140,1,561.000010700226,14|0,0:0|1:0,0:0:0:0:
0,300,210642,6,0,B|-29:342|-29:342|60:326|60:326|76:314|76:314|167:298|167:298|137:340,1,307.999990600586,10|2,0:0|1:3,0:0:0:0:
337,331,210886,1,0,1:0:0:0:
311,347,210967,2,0,B|273:372|273:372|296:246,1,153.999995300293,10|0,0:0|1:0,0:0:0:0:
150,195,211129,6,0,B|124:232|124:232|232:214,1,153.999995300293,2|0,1:3|1:0,0:0:0:0:
451,176,211291,1,10,0:0:0:0:
337,331,211453,5,2,1:3:0:0:
281,265,211534,1,2,1:3:0:0:
311,184,211615,2,0,B|366:174|366:174|393:185|393:185|448:176,1,142.99999345398,10|0,0:0|1:0,0:0:0:0:
512,344,211777,2,0,B|483:380|483:380|464:269,1,142.99999345398,2|0,1:3|1:0,0:0:0:0:
311,184,211940,70,0,B|274:236|274:236|363:220|363:220|377:210|377:210|466:194,1,263.99999194336,10|2,0:0|1:3,0:0:0:0:
512,92,212183,1,0,1:0:0:0:
508,66,212264,2,0,B|456:75|456:75|437:93|437:93|385:102,1,131.99999597168,10|0,0:0|1:0,0:0:0:0:
281,265,212426,2,0,B|318:239|318:239|334:144,1,131.99999597168,2|0,1:3|1:0,0:0:0:0:
91,71,212588,6,0,P|27:138|119:149,1,230.99999295044,10|0,0:0|0:0,0:0:0:0:
209,117,212913,6,0,B|260:126|260:126|279:144|279:144|331:153,1,131.99999597168,10|0,0:0|1:0,0:0:0:0:
462,0,213075,2,0,B|397:11|397:11|408:75,1,131.99999597168,2|0,1:3|1:0,0:0:0:0:
467,308,213237,6,0,B|506:301|522:257|492:222|453:229|453:229|371:244|371:244|363:249|363:249|281:264,1,307.999990600586,10|2,0:0|1:3,0:0:0:0:
201,343,213480,1,0,1:0:0:0:
170,348,213561,2,0,P|123:291|147:222,1,153.999995300293,10|0,0:0|1:0,0:0:0:0:
321,108,213723,70,0,P|295:176|223:190,1,153.999995300293,2|0,1:3|1:0,0:0:0:0:
0,120,213886,1,10,0:0:0:0:
267,44,214048,5,2,1:3:0:0:
321,108,214129,1,2,1:3:0:0:
291,189,214210,2,0,B|261:206|251:245|251:245|228:212|194:205,1,142.99999345398,10|0,0:0|1:0,0:0:0:0:
0,120,214372,2,0,B|29:102|39:63|39:63|62:96|96:103,1,142.99999345398,2|0,1:3|1:0,0:0:0:0:
185,285,214534,102,0,B|129:323|129:323|165:119,1,263.99999194336,10|2,0:0|1:3,0:0:0:0:
267,44,214777,1,0,1:0:0:0:
288,28,214859,2,0,B|315:8|315:8|296:118,1,131.99999597168,10|0,0:0|1:0,0:0:0:0:
117,213,215021,2,0,L|142:71,1,131.99999597168,2|0,1:3|1:0,0:0:0:0:
412,101,215183,6,0,B|384:120|384:120|289:103,1,121.000003692627,10|0,0:0|1:0,0:0:0:0:
128,15,215345,2,0,B|155:-4|155:-4|140:81,1,121.000003692627,2|0,1:3|1:0,0:0:0:0:
185,285,215507,5,10,0:0:0:0:
255,323,215588,5,0,0:0:0:0:
312,268,215669,69,2,0:0:0:0:
277,196,215751,5,0,0:0:0:0:
199,208,215832,6,0,B|170:250|170:250|259:234|259:234|275:222|275:222|366:206|366:206|336:248,1,307.999990600586,10|2,0:0|1:3,0:0:0:0:
512,300,216075,1,0,1:0:0:0:
486,316,216156,2,0,B|448:341|448:341|468:231,1,153.999995300293,10|0,0:0|1:0,0:0:0:0:
370,41,216318,6,0,B|337:87|337:87|358:205,1,153.999995300293,2|0,0:0|1:0,0:0:0:0:
391,384,216480,1,10,0:0:0:0:
199,208,216642,69,2,0:0:0:0:
169,127,216724,1,2,0:0:0:0:
224,61,216805,2,0,B|279:70|279:70|300:90|300:90|356:100,1,142.99999345398,10|0,0:0|1:0,0:0:0:0:
512,300,216967,2,0,B|537:262|537:262|441:279,1,142.99999345398,2|0,1:3|1:0,0:0:0:0:
236,316,217129,6,0,B|274:371|274:371|311:166,1,263.99999194336,10|2,0:0|1:3,0:0:0:0:
250,66,217372,1,0,1:0:0:0:
224,61,217453,2,0,B|184:113|184:113|203:176,1,131.99999597168,10|0,0:0|1:0,0:0:0:0:
409,214,217615,2,0,B|448:161|448:161|429:98,1,131.99999597168,2|0,1:3|1:0,0:0:0:0:
224,61,217777,6,0,B|176:69|176:69|159:86|159:86|112:94,1,121.000003692627,10|0,0:0|1:0,0:0:0:0:
24,238,217940,2,0,B|43:265|43:265|58:180,1,121.000003692627,2|0,1:3|1:0,0:0:0:0:
122,17,218102,6,0,B|94:-2|94:-2|111:94,1,131.99999597168,10|0,0:0|1:0,0:0:0:0:
226,261,218264,2,0,B|251:223|251:223|236:138,1,131.99999597168,2|0,1:3|1:0,0:0:0:0:
19,110,218426,70,0,B|110:93|110:93|165:131|165:131|288:109,1,285.99998690796,10|2,0:0|1:3,0:0:0:0:
415,60,218669,1,0,1:0:0:0:
443,64,218750,2,0,B|463:132|463:132|420:189,1,142.99999345398,10|0,0:0|1:0,0:0:0:0:
265,249,218913,6,0,L|289:108,1,142.99999345398,2|0,1:3|1:0,0:0:0:0:
122,17,219075,1,10,0:0:0:0:
24,238,219237,5,2,1:3:0:0:
53,188,219318,1,2,1:3:0:0:
107,169,219399,1,10,0:0:0:0:
168,207,219480,1,2,1:3:0:0:
176,278,219561,1,2,1:3:0:0:
254,314,219642,1,2,1:3:0:0:
320,259,219723,6,0,P|344:189|297:133,1,153.999995300293,10|0,1:3|1:0,0:0:0:0:
115,94,219886,2,0,B|130:72|130:72|228:54|228:54|244:33,1,153.999995300293,2|0,1:3|1:0,0:0:0:0:
512,0,220048,69,2,1:3:0:0:
485,152,220210,1,2,1:3:0:0:
512,0,220372,1,2,1:3:0:0:
66,381,220696,6,0,B|-4:355|-16:252|69:202|140:232|161:286|161:286|161:286|161:286|186:358|289:371|341:285|310:213|256:192,1,593.999981872559,4|0,0:0|0:0,0:0:0:0:
148,84,221021,102,0,B|148:62|148:62|153:47|169:41|190:41|206:57|200:84|184:91|184:91|171:99|161:110|148:123|148:123|134:110|124:99|111:91|111:91|95:84|89:57|105:41|126:41|142:47|148:62|148:62|148:84,1,330.000012588501,10|2,0:0|1:3,0:0:0:0:
364,84,221345,6,0,B|364:62|364:62|369:47|385:41|406:41|422:57|416:84|400:91|400:91|387:99|377:110|364:123|364:123|350:110|340:99|327:91|327:91|311:84|305:57|321:41|342:41|358:47|364:62|364:62|364:84,1,330.000012588501,10|2,0:0|1:3,0:0:0:0:
364,300,221669,6,0,B|364:278|364:278|369:263|385:257|406:257|422:273|416:300|400:307|400:307|387:315|377:326|364:339|364:339|350:326|340:315|327:307|327:307|311:300|305:273|321:257|342:257|358:263|364:278|364:278|364:300,1,330.000012588501,10|2,0:0|1:3,0:0:0:0:
148,300,221994,6,0,B|148:278|148:278|153:263|169:257|190:257|206:273|200:300|184:307|184:307|171:315|161:326|148:339|148:339|134:326|124:315|111:307|111:307|95:300|89:273|105:257|126:257|142:263|148:278|148:278|148:300,1,330.000012588501,10|2,0:0|1:3,0:0:0:0:
198,52,222318,6,0,B|198:30|198:30|203:15|219:9|240:9|256:25|250:52|234:59|234:59|221:67|211:78|198:91|198:91|184:78|174:67|161:59|161:59|145:52|139:25|155:9|176:9|192:15|198:30|198:30|198:52,1,330.000012588501,10|2,0:0|1:3,0:0:0:0:
396,134,222642,6,0,B|396:112|396:112|401:97|417:91|438:91|454:107|448:134|432:141|432:141|419:149|409:160|396:173|396:173|382:160|372:149|359:141|359:141|343:134|337:107|353:91|374:91|390:97|396:112|396:112|396:134,1,330.000012588501,10|2,0:0|1:3,0:0:0:0:
314,332,222967,6,0,B|314:310|314:310|319:295|335:289|356:289|372:305|366:332|350:339|350:339|337:347|327:358|314:371|314:371|300:358|290:347|277:339|277:339|261:332|255:305|271:289|292:289|308:295|314:310|314:310|314:332,1,330.000012588501,10|2,0:0|1:3,0:0:0:0:
116,250,223291,6,0,B|116:228|116:228|121:213|137:207|158:207|174:223|168:250|152:257|152:257|139:265|129:276|116:289|116:289|102:276|92:265|79:257|79:257|63:250|57:223|73:207|94:207|110:213|116:228|116:228|116:250,1,330.000012588501,10|2,0:0|1:3,0:0:0:0:
256,40,223615,6,0,B|256:18|256:18|261:3|277:-2|298:-2|314:13|308:40|292:47|292:47|279:55|269:66|256:79|256:79|242:66|232:55|219:47|219:47|203:40|197:13|213:-2|234:-2|250:3|256:18|256:18|256:40,1,330.000012588501,10|2,0:0|1:3,0:0:0:0:
408,192,223940,6,0,B|408:170|408:170|413:155|429:149|450:149|466:165|460:192|444:199|444:199|431:207|421:218|408:231|408:231|394:218|384:207|371:199|371:199|355:192|349:165|365:149|386:149|402:155|408:170|408:170|408:192,1,330.000012588501,10|2,0:0|1:3,0:0:0:0:
256,344,224264,6,0,B|256:322|256:322|261:307|277:301|298:301|314:317|308:344|292:351|292:351|279:359|269:370|256:383|256:383|242:370|232:359|219:351|219:351|203:344|197:317|213:301|234:301|250:307|256:322|256:322|256:344,1,330.000012588501,10|2,0:0|1:3,0:0:0:0:
104,192,224588,6,0,B|104:170|104:170|109:155|125:149|146:149|162:165|156:192|140:199|140:199|127:207|117:218|104:231|104:231|90:218|80:207|67:199|67:199|51:192|45:165|61:149|82:149|98:155|104:170|104:170|104:192,1,330.000012588501,10|2,0:0|1:3,0:0:0:0:
314,52,224913,6,0,B|314:30|314:30|319:15|335:9|356:9|372:25|366:52|350:59|350:59|337:67|327:78|314:91|314:91|300:78|290:67|277:59|277:59|261:52|255:25|271:9|292:9|308:15|314:30|314:30|314:52,1,330.000012588501,10|2,0:0|1:3,0:0:0:0:
396,250,225237,6,0,B|396:228|396:228|401:213|417:207|438:207|454:223|448:250|432:257|432:257|419:265|409:276|396:289|396:289|382:276|372:265|359:257|359:257|343:250|337:223|353:207|374:207|390:213|396:228|396:228|396:250,1,330.000012588501,10|2,0:0|1:3,0:0:0:0:
198,332,225561,6,0,B|198:310|198:310|203:295|219:289|240:289|256:305|250:332|234:339|234:339|221:347|211:358|198:371|198:371|184:358|174:347|161:339|161:339|145:332|139:305|155:289|176:289|192:295|198:310|198:310|198:332,1,330.000012588501,10|2,0:0|1:3,0:0:0:0:
116,134,225886,6,0,B|116:112|116:112|121:97|137:91|158:91|174:107|168:134|152:141|152:141|139:149|129:160|116:173|116:173|102:160|92:149|79:141|79:141|63:134|57:107|73:91|94:91|110:97|116:112|116:112|116:134,1,330.000012588501,10|2,0:0|1:3,0:0:0:0:
310,138,226210,6,0,B|310:122|310:122|313:110|325:106|341:106|353:118|349:138|337:143|337:143|327:149|319:157|310:167|310:167|300:157|292:149|282:143|282:143|270:138|266:118|278:106|294:106|306:110|310:122|310:122|310:138,1,247.500009441376,10|0,0:0|0:0,0:0:0:0:
310,246,226372,6,0,B|310:230|310:230|313:218|325:214|341:214|353:226|349:246|337:251|337:251|327:257|319:265|310:275|310:275|300:265|292:257|282:251|282:251|270:246|266:226|278:214|294:214|306:218|310:230|310:230|310:246,1,247.500009441376,2|0,0:0|0:0,0:0:0:0:
202,246,226534,6,0,B|202:230|202:230|205:218|217:214|233:214|245:226|241:246|229:251|229:251|219:257|211:265|202:275|202:275|192:265|184:257|174:251|174:251|162:246|158:226|170:214|186:214|198:218|202:230|202:230|202:246,1,247.500009441376,10|0,0:0|0:0,0:0:0:0:
202,138,226696,6,0,B|202:122|202:122|205:110|217:106|233:106|245:118|241:138|229:143|229:143|219:149|211:157|202:167|202:167|192:157|184:149|174:143|174:143|162:138|158:118|170:106|186:106|198:110|202:122|202:122|202:138,1,247.500009441376,2|0,0:0|0:0,0:0:0:0:
326,163,226859,6,0,B|326:147|326:147|329:135|341:131|357:131|369:143|365:163|353:168|353:168|343:174|335:182|326:192|326:192|316:182|308:174|298:168|298:168|286:163|282:143|294:131|310:131|322:135|326:147|326:147|326:163,1,247.500009441376,10|0,0:0|0:0,0:0:0:0:
285,262,227021,6,0,B|285:246|285:246|288:234|300:230|316:230|328:242|324:262|312:267|312:267|302:273|294:281|285:291|285:291|275:281|267:273|257:267|257:267|245:262|241:242|253:230|269:230|281:234|285:246|285:246|285:262,1,247.500009441376,2|0,0:0|0:0,0:0:0:0:
186,221,227183,6,0,B|186:205|186:205|189:193|201:189|217:189|229:201|225:221|213:226|213:226|203:232|195:240|186:250|186:250|176:240|168:232|158:226|158:226|146:221|142:201|154:189|170:189|182:193|186:205|186:205|186:221,1,247.500009441376,10|0,0:0|0:0,0:0:0:0:
227,122,227345,6,0,B|227:106|227:106|230:94|242:90|258:90|270:102|266:122|254:127|254:127|244:133|236:141|227:151|227:151|217:141|209:133|199:127|199:127|187:122|183:102|195:90|211:90|223:94|227:106|227:106|227:122,1,247.500009441376,2|0,0:0|0:0,0:0:0:0:
332,192,227507,6,0,B|332:176|332:176|335:164|347:160|363:160|375:172|371:192|359:197|359:197|349:203|341:211|332:221|332:221|322:211|314:203|304:197|304:197|292:192|288:172|300:160|316:160|328:164|332:176|332:176|332:192,1,247.500009441376,10|0,0:0|0:0,0:0:0:0:
256,268,227669,6,0,B|256:252|256:252|259:240|271:236|287:236|299:248|295:268|283:273|283:273|273:279|265:287|256:297|256:297|246:287|238:279|228:273|228:273|216:268|212:248|224:236|240:236|252:240|256:252|256:252|256:268,1,247.500009441376,2|0,0:0|0:0,0:0:0:0:
180,192,227832,6,0,B|180:176|180:176|183:164|195:160|211:160|223:172|219:192|207:197|207:197|197:203|189:211|180:221|180:221|170:211|162:203|152:197|152:197|140:192|136:172|148:160|164:160|176:164|180:176|180:176|180:192,1,247.500009441376,10|0,0:0|0:0,0:0:0:0:
256,116,227994,6,0,B|256:100|256:100|259:88|271:84|287:84|299:96|295:116|283:121|283:121|273:127|265:135|256:145|256:145|246:135|238:127|228:121|228:121|216:116|212:96|224:84|240:84|252:88|256:100|256:100|256:116,1,247.500009441376,2|0,0:0|0:0,0:0:0:0:
326,221,228156,6,0,B|326:205|326:205|329:193|341:189|357:189|369:201|365:221|353:226|353:226|343:232|335:240|326:250|326:250|316:240|308:232|298:226|298:226|286:221|282:201|294:189|310:189|322:193|326:205|326:205|326:221,1,247.500009441376,10|0,0:0|0:0,0:0:0:0:
227,262,228318,6,0,B|227:246|227:246|230:234|242:230|258:230|270:242|266:262|254:267|254:267|244:273|236:281|227:291|227:291|217:281|209:273|199:267|199:267|187:262|183:242|195:230|211:230|223:234|227:246|227:246|227:262,1,247.500009441376,2|0,0:0|0:0,0:0:0:0:
186,163,228480,6,0,B|186:147|186:147|189:135|201:131|217:131|229:143|225:163|213:168|213:168|203:174|195:182|186:192|186:192|176:182|168:174|158:168|158:168|146:163|142:143|154:131|170:131|182:135|186:147|186:147|186:163,1,247.500009441376,10|0,0:0|0:0,0:0:0:0:
285,122,228642,6,0,B|285:106|285:106|288:94|300:90|316:90|328:102|324:122|312:127|312:127|302:133|294:141|285:151|285:151|275:141|267:133|257:127|257:127|245:122|241:102|253:90|269:90|281:94|285:106|285:106|285:122,1,247.500009441376,2|0,0:0|0:0,0:0:0:0:
272,208,228805,5,2,0:0:0:0:
239,208,228886,5,2,0:0:0:0:
239,175,228967,5,2,0:0:0:0:
272,175,229048,5,2,0:0:0:0:
265,213,229129,5,2,0:0:0:0:
234,201,229210,5,2,0:0:0:0:
246,170,229291,5,2,0:0:0:0:
277,182,229372,5,2,0:0:0:0:
256,215,229453,5,2,0:0:0:0:
232,192,229534,5,2,0:0:0:0:
256,168,229615,5,2,0:0:0:0:
279,192,229696,5,2,0:0:0:0:
247,213,229777,5,2,0:0:0:0:
234,183,229858,5,2,0:0:0:0:
264,170,229939,5,2,0:0:0:0:
277,200,230020,5,2,0:0:0:0:
239,208,230102,6,0,B|239:195|239:195|242:185|252:181|265:181|275:191|272:208|262:212|262:212|253:217|247:224|239:232|239:232|231:224|224:217|216:212|216:212|206:208|202:191|212:181|226:181|236:185|239:195|239:195|239:208,1,206.250004917383,2|2,1:3|1:3,0:0:0:0:
235,201,230183,6,0,B|235:188|235:188|238:178|248:174|261:174|271:184|268:201|258:205|258:205|249:210|243:217|235:225|235:225|227:217|220:210|212:205|212:205|202:201|198:184|208:174|222:174|232:178|235:188|235:188|235:201,1,206.250004917383,2|2,1:3|1:3,0:0:0:0:
233,193,230264,6,0,B|233:180|233:180|236:170|246:166|259:166|269:176|266:193|256:197|256:197|247:202|241:209|233:217|233:217|225:209|218:202|210:197|210:197|200:193|196:176|206:166|220:166|230:170|233:180|233:180|233:193,1,206.250004917383,2|2,1:3|1:3,0:0:0:0:
234,185,230345,6,0,B|234:172|234:172|237:162|247:158|260:158|270:168|267:185|257:189|257:189|248:194|242:201|234:209|234:209|226:201|219:194|211:189|211:189|201:185|197:168|207:158|221:158|231:162|234:172|234:172|234:185,1,206.250004917383,2|2,1:3|1:3,0:0:0:0:
237,178,230426,6,0,B|237:165|237:165|240:155|250:151|263:151|273:161|270:178|260:182|260:182|251:187|245:194|237:202|237:202|229:194|222:187|214:182|214:182|204:178|200:161|210:151|224:151|234:155|237:165|237:165|237:178,1,206.250004917383,2|2,1:3|1:3,0:0:0:0:
243,172,230507,6,0,B|243:159|243:159|246:149|256:145|269:145|279:155|276:172|266:176|266:176|257:181|251:188|243:196|243:196|235:188|228:181|220:176|220:176|210:172|206:155|216:145|230:145|240:149|243:159|243:159|243:172,1,206.250004917383,2|2,1:3|1:3,0:0:0:0:
251,169,230588,6,0,B|251:156|251:156|254:146|264:142|277:142|287:152|284:169|274:173|274:173|265:178|259:185|251:193|251:193|243:185|236:178|228:173|228:173|218:169|214:152|224:142|238:142|248:146|251:156|251:156|251:169,1,206.250004917383,2|2,1:3|1:3,0:0:0:0:
259,169,230669,6,0,B|259:156|259:156|262:146|272:142|285:142|295:152|292:169|282:173|282:173|273:178|267:185|259:193|259:193|251:185|244:178|236:173|236:173|226:169|222:152|232:142|246:142|256:146|259:156|259:156|259:169,1,206.250004917383,2|2,1:3|1:3,0:0:0:0:
267,171,230750,6,0,B|267:158|267:158|270:148|280:144|293:144|303:154|300:171|290:175|290:175|281:180|275:187|267:195|267:195|259:187|252:180|244:175|244:175|234:171|230:154|240:144|254:144|264:148|267:158|267:158|267:171,1,206.250004917383,2|2,1:3|1:3,0:0:0:0:
273,176,230832,6,0,B|273:163|273:163|276:153|286:149|299:149|309:159|306:176|296:180|296:180|287:185|281:192|273:200|273:200|265:192|258:185|250:180|250:180|240:176|236:159|246:149|260:149|270:153|273:163|273:163|273:176,1,206.250004917383,2|2,1:3|1:3,0:0:0:0:
277,183,230913,6,0,B|277:170|277:170|280:160|290:156|303:156|313:166|310:183|300:187|300:187|291:192|285:199|277:207|277:207|269:199|262:192|254:187|254:187|244:183|240:166|250:156|264:156|274:160|277:170|277:170|277:183,1,206.250004917383,2|2,1:3|1:3,0:0:0:0:
279,191,230994,6,0,B|279:178|279:178|282:168|292:164|305:164|315:174|312:191|302:195|302:195|293:200|287:207|279:215|279:215|271:207|264:200|256:195|256:195|246:191|242:174|252:164|266:164|276:168|279:178|279:178|279:191,1,206.250004917383,2|2,1:3|1:3,0:0:0:0:
278,198,231075,6,0,B|278:185|278:185|281:175|291:171|304:171|314:181|311:198|301:202|301:202|292:207|286:214|278:222|278:222|270:214|263:207|255:202|255:202|245:198|241:181|251:171|265:171|275:175|278:185|278:185|278:198,1,206.250004917383,2|2,1:3|1:3,0:0:0:0:
275,206,231156,6,0,B|275:193|275:193|278:183|288:179|301:179|311:189|308:206|298:210|298:210|289:215|283:222|275:230|275:230|267:222|260:215|252:210|252:210|242:206|238:189|248:179|262:179|272:183|275:193|275:193|275:206,1,206.250004917383,2|2,1:3|1:3,0:0:0:0:
269,212,231237,6,0,B|269:199|269:199|272:189|282:185|295:185|305:195|302:212|292:216|292:216|283:221|277:228|269:236|269:236|261:228|254:221|246:216|246:216|236:212|232:195|242:185|256:185|266:189|269:199|269:199|269:212,1,206.250004917383,2|2,1:3|1:3,0:0:0:0:
261,215,231318,6,0,B|261:202|261:202|264:192|274:188|287:188|297:198|294:215|284:219|284:219|275:224|269:231|261:239|261:239|253:231|246:224|238:219|238:219|228:215|224:198|234:188|248:188|258:192|261:202|261:202|261:215,1,206.250004917383,2|2,1:3|1:3,0:0:0:0:
253,215,231399,6,0,B|253:202|253:202|256:192|266:188|279:188|289:198|286:215|276:219|276:219|267:224|261:231|253:239|253:239|245:231|238:224|230:219|230:219|220:215|216:198|226:188|240:188|250:192|253:202|253:202|253:215,1,206.250004917383,2|2,1:3|1:3,0:0:0:0:
245,213,231480,6,0,B|245:200|245:200|248:190|258:186|271:186|281:196|278:213|268:217|268:217|259:222|253:229|245:237|245:237|237:229|230:222|222:217|222:217|212:213|208:196|218:186|232:186|242:190|245:200|245:200|245:213,1,206.250004917383,2|2,1:3|1:3,0:0:0:0:
239,208,231561,6,0,B|239:195|239:195|242:185|252:181|265:181|275:191|272:208|262:212|262:212|253:217|247:224|239:232|239:232|231:224|224:217|216:212|216:212|206:208|202:191|212:181|226:181|236:185|239:195|239:195|239:208,1,206.250004917383,2|2,1:3|1:3,0:0:0:0:
235,201,231642,6,0,B|235:188|235:188|238:178|248:174|261:174|271:184|268:201|258:205|258:205|249:210|243:217|235:225|235:225|227:217|220:210|212:205|212:205|202:201|198:184|208:174|222:174|232:178|235:188|235:188|235:201,1,206.250004917383,2|2,1:3|1:3,0:0:0:0:
233,193,231723,6,0,B|233:180|233:180|236:170|246:166|259:166|269:176|266:193|256:197|256:197|247:202|241:209|233:217|233:217|225:209|218:202|210:197|210:197|200:193|196:176|206:166|220:166|230:170|233:180|233:180|233:193,1,206.250004917383,2|2,1:3|1:3,0:0:0:0:
234,185,231805,6,0,B|234:172|234:172|237:162|247:158|260:158|270:168|267:185|257:189|257:189|248:194|242:201|234:209|234:209|226:201|219:194|211:189|211:189|201:185|197:168|207:158|221:158|231:162|234:172|234:172|234:185,1,206.250004917383,2|2,1:3|1:3,0:0:0:0:
237,178,231886,6,0,B|237:165|237:165|240:155|250:151|263:151|273:161|270:178|260:182|260:182|251:187|245:194|237:202|237:202|229:194|222:187|214:182|214:182|204:178|200:161|210:151|224:151|234:155|237:165|237:165|237:178,1,206.250004917383,2|2,1:3|1:3,0:0:0:0:
243,172,231967,6,0,B|243:159|243:159|246:149|256:145|269:145|279:155|276:172|266:176|266:176|257:181|251:188|243:196|243:196|235:188|228:181|220:176|220:176|210:172|206:155|216:145|230:145|240:149|243:159|243:159|243:172,1,206.250004917383,2|2,1:3|1:3,0:0:0:0:
251,169,232048,6,0,B|251:156|251:156|254:146|264:142|277:142|287:152|284:169|274:173|274:173|265:178|259:185|251:193|251:193|243:185|236:178|228:173|228:173|218:169|214:152|224:142|238:142|248:146|251:156|251:156|251:169,1,206.250004917383,2|2,1:3|1:3,0:0:0:0:
259,169,232129,6,0,B|259:156|259:156|262:146|272:142|285:142|295:152|292:169|282:173|282:173|273:178|267:185|259:193|259:193|251:185|244:178|236:173|236:173|226:169|222:152|232:142|246:142|256:146|259:156|259:156|259:169,1,206.250004917383,2|2,1:3|1:3,0:0:0:0:
267,171,232210,6,0,B|267:158|267:158|270:148|280:144|293:144|303:154|300:171|290:175|290:175|281:180|275:187|267:195|267:195|259:187|252:180|244:175|244:175|234:171|230:154|240:144|254:144|264:148|267:158|267:158|267:171,1,206.250004917383,2|2,1:3|1:3,0:0:0:0:
273,176,232291,6,0,B|273:163|273:163|276:153|286:149|299:149|309:159|306:176|296:180|296:180|287:185|281:192|273:200|273:200|265:192|258:185|250:180|250:180|240:176|236:159|246:149|260:149|270:153|273:163|273:163|273:176,1,206.250004917383,2|2,1:3|1:3,0:0:0:0:
277,183,232372,6,0,B|277:170|277:170|280:160|290:156|303:156|313:166|310:183|300:187|300:187|291:192|285:199|277:207|277:207|269:199|262:192|254:187|254:187|244:183|240:166|250:156|264:156|274:160|277:170|277:170|277:183,1,206.250004917383,2|2,1:3|1:3,0:0:0:0:
279,191,232453,6,0,B|279:178|279:178|282:168|292:164|305:164|315:174|312:191|302:195|302:195|293:200|287:207|279:215|279:215|271:207|264:200|256:195|256:195|246:191|242:174|252:164|266:164|276:168|279:178|279:178|279:191,1,206.250004917383,2|2,1:3|1:3,0:0:0:0:
278,199,232534,6,0,B|278:186|278:186|281:176|291:172|304:172|314:182|311:199|301:203|301:203|292:208|286:215|278:223|278:223|270:215|263:208|255:203|255:203|245:199|241:182|251:172|265:172|275:176|278:186|278:186|278:199,1,206.250004917383,2|2,1:3|1:3,0:0:0:0:
275,206,232615,6,0,B|275:193|275:193|278:183|288:179|301:179|311:189|308:206|298:210|298:210|289:215|283:222|275:230|275:230|267:222|260:215|252:210|252:210|242:206|238:189|248:179|262:179|272:183|275:193|275:193|275:206,1,206.250004917383,2|2,1:3|1:3,0:0:0:0:
269,212,232696,70,0,B|95:181|95:181|126:8|126:8|299:38|299:38|269:212,1,704,0|0,1:0|1:0,0:0:0:0:
