osu file format v14

[General]
AudioFilename: audio.mp3
AudioLeadIn: 0
PreviewTime: 176872
Countdown: 0
SampleSet: Drum
StackLeniency: 0
Mode: 0
LetterboxInBreaks: 0
EpilepsyWarning: 1
WidescreenStoryboard: 1

[Editor]
DistanceSpacing: 1.4
BeatDivisor: 8
GridSize: 16
TimelineZoom: 3.899999

[Metadata]
Title:INTERNET YAMERO
TitleUnicode:INTERNET YAMERO
Artist:Aiobahn feat. KOTOKO
ArtistUnicode:Aiobahn feat. KOTOKO
Creator:NeonMarijuana
Version:Drop's EXPERT
Source:NEEDY GIRL OVERDOSE
Tags:japanese electronic videogame video game music vgm tohru mitsuhashi インターネットやめろ 前田地生 まろん maron iosys female vocals vocalist streamer synthwave techno eurobeat rawstyle hardstyle hardcore speedcore extratone ame ame-chan amechan omgkawaiiangel angel kangel p-chan pchan wss playground xemono maeda chisei as_chisei overdose overload synthpop denpa arcaea にゃるら nyalra nyarura tenshi muse dash mpg mappers' guild featured artist fa [ drop ] [_drop_] [drop] sanayui not your kitty not_your_kitty setu nuclei
BeatmapID:4341664
BeatmapSetID:2045169

[Difficulty]
HPDrainRate:5
CircleSize:4
OverallDifficulty:8.8
ApproachRate:9.6
SliderMultiplier:2.8
SliderTickRate:1

[Events]
//Background and Video events
0,0,"INTERNET YAMERO.jpg",0,0
Video,-200,"INTERNET YAMERO.mp4"
//Break Periods
2,4653,6458
2,7248,9052
2,9842,11404
2,77221,81701
2,158950,160836
2,161626,163431
2,164221,165782
2,232896,242566
//Storyboard Layer 0 (Background)
//Storyboard Layer 1 (Fail)
//Storyboard Layer 2 (Pass)
//Storyboard Layer 3 (Foreground)
//Storyboard Layer 4 (Overlay)
//Storyboard Sound Samples

[TimingPoints]
1778,324.324324324324,4,3,99,85,1,0
4048,-50,4,3,99,90,0,0
4129,-50,4,3,69,5,0,0
4210,-50,4,3,99,90,0,0
4291,-50,4,3,69,5,0,0
4372,-25,4,3,1,95,0,0
4453,-1000,4,3,69,5,0,0
6967,-25,4,3,1,95,0,0
7048,-1000,4,3,69,5,0,0
9561,-25,4,3,1,95,0,0
9642,-1000,4,3,69,5,0,0
11913,-100,4,3,1,95,0,0
12156,-25,4,3,1,95,0,0
12237,-1000,4,3,69,5,0,0
13453,-50,4,3,1,95,0,0
13534,-1000,4,3,69,5,0,0
14102,-50,4,3,1,95,0,0
14142,-50,4,3,69,5,0,0
14345,-50,4,3,1,95,0,0
14467,-50,4,3,69,5,0,0
14588,-50,4,3,1,95,0,0
14629,-50,4,3,69,5,0,0
14750,-200,4,3,1,60,0,0
17345,-200,4,3,1,65,0,0
19940,-200,4,3,1,70,0,0
21237,-200,4,3,1,75,0,0
22210,-125,4,3,1,75,0,0
22534,-71.4285714285714,4,3,1,80,0,0
23183,-71.4285714285714,4,3,1,85,0,0
23832,-50,4,3,1,80,0,0
23872,-50,4,3,69,5,0,0
24156,-50,4,3,1,80,0,0
24196,-50,4,3,69,5,0,0
24480,-50,4,3,1,80,0,0
24521,-50,4,3,69,5,0,0
24805,-83.3333333333333,4,3,1,90,0,0
24845,-83.3333333333333,4,3,69,5,0,0
24886,-83.3333333333333,4,3,1,90,0,0
24926,-83.3333333333333,4,3,69,5,0,0
24967,-83.3333333333333,4,3,1,90,0,0
25007,-83.3333333333333,4,3,69,5,0,0
25048,-83.3333333333333,4,3,1,90,0,0
25088,-83.3333333333333,4,3,69,5,0,0
25129,-66.6666666666667,4,3,2,85,0,1
25250,-66.6666666666667,4,3,69,5,0,1
25291,-66.6666666666667,4,3,2,85,0,1
25575,-66.6666666666667,4,3,69,5,0,1
25615,-66.6666666666667,4,3,2,85,0,1
26548,-66.6666666666667,4,3,69,5,0,1
26588,-66.6666666666667,4,3,2,85,0,1
26872,-66.6666666666667,4,3,69,5,0,1
26913,-66.6666666666667,4,3,2,85,0,1
27845,-66.6666666666667,4,3,69,5,0,1
27886,-66.6666666666667,4,3,2,85,0,1
28169,-66.6666666666667,4,3,69,5,0,1
28210,-66.6666666666667,4,3,2,85,0,1
29142,-66.6666666666667,4,3,69,5,0,1
29183,-66.6666666666667,4,3,2,85,0,1
29467,-66.6666666666667,4,3,69,5,0,1
29507,-66.6666666666667,4,3,2,85,0,1
30440,-66.6666666666667,4,3,69,5,0,1
30480,-66.6666666666667,4,3,2,85,0,1
31413,-66.6666666666667,4,3,69,5,0,1
31453,-66.6666666666667,4,3,2,85,0,1
31737,-66.6666666666667,4,3,69,5,0,1
31777,-66.6666666666667,4,3,2,85,0,1
32061,-66.6666666666667,4,3,69,5,0,1
32102,-66.6666666666667,4,3,2,85,0,1
33034,-66.6666666666667,4,3,69,5,0,1
33075,-66.6666666666667,4,3,2,85,0,1
34210,-66.6666666666667,4,3,2,80,0,1
34332,-66.6666666666667,4,3,69,5,0,1
34372,-66.6666666666667,4,3,2,80,0,1
34534,-142.857142857143,4,3,2,80,0,1
35183,-250,4,3,2,90,0,1
35426,-250,4,3,69,5,0,1
35507,-166.666666666667,4,3,3,60,0,0
45886,-166.666666666667,4,3,3,65,0,0
56021,-166.666666666667,4,3,69,5,0,0
56102,-166.666666666667,4,3,3,65,0,0
56183,-166.666666666667,4,3,69,5,0,0
56264,-166.666666666667,4,3,3,70,0,0
66642,-166.666666666667,4,3,3,75,0,0
67940,-166.666666666667,4,3,3,76,0,0
69237,-166.666666666667,4,3,3,77,0,0
70534,-166.666666666667,4,3,3,78,0,0
71832,-166.666666666667,4,3,3,79,0,0
73129,-166.666666666667,4,3,3,80,0,0
74426,-166.666666666667,4,3,3,81,0,0
75723,-166.666666666667,4,3,3,82,0,0
76048,-166.666666666667,4,3,3,83,0,0
76372,-166.666666666667,4,3,3,84,0,0
76696,-166.666666666667,4,3,3,85,0,0
77021,-166.666666666667,4,3,3,60,0,0
82210,-500,4,3,4,75,0,0
82291,-500,4,3,69,75,0,0
82372,-500,4,3,4,75,0,0
82615,-500,4,3,69,75,0,0
82696,-500,4,3,4,75,0,0
82940,-500,4,3,69,75,0,0
83021,-500,4,3,4,75,0,0
83264,-500,4,3,69,75,0,0
83345,-500,4,3,4,75,0,0
83588,-500,4,3,69,75,0,0
83669,-500,4,3,4,75,0,0
83913,-500,4,3,69,75,0,0
83994,-500,4,3,4,75,0,0
84237,-500,4,3,69,75,0,0
84318,-500,4,3,4,75,0,0
84561,-500,4,3,69,75,0,0
84642,-500,4,3,4,75,0,0
84886,-500,4,3,69,75,0,0
84967,-500,4,3,4,75,0,0
85210,-500,4,3,69,75,0,0
85291,-500,4,3,4,75,0,0
85534,-500,4,3,69,75,0,0
85615,-500,4,3,4,75,0,0
85859,-500,4,3,69,75,0,0
85940,-500,4,3,4,75,0,0
86183,-500,4,3,69,75,0,0
86264,-500,4,3,4,75,0,0
86507,-500,4,3,69,75,0,0
86588,-500,4,3,4,75,0,0
86832,-500,4,3,69,75,0,0
86913,-500,4,3,4,75,0,0
87156,-500,4,3,69,75,0,0
87237,-500,4,3,4,75,0,0
87480,-500,4,3,69,75,0,0
87561,-500,4,3,4,75,0,0
87805,-500,4,3,69,75,0,0
87886,-500,4,3,4,75,0,0
88129,-500,4,3,69,75,0,0
88210,-500,4,3,4,75,0,0
88453,-500,4,3,69,75,0,0
88534,-500,4,3,4,75,0,0
88777,-500,4,3,69,75,0,0
88859,-500,4,3,4,75,0,0
89102,-500,4,3,69,75,0,0
89183,-500,4,3,4,75,0,0
89426,-500,4,3,69,75,0,0
89507,-500,4,3,4,75,0,0
89750,-500,4,3,69,75,0,0
89832,-500,4,3,4,75,0,0
90075,-500,4,3,69,75,0,0
90156,-500,4,3,4,75,0,0
90399,-500,4,3,69,75,0,0
90480,-500,4,3,4,75,0,0
90723,-500,4,3,69,75,0,0
90805,-500,4,3,4,75,0,0
91048,-500,4,3,69,75,0,0
91129,-500,4,3,4,75,0,0
91372,-500,4,3,69,75,0,0
91453,-500,4,3,4,75,0,0
91696,-500,4,3,69,75,0,0
91777,-500,4,3,4,75,0,0
92021,-500,4,3,69,75,0,0
92102,-500,4,3,4,75,0,0
92345,-500,4,3,69,75,0,0
92426,-500,4,3,4,75,0,0
92588,-125,4,3,4,80,0,0
101669,-125,4,3,4,85,0,0
102642,-83.3333333333333,4,3,4,90,0,0
102886,-83.3333333333333,4,3,4,89,0,0
102967,-100,4,3,4,89,0,0
103129,-100,4,3,4,88,0,0
103372,-100,4,3,4,87,0,0
103615,-125,4,3,4,86,0,0
103859,-125,4,3,4,85,0,0
104102,-125,4,3,4,84,0,0
104345,-125,4,3,4,83,0,0
104588,-166.666666666667,4,3,4,82,0,0
104832,-166.666666666667,4,3,4,81,0,0
105075,-333.333333333334,4,3,4,80,0,0
105886,-250.000000000001,4,3,4,80,0,0
107588,-250.000000000001,4,3,4,85,0,0
107994,-250.000000000001,4,3,4,80,0,0
108156,-250.000000000001,4,3,4,90,0,0
109453,-250.000000000001,4,3,4,85,0,0
110426,-500.000000000005,4,3,4,85,0,0
110750,-250.000000000001,4,3,4,80,0,0
111075,-166.666666666667,4,3,4,80,0,0
111399,-125,4,3,4,80,0,0
111723,-100,4,3,4,80,0,0
112048,-100,4,3,4,75,0,0
112210,-100,4,3,4,70,0,0
112372,-100,4,3,4,65,0,0
112534,-250,4,3,4,60,0,0
112696,-71.4285714285714,4,3,4,55,0,0
112859,-71.4285714285714,4,3,4,50,0,0
113021,-133.333333333333,4,3,4,45,0,0
113183,-133.333333333333,4,3,4,40,0,0
113345,-62.5,4,3,5,80,0,0
113426,-62.5,4,3,69,5,0,0
113507,-62.5,4,3,5,80,0,0
113588,-62.5,4,3,69,5,0,0
113832,-62.5,4,3,5,80,0,0
113913,-62.5,4,3,69,5,0,0
114156,-62.5,4,3,5,80,0,0
114237,-62.5,4,3,69,5,0,0
114480,-62.5,4,3,5,80,0,0
114561,-62.5,4,3,69,5,0,0
114642,-250,4,3,97,77,0,0
114723,-250,4,3,97,74,0,0
114805,-250,4,3,97,71,0,0
114886,-250,4,3,97,68,0,0
114967,-250,4,3,97,65,0,0
115048,-250,4,3,97,62,0,0
115129,-250,4,3,97,59,0,0
115210,-250,4,3,97,56,0,0
115291,-250,4,3,97,53,0,0
115372,-250,4,3,97,50,0,0
115453,-166.666666666667,4,3,97,47,0,0
115534,-166.666666666667,4,3,97,44,0,0
115615,-166.666666666667,4,3,5,60,0,0
115696,-166.666666666667,4,3,69,5,0,0
115777,-166.666666666667,4,3,5,70,0,0
115859,-166.666666666667,4,3,69,5,0,0
115940,-62.5,4,3,5,80,0,0
116021,-62.5,4,3,69,5,0,0
116102,-62.5,4,3,5,80,0,0
116183,-62.5,4,3,69,5,0,0
116426,-62.5,4,3,5,80,0,0
116507,-62.5,4,3,69,5,0,0
116750,-62.5,4,3,5,80,0,0
116832,-62.5,4,3,69,5,0,0
117075,-62.5,4,3,5,80,0,0
117156,-62.5,4,3,69,5,0,0
117237,-250,4,3,97,77,0,0
117318,-250,4,3,97,74,0,0
117399,-250,4,3,97,71,0,0
117480,-250,4,3,97,68,0,0
117561,-250,4,3,97,65,0,0
117642,-250,4,3,97,62,0,0
117723,-250,4,3,97,59,0,0
117805,-250,4,3,97,56,0,0
117886,-250,4,3,97,53,0,0
117967,-250,4,3,97,50,0,0
118048,-250,4,3,97,47,0,0
118129,-250,4,3,97,44,0,0
118210,-62.5,4,3,5,60,0,0
118291,-62.5,4,3,69,5,0,0
118372,-62.5,4,3,5,70,0,0
118453,-62.5,4,3,69,5,0,0
118534,-62.5,4,3,5,80,0,0
118615,-62.5,4,3,69,5,0,0
118696,-62.5,4,3,5,80,0,0
118777,-62.5,4,3,69,5,0,0
119021,-62.5,4,3,5,80,0,0
119102,-62.5,4,3,69,5,0,0
119345,-62.5,4,3,5,80,0,0
119426,-62.5,4,3,69,5,0,0
119669,-62.5,4,3,5,80,0,0
119750,-62.5,4,3,69,5,0,0
119832,-250,4,3,97,77,0,0
119913,-250,4,3,97,74,0,0
119994,-250,4,3,97,71,0,0
120075,-250,4,3,97,68,0,0
120156,-250,4,3,97,65,0,0
120237,-250,4,3,97,62,0,0
120318,-250,4,3,97,59,0,0
120399,-250,4,3,97,56,0,0
120480,-250,4,3,97,53,0,0
120561,-250,4,3,97,50,0,0
120642,-250,4,3,97,47,0,0
120723,-250,4,3,97,44,0,0
120805,-62.5,4,3,5,60,0,0
120886,-62.5,4,3,69,5,0,0
120967,-62.5,4,3,5,70,0,0
121048,-62.5,4,3,69,5,0,0
121129,-62.5,4,3,5,80,0,0
121210,-62.5,4,3,69,5,0,0
121291,-62.5,4,3,5,80,0,0
121372,-62.5,4,3,69,5,0,0
121615,-62.5,4,3,5,80,0,0
121696,-62.5,4,3,69,5,0,0
121940,-62.5,4,3,5,80,0,0
122021,-62.5,4,3,69,5,0,0
122264,-62.5,4,3,5,80,0,0
122345,-62.5,4,3,69,5,0,0
122426,-250,4,3,97,77,0,0
122507,-250,4,3,97,74,0,0
122588,-250,4,3,97,71,0,0
122669,-250,4,3,97,68,0,0
122750,-250,4,3,97,65,0,0
122832,-250,4,3,97,62,0,0
122913,-250,4,3,97,59,0,0
122994,-250,4,3,97,56,0,0
123075,-250,4,3,97,53,0,0
123156,-250,4,3,97,50,0,0
123237,-250,4,3,97,47,0,0
123318,-250,4,3,97,44,0,0
123399,-62.5,4,3,5,85,0,0
123480,-62.5,4,3,69,5,0,0
123561,-62.5,4,3,5,85,0,0
123642,-62.5,4,3,69,5,0,0
123723,-83.3333333333333,4,3,5,80,0,1
127940,-200,4,3,5,80,0,1
128264,-83.3333333333333,4,3,5,80,0,1
130210,-166.666666666667,4,3,5,80,0,1
131021,-83.3333333333333,4,3,5,80,0,1
131507,-1000,4,3,5,85,0,0
131832,-1000,4,3,69,85,0,0
131913,-1000,4,3,5,85,0,0
132074,-1000,4,3,69,5,0,0
132156,-1000,4,3,5,90,0,0
132480,-1000,4,3,69,90,0,0
132561,-1000,4,3,5,90,0,0
132723,-1000,4,3,69,5,0,0
132805,-62.5,4,3,5,70,0,0
132886,-62.5,4,3,69,5,0,0
132967,-62.5,4,3,5,75,0,0
133048,-62.5,4,3,69,5,0,0
133129,-62.5,4,3,5,80,0,0
133210,-62.5,4,3,69,5,0,0
133291,-62.5,4,3,5,85,0,0
133372,-62.5,4,3,69,5,0,0
133453,-62.5,4,3,5,90,0,0
133777,-125,4,3,5,100,0,0
134102,-83.3333333333333,4,3,6,80,0,1
134426,-62.5,4,3,6,100,0,1
134750,-50,4,3,6,100,0,1
134993,-50,4,3,69,5,0,1
135075,-50,4,3,6,100,0,1
135318,-50,4,3,69,5,0,1
135399,-50,4,3,6,100,0,1
135642,-50,4,3,69,5,0,1
135723,-50,4,3,6,100,0,1
136291,-50,4,3,69,5,0,1
136372,-50,4,3,6,100,0,1
136696,-500,4,3,6,100,0,1
136939,-500,4,3,69,5,0,1
137021,-35.7142857142857,4,3,6,100,0,1
137345,-50,4,3,6,100,0,1
137588,-50,4,3,69,5,0,1
137669,-50,4,3,6,100,0,1
137912,-50,4,3,69,5,0,1
137994,-50,4,3,6,100,0,1
139534,-50,4,3,69,5,0,1
139615,-50,4,3,6,100,0,1
139858,-50,4,3,69,5,0,1
139940,-50,4,3,6,100,0,1
140183,-50,4,3,69,5,0,1
140264,-50,4,3,6,100,0,1
140507,-50,4,3,69,5,0,1
140588,-50,4,3,6,100,0,1
140831,-50,4,3,69,5,0,1
140913,-50,4,3,6,100,0,1
141561,-83.3333333333333,4,3,6,100,0,1
144156,-125,4,3,6,100,0,1
144480,-333.333333333333,4,3,98,60,0,0
148372,-333.333333333333,4,3,98,70,0,0
148534,-333.333333333333,4,3,69,5,0,0
148696,-333.333333333333,4,3,98,75,0,0
148859,-333.333333333333,4,3,69,5,0,0
149021,-333.333333333333,4,3,98,80,0,0
149345,-333.333333333333,4,3,98,70,0,0
149669,-333.333333333333,4,3,98,60,0,0
154859,-333.333333333333,4,3,98,70,0,0
155021,-333.333333333333,4,3,69,5,0,0
155183,-333.333333333333,4,3,98,70,0,0
155669,-333.333333333333,4,3,69,5,0,0
155832,-333.333333333333,4,3,98,70,0,0
156967,-333.333333333333,4,3,98,35,0,0
157777,-333.333333333333,4,3,98,50,0,0
158102,-333.333333333333,4,3,98,65,0,0
158426,-333.333333333333,4,3,98,80,0,0
158750,-25,4,3,1,95,0,0
161345,-25,4,3,1,95,0,0
161426,-25,4,3,69,5,0,0
163940,-25,4,3,1,95,0,0
164021,-25,4,3,69,5,0,0
166291,-100,4,3,1,95,0,0
166534,-25,4,3,1,95,0,0
166615,-25,4,3,69,5,0,0
167831,-50,4,3,1,95,0,0
167913,-50,4,3,69,5,0,0
168480,-50,4,3,1,95,0,0
168521,-50,4,3,69,5,0,0
168723,-50,4,3,1,95,0,0
168845,-50,4,3,69,5,0,0
168967,-50,4,3,1,95,0,0
169007,-50,4,3,69,5,0,0
169129,-200,4,3,1,70,0,0
171723,-200,4,3,1,75,0,0
174318,-200,4,3,1,80,0,0
175615,-200,4,3,1,85,0,0
176264,-125,4,3,1,85,0,0
176912,-71.4285714285714,4,3,1,90,0,0
177561,-71.4285714285714,4,3,1,95,0,0
178210,-50,4,3,1,90,0,0
178250,-50,4,3,69,5,0,0
178534,-50,4,3,1,93,0,0
178575,-50,4,3,69,5,0,0
178858,-50,4,3,1,96,0,0
178899,-50,4,3,69,5,0,0
179183,-83.3333333333333,4,3,1,100,0,0
179223,-83.3333333333333,4,3,69,5,0,0
179264,-83.3333333333333,4,3,1,100,0,0
179305,-83.3333333333333,4,3,69,5,0,0
179345,-83.3333333333333,4,3,1,100,0,0
179386,-83.3333333333333,4,3,69,5,0,0
179426,-83.3333333333333,4,3,1,100,0,0
179467,-83.3333333333333,4,3,69,5,0,0
179507,-71.4285714285714,4,3,7,95,0,1
180967,-250,4,3,7,95,0,1
181129,-83.3333333333333,4,3,7,95,0,1
181453,-71.4285714285714,4,3,7,95,0,1
181777,-125,4,3,7,95,0,1
182102,-83.3333333333333,4,3,7,95,0,1
183237,-71.4285714285714,4,3,7,95,0,1
186967,-125,4,3,7,95,0,1
187292,-83.3333333333333,4,3,7,95,0,1
189237,-166.666666666667,4,3,7,95,0,1
189561,-166.666666666667,4,3,7,100,0,1
189723,-62.5,4,3,7,100,0,1
189886,-71.4285714285714,4,3,7,95,0,1
191345,-166.666666666667,4,3,7,95,0,1
191507,-71.4285714285714,4,3,7,95,0,1
192156,-125,4,3,7,95,0,1
192480,-83.3333333333333,4,3,7,95,0,1
193615,-71.4285714285714,4,3,7,95,0,1
195399,-125,4,3,7,95,0,1
195561,-200,4,3,7,95,0,1
195723,-71.4285714285714,4,3,7,95,0,1
196210,-166.666666666667,4,3,7,95,0,1
196534,-83.3333333333334,4,3,7,95,0,1
196696,-100,4,3,7,95,0,1
197021,-83.3333333333333,4,3,7,95,0,1
197345,-71.4285714285714,4,3,7,95,0,1
198318,-83.3333333333333,4,3,7,95,0,1
199129,-100,4,3,7,95,0,1
199291,-83.3333333333333,4,3,7,95,0,1
199940,-71.4285714285714,4,3,7,100,0,1
200264,-71.4285714285714,4,3,2,95,0,1
200386,-71.4285714285714,4,3,69,5,0,1
200426,-125,4,3,2,95,0,1
200588,-71.4285714285714,4,3,2,95,0,1
200710,-71.4285714285714,4,3,69,5,0,1
200750,-125,4,3,2,95,0,1
201237,-71.4285714285714,4,3,2,95,0,1
201561,-71.4285714285714,4,3,2,95,0,1
201683,-71.4285714285714,4,3,69,5,0,1
201723,-125,4,3,2,95,0,1
201885,-71.4285714285714,4,3,2,95,0,1
202007,-71.4285714285714,4,3,69,5,0,1
202047,-125,4,3,2,95,0,1
202534,-62.5,4,3,2,95,0,1
202859,-71.4285714285714,4,3,2,95,0,1
202980,-71.4285714285714,4,3,69,5,0,1
203021,-125,4,3,2,95,0,1
203183,-71.4285714285714,4,3,2,95,0,1
203305,-71.4285714285714,4,3,69,5,0,1
203345,-125,4,3,2,95,0,1
203832,-71.4285714285714,4,3,2,95,0,1
204805,-166.666666666667,4,3,2,95,0,1
205453,-71.4285714285714,4,3,2,95,0,1
205575,-71.4285714285714,4,3,69,5,0,1
205615,-125,4,3,2,95,0,1
205777,-71.4285714285714,4,3,2,95,0,1
205899,-71.4285714285714,4,3,69,5,0,1
205939,-125,4,3,2,95,0,1
206426,-71.4285714285714,4,3,2,95,0,1
206750,-71.4285714285714,4,3,2,95,0,1
206872,-71.4285714285714,4,3,69,5,0,1
206912,-125,4,3,2,95,0,1
207074,-71.4285714285714,4,3,2,95,0,1
207196,-71.4285714285714,4,3,69,5,0,1
207236,-125,4,3,2,95,0,1
207723,-62.5,4,3,2,95,0,1
208048,-71.4285714285714,4,3,2,95,0,1
208169,-71.4285714285714,4,3,69,5,0,1
208210,-125,4,3,2,95,0,1
208372,-71.4285714285714,4,3,2,95,0,1
208494,-71.4285714285714,4,3,69,5,0,1
208534,-125,4,3,2,95,0,1
209021,-71.4285714285714,4,3,2,95,0,1
209345,-71.4285714285714,4,3,2,95,0,1
209507,-125,4,3,2,95,0,1
209669,-71.4285714285714,4,3,2,95,0,1
209831,-125,4,3,2,95,0,1
209994,-250,4,3,2,95,0,1
210318,-71.4285714285714,4,3,2,100,0,1
210642,-71.4285714285714,4,3,2,95,0,1
210764,-71.4285714285714,4,3,69,5,0,1
210804,-125,4,3,2,95,0,1
210966,-71.4285714285714,4,3,2,95,0,1
211088,-71.4285714285714,4,3,69,5,0,1
211128,-125,4,3,2,95,0,1
211615,-71.4285714285714,4,3,2,95,0,1
211939,-71.4285714285714,4,3,2,95,0,1
212061,-71.4285714285714,4,3,69,5,0,1
212101,-125,4,3,2,95,0,1
212263,-71.4285714285714,4,3,2,95,0,1
212386,-71.4285714285714,4,3,69,5,0,1
212425,-125,4,3,2,95,0,1
212912,-62.5,4,3,2,95,0,1
213237,-71.4285714285714,4,3,2,95,0,1
213359,-71.4285714285714,4,3,69,5,0,1
213399,-125,4,3,2,95,0,1
213561,-71.4285714285714,4,3,2,95,0,1
213683,-71.4285714285714,4,3,69,5,0,1
213723,-125,4,3,2,95,0,1
214210,-71.4285714285714,4,3,2,95,0,1
215183,-166.666666666667,4,3,2,95,0,1
215831,-71.4285714285714,4,3,2,95,0,1
215953,-71.4285714285714,4,3,69,5,0,1
215993,-125,4,3,2,95,0,1
216155,-71.4285714285714,4,3,2,95,0,1
216277,-71.4285714285714,4,3,69,5,0,1
216317,-125,4,3,2,95,0,1
216804,-71.4285714285714,4,3,2,95,0,1
217128,-71.4285714285714,4,3,2,95,0,1
217250,-71.4285714285714,4,3,69,5,0,1
217290,-125,4,3,2,95,0,1
217452,-71.4285714285714,4,3,2,95,0,1
217575,-71.4285714285714,4,3,69,5,0,1
217614,-125,4,3,2,95,0,1
217777,-250,4,3,2,95,0,1
218101,-62.5,4,3,2,95,0,1
218426,-71.4285714285714,4,3,2,95,0,1
218548,-71.4285714285714,4,3,69,5,0,1
218588,-71.4285714285714,4,3,2,95,0,1
219399,-71.4285714285714,4,3,2,95,0,1
219723,-71.4285714285714,4,3,2,85,0,1
220048,-166.666666666667,4,3,2,85,0,1
220696,-250.000000000001,4,3,2,100,0,1
220939,-250.000000000001,4,3,69,5,0,1
221021,-250.000000000001,4,3,2,85,0,1
226210,-200,4,3,2,90,0,1
226291,-200,4,3,69,5,0,1
226372,-200,4,3,2,90,0,1
226453,-200,4,3,69,5,0,1
226534,-200,4,3,2,90,0,1
226615,-200,4,3,69,5,0,1
226696,-200,4,3,2,90,0,1
226777,-200,4,3,69,5,0,1
226859,-200,4,3,2,90,0,1
226940,-200,4,3,69,5,0,1
227021,-200,4,3,2,90,0,1
227102,-200,4,3,69,5,0,1
227183,-200,4,3,2,90,0,1
227264,-200,4,3,69,5,0,1
227345,-200,4,3,2,90,0,1
227426,-200,4,3,69,5,0,1
227507,-200,4,3,2,90,0,1
227588,-200,4,3,69,5,0,1
227669,-200,4,3,2,90,0,1
227750,-200,4,3,69,5,0,1
227832,-200,4,3,2,90,0,1
227913,-200,4,3,69,5,0,1
227994,-200,4,3,2,90,0,1
228075,-200,4,3,69,5,0,1
228156,-200,4,3,2,90,0,1
228237,-200,4,3,69,5,0,1
228318,-200,4,3,2,90,0,1
228399,-200,4,3,69,5,0,1
228480,-200,4,3,2,90,0,1
228561,-200,4,3,69,5,0,1
228642,-200,4,3,2,90,0,1
228723,-200,4,3,69,5,0,1
228805,-200,4,3,2,95,0,1
230102,-100,4,3,2,100,0,1
232696,-100,4,3,99,100,0,0

[Colours]
Combo1 : 196,0,0
Combo2 : 255,255,202
Combo3 : 181,242,251
Combo4 : 199,157,255
Combo5 : 255,174,255
Combo6 : 81,81,81
Combo7 : 140,140,140
Combo8 : 128,0,0
SliderBorder : 250,250,250
SliderTrackOverride : 0,0,20

[HitObjects]
177,216,1778,5,8,0:3:0:0:
334,157,2102,1,8,0:3:0:0:
334,157,2426,5,8,0:3:0:0:
177,216,2588,1,8,0:0:0:0:
378,270,2750,5,8,0:0:0:0:
133,103,2913,1,8,0:0:0:0:
272,42,3075,5,8,0:0:0:0:
239,331,3237,1,8,0:0:0:0:
239,331,3561,69,8,0:0:0:0:
272,42,3723,1,8,0:0:0:0:
259,125,4048,70,0,B|169:102|238:73|148:46,1,140,8|0,0:2|0:0,0:0:0:0:
386,142,4210,2,0,B|296:165|365:193|275:220,1,140,8|0,0:2|0:0,0:0:0:0:
93,271,4372,102,0,P|58:357|105:274,1,280,8|0,1:3|0:0,0:0:0:0:
183,191,6967,118,0,P|148:105|195:188,1,280,8|0,1:3|0:0,0:0:0:0:
287,276,9561,118,0,P|252:362|299:279,1,280,8|0,1:3|0:0,0:0:0:0:
360,125,11913,6,0,L|393:133,5,35,0|0|0|0|0|0,1:0|1:0|1:0|1:0|1:0|1:0,0:0:0:0:
374,142,12156,102,0,P|339:56|386:139,1,280,8|0,1:3|0:0,0:0:0:0:
427,206,13453,6,0,P|437:260|522:240,1,140,8|0,1:3|0:0,0:0:0:0:
510,259,14102,102,0,P|486:239|502:179,1,70,8|0,1:3|0:0,0:0:0:0:
342,67,14345,5,8,1:3:0:0:
342,67,14426,2,0,P|355:27|401:17,1,70,8|0,1:3|0:0,0:0:0:0:
417,113,14588,102,0,P|445:94|453:61,1,70,8|0,1:3|0:0,0:0:0:0:
284,285,14750,54,0,L|290:319,3,35,8|0|0|0,0:0|0:0|0:0|0:0,0:0:0:0:
254,339,15075,2,0,L|288:332,3,35,8|0|0|0,0:2|0:0|0:0|0:0,0:0:0:0:
308,369,15399,2,0,L|301:334,3,35,8|0|0|0,0:2|0:0|0:0|0:0,0:0:0:0:
338,315,15723,2,0,L|303:321,3,35,8|0|0|0,0:2|0:0|0:0|0:0,0:0:0:0:
257,305,16048,6,0,L|286:325,3,35,8|0|0|0,0:2|0:0|0:0|0:0,0:0:0:0:
274,365,16373,2,0,L|294:336,3,35,8|0|0|0,0:2|0:0|0:0|0:0,0:0:0:0:
334,348,16697,2,0,L|305:328,3,35,8|0|0|0,0:2|0:0|0:0|0:0,0:0:0:0:
317,288,17021,2,0,L|297:317,3,35,8|0|8|0,0:2|0:0|0:2|0:0,0:0:0:0:
139,182,17345,6,0,L|145:147,3,35,8|0|0|0,0:0|0:0|0:0|0:0,0:0:0:0:
109,128,17670,2,0,L|143:134,3,35,8|0|0|0,0:2|0:0|0:0|0:0,0:0:0:0:
163,98,17994,2,0,L|156:132,3,35,8|0|0|0,0:2|0:0|0:0|0:0,0:0:0:0:
193,152,18318,2,0,L|158:145,3,35,8|0|0|0,0:2|0:0|0:0|0:0,0:0:0:0:
112,161,18643,6,0,L|140:141,3,35,8|0|0|0,0:2|0:0|0:0|0:0,0:0:0:0:
129,101,18968,2,0,L|148:129,3,35,8|0|0|0,0:2|0:0|0:0|0:0,0:0:0:0:
189,118,19292,2,0,L|160:137,3,35,8|0|0|8,0:2|0:0|0:0|0:2,0:0:0:0:
172,178,19616,2,0,L|152:149,3,35,8|0|8|0,0:2|0:0|0:2|0:0,0:0:0:0:
52,346,19940,69,8,0:0:0:0:
64,341,20021,1,0,0:0:0:0:
76,337,20102,1,0,0:0:0:0:
89,333,20183,1,0,0:0:0:0:
101,329,20264,1,8,0:2:0:0:
114,325,20345,1,0,0:0:0:0:
126,320,20426,1,0,0:0:0:0:
139,316,20507,1,0,0:0:0:0:
151,312,20588,1,8,0:2:0:0:
164,308,20669,1,0,0:0:0:0:
176,304,20750,1,0,0:0:0:0:
189,300,20831,1,0,0:0:0:0:
201,296,20913,2,0,L|209:253,3,35,8|0|0|0,0:2|0:0|0:0|0:0,0:0:0:0:
134,146,21237,5,8,0:0:0:0:
161,154,21318,1,0,0:0:0:0:
188,164,21399,1,0,0:0:0:0:
216,174,21480,1,0,0:0:0:0:
243,183,21561,1,8,0:2:0:0:
270,193,21642,1,0,0:0:0:0:
298,203,21723,1,0,0:0:0:0:
326,213,21804,1,0,0:0:0:0:
354,222,21885,1,8,0:2:0:0:
381,232,21966,1,0,0:0:0:0:
408,242,22047,1,0,0:0:0:0:
436,252,22128,1,0,0:0:0:0:
463,261,22210,2,0,L|483:341,3,56,8|0|0|0,0:2|0:0|0:0|0:0,0:0:0:0:
502,174,22534,6,0,P|504:132|437:115,1,97.9999970092774,8|0,0:0|0:0,0:0:0:0:
420,26,22697,5,0,0:0:0:0:
420,26,22778,1,0,0:0:0:0:
420,26,22859,2,0,P|378:20|355:85,1,97.9999970092774,8|0,0:2|0:0,0:0:0:0:
373,166,23021,69,0,0:0:0:0:
373,166,23102,1,0,0:0:0:0:
373,166,23183,2,0,P|372:212|330:233,1,97.9999970092774,8|0,0:0|0:0,0:0:0:0:
291,314,23345,5,0,0:0:0:0:
291,314,23426,1,0,0:0:0:0:
290,314,23507,2,0,P|243:318|218:278,1,97.9999970092774,8|0,0:2|0:0,0:0:0:0:
219,132,23669,5,0,0:0:0:0:
219,132,23750,1,0,0:0:0:0:
219,132,23832,2,0,P|211:105|186:59,1,70,8|0,1:1|0:0,0:0:0:0:
314,92,24156,6,0,P|297:61|287:27,1,70,8|0,1:1|0:0,0:0:0:0:
487,204,24480,70,0,P|470:234|460:268,1,70,8|0,1:1|0:0,0:0:0:0:
397,355,24805,6,0,L|383:296,1,41.9999987182618,14|0,1:1|0:0,0:0:0:0:
393,360,24886,6,0,L|379:301,1,41.9999987182618,8|0,1:1|0:0,0:0:0:0:
389,365,24967,6,0,L|375:306,1,41.9999987182618,8|0,1:1|0:0,0:0:0:0:
385,370,25048,70,0,L|371:311,1,41.9999987182618,8|0,1:1|0:0,0:0:0:0:
380,377,25129,6,0,B|285:356|351:310|252:291,1,157.500006008148,10|0,0:0|0:0,0:0:0:0:
252,283,25291,2,0,P|231:329|182:339,1,105.000004005432,2|0,1:3|1:0,0:0:0:0:
25,241,25453,6,0,B|119:222|53:176|148:155,1,157.500006008148,10|0,0:0|0:0,0:0:0:0:
156,165,25615,2,0,P|170:114|206:57,1,105.000004005432,2|0,1:3|1:0,0:0:0:0:
279,37,25777,1,10,0:0:0:0:
44,15,25940,5,2,1:3:0:0:
44,15,26021,1,2,1:3:0:0:
44,15,26102,2,0,P|30:66|-6:123,1,105.000004005432,10|0,0:0|1:0,0:0:0:0:
156,165,26264,2,0,P|129:210|116:260,1,105.000004005432,2|0,1:3|1:0,0:0:0:0:
25,241,26426,70,0,P|104:265|168:347,1,157.500006008148,10|0,0:0|0:0,0:0:0:0:
162,317,26588,2,0,P|180:359|240:352,1,105.000004005432,2|0,1:3|1:0,0:0:0:0:
303,233,26750,6,0,P|335:165|410:162,1,157.500006008148,10|0,0:0|0:0,0:0:0:0:
418,160,26913,2,0,P|437:108|465:56,1,105.000004005432,2|0,1:3|1:0,0:0:0:0:
387,8,27075,1,10,0:0:0:0:
268,80,27399,6,0,P|308:80|321:163,1,105.000004005432,10|0,0:0|1:0,0:0:0:0:
478,225,27561,2,0,P|484:264|405:291,1,105.000004005432,2|0,1:3|1:0,0:0:0:0:
332,382,27723,6,0,P|275:354|168:335,1,157.500006008148,10|0,0:0|0:0,0:0:0:0:
173,340,27886,2,0,B|158:287|158:287|196:246,1,105.000004005432,2|0,1:3|1:0,0:0:0:0:
268,80,28048,70,0,P|295:146|322:255,1,157.500006008148,10|0,0:0|0:0,0:0:0:0:
327,234,28210,2,0,P|379:222|377:149,1,105.000004005432,2|0,1:3|1:0,0:0:0:0:
367,93,28372,1,10,0:0:0:0:
153,129,28534,5,2,1:3:0:0:
153,129,28615,1,2,1:3:0:0:
153,129,28696,2,0,P|107:112|34:97,1,105.000004005432,10|0,0:0|1:0,0:0:0:0:
180,41,28859,2,0,P|134:24|61:9,1,105.000004005432,2|0,1:3|1:0,0:0:0:0:
4,182,29021,6,0,B|16:283|57:213|76:319,1,157.500006008148,10|0,0:0|0:0,0:0:0:0:
68,324,29183,2,0,P|93:366|147:350,1,105.000004005432,2|0,1:3|1:0,0:0:0:0:
219,245,29345,6,0,P|250:172|313:73,1,157.500006008148,10|0,0:0|0:0,0:0:0:0:
285,92,29507,2,0,P|259:130|227:199,1,105.000004005432,2|0,1:3|1:0,0:0:0:0:
271,326,29669,70,0,B|341:302|296:292|373:265,1,105.000004005432,10|0,0:0|1:0,0:0:0:0:
394,190,29832,2,0,B|464:214|419:224|496:251,1,105.000004005432,2|0,1:3|1:0,0:0:0:0:
446,328,29994,5,10,0:0:0:0:
446,328,30075,1,0,0:0:0:0:
446,328,30156,1,2,0:0:0:0:
446,328,30237,1,0,0:0:0:0:
446,328,30318,6,0,P|471:235|507:144,1,157.500006008148,10|0,0:0|0:0,0:0:0:0:
502,173,30480,2,0,P|508:120|441:106,1,105.000004005432,2|0,1:3|1:0,0:0:0:0:
273,0,30642,6,0,P|254:51|240:105,1,105.000004005432,10|0,0:0|1:0,0:0:0:0:
364,26,30805,2,0,P|345:77|331:131,1,105.000004005432,2|0,0:0|1:0,0:0:0:0:
269,189,30967,1,10,0:0:0:0:
151,358,31129,69,10,0:0:0:0:
151,358,31210,1,10,0:0:0:0:
151,358,31291,2,0,B|167:267|80:309|107:201,1,157.500006008148,10|0,0:0|0:0,0:0:0:0:
102,202,31453,2,0,B|61:170|61:170|99:244,1,105.000004005432,2|0,1:3|1:0,0:0:0:0:
56,329,31615,6,0,P|133:287|236:277,1,157.500006008148,10|0,0:0|0:0,0:0:0:0:
206,265,31777,2,0,L|230:144,1,105.000004005432,2|0,1:3|1:0,0:0:0:0:
182,28,31940,6,0,P|259:70|362:80,1,157.500006008148,10|0,0:0|0:0,0:0:0:0:
335,88,32102,2,0,B|383:63|383:63|348:121,1,105.000004005432,2|0,1:3|1:0,0:0:0:0:
314,174,32264,6,0,B|338:244|348:199|375:276,1,105.000004005432,10|0,0:0|1:0,0:0:0:0:
451,285,32427,2,0,B|427:355|417:310|390:387,1,105.000004005432,2|0,1:3|1:0,0:0:0:0:
395,372,32588,70,0,P|351:351|268:324,1,105.000004005432,10|0,0:0|1:0,0:0:0:0:
512,219,32750,2,0,P|462:201|415:178,1,105.000004005432,10|0,0:0|1:0,0:0:0:0:
183,88,32913,6,0,P|208:173|229:278,1,157.500006008148,10|0,0:0|0:0,0:0:0:0:
233,236,33075,2,0,P|222:184|208:134,1,105.000004005432,2|0,1:3|1:0,0:0:0:0:
114,13,33237,2,0,P|103:64|89:114,1,105.000004005432,10|0,0:0|1:0,0:0:0:0:
0,172,33399,6,0,B|71:194|19:212|111:241,1,105.000004005432,2|0,1:3|1:0,0:0:0:0:
95,225,33561,1,10,0:0:0:0:
24,363,33723,5,2,1:3:0:0:
24,363,33804,1,2,1:3:0:0:
24,363,33885,1,10,0:0:0:0:
0,304,33967,1,2,1:3:0:0:
38,255,34048,1,2,1:3:0:0:
100,263,34129,1,2,1:3:0:0:
135,321,34210,70,0,P|203:336|305:380,1,157.500006008148,10|0,1:3|0:0,0:0:0:0:
294,362,34372,2,0,P|318:304|350:252,1,105.000004005432,2|0,1:3|1:0,0:0:0:0:
270,164,34534,6,0,P|225:177|213:229,2,97.9999970092774,2|2|2,1:3|1:3|1:3,0:0:0:0:
270,164,35183,6,0,P|279:123|294:77,1,84,4|0,0:0|0:0,0:0:0:0:
224,25,35507,6,0,B|323:54|262:68|373:101,1,167.999994873047,12|8,0:0|0:2,0:0:0:0:
462,77,35994,2,0,P|451:117|443:158,2,83.9999974365235,2|10|2,1:3|0:0|1:3,0:0:0:0:
405,16,36480,1,8,0:2:0:0:
343,96,36642,70,0,P|353:136|361:177,1,83.9999974365235,2|8,1:3|0:0,0:0:0:0:
361,177,36967,2,0,P|401:166|442:158,1,83.9999974365235,2|8,1:3|0:2,0:0:0:0:
410,330,37291,6,0,P|420:289|428:248,1,83.9999974365235,2|8,1:3|0:0,0:0:0:0:
428,249,37616,2,0,P|468:259|509:267,1,83.9999974365235,10|8,0:0|0:2,0:0:0:0:
496,356,37940,1,2,1:3:0:0:
338,288,38102,6,0,B|229:320|290:334|190:363,1,167.999994873047,8|8,0:0|0:2,0:0:0:0:
114,320,38588,2,0,P|105:278|94:238,2,83.9999974365235,2|10|2,1:3|0:0|1:3,0:0:0:0:
187,258,39075,1,8,0:2:0:0:
27,187,39237,6,0,P|35:145|46:105,1,83.9999974365235,2|8,1:3|0:0,0:0:0:0:
46,105,39561,2,0,P|87:113|127:124,1,83.9999974365235,2|8,1:3|0:2,0:0:0:0:
187,0,39886,70,0,P|195:41|206:81,1,83.9999974365235,2|8,1:3|0:0,0:0:0:0:
206,82,40210,2,0,P|247:73|287:62,1,83.9999974365235,10|8,0:0|0:2,0:0:0:0:
266,152,40534,1,2,1:3:0:0:
367,124,40696,6,0,P|346:193|325:300,1,167.999994873047,8|8,0:0|0:2,0:0:0:0:
413,310,41345,6,0,P|434:241|455:134,1,167.999994873047,8|8,0:0|0:2,0:0:0:0:
367,124,41994,6,0,P|346:193|325:300,1,167.999994873047,8|8,0:0|0:2,0:0:0:0:
326,286,42642,69,8,0:0:0:0:
350,367,42805,1,10,0:0:0:0:
265,345,42967,2,0,P|225:355|167:375,1,83.9999974365235,10|2,0:2|1:3,0:0:0:0:
320,274,43291,6,0,P|401:253|481:227,1,167.999994873047,8|8,0:0|0:2,0:0:0:0:
455,140,43940,6,0,P|373:160|293:186,1,167.999994873047,8|8,0:0|0:2,0:0:0:0:
320,274,44588,6,0,P|401:253|481:227,1,167.999994873047,8|8,0:0|0:2,0:0:0:0:
481,226,45237,69,8,0:0:0:0:
463,145,45399,1,8,0:0:0:0:
400,201,45561,1,8,0:2:0:0:
214,93,45886,6,0,P|166:106|120:122,2,83.9999974365235,12|0|8,0:0|2:0|0:2,0:0:0:0:
148,13,46372,5,2,2:0:0:0:
148,13,46534,1,8,0:0:0:0:
148,13,46696,2,0,P|108:26|67:36,1,83.9999974365235,2|8,2:0|0:2,0:0:0:0:
12,153,47021,6,0,P|25:192|35:233,1,83.9999974365235,2|8,2:0|0:0,0:0:0:0:
35,233,47345,2,0,P|74:219|115:209,1,83.9999974365235,2|8,2:0|0:2,0:0:0:0:
198,369,47669,70,0,P|211:329|221:288,1,83.9999974365235,2|8,2:0|0:0,0:0:0:0:
221,289,47993,2,0,P|260:302|301:312,1,83.9999974365235,10|8,2:3|0:2,0:0:0:0:
372,253,48318,1,2,2:0:0:0:
479,357,48480,6,0,P|433:352|419:305,1,83.9999974365235,8|0,0:0|2:0,0:0:0:0:
372,253,48805,2,0,P|385:208|434:204,1,83.9999974365235,8|2,0:2|2:0,0:0:0:0:
480,116,49129,5,8,0:0:0:0:
480,116,49291,2,0,P|431:105|382:88,1,83.9999974365235,2|8,2:0|0:2,0:0:0:0:
204,0,49615,6,0,P|163:12|122:21,1,83.9999974365235,2|8,2:0|0:0,0:0:0:0:
122,21,49940,2,0,P|134:61|143:102,1,83.9999974365235,2|8,2:0|0:2,0:0:0:0:
242,214,50264,70,0,P|282:201|323:192,1,83.9999974365235,2|8,2:0|0:0,0:0:0:0:
324,193,50589,2,0,P|311:152|302:111,1,83.9999974365235,10|8,2:3|0:2,0:0:0:0:
218,130,50913,1,2,2:0:0:0:
23,266,51075,6,0,P|44:315|59:373,1,83.9999974365235,8|0,0:0|2:0,0:0:0:0:
138,308,51399,2,0,P|117:259|102:201,1,83.9999974365235,8|0,0:2|2:0,0:0:0:0:
23,266,51723,6,0,P|44:315|59:373,1,83.9999974365235,8|0,0:0|2:0,0:0:0:0:
138,308,52047,2,0,P|117:259|102:201,1,83.9999974365235,8|0,0:2|2:0,0:0:0:0:
345,301,52372,6,0,P|324:350|309:408,1,83.9999974365235,8|0,0:0|2:0,0:0:0:0:
230,343,52696,2,0,P|251:294|266:236,1,83.9999974365235,8|0,0:2|2:0,0:0:0:0:
345,301,53021,1,8,0:0:0:0:
345,301,53183,1,10,2:3:0:0:
345,301,53345,2,0,P|324:350|309:408,1,83.9999974365235,10|2,0:2|2:0,0:0:0:0:
427,239,53669,69,8,0:0:0:0:
427,239,53832,1,2,2:0:0:0:
427,239,53994,2,0,P|476:220|484:183,1,83.9999974365235,8|2,0:2|2:0,0:0:0:0:
369,68,54318,5,8,0:0:0:0:
369,68,54480,1,0,2:0:0:0:
369,68,54642,2,0,P|388:107|402:148,1,83.9999974365235,8|0,0:2|2:0,0:0:0:0:
464,30,54967,5,8,0:0:0:0:
464,30,55129,1,0,2:0:0:0:
464,30,55291,2,0,P|483:69|497:110,1,83.9999974365235,8|0,0:2|2:0,0:0:0:0:
299,312,55615,5,8,0:0:0:0:
299,312,55777,1,8,0:2:0:0:
299,312,55859,1,8,0:2:0:0:
299,312,55940,2,0,P|305:292|315:273,1,41.9999987182618,8|0,0:2|0:0,0:0:0:0:
232,241,56102,2,0,P|225:260|215:279,1,41.9999987182618,8|0,0:2|0:0,0:0:0:0:
239,372,56264,70,0,B|352:340|280:333|396:296,1,167.999994873047,12|8,0:0|0:2,0:0:0:0:
451,209,56750,1,2,2:0:0:0:
365,143,56913,1,8,0:0:0:0:
433,222,57075,2,0,P|479:234|523:252,1,83.9999974365235,2|8,2:0|0:2,0:0:0:0:
464,37,57399,6,0,P|424:51|384:62,1,83.9999974365235,2|8,2:0|0:0,0:0:0:0:
384,62,57723,2,0,P|398:101|409:141,1,83.9999974365235,2|8,2:0|0:2,0:0:0:0:
297,229,58048,6,0,P|257:214|217:203,1,83.9999974365235,2|8,2:0|0:0,0:0:0:0:
217,204,58372,2,0,P|231:164|242:124,1,83.9999974365235,10|8,2:3|0:2,0:0:0:0:
123,23,58696,1,2,2:0:0:0:
58,110,58859,6,0,P|87:172|122:281,1,167.999994873047,8|8,0:0|0:2,0:0:0:0:
53,343,59345,1,2,2:0:0:0:
148,371,59507,1,8,0:0:0:0:
218,296,59669,2,0,P|259:303|300:313,1,83.9999974365235,2|8,2:0|0:2,0:0:0:0:
331,139,59994,70,0,P|289:131|248:121,1,83.9999974365235,2|8,2:0|0:0,0:0:0:0:
248,121,60318,2,0,P|240:162|230:203,1,83.9999974365235,2|8,2:0|0:2,0:0:0:0:
456,343,60642,6,0,P|414:350|373:360,1,83.9999974365235,2|8,2:0|0:0,0:0:0:0:
373,361,60966,2,0,P|365:319|355:278,1,83.9999974365235,10|8,2:3|0:2,0:0:0:0:
455,246,61291,1,2,2:0:0:0:
363,20,61453,6,0,P|369:89|389:197,1,167.999994873047,8|8,0:0|0:2,0:0:0:0:
386,186,61940,1,0,2:0:0:0:
454,116,62102,1,8,0:0:0:0:
358,94,62264,2,0,P|317:106|277:118,1,83.9999974365235,0|8,2:0|0:2,0:0:0:0:
249,299,62588,2,0,P|289:286|329:274,1,83.9999974365235,0|8,2:0|0:0,0:0:0:0:
329,274,62913,1,0,2:0:0:0:
263,207,63075,5,8,0:2:0:0:
188,359,63237,1,0,2:0:0:0:
272,384,63399,1,8,0:0:0:0:
183,242,63561,2,0,P|170:201|152:164,1,83.9999974365235,10|10,2:3|0:2,0:0:0:0:
232,129,63886,2,0,P|244:169|262:206,1,83.9999974365235,2|8,2:0|0:0,0:0:0:0:
262,206,64372,69,8,0:2:0:0:
346,213,64534,1,0,2:0:0:0:
415,267,64696,1,8,0:0:0:0:
438,342,64859,2,0,P|453:302|470:264,1,83.9999974365235,0|8,2:0|0:2,0:0:0:0:
429,179,65183,2,0,P|446:140|461:101,1,83.9999974365235,0|8,2:0|0:0,0:0:0:0:
461,101,65507,1,0,2:0:0:0:
417,32,65669,1,8,0:2:0:0:
209,119,65994,5,8,0:0:0:0:
256,191,66156,1,8,2:3:0:0:
303,119,66318,1,8,0:2:0:0:
127,15,66642,6,0,P|104:95|76:175,1,167.999994873047,12|8,0:0|0:2,0:0:0:0:
0,222,67129,1,2,2:0:0:0:
46,300,67291,1,2,1:3:0:0:
128,250,67453,2,0,P|174:243|231:239,1,83.9999974365235,2|8,2:0|0:2,0:0:0:0:
268,164,67777,6,0,P|261:118|257:61,1,83.9999974365235,2|0,2:0|1:0,0:0:0:0:
257,80,68102,2,0,P|211:87|154:91,1,83.9999974365235,2|8,2:0|0:2,0:0:0:0:
128,250,68426,70,0,P|135:296|139:353,1,83.9999974365235,2|0,2:0|1:0,0:0:0:0:
139,334,68751,2,0,P|185:327|242:323,1,83.9999974365235,2|8,2:0|0:2,0:0:0:0:
276,257,69075,1,2,2:0:0:0:
458,290,69237,6,0,P|376:297|329:363,1,167.999994873047,2|8,1:3|0:2,0:0:0:0:
424,377,69723,1,2,2:0:0:0:
458,290,69886,1,2,1:3:0:0:
372,242,70048,2,0,P|362:192|347:137,1,83.9999974365235,2|8,2:0|0:2,0:0:0:0:
469,4,70372,6,0,P|476:45|487:85,1,83.9999974365235,2|0,2:0|1:0,0:0:0:0:
487,85,70696,2,0,P|445:92|405:103,1,83.9999974365235,2|8,2:0|0:2,0:0:0:0:
234,108,71021,6,0,P|226:66|215:26,1,83.9999974365235,2|0,2:0|1:0,0:0:0:0:
216,27,71345,2,0,P|257:19|297:8,1,83.9999974365235,2|8,2:0|0:2,0:0:0:0:
322,91,71669,1,2,2:0:0:0:
222,203,71832,70,0,L|180:192,3,41.9999987182618,2|2|2|2,1:3|1:3|2:0|1:3,0:0:0:0:
222,203,72156,2,0,L|211:245,1,41.9999987182618,10|2,0:2|1:3,0:0:0:0:
222,203,72318,2,0,L|264:214,1,41.9999987182618,2|2,2:0|1:3,0:0:0:0:
222,203,72480,2,0,L|233:161,1,41.9999987182618,2|2,1:3|1:3,0:0:0:0:
109,309,72642,6,0,L|120:351,3,41.9999987182618,2|2|10|2,2:0|1:3|0:2|1:3,0:0:0:0:
109,309,72967,6,0,L|98:267,5,41.9999987182618,2|2|2|2|2|2,2:0|1:3|1:3|1:3|2:0|1:3,0:0:0:0:
109,309,73453,6,0,L|67:320,7,41.9999987182618,10|2|2|2|2|2|2|2,0:2|1:3|2:0|1:3|1:3|1:3|2:0|1:3,0:0:0:0:
109,309,74102,70,0,L|151:298,3,41.9999987182618,10|2|2|2,0:2|1:3|2:0|1:3,0:0:0:0:
295,344,74426,6,0,L|284:386,3,41.9999987182618,2|2|2|2,1:3|1:3|2:0|1:3,0:0:0:0:
295,344,74750,2,0,L|337:355,1,41.9999987182618,10|2,0:2|1:3,0:0:0:0:
295,344,74912,2,0,L|306:302,1,41.9999987182618,2|2,2:0|1:3,0:0:0:0:
295,344,75074,2,0,L|253:333,1,41.9999987182618,2|2,1:3|1:3,0:0:0:0:
395,135,75237,6,0,L|384:93,3,41.9999987182618,2|2|10|2,2:0|1:3|0:2|1:3,0:0:0:0:
395,135,75562,6,0,L|406:177,5,41.9999987182618,2|2|2|2|2|2,2:0|1:3|1:3|1:3|2:0|1:3,0:0:0:0:
395,135,76048,70,0,L|437:124,5,41.9999987182618,10|2|2|2|2|2,1:2|1:3|2:0|1:3|1:3|1:3,0:0:0:0:
395,135,76534,5,10,0:2:0:0:
395,135,76615,1,10,0:2:0:0:
395,135,76697,2,0,L|353:146,1,41.9999987182618,10|2,0:2|1:3,0:0:0:0:
362,283,76859,2,0,L|320:294,1,41.9999987182618,10|2,0:2|1:3,0:0:0:0:
374,290,77021,37,6,1:3:0:0:
36,356,82210,118,0,L|42:378,3,14,8|0|0|0,0:0|0:0|0:0|0:0,0:0:0:0:
110,334,82534,6,0,L|116:356,3,14,8|0|0|0,0:0|0:0|0:0|0:0,0:0:0:0:
184,312,82859,6,0,L|190:334,3,14,8|0|0|0,0:0|0:0|0:0|0:0,0:0:0:0:
258,290,83182,6,0,L|264:312,3,14,8|0|0|0,0:0|0:0|0:0|0:0,0:0:0:0:
332,268,83507,70,0,L|338:290,3,14,8|0|0|0,0:0|0:0|0:0|0:0,0:0:0:0:
400,243,83831,6,0,L|406:265,3,14,8|0|0|0,0:0|0:0|0:0|0:0,0:0:0:0:
474,221,84156,6,0,L|480:243,3,14,8|0|0|0,0:0|0:0|0:0|0:0,0:0:0:0:
477,234,84480,6,0,L|473:247,3,14,8|0|0|0,0:0|0:0|0:0|0:0,0:0:0:0:
403,212,84804,70,0,L|399:225,3,14,8|0|0|0,0:0|0:0|0:0|0:0,0:0:0:0:
329,190,85129,6,0,L|325:203,3,14,8|0|0|0,0:0|0:0|0:0|0:0,0:0:0:0:
254,168,85452,6,0,L|250:181,3,14,8|0|0|0,0:0|0:0|0:0|0:0,0:0:0:0:
180,146,85777,6,0,L|176:159,3,14,8|0|0|0,0:0|0:0|0:0|0:0,0:0:0:0:
112,121,86101,70,0,L|108:134,3,14,8|0|0|0,0:0|0:0|0:0|0:0,0:0:0:0:
38,99,86426,6,0,L|34:112,3,14,8|0|0|0,0:0|0:0|0:0|0:0,0:0:0:0:
38,99,86750,6,0,L|41:85,3,14,8|0|0|0,0:0|0:0|0:0|0:0,0:0:0:0:
165,224,87075,6,0,L|150:230,1,14,8|0,0:0|0:0,0:0:0:0:
346,159,87237,2,0,L|361:153,1,14,8|0,0:0|0:0,0:0:0:0:
210,371,87399,70,0,L|205:384,3,14,8|0|0|0,0:0|0:0|0:0|0:0,0:0:0:0:
289,328,87723,6,0,L|284:341,3,14,8|0|0|0,0:0|0:0|0:0|0:0,0:0:0:0:
224,270,88048,6,0,L|219:283,3,14,8|0|0|0,0:0|0:0|0:0|0:0,0:0:0:0:
303,227,88372,6,0,L|298:240,3,14,8|0|0|0,0:0|0:0|0:0|0:0,0:0:0:0:
238,169,88696,70,0,L|233:182,3,14,8|0|0|0,0:0|0:0|0:0|0:0,0:0:0:0:
317,126,89021,6,0,L|312:139,3,14,8|0|0|0,0:0|0:0|0:0|0:0,0:0:0:0:
252,68,89345,6,0,L|247:81,3,14,8|0|0|0,0:0|0:0|0:0|0:0,0:0:0:0:
331,25,89669,6,0,L|326:38,3,14,8|0|0|0,0:0|0:0|0:0|0:0,0:0:0:0:
326,38,89994,70,0,L|307:44,3,14,8|0|0|0,0:0|0:0|0:0|0:0,0:0:0:0:
181,124,90318,6,0,L|198:133,3,14,8|0|0|0,0:0|0:0|0:0|0:0,0:0:0:0:
290,217,90642,6,0,L|284:232,3,14,8|0|0|0,0:0|0:0|0:0|0:0,0:0:0:0:
229,287,90967,6,0,L|235:302,3,14,8|0|0|0,0:0|0:0|0:0|0:0,0:0:0:0:
257,341,91291,70,0,L|261:319,3,14,8|0|0|0,0:0|0:0|0:0|0:0,0:0:0:0:
263,349,91615,6,0,L|276:351,3,14,8|0|0|0,0:0|0:0|0:0|0:0,0:0:0:0:
254,353,91940,6,0,L|250:375,3,14,8|0|0|0,0:0|0:0|0:0|0:0,0:0:0:0:
248,345,92264,6,0,L|234:342,3,14,8|0|0|0,0:0|0:0|0:0|0:0,0:0:0:0:
277,271,92588,69,10,0:0:0:0:
336,213,92750,1,10,0:2:0:0:
325,194,92831,1,2,0:0:0:0:
317,175,92912,1,10,0:0:0:0:
311,155,92993,1,2,1:3:0:0:
309,134,93074,1,10,0:2:0:0:
419,232,93237,5,14,0:0:0:0:
195,175,93399,1,10,0:2:0:0:
217,137,93480,1,2,0:0:0:0:
233,99,93561,1,10,0:0:0:0:
245,59,93642,1,2,1:3:0:0:
249,17,93723,1,10,0:2:0:0:
249,17,93886,6,0,P|183:36|137:46,1,112,10|10,0:0|0:2,0:0:0:0:
140,45,94129,1,0,0:0:0:0:
140,45,94210,2,0,P|148:71|155:98,2,56,10|2|10,0:0|1:3|0:2,0:0:0:0:
0,199,94534,5,14,0:0:0:0:
55,193,94615,1,2,1:3:0:0:
104,167,94696,1,10,0:2:0:0:
112,221,94777,1,2,0:0:0:0:
141,269,94859,1,10,0:0:0:0:
43,298,95021,1,8,0:2:0:0:
122,371,95183,70,0,P|179:354|262:336,1,112,10|10,0:0|0:2,0:0:0:0:
313,267,95507,5,10,0:0:0:0:
337,247,95588,1,2,1:3:0:0:
329,216,95669,1,10,0:2:0:0:
208,150,95832,5,14,0:0:0:0:
184,170,95913,1,2,1:3:0:0:
192,201,95994,2,0,P|227:210|260:225,1,56,10|0,0:2|0:0,0:0:0:0:
393,147,96156,6,0,P|413:95|438:42,1,112,10|8,0:0|0:2,0:0:0:0:
281,2,96399,69,0,0:0:0:0:
281,2,96480,2,0,P|284:59|339:77,1,112,10|10,0:0|0:2,0:0:0:0:
496,217,96805,5,10,0:0:0:0:
468,222,96886,1,2,1:3:0:0:
442,231,96967,1,10,0:2:0:0:
416,243,97048,1,0,0:0:0:0:
392,257,97129,1,14,0:0:0:0:
460,384,97291,5,10,0:2:0:0:
495,354,97372,1,2,0:0:0:0:
484,308,97453,1,10,0:0:0:0:
392,257,97615,6,0,P|383:230|372:204,1,56,8|0,0:2|0:0,0:0:0:0:
443,144,97777,69,10,0:0:0:0:
443,144,97859,2,0,P|432:118|424:91,1,56,2|8,1:3|0:2,0:0:0:0:
358,30,98021,5,2,0:0:0:0:
358,30,98102,1,10,0:0:0:0:
310,37,98183,1,2,1:3:0:0:
284,0,98264,1,10,0:2:0:0:
230,113,98426,6,0,P|176:129|119:152,1,112,14|10,0:0|0:2,0:0:0:0:
125,150,98669,1,2,0:0:0:0:
125,150,98750,1,10,0:0:0:0:
91,29,98913,2,0,P|118:33|138:52,1,56,8|0,0:2|0:0,0:0:0:0:
237,203,99075,5,10,0:0:0:0:
237,203,99156,1,2,1:3:0:0:
237,203,99237,2,0,P|264:198|284:179,1,56,8|2,0:2|0:0,0:0:0:0:
69,344,99399,1,10,0:0:0:0:
60,339,99480,2,0,P|40:282|7:220,1,112,2|2,1:3|0:0,0:0:0:0:
89,187,99723,69,14,0:0:0:0:
98,192,99804,2,0,P|118:249|151:311,1,112,2|0,1:3|0:0,0:0:0:0:
134,375,100048,1,10,0:0:0:0:
134,375,100210,1,8,0:2:0:0:
311,279,100372,6,0,B|386:260|339:244|426:226,1,112,10|10,0:0|0:2,0:0:0:0:
409,229,100615,1,2,0:0:0:0:
409,229,100696,2,0,P|415:192|424:161,2,56,10|2|10,0:0|1:3|0:2,0:0:0:0:
344,61,101021,5,14,0:0:0:0:
375,72,101102,1,0,1:3:0:0:
407,83,101183,1,10,0:2:0:0:
439,94,101264,1,2,0:0:0:0:
470,105,101345,1,10,0:0:0:0:
502,116,101426,1,2,1:3:0:0:
247,108,101669,6,0,P|230:132|198:129,1,56,10|0,0:0|1:3,0:0:0:0:
142,74,101832,2,0,P|129:47|148:21,1,56,10|0,0:2|0:0,0:0:0:0:
223,0,101994,2,0,P|252:2|265:31,1,56,10|0,0:0|1:3,0:0:0:0:
264,232,102156,69,10,0:2:0:0:
264,232,102237,1,2,0:0:0:0:
264,232,102318,1,14,0:0:0:0:
253,257,102399,1,2,1:3:0:0:
243,284,102480,1,10,0:2:0:0:
235,310,102561,1,2,0:0:0:0:
228,338,102642,2,0,P|210:306|144:303,1,83.9999974365235,10|2,0:0|1:3,0:0:0:0:
119,200,102805,6,0,B|105:251|98:221|84:277,3,83.9999974365235,8|2|10|0,0:2|0:0|0:0|1:3,0:0:0:0:
38,151,103129,6,0,B|26:108|20:133|9:87,2,70,10|2|8,0:2|0:0|0:0,0:0:0:0:
48,162,103372,6,0,B|36:204|30:179|19:225,2,70,2|10|0,1:3|0:2|0:0,0:0:0:0:
59,146,103615,70,0,B|92:136|72:132|109:122,2,56,14|2|8,0:0|1:3|0:2,0:0:0:0:
51,167,103859,6,0,B|17:157|37:153|0:143,2,56,2|10|0,0:0|0:0|1:3,0:0:0:0:
51,167,104102,6,0,L|74:103,2,56,10|2|8,0:2|0:0|0:0,0:0:0:0:
51,167,104345,6,0,L|28:231,2,56,2|10|0,1:3|0:2|0:0,0:0:0:0:
51,167,104588,70,0,L|92:145,2,41.9999987182618,10|2|8,0:0|1:3|0:2,0:0:0:0:
51,167,104831,6,0,L|9:188,2,41.9999987182618,2|14|0,0:0|0:0|1:3,0:0:0:0:
51,167,105075,6,0,L|73:178,2,20.9999993591309,10|2|8,0:2|0:0|0:0,0:0:0:0:
51,167,105318,6,0,L|28:154,2,20.9999993591309,2|10|0,1:3|0:2|0:0,0:0:0:0:
51,167,105561,69,8,0:0:0:0:
61,53,105723,5,8,0:2:0:0:
61,53,105805,1,0,0:0:0:0:
61,53,105886,1,8,0:0:0:0:
141,73,106048,5,8,0:2:0:0:
141,73,106130,1,8,2:0:0:0:
141,73,106211,2,0,L|153:25,3,28,12|0|8|0,0:0|1:3|0:2|0:0,0:0:0:0:
133,188,106534,5,8,0:0:0:0:
149,183,106615,1,0,1:3:0:0:
165,180,106696,1,8,0:2:0:0:
181,176,106777,1,0,0:0:0:0:
198,155,106859,69,8,0:0:0:0:
214,150,106940,1,0,1:3:0:0:
230,147,107021,1,8,0:2:0:0:
246,143,107102,1,0,0:0:0:0:
263,122,107183,5,8,0:0:0:0:
279,117,107264,1,0,1:3:0:0:
295,114,107345,1,8,0:2:0:0:
311,110,107426,1,0,0:0:0:0:
356,44,107507,6,0,L|330:33,3,28,12|2|10|2,0:0|1:3|0:2|0:0,0:0:0:0:
464,193,107832,6,0,L|489:203,3,28,10|2|10|0,0:0|1:3|0:2|0:0,0:0:0:0:
359,300,108156,101,10,2:3:0:0:
375,313,108237,1,2,2:3:0:0:
359,280,108318,1,10,2:2:0:0:
373,293,108399,1,2,2:3:0:0:
348,298,108480,1,10,2:3:0:0:
367,308,108561,1,2,2:3:0:0:
365,290,108642,1,10,2:2:0:0:
351,313,108723,1,2,2:3:0:0:
354,291,108805,1,14,2:3:0:0:
366,305,108886,1,2,2:3:0:0:
366,291,108967,1,10,2:2:0:0:
350,307,109048,1,2,2:3:0:0:
367,311,109129,1,10,2:3:0:0:
353,293,109210,1,2,2:3:0:0:
350,316,109291,1,10,2:2:0:0:
365,300,109372,1,2,2:3:0:0:
391,344,109453,6,0,L|383:370,1,28,8|0,2:3|2:3,0:0:0:0:
256,306,109615,69,8,2:2:0:0:
256,306,109696,1,0,2:3:0:0:
256,306,109777,2,0,L|248:332,1,28,8|0,2:3|2:3,0:0:0:0:
121,268,109940,5,8,2:2:0:0:
121,268,110021,1,0,2:3:0:0:
121,268,110102,2,0,L|113:294,1,28,12|0,2:3|2:3,0:0:0:0:
65,361,110264,5,8,2:2:0:0:
52,364,110345,1,0,2:3:0:0:
40,368,110426,2,0,L|29:348,3,14,8|0|8|0,2:3|2:3|2:2|2:3,0:0:0:0:
26,349,110750,6,0,L|12:308,3,28,8|0|8|0,2:3|2:3|2:2|2:3,0:0:0:0:
121,268,111075,70,0,L|67:241,3,41.9999987182618,8|0|8|0,2:3|2:3|2:2|2:3,0:0:0:0:
117,123,111399,6,0,L|60:142,3,56,12|0|8|0,2:3|2:3|2:2|2:3,0:0:0:0:
59,152,111723,6,0,L|158:121,1,70,8|0,2:3|2:3,0:0:0:0:
148,2,111886,5,8,2:2:0:0:
148,2,111967,1,0,2:3:0:0:
148,2,112048,2,0,L|224:72,1,70,8|0,2:3|2:3,0:0:0:0:
322,4,112210,69,8,2:2:0:0:
322,4,112291,1,0,2:3:0:0:
322,4,112372,2,0,L|299:105,1,70,8|0,2:3|2:3,0:0:0:0:
246,270,112534,6,0,L|237:243,1,28,10|0,2:2|2:3,0:0:0:0:
178,193,112696,6,0,B|193:170|194:147|194:147|211:162|258:167,1,97.9999970092774,14|0,2:3|2:3,0:0:0:0:
333,325,112859,2,0,B|348:348|349:371|349:371|366:356|413:351,1,97.9999970092774,10|0,2:2|2:3,0:0:0:0:
478,155,113021,6,0,P|481:142|488:131,2,26.2500010013581,10|0|0,2:3|2:3|2:3,0:0:0:0:
392,87,113183,70,0,P|399:97|403:110,2,26.2500010013581,10|0|0,2:2|2:3|2:3,0:0:0:0:
407,215,113345,54,0,P|452:235|514:282,1,112,14|0,0:0|0:0,0:0:0:0:
348,15,113507,2,0,P|302:48|252:71,1,112,14|0,0:0|0:0,0:0:0:0:
189,170,113832,6,0,B|171:223|171:223|223:273,1,112,14|0,0:0|0:0,0:0:0:0:
307,234,114156,6,0,B|325:181|325:181|273:131,1,112,14|0,0:0|0:0,0:0:0:0:
11,311,114480,6,0,B|58:328|58:328|64:343|64:343|127:366,1,112,14|0,0:0|0:0,0:0:0:0:
166,301,114642,69,0,0:0:0:0:
162,287,114723,1,0,0:0:0:0:
158,273,114804,1,0,0:0:0:0:
155,260,114885,1,0,0:0:0:0:
127,233,114967,5,0,0:0:0:0:
130,220,115048,1,0,0:0:0:0:
134,206,115129,1,0,0:0:0:0:
138,192,115210,1,0,0:0:0:0:
157,170,115291,5,0,0:0:0:0:
154,157,115372,1,0,0:0:0:0:
151,144,115453,6,0,L|112:129,1,41.9999987182618,2|0,0:0|0:0,0:0:0:0:
95,51,115615,2,0,L|56:36,1,41.9999987182618,2|0,0:0|0:0,0:0:0:0:
199,2,115777,2,0,L|184:41,1,41.9999987182618,2|0,0:0|0:0,0:0:0:0:
186,231,115940,70,0,B|219:223|219:223|233:205|233:205|306:184,1,112,14|0,0:0|0:0,0:0:0:0:
350,52,116102,2,0,B|383:44|383:44|397:26|397:26|470:5,1,112,14|0,0:0|0:0,0:0:0:0:
479,305,116426,6,0,B|427:328|427:328|395:269,1,112,14|0,0:0|0:0,0:0:0:0:
259,107,116750,6,0,B|207:84|207:84|175:143,1,112,14|0,0:0|0:0,0:0:0:0:
85,206,117075,6,0,B|151:228|103:250|170:273,1,112,14|0,0:0|0:0,0:0:0:0:
233,222,117237,69,0,0:0:0:0:
233,222,117318,1,0,0:0:0:0:
233,222,117399,2,0,L|247:178,1,28,0|0,0:0|0:0,0:0:0:0:
180,132,117561,5,0,0:0:0:0:
177,123,117642,1,0,0:0:0:0:
175,114,117723,1,0,0:0:0:0:
173,105,117804,1,0,0:0:0:0:
170,96,117885,1,0,0:0:0:0:
168,87,117966,1,0,0:0:0:0:
166,78,118048,2,0,L|179:32,1,28,2|0,0:0|0:0,0:0:0:0:
32,22,118210,6,0,P|56:71|73:125,1,112,14|0,0:0|0:0,0:0:0:0:
233,222,118372,2,0,P|208:271|191:325,1,112,14|0,0:0|0:0,0:0:0:0:
55,297,118534,6,0,P|89:239|143:250,1,112,14|0,0:0|0:0,0:0:0:0:
249,114,118696,2,0,P|301:121|321:171,1,112,14|0,0:0|0:0,0:0:0:0:
386,363,119021,70,0,P|438:342|491:325,1,112,14|0,0:0|0:0,0:0:0:0:
462,241,119345,6,0,P|408:258|356:277,1,112,14|0,0:0|0:0,0:0:0:0:
90,145,119669,6,0,P|143:161|195:182,1,112,14|0,0:0|0:0,0:0:0:0:
249,114,119832,6,0,L|263:66,3,28,0|0|0|0,0:0|0:0|0:0|0:0,0:0:0:0:
187,45,120156,69,0,0:0:0:0:
185,38,120237,1,0,0:0:0:0:
183,31,120318,1,0,0:0:0:0:
181,24,120399,1,0,0:0:0:0:
179,18,120480,1,0,0:0:0:0:
112,154,120642,6,0,P|98:154|89:144,1,28,2|0,0:0|0:0,0:0:0:0:
26,97,120805,6,0,P|33:45|96:45,1,112,14|0,0:0|0:0,0:0:0:0:
217,200,120967,2,0,P|191:242|172:305,1,112,14|0,0:0|0:0,0:0:0:0:
117,367,121129,6,0,B|45:346|102:325|28:304,1,112,14|0,0:0|0:0,0:0:0:0:
286,255,121291,2,0,B|355:227|296:212|366:184,1,112,14|0,0:0|0:0,0:0:0:0:
405,111,121615,70,0,P|416:72|392:104,1,112,14|0,0:0|0:0,0:0:0:0:
399,262,121940,6,0,P|454:282|517:323,1,112,14|0,0:0|0:0,0:0:0:0:
311,44,122264,6,0,P|287:12|298:50,1,112,14|0,0:0|0:0,0:0:0:0:
221,194,122426,6,0,P|229:205|234:217,3,28
298,156,122750,70,0,P|289:144|284:132,4,28
396,293,123237,6,0,L|388:319,1,28,2|0,0:0|0:0,0:0:0:0:
429,384,123399,6,0,L|307:350,1,112,6|0,0:2|0:0,0:0:0:0:
247,333,123561,2,0,L|125:299,1,112,6|0,0:2|0:0,0:0:0:0:
42,271,123723,6,0,B|91:256|57:239|112:221,1,83.9999974365235,14|0,0:0|1:0,0:0:0:0:
56,353,123886,2,0,P|32:272|0:195,1,167.999994873047,10|8,1:2|0:0,0:0:0:0:
50,39,124210,69,10,3:2:0:0:
101,17,124291,1,0,0:0:0:0:
125,67,124372,1,8,0:0:0:0:
220,99,124534,6,0,B|171:114|205:131|150:149,1,83.9999974365235,10|0,1:2|1:0,0:0:0:0:
65,121,124696,1,8,0:0:0:0:
201,9,124859,6,0,P|238:21|291:31,1,83.9999974365235,10|0,1:2|1:0,0:0:0:0:
370,139,125021,6,0,B|332:194|340:263|340:263|307:185|232:170,1,251.999992309571,8|0,0:0|1:0,0:0:0:0:
251,184,125345,2,0,P|332:204|423:238,1,167.999994873047,8|8,0:0|0:2,0:0:0:0:
411,232,125588,1,0,0:0:0:0:
411,232,125669,1,8,0:0:0:0:
468,152,125832,70,0,P|472:114|428:85,1,83.9999974365235,10|0,1:2|1:0,0:0:0:0:
406,12,125994,2,0,P|368:8|339:52,1,83.9999974365235,10|0,0:0|0:0,0:0:0:0:
251,184,126156,2,0,P|268:219|282:270,1,83.9999974365235,10|0,0:2|0:0,0:0:0:0:
372,366,126318,6,0,P|412:350|421:304,1,83.9999974365235,10|0,0:0|1:0,0:0:0:0:
411,232,126480,2,0,P|322:274|242:332,1,167.999994873047,10|8,1:2|0:0,0:0:0:0:
60,368,126805,5,10,3:2:0:0:
48,327,126886,1,0,0:0:0:0:
31,289,126967,1,8,0:0:0:0:
153,314,127129,6,0,P|164:276|189:221,1,83.9999974365235,10|0,1:2|1:0,0:0:0:0:
112,102,127291,69,8,0:0:0:0:
112,102,127453,2,0,P|95:71|33:82,1,83.9999974365235,10|0,1:2|1:0,0:0:0:0:
45,181,127615,6,0,P|132:128|322:92,1,251.999992309571,8|0,0:0|1:0,0:0:0:0:
349,22,127940,6,0,L|344:39,6,17.5,8|0|0|0|8|0|0,0:0|1:0|1:0|1:0|0:2|1:0|0:0,0:0:0:0:
371,118,128264,5,8,0:0:0:0:
371,118,128426,2,0,P|415:130|467:155,1,83.9999974365235,10|0,1:2|1:0,0:0:0:0:
501,79,128588,69,10,0:0:0:0:
512,33,128669,1,0,0:0:0:0:
467,8,128750,1,10,0:2:0:0:
415,218,128913,6,0,P|398:241|423:221,1,83.9999974365235,10|0,0:0|1:0,0:0:0:0:
501,273,129075,2,0,P|423:297|341:347,1,167.999994873047,10|8,1:2|0:0,0:0:0:0:
255,280,129399,5,10,3:2:0:0:
244,234,129480,1,0,0:0:0:0:
289,209,129561,1,8,0:0:0:0:
254,379,129723,6,0,P|217:357|179:340,1,83.9999974365235,10|0,1:2|1:0,0:0:0:0:
155,213,129886,69,8,0:0:0:0:
155,213,130048,2,0,P|116:196|80:174,1,83.9999974365235,10|0,1:2|1:0,0:0:0:0:
28,248,130210,5,8,0:0:0:0:
28,248,130291,1,0,1:0:0:0:
28,248,130372,2,0,L|40:292,1,41.9999987182618,8|0,1:2|1:0,0:0:0:0:
156,120,130534,5,8,0:0:0:0:
156,120,130615,1,0,1:0:0:0:
156,120,130696,2,0,L|168:76,1,41.9999987182618,8|0,0:2|0:0,0:0:0:0:
177,69,130859,5,8,0:0:0:0:
22,34,131021,70,0,P|64:44|84:100,1,83.9999974365235,10|0,1:2|1:0,0:0:0:0:
255,99,131183,2,0,P|274:137|244:188,1,83.9999974365235,10|0,0:0|0:0,0:0:0:0:
354,319,131345,2,0,P|336:358|278:368,1,83.9999974365235,10|0,0:2|0:0,0:0:0:0:
245,315,131507,6,0,L|230:267,1,49,14|0,0:0|0:0,0:0:0:0:
240,264,132156,6,0,L|255:312,1,49,14|0,0:0|0:0,0:0:0:0:
245,315,132805,6,0,L|135:279,1,112,14|0,0:0|0:0,0:0:0:0:
128,285,132967,2,0,L|163:175,1,112,14|0,0:0|0:0,0:0:0:0:
120,17,133129,70,0,L|10:52,1,112,14|0,0:0|0:0,0:0:0:0:
3,47,133291,2,0,L|38:156,1,112,14|0,0:0|0:0,0:0:0:0:
229,66,133453,53,6,0:2:0:0:
229,66,133534,1,8,0:0:0:0:
229,66,133615,1,10,0:0:0:0:
229,66,133696,1,8,0:0:0:0:
229,66,133777,22,0,L|200:51,1,28,6|8,0:2|0:0,0:0:0:0:
229,66,133859,6,0,L|215:91,1,28,8|8,0:0|0:0,0:0:0:0:
229,66,133940,102,0,L|257:80,1,28,10|8,0:0|0:0,0:0:0:0:
229,66,134022,6,0,L|242:41,1,28,8|8,0:0|0:0,0:0:0:0:
229,66,134102,101,8,0:0:0:0:
229,66,134426,6,0,P|241:37|279:33,6,56,8|0|0|0|0|0|0,0:0|1:0|1:0|1:0|1:0|1:0|1:0,0:0:0:0:
156,111,134750,102,0,B|156:77|124:49|124:49|262:117|262:117|260:128|260:128|268:122|268:122|375:166|375:166|401:142|441:148,1,420,8|0,0:0|0:0,0:0:0:0:
464,80,135075,6,0,B|461:42|494:21|494:21|411:56|411:56|404:51|404:51|408:58|408:58|336:93|336:93|362:214|397:113|439:262,1,420,8|0,0:0|0:0,0:0:0:0:
474,336,135399,102,0,B|487:370|487:370|413:344|413:344|407:347|407:347|405:343|405:343|222:275|222:275|237:214|174:179,1,420,8|0,0:0|0:0,0:0:0:0:
107,233,135723,6,0,P|109:267|135:290,3,70,8|0|0|0,0:0|1:0|1:0|1:0,0:0:0:0:
48,361,135886,102,0,P|77:377|110:368,2,70,0|0|0,1:0|1:0|1:0,0:0:0:0:
84,115,136048,6,0,B|48:111|26:143|26:143|68:70|48:1|48:1|145:59|145:59|147:66|147:66|254:126,1,420,8|0,0:0|0:0,0:0:0:0:
310,56,136372,102,0,B|318:23|318:23|282:-6,7,70,8|0|0|0|0|0|0|0,0:0|1:0|1:0|1:0|1:0|1:0|1:0|1:0,0:0:0:0:
313,70,136696,6,0,L|325:112,1,42,8|0,0:0|0:0,0:0:0:0:
433,279,137021,102,0,B|486:256|447:240|507:219,6,97.9999970092774,8|0|0|0|0|0|0,0:0|1:0|1:0|1:0|1:0|1:0|1:0,0:0:0:0:
360,236,137345,6,0,B|356:210|337:192|337:192|410:30|410:30|444:17|444:17|511:73|511:73|468:94|463:145,1,420,8|0,0:0|0:0,0:0:0:0:
360,323,137669,102,0,B|315:323|287:360|287:360|192:324|192:324|196:317|196:317|189:325|189:325|94:285|94:285|99:304|99:304|84:284|84:284|23:256,1,420,8|0,0:0|0:0,0:0:0:0:
14,345,137994,6,0,P|50:328|55:287,2,70,8|0|0,0:0|1:0|1:0,0:0:0:0:
132,264,138156,102,0,P|129:224|92:204,2,70,0|0|0,1:0|1:0|1:0,0:0:0:0:
48,148,138318,6,0,P|51:108|88:88,2,70,8|0|0,0:0|1:0|1:0,0:0:0:0:
95,15,138480,102,0,P|134:11|161:43,2,70,0|0|0,1:0|1:0|1:0,0:0:0:0:
234,38,138642,6,0,P|244:76|216:108,6,70,8|0|0|0|0|0|0,0:0|1:0|1:0|1:0|1:0|1:0|1:0,0:0:0:0:
150,129,138967,101,8,0:0:0:0:
150,129,139048,1,0,0:0:0:0:
150,129,139129,1,4,0:0:0:0:
150,129,139210,1,0,0:0:0:0:
150,129,139291,2,0,B|146:95|146:95|101:71|101:71|118:71|127:66|127:66|205:104|205:104|215:99|215:99|206:105|206:105|305:159|305:159|350:187|312:197|373:230,1,420,8|0,0:0|0:0,0:0:0:0:
480,101,139615,6,0,B|490:73|533:63|533:63|376:-5|376:-5|358:79|358:79|389:107|389:107|409:130|400:178,1,420,8|0,0:0|0:0,0:0:0:0:
327,335,139940,102,0,B|312:366|280:363|280:363|355:391|390:297|390:297|396:300|396:300|392:296|392:296|414:211|501:229|501:229|448:234|444:312,1,420,8|0,0:0|0:0,0:0:0:0:
494,334,140264,6,0,B|499:361|515:379|515:379|425:321|425:321|431:316|431:316|423:320|423:320|356:274|356:274|355:283|355:283|354:273|354:273|273:217|273:217|296:237|292:265,1,420,8|0,0:0|0:0,0:0:0:0:
129,199,140588,102,0,B|110:229|77:225|77:225|53:297|53:297|50:300|50:300|31:362|31:362|95:345|95:345|92:352|92:352|98:344|98:344|157:327|157:327|157:287|188:271,1,420,8|0,0:0|0:0,0:0:0:0:
229,112,140913,6,0,P|201:91|199:57,7,70,8|0|0|0|0|0|0|0,0:0|1:0|1:0|1:0|1:0|1:0|1:0|1:0,0:0:0:0:
275,25,141237,102,0,P|302:45|304:79,6,70,8|0|0|0|0|0|0,0:0|1:0|1:0|1:0|1:0|1:0|1:0,0:0:0:0:
353,153,141561,5,8,0:0:0:0:
371,158,141642,1,0,1:0:0:0:
390,164,141723,1,0,1:0:0:0:
409,170,141804,1,0,1:0:0:0:
426,198,141886,102,0,L|518:173,3,83.9999974365235,8|0|0|0,0:0|1:0|1:0|1:0,0:0:0:0:
483,87,142210,6,0,L|391:112,3,83.9999974365235,8|0|0|0,0:0|1:0|1:0|1:0,0:0:0:0:
309,225,142534,101,8,0:0:0:0:
309,225,142615,1,0,1:0:0:0:
309,225,142696,2,0,P|343:259|337:313,1,83.9999974365235,0|0,1:0|1:0,0:0:0:0:
454,287,142859,5,8,0:0:0:0:
454,287,142940,1,0,1:0:0:0:
454,287,143021,2,0,P|441:334|391:355,1,83.9999974365235,0|0,1:0|1:0,0:0:0:0:
191,268,143183,101,8,0:0:0:0:
191,268,143264,1,0,1:0:0:0:
191,268,143345,2,0,P|178:218|144:166,1,83.9999974365235,0|0,1:0|1:0,0:0:0:0:
262,129,143507,5,8,0:0:0:0:
262,129,143588,1,0,1:0:0:0:
262,129,143669,2,0,P|228:102|190:84,1,83.9999974365235,0|0,1:0|1:0,0:0:0:0:
109,14,143832,101,8,0:0:0:0:
102,31,143913,1,0,1:0:0:0:
96,49,143994,1,0,1:0:0:0:
90,67,144075,1,0,1:0:0:0:
21,107,144156,6,0,L|10:79,6,28
98,199,144480,5,2,2:0:0:0:
177,217,144642,1,2,2:0:0:0:
226,279,144805,1,2,2:0:0:0:
184,205,144967,1,2,2:0:0:0:
334,262,145129,5,2,2:0:0:0:
308,345,145291,1,2,2:0:0:0:
317,354,145372,1,2,2:0:0:0:
326,363,145453,1,2,2:0:0:0:
408,327,145615,1,2,2:0:0:0:
329,249,145777,6,0,L|313:203,1,41.9999987182618,2|2,2:0|2:0,0:0:0:0:
397,194,146102,2,0,L|383:154,1,41.9999987182618,2|2,2:0|2:0,0:0:0:0:
322,102,146426,6,0,L|306:56,1,41.9999987182618,2|2,2:0|2:0,0:0:0:0:
390,47,146750,2,0,L|376:7,1,41.9999987182618,2|2,2:0|2:0,0:0:0:0:
242,153,147075,69,2,2:0:0:0:
164,178,147237,1,2,2:0:0:0:
119,245,147399,1,2,2:0:0:0:
156,161,147561,1,2,2:0:0:0:
115,75,147723,1,2,2:0:0:0:
39,162,147886,5,2,2:0:0:0:
59,161,147967,1,2,2:0:0:0:
76,149,148048,1,2,2:0:0:0:
25,50,148210,1,2,2:0:0:0:
128,90,148372,6,0,L|173:74,1,41.9999987182618,2|0,2:0|0:0,0:0:0:0:
238,219,148696,2,0,L|283:235,1,41.9999987182618,2|0,2:0|0:0,0:0:0:0:
395,154,149021,1,2,2:0:0:0:
410,28,149345,5,2,2:0:0:0:
472,193,149669,69,2,2:0:0:0:
404,246,149832,1,2,2:0:0:0:
388,333,149994,1,2,2:0:0:0:
393,235,150156,1,2,2:0:0:0:
185,327,150318,5,2,2:0:0:0:
254,373,150480,1,2,2:0:0:0:
273,365,150561,1,2,2:0:0:0:
293,358,150642,1,2,2:0:0:0:
308,278,150805,1,2,2:0:0:0:
220,189,150967,6,0,P|199:201|187:222,1,41.9999987182618,2|2,2:0|2:0,0:0:0:0:
114,145,151291,2,0,P|107:168|114:191,1,41.9999987182618,2|2,2:0|2:0,0:0:0:0:
91,290,151615,6,0,P|106:269|127:261,1,41.9999987182618,2|2,2:0|2:0,0:0:0:0:
219,86,151940,2,0,P|237:96|248:113,1,41.9999987182618,2|2,2:0|2:0,0:0:0:0:
420,72,152264,69,2,2:0:0:0:
438,64,152426,1,2,2:0:0:0:
445,44,152588,1,2,2:0:0:0:
381,0,152750,1,2,2:0:0:0:
363,8,152912,1,2,2:0:0:0:
356,28,153074,1,2,2:0:0:0:
346,110,153237,5,2,2:0:0:0:
449,196,153399,1,2,2:0:0:0:
433,332,153561,6,0,L|391:348,1,41.9999987182618,2|2,2:0|2:0,0:0:0:0:
322,302,153886,2,0,L|280:318,1,41.9999987182618,2|2,2:0|2:0,0:0:0:0:
47,203,154210,5,2,2:0:0:0:
90,277,154372,1,2,2:0:0:0:
94,367,154534,1,2,2:0:0:0:
161,302,154696,1,2,2:0:0:0:
239,260,154859,70,0,L|252:212,1,41.9999987182618,2|0,2:0|0:0,0:0:0:0:
317,169,155183,1,2,2:0:0:0:
233,133,155507,6,0,L|220:85,1,41.9999987182618,2|0,2:0|0:0,0:0:0:0:
155,42,155832,1,2,2:0:0:0:
264,2,156115,6,0,L|250:0,2,10.4999996795654,2|2|2,2:0|2:0|2:0,0:0:0:0:
454,256,156967,5,2,2:0:0:0:
420,267,157129,1,2,2:0:0:0:
406,301,157291,1,2,2:0:0:0:
456,363,157453,69,2,2:0:0:0:
256,192,157534,12,8,158750,1:3:0:0:
329,191,161345,54,0,P|364:105|317:188,1,280,8|0,1:3|0:0,0:0:0:0:
225,276,163940,118,0,P|260:362|213:279,1,280,8|0,1:3|0:0,0:0:0:0:
152,125,166291,6,0,L|119:133,5,35,0|0|0|0|0|0,1:0|1:0|1:0|1:0|1:0|1:0,0:0:0:0:
138,142,166534,102,0,P|173:56|126:139,1,280,8|0,1:3|0:0,0:0:0:0:
85,206,167831,6,0,P|75:260|-10:240,1,140,8|0,1:3|0:0,0:0:0:0:
2,259,168480,102,0,P|26:239|10:179,1,70,8|0,1:3|0:0,0:0:0:0:
113,25,168723,5,8,1:3:0:0:
113,25,168805,2,0,P|141:43|149:76,1,70,8|0,1:3|0:0,0:0:0:0:
256,64,168967,102,0,P|250:97|223:118,1,70,8|0,1:3|0:0,0:0:0:0:
264,258,169129,54,0,L|254:291,3,35,8|0|0|0,0:0|0:0|0:0|0:0,0:0:0:0:
288,314,169454,2,0,L|254:303,3,35,8|0|0|0,0:2|0:0|0:0|0:0,0:0:0:0:
231,339,169778,2,0,L|241:304,3,35,8|0|0|0,0:2|0:0|0:0|0:0,0:0:0:0:
207,282,170102,2,0,L|241:291,3,35,8|0|0|0,0:2|0:0|0:0|0:0,0:0:0:0:
288,280,170427,6,0,L|257:296,3,35,8|0|0|0,0:2|0:0|0:0|0:0,0:0:0:0:
265,338,170750,2,0,L|248:307,3,35,8|0|0|0,0:2|0:0|0:0|0:0,0:0:0:0:
207,315,171076,2,0,L|237:298,3,35,8|0|0|0,0:2|0:0|0:0|0:0,0:0:0:0:
230,257,171400,2,0,L|246:287,3,35,8|0|8|0,0:2|0:0|0:2|0:0,0:0:0:0:
414,134,171723,6,0,L|423:100,3,35,8|0|0|0,0:0|0:0|0:0|0:0,0:0:0:0:
390,78,172048,2,0,L|423:88,3,35,8|0|0|0,0:2|0:0|0:0|0:0,0:0:0:0:
447,53,172372,2,0,L|436:87,3,35,8|0|0|0,0:2|0:0|0:0|0:0,0:0:0:0:
471,110,172696,2,0,L|436:100,3,35,8|0|0|0,0:2|0:0|0:0|0:0,0:0:0:0:
390,112,173021,6,0,L|420:95,3,35,8|0|0|0,0:2|0:0|0:0|0:0,0:0:0:0:
413,54,173346,2,0,L|429:84,3,35,8|0|0|0,0:2|0:0|0:0|0:0,0:0:0:0:
471,77,173670,2,0,L|440:93,3,35,8|0|0|8,0:2|0:0|0:0|0:2,0:0:0:0:
448,135,173994,2,0,L|431:104,3,35,8|0|8|0,0:2|0:0|0:2|0:0,0:0:0:0:
476,297,174318,69,8,0:0:0:0:
459,290,174399,1,0,0:0:0:0:
443,284,174480,1,0,0:0:0:0:
426,278,174561,1,0,0:0:0:0:
410,272,174642,1,8,0:2:0:0:
394,266,174723,1,0,0:0:0:0:
377,260,174804,1,0,0:0:0:0:
361,253,174885,1,0,0:0:0:0:
344,247,174967,2,0,L|329:190,3,35,8|0|0|0,0:2|0:0|0:0|0:0,0:0:0:0:
261,195,175291,2,0,L|246:138,3,35,8|0|0|0,0:2|0:0|0:0|0:0,0:0:0:0:
385,90,175615,5,8,0:0:0:0:
348,99,175696,1,0,0:0:0:0:
313,109,175777,1,0,0:0:0:0:
278,119,175858,1,0,0:0:0:0:
243,130,175939,1,8,0:2:0:0:
207,140,176020,1,0,0:0:0:0:
172,150,176101,1,0,0:0:0:0:
137,161,176182,1,0,0:0:0:0:
102,171,176264,6,0,L|79:232,3,56,8|0|0|0,0:2|0:0|0:0|0:0,0:0:0:0:
65,190,176588,6,0,L|118:210,3,56,8|0|0|0,0:2|0:0|0:0|0:0,0:0:0:0:
206,258,176913,70,0,P|163:281|165:336,1,97.9999970092774,8|0,0:0|0:0,0:0:0:0:
242,374,177075,5,0,0:0:0:0:
242,374,177156,1,0,0:0:0:0:
242,374,177237,2,0,P|285:351|283:296,1,97.9999970092774,8|0,0:2|0:0,0:0:0:0:
361,190,177399,5,0,0:0:0:0:
361,190,177480,1,0,0:0:0:0:
361,190,177561,2,0,P|403:209|452:243,1,97.9999970092774,8|0,0:0|0:0,0:0:0:0:
320,35,177723,5,0,0:0:0:0:
320,35,177804,1,0,0:0:0:0:
320,35,177885,2,0,P|282:62|229:89,1,97.9999970092774,8|0,0:2|0:0,0:0:0:0:
165,142,178048,69,0,0:0:0:0:
165,142,178129,1,0,0:0:0:0:
165,142,178210,6,0,P|135:115|79:90,1,70,8|0,1:1|0:0,0:0:0:0:
189,27,178534,6,0,P|207:8|201:33,1,70,8|0,1:1|0:0,0:0:0:0:
303,94,178859,6,0,P|309:60|335:14,1,70,8|0,1:1|0:0,0:0:0:0:
491,239,179183,70,0,L|502:198,1,41.9999987182618,14|0,1:1|0:0,0:0:0:0:
485,234,179264,6,0,L|496:193,1,41.9999987182618,8|0,1:1|0:0,0:0:0:0:
479,229,179345,6,0,L|490:188,1,41.9999987182618,8|0,1:1|0:0,0:0:0:0:
473,224,179426,6,0,L|484:183,1,41.9999987182618,8|0,1:1|0:0,0:0:0:0:
460,238,179507,70,0,B|436:225|406:233|390:256|389:280|389:280|388:307|367:329|340:332|318:322,1,195.999994018555,10|0,0:0|2:3,0:0:0:0:
475,333,179750,5,0,1:0:0:0:
465,339,179832,2,0,P|393:279|255:218,1,195.999994018555,10|0,0:0|2:3,0:0:0:0:
314,117,180075,5,0,1:0:0:0:
317,104,180156,2,0,P|360:121|366:168,1,97.9999970092774,10|0,0:0|1:0,0:0:0:0:
318,322,180318,2,0,P|268:336|202:370,1,97.9999970092774,2|0,2:3|1:0,0:0:0:0:
79,223,180480,2,0,B|64:176|64:176|101:207,1,97.9999970092774,10|0,0:0|1:0,0:0:0:0:
192,221,180642,6,0,B|202:243|199:270|177:291|150:292|150:292|126:293|103:309|95:339|108:363,1,195.999994018555,2|8,2:3|0:0,0:0:0:0:
157,142,180967,70,0,L|166:105,1,28,2|0,2:3|1:0,0:0:0:0:
70,5,181129,6,0,P|68:45|105:69,1,83.9999974365235,10|0,0:0|1:0,0:0:0:0:
171,35,181291,2,0,P|194:3|235:5,1,83.9999974365235,2|0,2:3|1:0,0:0:0:0:
22,125,181453,6,0,P|156:171|302:266,1,293.999991027832,10|0,0:0|1:0,0:0:0:0:
284,251,181777,6,0,P|305:233|306:197,1,56,10|0,0:0|1:0,0:0:0:0:
232,171,181940,2,0,P|211:189|210:225,1,56,2|0,2:3|1:0,0:0:0:0:
272,351,182102,70,0,P|307:336|358:325,1,83.9999974365235,10|0,0:0|1:0,0:0:0:0:
348,317,182264,2,0,P|307:326|268:342,1,83.9999974365235,2|0,2:3|1:0,0:0:0:0:
199,384,182426,6,0,P|177:341|149:302,1,83.9999974365235,10|0,0:0|1:0,0:0:0:0:
357,183,182588,2,0,P|379:140|407:101,1,83.9999974365235,2|0,2:3|1:0,0:0:0:0:
265,22,182750,6,0,P|311:38|317:91,1,83.9999974365235,10|0,0:0|1:0,0:0:0:0:
419,245,182913,2,0,P|465:229|471:176,1,83.9999974365235,2|0,2:3|1:0,0:0:0:0:
278,140,183075,2,0,P|242:156|201:186,1,83.9999974365235,10|0,0:0|1:0,0:0:0:0:
154,255,183237,6,0,P|111:228|67:208,1,97.9999970092774,2|0,2:3|1:0,0:0:0:0:
7,148,183399,1,8,0:0:0:0:
7,148,183561,70,0,B|21:126|17:100|17:100|36:118|61:119,1,97.9999970092774,2|0,2:3|1:0,0:0:0:0:
181,55,183723,6,0,P|119:192|72:331,1,293.999991027832,10|0,0:0|1:0,0:0:0:0:
151,369,184048,2,0,P|198:229|258:95,1,293.999991027832,10|0,0:0|1:0,0:0:0:0:
261,12,184372,5,8,0:0:0:0:
261,12,184453,1,0,0:0:0:0:
261,12,184534,1,0,0:0:0:0:
261,12,184615,1,0,0:0:0:0:
261,12,184696,6,0,B|376:29|297:104|406:123,1,195.999994018555,10|0,0:0|2:3,0:0:0:0:
489,85,184940,69,0,1:0:0:0:
489,85,185021,2,0,B|469:36|493:-11|493:-11|465:44|419:41,1,195.999994018555,10|0,0:0|2:3,0:0:0:0:
346,239,185264,5,0,1:0:0:0:
346,239,185345,2,0,B|330:267|337:295|337:295|397:212|487:188|487:188|461:213|478:261,1,293.999991027832,10|0,0:0|1:0,0:0:0:0:
512,363,185669,6,0,P|472:334|429:311,1,97.9999970092774,10|0,0:0|1:0,0:0:0:0:
345,148,185832,2,0,P|296:175|261:201,1,97.9999970092774,2|0,2:3|1:0,0:0:0:0:
251,198,185994,1,8,0:0:0:0:
249,331,186156,6,0,B|282:363|282:363|233:344,1,97.9999970092774,2|0,2:3|1:0,0:0:0:0:
151,348,186318,2,0,B|151:304|182:281|182:281|155:189|155:189|160:184|160:184|154:185|154:185|116:67,1,293.999991027832,10|0,0:0|1:0,0:0:0:0:
55,0,186642,70,0,B|55:44|24:67|24:67|51:159|51:159|46:164|46:164|52:163|52:163|90:281,1,293.999991027832,10|0,0:0|1:0,0:0:0:0:
85,265,186967,6,0,P|117:271|142:286,1,56,10|0,0:0|1:0,0:0:0:0:
165,196,187129,2,0,P|133:190|108:175,1,56,2|0,2:3|1:0,0:0:0:0:
27,200,187291,5,10,0:0:0:0:
80,358,187453,1,2,2:3:0:0:
224,263,187615,5,10,0:0:0:0:
252,165,187777,1,2,2:3:0:0:
155,26,187940,69,10,0:0:0:0:
256,157,188102,1,2,2:3:0:0:
388,66,188264,1,10,0:0:0:0:
114,124,188426,6,0,P|161:202|183:279,1,167.999994873047,2|8,2:3|0:0,0:0:0:0:
370,261,188750,2,0,P|349:297|334:336,1,83.9999974365235,2|0,2:3|1:0,0:0:0:0:
257,368,188913,5,10,0:0:0:0:
257,368,188994,1,0,0:0:0:0:
257,368,189075,1,0,0:0:0:0:
257,368,189156,1,0,0:0:0:0:
257,368,189237,6,0,L|245:319,1,41.9999987182618,10|0,0:0|1:0,0:0:0:0:
282,258,189399,2,0,L|273:217,1,41.9999987182618,0|0,0:0|1:0,0:0:0:0:
241,141,189561,69,12,0:0:0:0:
246,149,189723,2,0,B|318:134|268:108|352:88,1,112,0|0,0:0|1:0,0:0:0:0:
263,6,189886,6,0,B|268:27|268:27|464:100,1,195.999994018555,10|0,0:0|2:3,0:0:0:0:
511,153,190129,5,0,1:0:0:0:
506,163,190210,2,0,B|484:153|457:156|436:178|435:205|435:205|434:229|418:252|388:260|364:247,1,195.999994018555,10|0,0:0|2:3,0:0:0:0:
501,302,190453,5,0,1:0:0:0:
495,315,190534,2,0,P|351:344|208:379,1,293.999991027832,10|0,0:0|1:0,0:0:0:0:
208,379,190859,70,0,P|171:348|191:294,1,97.9999970092774,10|0,0:0|1:0,0:0:0:0:
92,279,191021,2,0,P|106:234|152:224,1,97.9999970092774,2|0,2:3|1:0,0:0:0:0:
160,216,191183,1,8,0:0:0:0:
207,37,191345,6,0,P|222:24|216:-2,1,41.9999987182618,2|0,2:3|1:0,0:0:0:0:
133,64,191507,6,0,B|93:56|64:84|64:84|195:72|251:210,1,293.999991027832,10|0,0:0|1:0,0:0:0:0:
321,206,191832,6,0,B|362:329|263:385|213:344|198:260|288:260,1,293.999991027832,10|0,0:0|1:0,0:0:0:0:
292,274,192156,70,0,L|367:305,1,56,10|0,0:0|1:0,0:0:0:0:
417,326,192318,2,0,L|492:357,1,56,2|0,2:3|1:0,0:0:0:0:
470,140,192480,6,0,P|456:104|403:94,1,83.9999974365235,10|0,0:0|1:0,0:0:0:0:
392,11,192642,2,0,P|354:18|335:68,1,83.9999974365235,2|0,2:3|1:0,0:0:0:0:
321,206,192805,6,0,P|362:181|422:161,1,83.9999974365235,10|0,0:0|1:0,0:0:0:0:
261,120,192967,2,0,P|226:95|188:77,1,83.9999974365235,2|0,2:3|1:0,0:0:0:0:
11,107,193129,6,0,B|70:98|109:31|109:31|81:107|114:152,1,251.999992309571,10|0,0:0|1:0,0:0:0:0:
112,149,193453,2,0,P|63:172|19:199,1,83.9999974365235,10|0,0:0|1:0,0:0:0:0:
13,260,193615,2,0,P|3:291|20:262,1,97.9999970092774,2|0,2:3|1:0,0:0:0:0:
37,187,193777,1,8,0:0:0:0:
125,339,193940,70,0,P|164:353|227:385,1,97.9999970092774,2|0,2:3|1:0,0:0:0:0:
279,335,194102,2,0,B|301:307|308:266|284:227|247:214|247:214|211:205|184:173|184:126|212:97,1,293.999991027832,10|0,0:0|1:0,0:0:0:0:
426,29,194426,6,0,B|432:72|432:72|275:6|275:6|259:13|259:13|297:31|288:88,1,293.999991027832,10|0,0:0|1:0,0:0:0:0:
38,206,194750,5,10,0:0:0:0:
38,206,194832,1,0,0:0:0:0:
38,206,194913,1,2,0:0:0:0:
38,206,194994,1,0,0:0:0:0:
38,206,195075,2,0,B|68:187|70:158|70:158|149:135|149:135|153:141|153:141|154:134|154:134|229:112|229:112|248:145|304:141,1,293.999991027832,10|0,0:0|1:0,0:0:0:0:
278,140,195399,6,0,L|296:83,1,56,10|0,0:0|1:0,0:0:0:0:
253,224,195561,2,0,L|238:268,1,35,0|0,2:3|1:0,0:0:0:0:
182,319,195723,70,0,B|139:301|139:301|159:239,1,97.9999970092774,10|0,0:0|1:0,0:0:0:0:
357,178,195886,5,2,0:0:0:0:
357,178,195967,1,0,0:0:0:0:
357,178,196048,2,0,B|399:195|399:195|379:257,1,97.9999970092774,10|0,0:0|1:0,0:0:0:0:
318,303,196210,6,0,L|331:345,1,41.9999987182618,2|0,1:3|1:0,0:0:0:0:
336,357,196372,1,8,0:0:0:0:
452,320,196534,6,0,B|465:281|498:250,1,83.9999974365235,2|0,2:3|1:0,0:0:0:0:
399,108,196696,70,0,B|428:62|419:8|419:8|446:61|502:73,1,210,10|0,0:0|1:0,0:0:0:0:
468,160,197021,2,0,B|362:124|446:106|321:66,1,167.999994873047,10|0,0:0|2:3,0:0:0:0:
251,0,197345,6,0,P|202:3|185:47,1,97.9999970092774,10|0,0:0|1:0,0:0:0:0:
122,140,197507,2,0,P|75:138|55:96,1,97.9999970092774,2|0,2:3|1:0,0:0:0:0:
100,25,197669,5,10,0:0:0:0:
223,122,197832,1,2,2:3:0:0:
171,250,197994,5,10,0:0:0:0:
68,286,198156,1,2,2:3:0:0:
102,374,198318,69,8,0:0:0:0:
284,302,198480,1,2,2:3:0:0:
233,128,198642,1,10,0:0:0:0:
404,231,198805,6,0,P|444:242|502:267,1,83.9999974365235,2|0,2:3|1:0,0:0:0:0:
493,250,198967,1,8,0:0:0:0:
292,41,199129,6,0,P|325:31|358:18,1,70,2|0,2:3|1:0,0:0:0:0:
413,84,199291,5,10,0:0:0:0:
413,84,199372,1,0,0:0:0:0:
413,84,199453,1,0,0:0:0:0:
413,84,199534,1,0,0:0:0:0:
413,84,199615,2,0,B|399:125|399:125|343:118,1,83.9999974365235,10|0,0:0|1:0,0:0:0:0:
313,184,199777,2,0,B|273:188|273:188|259:147,1,83.9999974365235,0|0,0:0|1:0,0:0:0:0:
204,27,199940,70,0,B|221:47|220:78|200:99|177:105|177:105|151:111|134:136|137:163|151:183,1,195.999994018555,14|0,0:0|0:0,0:0:0:0:
47,301,200264,6,0,P|115:327|183:359,1,146.999995513916,10|0,0:0|0:0,0:0:0:0:
191,357,200426,2,0,P|214:338|219:309,1,56,2|0,1:3|1:0,0:0:0:0:
287,161,200588,6,0,P|218:187|151:219,1,146.999995513916,10|0,0:0|0:0,0:0:0:0:
143,217,200750,2,0,P|120:198|115:169,1,56,2|0,1:3|1:0,0:0:0:0:
162,96,200913,5,10,0:0:0:0:
316,262,201075,69,2,1:3:0:0:
316,262,201156,1,2,1:3:0:0:
316,262,201237,2,0,P|365:271|379:313,1,97.9999970092774,10|0,0:0|1:0,0:0:0:0:
435,377,201399,2,0,P|481:370|498:326,1,97.9999970092774,2|0,1:3|1:0,0:0:0:0:
455,252,201561,6,0,P|478:174|521:88,1,146.999995513916,10|0,0:0|0:0,0:0:0:0:
497,105,201723,2,0,P|484:127|473:156,1,56,2|0,1:3|1:0,0:0:0:0:
386,187,201886,6,0,B|302:156|375:121|258:80,1,146.999995513916,10|0,0:0|0:0,0:0:0:0:
276,82,202048,2,0,P|269:53|254:25,1,56,2|0,1:3|1:0,0:0:0:0:
338,0,202210,5,10,0:0:0:0:
338,0,202534,70,0,L|292:124,1,112,10|0,0:0|1:0,0:0:0:0:
271,179,202696,2,0,L|225:303,1,112,2|0,1:3|1:0,0:0:0:0:
173,364,202859,6,0,B|161:277|112:335|98:230,1,146.999995513916,10|0,0:0|0:0,0:0:0:0:
105,236,203021,2,0,L|166:215,1,56,2|0,1:3|1:0,0:0:0:0:
105,1,203183,6,0,B|93:88|44:30|30:135,1,146.999995513916,10|0,0:0|0:0,0:0:0:0:
35,129,203345,2,0,L|96:150,1,56,2|0,1:3|1:0,0:0:0:0:
162,101,203507,5,10,0:0:0:0:
265,333,203669,69,2,1:3:0:0:
265,333,203750,1,2,1:3:0:0:
265,333,203832,2,0,P|217:345|172:363,1,97.9999970092774,10|0,0:0|1:0,0:0:0:0:
141,272,203994,2,0,P|188:259|233:241,1,97.9999970092774,2|0,1:3|1:0,0:0:0:0:
327,266,204156,5,10,0:0:0:0:
376,370,204318,1,2,1:3:0:0:
445,125,204480,5,10,0:0:0:0:
477,45,204642,1,2,1:3:0:0:
483,228,204805,6,0,P|462:231|446:245,1,41.9999987182618,10|0,0:0|1:0,0:0:0:0:
384,187,204967,2,0,P|363:183|347:169,1,41.9999987182618,2|0,1:3|1:0,0:0:0:0:
269,177,205129,69,10,0:0:0:0:
269,177,205210,1,0,0:0:0:0:
269,177,205291,1,2,0:0:0:0:
269,177,205372,1,0,0:0:0:0:
269,177,205453,2,0,P|252:104|214:8,1,146.999995513916,10|0,0:0|0:0,0:0:0:0:
233,32,205615,2,0,P|272:16|277:-8,1,56,2|0,1:3|1:0,0:0:0:0:
169,131,205777,6,0,P|138:183|88:301,1,146.999995513916,10|0,0:0|0:0,0:0:0:0:
89,265,205940,2,0,P|50:249|45:225,1,56,2|0,1:3|1:0,0:0:0:0:
57,153,206102,1,10,0:0:0:0:
209,265,206264,5,2,1:3:0:0:
209,265,206345,1,2,1:3:0:0:
209,265,206426,2,0,B|270:283|231:300|296:323,1,97.9999970092774,10|0,0:0|1:0,0:0:0:0:
342,376,206588,2,0,B|403:358|364:341|429:318,1,97.9999970092774,2|0,1:3|1:0,0:0:0:0:
491,255,206750,6,0,P|420:230|341:196,1,146.999995513916,10|0,0:0|0:0,0:0:0:0:
343,194,206913,2,0,P|344:169|314:140,1,56,2|0,1:3|1:0,0:0:0:0:
382,1,207075,70,0,P|314:29|244:53,1,146.999995513916,10|0,0:0|0:0,0:0:0:0:
238,65,207238,2,0,P|239:90|209:119,1,56,2|0,1:3|1:0,0:0:0:0:
158,186,207399,5,10,0:0:0:0:
158,186,207723,6,0,L|116:60,1,112,10|0,0:0|1:0,0:0:0:0:
81,214,207886,2,0,L|45:107,1,112,2|0,1:3|1:0,0:0:0:0:
27,283,208048,6,0,B|31:298|31:298|195:342,1,146.999995513916,10|0,0:0|0:0,0:0:0:0:
171,328,208210,2,0,P|190:307|222:310,1,56,2|0,1:3|1:0,0:0:0:0:
302,241,208372,70,0,B|306:256|306:256|470:300,1,146.999995513916,10|0,0:0|0:0,0:0:0:0:
446,286,208534,2,0,P|465:265|497:268,1,56,2|0,1:3|1:0,0:0:0:0:
496,350,208696,5,10,0:0:0:0:
431,189,208859,5,2,1:3:0:0:
431,189,208940,1,2,1:3:0:0:
431,189,209021,2,0,P|433:140|510:134,1,97.9999970092774,10|0,0:0|1:0,0:0:0:0:
323,4,209183,2,0,P|363:28|364:75,1,97.9999970092774,2|0,1:3|1:0,0:0:0:0:
313,146,209345,6,0,P|257:159|190:182,1,97.9999970092774,10|0,0:0|1:0,0:0:0:0:
155,118,209507,1,2,1:3:0:0:
78,295,209669,69,10,0:0:0:0:
87,311,209750,1,0,0:0:0:0:
96,329,209831,1,2,0:0:0:0:
102,348,209912,1,0,0:0:0:0:
126,367,209994,6,0,L|136:330,1,28,10|0,0:0|1:0,0:0:0:0:
155,263,210156,2,0,L|165:226,1,28,2|0,0:0|1:0,0:0:0:0:
311,366,210318,6,0,P|273:347|213:321,1,97.9999970092774,14|0,0:0|1:0,0:0:0:0:
204,122,210480,2,0,P|159:141|115:163,1,97.9999970092774,2|0,0:0|1:0,0:0:0:0:
47,83,210642,6,0,P|115:57|183:25,1,146.999995513916,10|0,0:0|0:0,0:0:0:0:
191,27,210804,2,0,P|214:46|219:75,1,56,2|0,1:3|1:0,0:0:0:0:
287,223,210967,70,0,P|218:197|151:165,1,146.999995513916,10|0,0:0|0:0,0:0:0:0:
143,167,211128,2,0,P|120:186|115:215,1,56,2|0,1:3|1:0,0:0:0:0:
162,288,211291,5,10,0:0:0:0:
316,122,211453,5,2,1:3:0:0:
316,122,211534,1,2,1:3:0:0:
316,122,211615,2,0,P|365:113|379:71,1,97.9999970092774,10|0,0:0|1:0,0:0:0:0:
435,7,211777,2,0,P|481:14|498:58,1,97.9999970092774,2|0,1:3|1:0,0:0:0:0:
455,132,211939,6,0,P|478:210|521:296,1,146.999995513916,10|0,0:0|0:0,0:0:0:0:
497,279,212101,2,0,P|484:257|473:228,1,56,2|0,1:3|1:0,0:0:0:0:
386,197,212264,70,0,B|302:228|375:263|258:304,1,146.999995513916,10|0,0:0|0:0,0:0:0:0:
276,302,212426,2,0,P|269:331|254:359,1,56,2|0,1:3|1:0,0:0:0:0:
338,384,212588,5,10,0:0:0:0:
338,384,212912,6,0,L|292:260,1,112,10|0,0:0|1:0,0:0:0:0:
271,205,213074,2,0,L|225:81,1,112,2|0,1:3|1:0,0:0:0:0:
173,20,213237,6,0,B|161:107|112:49|98:154,1,146.999995513916,10|0,0:0|0:0,0:0:0:0:
105,148,213399,2,0,L|166:169,1,56,2|0,1:3|1:0,0:0:0:0:
105,383,213561,70,0,B|93:296|44:354|30:249,1,146.999995513916,10|0,0:0|0:0,0:0:0:0:
35,255,213723,2,0,L|96:234,1,56,2|0,1:3|1:0,0:0:0:0:
162,283,213885,5,10,0:0:0:0:
265,51,214047,5,2,1:3:0:0:
265,51,214128,1,2,1:3:0:0:
265,51,214210,2,0,P|217:39|172:21,1,97.9999970092774,10|0,0:0|1:0,0:0:0:0:
141,112,214372,2,0,P|188:125|233:143,1,97.9999970092774,2|0,1:3|1:0,0:0:0:0:
327,118,214534,5,10,0:0:0:0:
376,14,214696,1,2,1:3:0:0:
445,259,214858,69,10,0:0:0:0:
477,339,215020,1,2,1:3:0:0:
483,156,215183,6,0,P|462:153|446:139,1,41.9999987182618,10|0,0:0|1:0,0:0:0:0:
384,197,215345,2,0,P|363:201|347:215,1,41.9999987182618,2|0,1:3|1:0,0:0:0:0:
269,207,215507,5,10,0:0:0:0:
269,207,215588,1,0,0:0:0:0:
269,207,215669,1,2,0:0:0:0:
269,207,215750,1,0,0:0:0:0:
269,207,215831,2,0,P|252:280|214:376,1,146.999995513916,10|0,0:0|0:0,0:0:0:0:
233,352,215993,2,0,P|272:368|277:392,1,56,2|0,1:3|1:0,0:0:0:0:
169,253,216155,6,0,P|138:201|88:83,1,146.999995513916,10|0,0:0|0:0,0:0:0:0:
89,119,216318,2,0,P|50:135|45:159,1,56,2|0,0:0|1:0,0:0:0:0:
57,231,216480,1,10,0:0:0:0:
209,119,216642,69,2,0:0:0:0:
209,119,216723,1,2,0:0:0:0:
209,119,216804,2,0,B|270:101|231:84|296:61,1,97.9999970092774,10|0,0:0|1:0,0:0:0:0:
342,8,216966,2,0,B|403:26|364:43|429:66,1,97.9999970092774,2|0,1:3|1:0,0:0:0:0:
491,129,217128,6,0,P|420:154|341:188,1,146.999995513916,10|0,0:0|0:0,0:0:0:0:
343,190,217291,2,0,P|344:215|314:244,1,56,2|0,1:3|1:0,0:0:0:0:
382,383,217453,6,0,P|314:355|244:331,1,146.999995513916,10|0,0:0|0:0,0:0:0:0:
238,319,217616,2,0,P|239:294|209:265,1,56,2|0,1:3|1:0,0:0:0:0:
155,212,217777,6,0,L|197:192,1,28,10|0,0:0|1:0,0:0:0:0:
202,190,217940,2,0,L|227:177,1,28,2|0,1:3|1:0,0:0:0:0:
43,9,218102,70,0,L|10:128,1,112,10|0,0:0|1:0,0:0:0:0:
127,32,218264,2,0,L|94:151,1,112,2|0,1:3|1:0,0:0:0:0:
23,265,218426,6,0,P|88:291|174:348,1,146.999995513916,10|0,0:0|0:0,0:0:0:0:
160,326,218588,2,0,P|201:318|213:265,1,97.9999970092774,2|0,1:3|1:0,0:0:0:0:
155,212,218750,2,0,P|114:220|102:273,1,97.9999970092774,10|0,0:0|1:0,0:0:0:0:
255,384,218913,2,0,P|300:355|370:336,1,97.9999970092774,2|0,1:3|1:0,0:0:0:0:
382,269,219075,1,10,0:0:0:0:
465,42,219237,5,2,1:3:0:0:
465,42,219318,1,2,1:3:0:0:
465,42,219399,1,10,0:0:0:0:
471,89,219480,1,2,1:3:0:0:
447,130,219561,1,2,1:3:0:0:
402,147,219642,1,2,1:3:0:0:
356,132,219723,6,0,P|338:81|301:13,1,97.9999970092774,10|0,1:3|1:0,0:0:0:0:
240,69,219886,2,0,P|261:113|277:159,1,97.9999970092774,2|0,1:3|1:0,0:0:0:0:
241,233,220048,70,0,B|189:254|229:263|161:287,2,83.9999974365235,2|2|2,1:3|1:3|1:3,0:0:0:0:
260,328,220696,6,0,P|296:349|330:373,1,84,4|0,0:0|0:0,0:0:0:0:
394,317,221021,101,10,0:0:0:0:
394,317,221183,1,2,1:3:0:0:
478,189,221345,5,10,0:0:0:0:
478,189,221507,1,2,1:3:0:0:
331,28,221669,5,10,0:0:0:0:
331,28,221831,1,2,1:3:0:0:
368,131,221994,5,10,0:0:0:0:
368,131,222156,1,2,1:3:0:0:
274,188,222318,5,10,0:0:0:0:
274,188,222480,1,2,1:3:0:0:
436,50,222642,5,10,0:0:0:0:
436,50,222804,1,2,1:3:0:0:
478,277,222967,5,10,0:0:0:0:
478,277,223129,1,2,1:3:0:0:
315,369,223291,5,10,0:0:0:0:
315,369,223453,1,2,1:3:0:0:
259,293,223615,5,10,0:0:0:0:
259,293,223777,1,2,1:3:0:0:
172,328,223940,5,10,0:0:0:0:
172,328,224102,1,2,1:3:0:0:
237,384,224264,5,10,0:0:0:0:
237,384,224426,1,2,1:3:0:0:
285,171,224588,5,10,0:0:0:0:
285,171,224750,1,2,1:3:0:0:
109,126,224913,5,10,0:0:0:0:
109,126,225075,1,2,1:3:0:0:
139,229,225237,5,10,0:0:0:0:
139,229,225399,1,2,1:3:0:0:
390,370,225561,5,10,0:0:0:0:
390,370,225723,1,2,1:3:0:0:
360,267,225885,5,10,0:0:0:0:
360,267,226047,1,2,1:3:0:0:
505,199,226210,6,0,L|470:209,1,35,10|0,0:0|0:0,0:0:0:0:
476,189,226372,6,0,L|441:179,1,35,2|0,0:0|0:0,0:0:0:0:
447,199,226534,6,0,L|412:209,1,35,10|0,0:0|0:0,0:0:0:0:
418,189,226697,6,0,L|383:179,1,35,2|0,0:0|0:0,0:0:0:0:
389,199,226859,6,0,L|354:209,1,35,10|0,0:0|0:0,0:0:0:0:
360,189,227021,6,0,L|325:179,1,35,2|0,0:0|0:0,0:0:0:0:
331,199,227183,6,0,L|296:209,1,35,10|0,0:0|0:0,0:0:0:0:
302,189,227345,6,0,L|267:179,1,35,2|0,0:0|0:0,0:0:0:0:
273,199,227507,6,0,L|238:209,1,35,10|0,0:0|0:0,0:0:0:0:
244,189,227669,6,0,L|209:179,1,35,2|0,0:0|0:0,0:0:0:0:
215,199,227832,6,0,L|180:209,1,35,10|0,0:0|0:0,0:0:0:0:
186,189,227994,6,0,L|151:179,1,35,2|0,0:0|0:0,0:0:0:0:
157,199,228156,6,0,L|122:209,1,35,10|0,0:0|0:0,0:0:0:0:
128,189,228318,6,0,L|93:179,1,35,2|0,0:0|0:0,0:0:0:0:
99,199,228480,6,0,L|64:209,1,35,10|0,0:0|0:0,0:0:0:0:
70,189,228642,6,0,L|35:179,1,35,2|0,0:0|0:0,0:0:0:0:
16,189,228805,5,2,0:0:0:0:
29,189,228886,5,2,0:0:0:0:
42,189,228967,5,2,0:0:0:0:
57,189,229048,5,2,0:0:0:0:
70,189,229129,5,2,0:0:0:0:
83,189,229210,5,2,0:0:0:0:
98,189,229291,5,2,0:0:0:0:
111,189,229372,5,2,0:0:0:0:
125,189,229453,5,2,0:0:0:0:
139,189,229534,5,2,0:0:0:0:
153,189,229615,5,2,0:0:0:0:
166,189,229696,5,2,0:0:0:0:
180,189,229777,5,2,0:0:0:0:
194,189,229859,5,2,0:0:0:0:
208,189,229940,5,2,0:0:0:0:
221,189,230021,5,2,0:0:0:0:
231,179,230102,6,0,L|285:178,1,35,2|2,1:3|1:3,0:0:0:0:
237,186,230183,6,0,L|291:185,1,35,2|2,1:3|1:3,0:0:0:0:
243,193,230264,6,0,L|297:192,1,35,2|2,1:3|1:3,0:0:0:0:
249,186,230345,6,0,L|303:187,1,35,2|2,1:3|1:3,0:0:0:0:
255,179,230426,6,0,L|309:180,1,35,2|2,1:3|1:3,0:0:0:0:
261,186,230507,6,0,L|315:185,1,35,2|2,1:3|1:3,0:0:0:0:
267,193,230588,6,0,L|321:192,1,35,2|2,1:3|1:3,0:0:0:0:
273,186,230669,6,0,L|327:187,1,35,2|2,1:3|1:3,0:0:0:0:
279,179,230750,6,0,L|333:180,1,35,2|2,1:3|1:3,0:0:0:0:
307,186,230832,6,0,L|361:185,1,35,2|2,1:3|1:3,0:0:0:0:
313,193,230913,6,0,L|367:192,1,35,2|2,1:3|1:3,0:0:0:0:
319,186,230994,6,0,L|373:187,1,35,2|2,1:3|1:3,0:0:0:0:
325,179,231075,6,0,L|379:180,1,35,2|2,1:3|1:3,0:0:0:0:
331,186,231156,6,0,L|385:185,1,35,2|2,1:3|1:3,0:0:0:0:
337,193,231237,6,0,L|391:192,1,35,2|2,1:3|1:3,0:0:0:0:
343,186,231318,6,0,L|397:187,1,35,2|2,1:3|1:3,0:0:0:0:
349,179,231399,6,0,L|403:180,1,35,2|2,1:3|1:3,0:0:0:0:
377,186,231481,6,0,L|431:185,1,35,2|2,1:3|1:3,0:0:0:0:
383,193,231562,6,0,L|437:192,1,35,2|2,1:3|1:3,0:0:0:0:
389,186,231643,6,0,L|443:187,1,35,2|2,1:3|1:3,0:0:0:0:
395,179,231724,6,0,L|449:180,1,35,2|2,1:3|1:3,0:0:0:0:
401,186,231805,6,0,L|455:185,1,35,2|2,1:3|1:3,0:0:0:0:
407,193,231886,6,0,L|461:192,1,35,2|2,1:3|1:3,0:0:0:0:
413,186,231967,6,0,L|467:187,1,35,2|2,1:3|1:3,0:0:0:0:
419,179,232048,6,0,L|473:180,1,35,2|2,1:3|1:3,0:0:0:0:
425,186,232129,6,0,L|479:185,1,35,2|2,1:3|1:3,0:0:0:0:
431,193,232210,6,0,L|485:192,1,35,2|2,1:3|1:3,0:0:0:0:
437,186,232291,6,0,L|491:187,1,35,2|2,1:3|1:3,0:0:0:0:
443,179,232372,6,0,L|497:180,1,35,2|2,1:3|1:3,0:0:0:0:
459,185,232453,6,0,L|513:184,1,35,2|2,1:3|1:3,0:0:0:0:
465,192,232534,6,0,L|519:191,1,35,2|2,1:3|1:3,0:0:0:0:
471,185,232615,6,0,L|525:186,1,35,2|2,1:3|1:3,0:0:0:0:
477,178,232696,69,0,1:0:0:0:
512,0,243075,117,0,1:0:0:0:
