osu file format v14

[General]
AudioFilename: audio.ogg
AudioLeadIn: 0
PreviewTime: 20956
Countdown: 0
SampleSet: Normal
StackLeniency: 0.7
Mode: 1
LetterboxInBreaks: 0
WidescreenStoryboard: 1

[Editor]
DistanceSpacing: 0.3
BeatDivisor: 4
GridSize: 32
TimelineZoom: 1.4

[Metadata]
Title:INTERNET YAMERO
TitleUnicode:INTERNET YAMERO
Artist:Aiobahn feat. KOTOKO
ArtistUnicode:Aiobahn feat. KOTOKO
Creator:Joltzzz
Version:TAIKO YAMERO
Source:NEEDY GIRL OVERDOSE
Tags:alwaysyukaz sagasemat cdh ler1211 rinze genjuro インターネットやめろ electronic japanese pop jpop j-pop female vocal vocalist ft. featuring videogame video game music vgm denpa hardstyle techno hardcore synthwave streamer overload ame kangel omgkawaiiangel angel p-chan pchan tenshi muse dash
BeatmapID:4066175
BeatmapSetID:1961959

[Difficulty]
HPDrainRate:6
CircleSize:2
OverallDifficulty:7.2
ApproachRate:10
SliderMultiplier:1.4
SliderTickRate:1

[Events]
//Background and Video events
0,0,"yamero.jpg",0,20
//Break Periods
2,75723,80263
2,143183,156803
//Storyboard Layer 0 (Background)
//Storyboard Layer 1 (Fail)
//Storyboard Layer 2 (Pass)
//Storyboard Layer 3 (Foreground)
//Storyboard Layer 4 (Overlay)
//Storyboard Sound Samples

[TimingPoints]
-2314,324.324324324324,4,1,0,60,1,0
2873,-50,4,1,0,60,0,0
3197,-100,4,1,0,60,0,0
5468,-50,4,1,0,60,0,0
5792,-100,4,1,0,60,0,0
8062,-50,4,1,0,60,0,0
8387,-100,4,1,0,60,0,0
10656,-50,4,1,0,60,0,0
10981,-100,4,1,0,60,0,0
11954,-50,4,1,0,60,0,0
12278,-100,4,1,0,60,0,0
12602,-71.4285714285714,4,1,0,60,0,0
12846,-80,4,1,0,60,0,0
12927,-83.3333333333333,4,1,0,60,0,0
13089,-90.9090909090909,4,1,0,60,0,0
13251,-100,4,1,0,60,0,0
21035,-99.009900990099,4,1,0,60,0,0
21116,-98.0392156862745,4,1,0,60,0,0
21197,-97.0873786407767,4,1,0,60,0,0
21278,-96.1538461538461,4,1,0,60,0,0
21360,-95.2380952380952,4,1,0,60,0,0
21441,-94.3396226415094,4,1,0,60,0,0
21522,-93.4579439252336,4,1,0,60,0,0
21603,-92.5925925925926,4,1,0,60,0,0
21684,-91.743119266055,4,1,0,60,0,0
21765,-90.9090909090909,4,1,0,60,0,0
21846,-90.0900900900901,4,1,0,60,0,0
21927,-89.2857142857143,4,1,0,60,0,0
22008,-88.4955752212389,4,1,0,60,0,0
22089,-87.719298245614,4,1,0,60,0,0
22170,-86.9565217391304,4,1,0,60,0,0
22251,-86.2068965517241,4,1,0,60,0,0
22333,-85.4700854700855,4,1,0,60,0,0
22657,-88.4955752212389,4,1,0,60,0,0
22981,-91.743119266055,4,1,0,60,0,0
23306,-88.4955752212389,4,1,0,60,0,0
23387,-87.719298245614,4,1,0,60,0,0
23468,-86.9565217391304,4,1,0,60,0,0
23549,-86.2068965517241,4,1,0,60,0,0
23630,-85.4700854700855,4,1,0,70,0,0
23792,-95.2380952380952,4,1,0,70,0,0
32224,-94.3396226415094,4,1,0,70,0,0
32305,-93.4579439252336,4,1,0,70,0,0
32386,-92.5925925925926,4,1,0,70,0,0
32467,-91.743119266055,4,1,0,70,0,0
32549,-90.9090909090909,4,1,0,70,0,0
32629,-90.0900900900901,4,1,0,70,0,0
32711,-89.2857142857143,4,1,0,70,0,0
32873,-92.5925925925926,4,1,0,70,0,0
33035,-97.0873786407767,4,1,0,70,0,0
33197,-102.040816326531,4,1,0,70,0,0
33359,-107.52688172043,4,1,0,70,0,0
33683,-88.4955752212389,4,1,0,70,0,0
34008,-111.111111111111,4,1,0,50,0,0
43738,-108.695652173913,4,1,0,50,0,0
43900,-106.382978723404,4,1,0,50,0,0
44062,-104.166666666667,4,1,0,50,0,0
44387,-100,4,1,0,50,0,0
54116,-98.0392156862745,4,1,0,50,0,0
54278,-96.1538461538461,4,1,0,50,0,0
54360,-95.2380952380952,4,1,0,50,0,0
54441,-94.3396226415094,4,1,0,50,0,0
54603,-92.5925925925926,4,1,0,50,0,0
54765,-90.9090909090909,4,1,0,50,0,0
74224,-90.0900900900901,4,1,0,50,0,0
74306,-89.2857142857143,4,1,0,50,0,0
74387,-88.4955752212389,4,1,0,50,0,0
74468,-87.719298245614,4,1,0,50,0,0
74549,-86.9565217391304,4,1,0,50,0,0
74630,-86.2068965517241,4,1,0,50,0,0
74711,-85.4700854700855,4,1,0,50,0,0
74792,-84.7457627118644,4,1,0,50,0,0
74873,-84.0336134453781,4,1,0,50,0,0
74954,-83.3333333333333,4,1,0,50,0,0
75035,-82.6446280991736,4,1,0,50,0,0
75116,-81.9672131147541,4,1,0,50,0,0
75197,-81.3008130081301,4,1,0,50,0,0
75278,-80.6451612903226,4,1,0,50,0,0
75360,-80,4,1,0,50,0,0
75441,-79.3650793650794,4,1,0,50,0,0
75522,-78.7401574803149,4,1,0,50,0,0
75846,-100,4,1,0,50,0,0
76819,-111.111111111111,4,1,0,50,0,0
78116,-125,4,1,0,50,0,0
79414,-142.857142857143,4,1,0,50,0,0
80713,-250,4,1,0,80,0,1
85900,-57.4712643678161,4,1,0,80,0,1
85981,-57.8034682080925,4,1,0,80,0,1
86062,-58.1395348837209,4,1,0,80,0,1
86143,-58.4795321637427,4,1,0,80,0,1
86224,-58.8235294117647,4,1,0,80,0,1
86306,-59.1715976331361,4,1,0,80,0,1
86387,-59.5238095238095,4,1,0,80,0,1
86468,-59.8802395209581,4,1,0,80,0,1
86549,-60.2409638554217,4,1,0,80,0,1
86630,-60.6060606060606,4,1,0,80,0,1
86711,-60.9756097560976,4,1,0,80,0,1
86792,-61.3496932515337,4,1,0,80,0,1
86873,-61.7283950617284,4,1,0,80,0,1
86954,-62.111801242236,4,1,0,80,0,1
87035,-62.5,4,1,0,80,0,1
87116,-62.8930817610063,4,1,0,80,0,1
87197,-63.2911392405063,4,1,0,80,0,1
87278,-63.6942675159236,4,1,0,80,0,1
87360,-64.1025641025641,4,1,0,80,0,1
87441,-64.5161290322581,4,1,0,80,0,1
87522,-64.9350649350649,4,1,0,80,0,1
87603,-65.359477124183,4,1,0,80,0,1
87684,-65.7894736842105,4,1,0,80,0,1
87765,-66.2251655629139,4,1,0,80,0,1
87846,-66.6666666666667,4,1,0,80,0,1
87927,-67.1140939597315,4,1,0,80,0,1
88008,-67.5675675675676,4,1,0,80,0,1
88089,-68.0272108843537,4,1,0,80,0,1
88170,-68.4931506849315,4,1,0,80,0,1
88251,-68.9655172413793,4,1,0,80,0,1
88333,-69.4444444444444,4,1,0,80,0,1
88414,-69.9300699300699,4,1,0,80,0,1
88495,-70.4225352112676,4,1,0,80,0,1
88576,-70.9219858156028,4,1,0,80,0,1
88657,-71.4285714285714,4,1,0,80,0,1
88738,-71.9424460431655,4,1,0,80,0,1
88819,-72.463768115942,4,1,0,80,0,1
88900,-72.992700729927,4,1,0,80,0,1
88981,-73.5294117647059,4,1,0,80,0,1
89062,-74.0740740740741,4,1,0,80,0,1
89143,-74.6268656716418,4,1,0,80,0,1
89224,-75.187969924812,4,1,0,80,0,1
89306,-75.7575757575758,4,1,0,80,0,1
89387,-76.3358778625954,4,1,0,80,0,1
89468,-76.9230769230769,4,1,0,80,0,1
89549,-77.5193798449612,4,1,0,80,0,1
89630,-78.125,4,1,0,80,0,1
89711,-78.7401574803149,4,1,0,80,0,1
89792,-79.3650793650794,4,1,0,80,0,1
89873,-80,4,1,0,80,0,1
89954,-80.6451612903226,4,1,0,80,0,1
90035,-81.3008130081301,4,1,0,80,0,1
90116,-81.9672131147541,4,1,0,80,0,1
90197,-82.6446280991736,4,1,0,80,0,1
90278,-83.3333333333333,4,1,0,80,0,1
90360,-84.0336134453781,4,1,0,80,0,1
90441,-84.7457627118644,4,1,0,80,0,1
90522,-85.4700854700855,4,1,0,80,0,1
90603,-86.2068965517241,4,1,0,80,0,1
90684,-86.9565217391304,4,1,0,80,0,1
90765,-87.719298245614,4,1,0,80,0,1
90846,-88.4955752212389,4,1,0,80,0,1
90927,-89.2857142857143,4,1,0,80,0,1
91008,-90.0900900900901,4,1,0,80,0,1
91089,-90.9090909090909,4,1,0,80,0,1
102765,-90.0900900900901,4,1,0,80,0,1
102846,-89.2857142857143,4,1,0,80,0,1
102927,-88.4955752212389,4,1,0,80,0,1
103008,-87.719298245614,4,1,0,80,0,1
103089,-86.9565217391304,4,1,0,80,0,1
103170,-86.2068965517241,4,1,0,80,0,1
103251,-85.4700854700855,4,1,0,80,0,1
103333,-84.7457627118644,4,1,0,80,0,1
103414,-84.0336134453781,4,1,0,80,0,1
103495,-83.3333333333333,4,1,0,80,0,1
103576,-82.6446280991736,4,1,0,80,0,1
103657,-81.9672131147541,4,1,0,80,0,1
103738,-81.3008130081301,4,1,0,80,0,1
103819,-80.6451612903226,4,1,0,80,0,1
103900,-80,4,1,0,80,0,1
103981,-79.3650793650794,4,1,0,80,0,1
104062,-78.7401574803149,4,1,0,80,0,1
104143,-78.125,4,1,0,80,0,1
104224,-77.5193798449612,4,1,0,80,0,1
104306,-76.9230769230769,4,1,0,80,0,1
104387,-76.3358778625954,4,1,0,80,0,1
104468,-75.7575757575758,4,1,0,80,0,1
104549,-75.187969924812,4,1,0,80,0,1
104630,-74.6268656716418,4,1,0,80,0,1
104711,-74.0740740740741,4,1,0,80,0,1
104792,-73.5294117647059,4,1,0,80,0,1
104873,-72.992700729927,4,1,0,80,0,1
104954,-72.463768115942,4,1,0,80,0,1
105035,-71.9424460431655,4,1,0,80,0,1
105116,-71.4285714285714,4,1,0,80,0,1
105197,-70.9219858156028,4,1,0,80,0,1
105278,-70.4225352112676,4,1,0,80,0,1
105360,-70.9219858156028,4,1,0,80,0,1
105441,-71.4285714285714,4,1,0,80,0,1
105522,-71.9424460431655,4,1,0,80,0,1
105603,-72.463768115942,4,1,0,80,0,1
105684,-72.992700729927,4,1,0,80,0,1
105765,-73.5294117647059,4,1,0,80,0,1
105846,-74.0740740740741,4,1,0,80,0,1
105927,-74.6268656716418,4,1,0,80,0,1
106008,-75.187969924812,4,1,0,80,0,1
106089,-75.7575757575758,4,1,0,80,0,1
106170,-76.3358778625954,4,1,0,80,0,1
106251,-76.9230769230769,4,1,0,80,0,1
106333,-77.5193798449612,4,1,0,80,0,1
106414,-78.125,4,1,0,80,0,1
106495,-78.7401574803149,4,1,0,80,0,1
106576,-79.3650793650794,4,1,0,80,0,1
106657,-80,4,1,0,80,0,1
106738,-80.6451612903226,4,1,0,80,0,1
106819,-81.3008130081301,4,1,0,80,0,1
106900,-81.9672131147541,4,1,0,80,0,1
106981,-82.6446280991736,4,1,0,80,0,1
107062,-83.3333333333333,4,1,0,80,0,1
107143,-84.0336134453781,4,1,0,80,0,1
107224,-84.7457627118644,4,1,0,80,0,1
107306,-85.4700854700855,4,1,0,80,0,1
107387,-86.2068965517241,4,1,0,80,0,1
107468,-86.9565217391304,4,1,0,80,0,1
107549,-87.719298245614,4,1,0,80,0,1
107630,-88.4955752212389,4,1,0,80,0,1
107711,-89.2857142857143,4,1,0,80,0,1
107792,-90.0900900900901,4,1,0,80,0,1
107873,-90.9090909090909,4,1,0,80,0,1
107954,-91.743119266055,4,1,0,80,0,1
108035,-92.5925925925926,4,1,0,80,0,1
108116,-93.4579439252336,4,1,0,80,0,1
108197,-94.3396226415094,4,1,0,80,0,1
108278,-95.2380952380952,4,1,0,80,0,1
108360,-96.1538461538461,4,1,0,80,0,1
108441,-97.0873786407767,4,1,0,80,0,1
108522,-98.0392156862745,4,1,0,80,0,1
108603,-99.009900990099,4,1,0,80,0,1
108684,-100,4,1,0,80,0,1
108765,-101.010101010101,4,1,0,80,0,1
108846,-102.040816326531,4,1,0,80,0,1
108927,-103.092783505155,4,1,0,80,0,1
109008,-104.166666666667,4,1,0,80,0,1
109089,-105.263157894737,4,1,0,80,0,1
109170,-106.382978723404,4,1,0,80,0,1
109251,-107.52688172043,4,1,0,80,0,1
109333,-108.695652173913,4,1,0,80,0,1
109414,-109.89010989011,4,1,0,80,0,1
109495,-111.111111111111,4,1,0,80,0,1
109576,-112.359550561798,4,1,0,80,0,1
109657,-113.636363636364,4,1,0,80,0,1
109738,-114.942528735632,4,1,0,80,0,1
109819,-116.279069767442,4,1,0,80,0,1
109900,-117.647058823529,4,1,0,80,0,1
109981,-119.047619047619,4,1,0,80,0,1
110062,-120.481927710843,4,1,0,80,0,1
110143,-121.951219512195,4,1,0,80,0,1
110224,-123.456790123457,4,1,0,80,0,1
110306,-121.951219512195,4,1,0,80,0,1
110387,-120.481927710843,4,1,0,80,0,1
110468,-119.047619047619,4,1,0,80,0,1
110549,-117.647058823529,4,1,0,80,0,1
110630,-116.279069767442,4,1,0,80,0,1
110711,-114.942528735632,4,1,0,80,0,1
110792,-113.636363636364,4,1,0,80,0,1
110873,-112.359550561798,4,1,0,80,0,1
110954,-111.111111111111,4,1,0,80,0,1
111035,-109.89010989011,4,1,0,80,0,1
111116,-108.695652173913,4,1,0,80,0,1
111197,-107.52688172043,4,1,0,80,0,1
111278,-106.382978723404,4,1,0,80,0,1
111360,-105.263157894737,4,1,0,80,0,1
111441,-104.166666666667,4,1,0,80,0,1
111522,-103.092783505155,4,1,0,80,0,1
111603,-102.040816326531,4,1,0,80,0,1
111684,-101.010101010101,4,1,0,80,0,1
111765,-100,4,1,0,80,0,1
111848,-71.4285714285714,4,1,0,70,0,0
112008,-76.9230769230769,4,1,0,70,0,0
112333,-83.3333333333333,4,1,0,70,0,0
112657,-90.9090909090909,4,1,0,70,0,0
112981,-100,4,1,0,70,0,0
113145,-83.3333333333333,4,1,0,70,0,0
113226,-84.7457627118644,4,1,0,70,0,0
113307,-86.2068965517241,4,1,0,70,0,0
113388,-87.719298245614,4,1,0,70,0,0
113469,-89.2857142857143,4,1,0,70,0,0
113550,-90.9090909090909,4,1,0,70,0,0
113631,-92.5925925925926,4,1,0,70,0,0
113713,-94.3396226415094,4,1,0,70,0,0
113794,-96.1538461538461,4,1,0,70,0,0
113954,-100,4,1,0,70,0,0
114116,-104.166666666667,4,1,0,70,0,0
114278,-108.695652173913,4,1,0,70,0,0
114441,-71.4285714285714,4,1,0,70,0,0
114603,-76.9230769230769,4,1,0,70,0,0
114927,-83.3333333333333,4,1,0,70,0,0
115251,-90.9090909090909,4,1,0,70,0,0
115576,-100,4,1,0,70,0,0
115740,-83.3333333333333,4,1,0,70,0,0
115821,-84.7457627118644,4,1,0,70,0,0
115902,-86.2068965517241,4,1,0,70,0,0
115983,-87.719298245614,4,1,0,70,0,0
116064,-89.2857142857143,4,1,0,70,0,0
116145,-90.9090909090909,4,1,0,70,0,0
116226,-92.5925925925926,4,1,0,70,0,0
116307,-94.3396226415094,4,1,0,70,0,0
116388,-96.1538461538461,4,1,0,70,0,0
116549,-100,4,1,0,70,0,0
116711,-66.6666666666667,4,1,0,70,0,0
116873,-68.9655172413793,4,1,0,70,0,0
117035,-71.4285714285714,4,1,0,70,0,0
117197,-74.0740740740741,4,1,0,70,0,0
117522,-80,4,1,0,70,0,0
117846,-86.9565217391304,4,1,0,70,0,0
118170,-95.2380952380952,4,1,0,70,0,0
118334,-80,4,1,0,70,0,0
118415,-81.3008130081301,4,1,0,70,0,0
118496,-82.6446280991736,4,1,0,70,0,0
118577,-84.0336134453781,4,1,0,70,0,0
118658,-85.4700854700855,4,1,0,70,0,0
118740,-86.9565217391304,4,1,0,70,0,0
118821,-88.4955752212389,4,1,0,70,0,0
118902,-90.0900900900901,4,1,0,70,0,0
118983,-91.743119266055,4,1,0,70,0,0
119143,-95.2380952380952,4,1,0,70,0,0
119306,-66.6666666666667,4,1,0,70,0,0
119468,-68.9655172413793,4,1,0,70,0,0
119630,-71.4285714285714,4,1,0,70,0,0
119792,-74.0740740740741,4,1,0,70,0,0
120116,-80,4,1,0,70,0,0
120441,-86.9565217391304,4,1,0,70,0,0
120765,-95.2380952380952,4,1,0,70,0,0
120929,-80,4,1,0,70,0,0
121010,-81.3008130081301,4,1,0,70,0,0
121091,-82.6446280991736,4,1,0,70,0,0
121172,-84.0336134453781,4,1,0,70,0,0
121253,-85.4700854700855,4,1,0,70,0,0
121334,-86.9565217391304,4,1,0,70,0,0
121415,-88.4955752212389,4,1,0,70,0,0
121496,-90.0900900900901,4,1,0,70,0,0
121577,-91.743119266055,4,1,0,70,0,0
121740,-95.2380952380952,4,1,0,70,0,0
121900,-86.9565217391304,4,1,0,70,0,0
122062,-80,4,1,0,70,0,0
122224,-74.0740740740741,4,1,0,70,0,0
122388,-100,4,1,0,70,0,0
130008,-66.6666666666667,4,1,0,70,0,0
130333,-100,4,1,0,70,0,0
130657,-66.6666666666667,4,1,0,70,0,0
130981,-100,4,1,0,70,0,0
131306,-66.6666666666667,4,1,0,70,0,0
131469,-71.4285714285714,4,1,0,70,0,0
131631,-76.9230769230769,4,1,0,70,0,0
131794,-83.3333333333333,4,1,0,70,0,0
131954,-90.9090909090909,4,1,0,70,0,0
132280,-90.0900900900901,4,1,0,70,0,0
132334,-89.2857142857143,4,1,0,70,0,0
132388,-88.4955752212389,4,1,0,70,0,0
132442,-87.719298245614,4,1,0,70,0,0
132496,-86.9565217391304,4,1,0,70,0,0
132550,-86.2068965517241,4,1,0,70,0,0
132604,-85.4700854700855,4,1,0,70,0,0
132929,-90.9090909090909,4,1,0,80,0,1
142983,-90.9090909090909,4,1,0,80,0,0
143306,-100,4,1,0,40,0,0
157253,324.324324324324,4,1,0,70,1,0
157253,-50,4,1,0,70,0,0
157576,-100,4,1,0,70,0,0
159846,-50,4,1,0,70,0,0
160170,-100,4,1,0,70,0,0
162441,-50,4,1,0,70,0,0
162765,-100,4,1,0,70,0,0
165035,-50,4,1,0,70,0,0
165360,-100,4,1,0,70,0,0
166333,-50,4,1,0,70,0,0
166657,-100,4,1,0,70,0,0
166981,-71.4285714285714,4,1,0,70,0,0
167224,-80,4,1,0,70,0,0
167306,-83.3333333333333,4,1,0,70,0,0
167468,-90.9090909090909,4,1,0,70,0,0
167630,-100,4,1,0,70,0,0
175414,-99.009900990099,4,1,0,70,0,0
175495,-98.0392156862745,4,1,0,70,0,0
175576,-97.0873786407767,4,1,0,70,0,0
175657,-96.1538461538461,4,1,0,70,0,0
175738,-95.2380952380952,4,1,0,70,0,0
175819,-94.3396226415094,4,1,0,70,0,0
175900,-93.4579439252336,4,1,0,70,0,0
175981,-92.5925925925926,4,1,0,70,0,0
176062,-91.743119266055,4,1,0,70,0,0
176143,-90.9090909090909,4,1,0,70,0,0
176224,-90.0900900900901,4,1,0,70,0,0
176306,-89.2857142857143,4,1,0,70,0,0
176387,-88.4955752212389,4,1,0,70,0,0
176468,-87.719298245614,4,1,0,70,0,0
176549,-86.9565217391304,4,1,0,70,0,0
176630,-86.2068965517241,4,1,0,70,0,0
176711,-85.4700854700855,4,1,0,70,0,0
177035,-88.4955752212389,4,1,0,70,0,0
177360,-91.743119266055,4,1,0,70,0,0
177684,-88.4955752212389,4,1,0,70,0,0
177765,-87.719298245614,4,1,0,70,0,0
177846,-86.2068965517241,4,1,0,70,0,0
177927,-84.0336134453781,4,1,0,70,0,0
178009,-81.3008130081301,4,1,0,90,0,1
178170,-90.9090909090909,4,1,0,90,0,1
187251,-90.0900900900901,4,1,0,90,0,1
187333,-89.2857142857143,4,1,0,90,0,1
187414,-88.4955752212389,4,1,0,90,0,1
187495,-87.719298245614,4,1,0,90,0,1
187576,-86.9565217391304,4,1,0,90,0,1
187657,-86.2068965517241,4,1,0,90,0,1
187738,-85.4700854700855,4,1,0,90,0,1
187900,-84.0336134453781,4,1,0,90,0,1
188062,-82.6446280991736,4,1,0,90,0,1
188387,-69.4444444444444,4,1,0,90,0,1
188549,-90.9090909090909,4,1,0,90,0,1
198116,-90.0900900900901,4,1,0,90,0,1
198197,-89.2857142857143,4,1,0,90,0,1
198278,-88.4955752212389,4,1,0,90,0,1
198360,-87.719298245614,4,1,0,90,0,1
198441,-86.9565217391304,4,1,0,90,0,1
198766,-71.9424460431655,4,1,0,90,0,0
198927,-95.2380952380952,4,1,0,90,0,0
208170,-94.3396226415094,4,1,0,90,0,0
208251,-93.4579439252336,4,1,0,90,0,0
208333,-92.5925925925926,4,1,0,90,0,0
208414,-91.743119266055,4,1,0,90,0,0
208495,-90.9090909090909,4,1,0,90,0,0
208657,-89.2857142857143,4,1,0,90,0,0
208819,-87.719298245614,4,1,0,90,0,0
209143,-72.463768115942,4,1,0,90,0,0
209306,-95.2380952380952,4,1,0,90,0,0
217738,-94.3396226415094,4,1,0,90,0,0
217819,-93.4579439252336,4,1,0,90,0,0
217900,-92.5925925925926,4,1,0,90,0,0
217981,-91.743119266055,4,1,0,90,0,0
218062,-90.9090909090909,4,1,0,90,0,0
218224,-75.7575757575758,4,1,0,90,0,0
218549,-81.9672131147541,4,1,0,90,0,0
218873,-89.2857142857143,4,1,0,90,0,0
219197,-98.0392156862745,4,1,0,90,0,0
219522,-83.3333333333333,4,1,0,100,0,0
219684,-100,4,1,0,100,0,0
219846,-83.3333333333333,4,1,0,100,0,0
220008,-100,4,1,0,100,0,0
220170,-83.3333333333333,4,1,0,100,0,0
220333,-100,4,1,0,100,0,0
220495,-83.3333333333333,4,1,0,100,0,0
220657,-100,4,1,0,100,0,0
220819,-83.3333333333333,4,1,0,100,0,0
220981,-100,4,1,0,100,0,0
221143,-83.3333333333333,4,1,0,100,0,0
221306,-100,4,1,0,100,0,0
221468,-83.3333333333333,4,1,0,100,0,0
221630,-100,4,1,0,100,0,0
221792,-83.3333333333333,4,1,0,100,0,0
221954,-100,4,1,0,100,0,0
222116,-83.3333333333333,4,1,0,100,0,0
222278,-100,4,1,0,100,0,0
222441,-83.3333333333333,4,1,0,100,0,0
222603,-100,4,1,0,100,0,0
222765,-83.3333333333333,4,1,0,100,0,0
222927,-100,4,1,0,100,0,0
223089,-83.3333333333333,4,1,0,100,0,0
223251,-100,4,1,0,100,0,0
223414,-83.3333333333333,4,1,0,100,0,0
223576,-100,4,1,0,100,0,0
223738,-83.3333333333333,4,1,0,100,0,0
223900,-100,4,1,0,100,0,0
224062,-83.3333333333333,4,1,0,100,0,0
224224,-100,4,1,0,100,0,0
224387,-83.3333333333333,4,1,0,100,0,0
224549,-100,4,1,0,100,0,0
224711,-76.9230769230769,4,1,0,100,0,0
227306,-71.4285714285714,4,1,0,100,0,0
228603,-66.6666666666667,4,1,0,100,0,0
231197,-10,4,1,0,15,0,0

[HitObjects]
256,192,280,5,8,0:0:0:0:
256,192,604,1,0,0:0:0:0:
256,192,929,1,8,0:0:0:0:
256,192,1091,1,8,0:0:0:0:
256,192,1253,1,8,0:0:0:0:
256,192,1415,1,0,0:0:0:0:
256,192,1577,1,0,0:0:0:0:
256,192,1740,1,8,0:0:0:0:
256,192,2064,1,0,0:0:0:0:
256,192,2226,1,8,0:0:0:0:
256,192,2550,1,8,0:0:0:0:
256,192,2713,1,8,0:0:0:0:
256,192,2875,1,4,0:0:0:0:
256,192,5469,1,4,0:0:0:0:
256,192,8064,1,4,0:0:0:0:
256,192,10658,1,4,0:0:0:0:
256,192,11956,1,4,0:0:0:0:
256,192,12604,1,4,0:0:0:0:
256,192,12848,1,12,0:0:0:0:
256,192,12929,1,12,0:0:0:0:
256,192,13091,1,12,0:0:0:0:
256,192,13253,1,0,0:0:0:0:
256,192,13334,1,0,0:0:0:0:
256,192,13415,1,0,0:0:0:0:
256,192,13496,1,0,0:0:0:0:
256,192,13577,1,8,0:0:0:0:
256,192,13658,1,8,0:0:0:0:
256,192,13740,1,0,0:0:0:0:
256,192,13821,1,0,0:0:0:0:
256,192,13902,1,8,0:0:0:0:
256,192,13983,1,8,0:0:0:0:
256,192,14064,1,8,0:0:0:0:
256,192,14145,1,0,0:0:0:0:
256,192,14226,1,8,0:0:0:0:
256,192,14307,1,8,0:0:0:0:
256,192,14388,1,0,0:0:0:0:
256,192,14469,1,0,0:0:0:0:
256,192,14550,1,8,0:0:0:0:
256,192,14631,1,0,0:0:0:0:
256,192,14713,1,0,0:0:0:0:
256,192,14794,1,0,0:0:0:0:
256,192,14875,1,8,0:0:0:0:
256,192,14956,1,8,0:0:0:0:
256,192,15037,1,0,0:0:0:0:
256,192,15118,1,0,0:0:0:0:
256,192,15199,1,8,0:0:0:0:
256,192,15280,1,0,0:0:0:0:
256,192,15361,1,8,0:0:0:0:
256,192,15442,1,0,0:0:0:0:
256,192,15523,1,8,0:0:0:0:
256,192,15604,1,8,0:0:0:0:
256,192,15685,1,0,0:0:0:0:
256,192,15767,1,0,0:0:0:0:
256,192,15848,1,8,0:0:0:0:
256,192,15929,1,0,0:0:0:0:
256,192,16010,1,0,0:0:0:0:
256,192,16091,1,0,0:0:0:0:
256,192,16172,1,8,0:0:0:0:
256,192,16253,1,8,0:0:0:0:
256,192,16334,1,8,0:0:0:0:
256,192,16415,1,8,0:0:0:0:
256,192,16496,1,0,0:0:0:0:
256,192,16577,1,0,0:0:0:0:
256,192,16658,1,0,0:0:0:0:
256,192,16740,1,0,0:0:0:0:
256,192,16821,1,8,0:0:0:0:
256,192,16902,1,8,0:0:0:0:
256,192,16983,1,0,0:0:0:0:
256,192,17064,1,0,0:0:0:0:
256,192,17145,1,8,0:0:0:0:
256,192,17226,1,8,0:0:0:0:
256,192,17307,1,8,0:0:0:0:
256,192,17388,1,0,0:0:0:0:
256,192,17469,1,8,0:0:0:0:
256,192,17550,1,8,0:0:0:0:
256,192,17631,1,0,0:0:0:0:
256,192,17713,1,0,0:0:0:0:
256,192,17794,1,8,0:0:0:0:
256,192,17875,1,8,0:0:0:0:
256,192,17956,1,8,0:0:0:0:
256,192,18037,1,8,0:0:0:0:
256,192,18118,1,0,0:0:0:0:
256,192,18199,1,0,0:0:0:0:
256,192,18280,1,0,0:0:0:0:
256,192,18361,1,0,0:0:0:0:
256,192,18442,1,8,0:0:0:0:
256,192,18523,1,8,0:0:0:0:
256,192,18604,1,0,0:0:0:0:
256,192,18685,1,0,0:0:0:0:
256,192,18767,1,8,0:0:0:0:
256,192,18848,1,0,0:0:0:0:
256,192,18929,1,0,0:0:0:0:
256,192,19010,1,0,0:0:0:0:
256,192,19091,1,8,0:0:0:0:
256,192,19172,1,0,0:0:0:0:
256,192,19253,1,8,0:0:0:0:
256,192,19334,1,8,0:0:0:0:
256,192,19415,1,8,0:0:0:0:
256,192,19496,1,0,0:0:0:0:
256,192,19577,1,8,0:0:0:0:
256,192,19658,1,8,0:0:0:0:
256,192,19740,1,0,0:0:0:0:
256,192,19821,1,0,0:0:0:0:
256,192,19902,1,0,0:0:0:0:
256,192,19983,1,0,0:0:0:0:
256,192,20064,1,8,0:0:0:0:
256,192,20145,1,8,0:0:0:0:
256,192,20226,1,0,0:0:0:0:
256,192,20307,1,0,0:0:0:0:
256,192,20388,1,8,0:0:0:0:
256,192,20469,1,0,0:0:0:0:
256,192,20550,1,0,0:0:0:0:
256,192,20631,1,0,0:0:0:0:
256,192,20713,1,8,0:0:0:0:
256,192,20794,1,8,0:0:0:0:
256,192,20875,1,0,0:0:0:0:
256,192,20956,1,0,0:0:0:0:
256,192,21037,1,8,0:0:0:0:
256,192,21118,1,0,0:0:0:0:
256,192,21199,1,0,0:0:0:0:
256,192,21280,1,0,0:0:0:0:
256,192,21361,1,8,0:0:0:0:
256,192,21442,1,0,0:0:0:0:
256,192,21523,1,0,0:0:0:0:
256,192,21604,1,0,0:0:0:0:
256,192,21685,1,8,0:0:0:0:
256,192,21767,1,8,0:0:0:0:
256,192,21848,1,0,0:0:0:0:
256,192,21929,1,0,0:0:0:0:
256,192,22010,1,8,0:0:0:0:
256,192,22091,1,8,0:0:0:0:
256,192,22172,1,0,0:0:0:0:
256,192,22253,1,0,0:0:0:0:
256,192,22334,1,8,0:0:0:0:
256,192,22658,1,0,0:0:0:0:
256,192,22983,1,8,0:0:0:0:
256,192,23307,5,8,0:0:0:0:
256,192,23388,1,8,0:0:0:0:
256,192,23469,1,8,0:0:0:0:
256,192,23550,1,8,0:0:0:0:
256,192,23631,1,4,0:0:0:0:
256,192,23794,1,8,0:0:0:0:
256,192,23956,1,0,0:0:0:0:
256,192,24037,1,0,0:0:0:0:
256,192,24118,1,8,0:0:0:0:
256,192,24280,1,0,0:0:0:0:
256,192,24442,1,8,0:0:0:0:
256,192,24523,1,0,0:0:0:0:
256,192,24604,1,8,0:0:0:0:
256,192,24685,1,8,0:0:0:0:
256,192,24767,1,0,0:0:0:0:
256,192,24929,1,8,0:0:0:0:
256,192,25091,1,0,0:0:0:0:
256,192,25172,1,0,0:0:0:0:
256,192,25253,1,8,0:0:0:0:
256,192,25415,1,0,0:0:0:0:
256,192,25577,1,8,0:0:0:0:
256,192,25902,1,8,0:0:0:0:
256,192,26064,1,8,0:0:0:0:
256,192,26226,1,0,0:0:0:0:
256,192,26388,1,8,0:0:0:0:
256,192,26469,1,8,0:0:0:0:
256,192,26550,1,0,0:0:0:0:
256,192,26713,1,0,0:0:0:0:
256,192,26875,1,8,0:0:0:0:
256,192,26956,1,0,0:0:0:0:
256,192,27037,1,8,0:0:0:0:
256,192,27118,1,8,0:0:0:0:
256,192,27199,1,0,0:0:0:0:
256,192,27361,1,0,0:0:0:0:
256,192,27523,1,8,0:0:0:0:
256,192,27685,1,0,0:0:0:0:
256,192,27767,1,0,0:0:0:0:
256,192,27848,1,8,0:0:0:0:
256,192,28010,1,0,0:0:0:0:
256,192,28172,1,8,0:0:0:0:
256,192,28334,1,0,0:0:0:0:
256,192,28496,1,8,0:0:0:0:
256,192,28577,1,8,0:0:0:0:
256,192,28658,1,0,0:0:0:0:
256,192,28740,1,8,0:0:0:0:
256,192,28821,1,8,0:0:0:0:
256,192,28983,1,0,0:0:0:0:
256,192,29145,1,8,0:0:0:0:
256,192,29307,1,0,0:0:0:0:
256,192,29469,1,8,0:0:0:0:
256,192,29631,1,8,0:0:0:0:
256,192,29713,1,8,0:0:0:0:
256,192,29794,1,0,0:0:0:0:
256,192,29956,1,8,0:0:0:0:
256,192,30118,1,0,0:0:0:0:
256,192,30280,1,0,0:0:0:0:
256,192,30361,1,0,0:0:0:0:
256,192,30442,1,8,0:0:0:0:
256,192,30604,1,8,0:0:0:0:
256,192,30767,1,0,0:0:0:0:
256,192,30929,1,0,0:0:0:0:
256,192,31091,1,8,0:0:0:0:
256,192,31172,1,0,0:0:0:0:
256,192,31253,1,8,0:0:0:0:
256,192,31415,1,0,0:0:0:0:
256,192,31740,1,8,0:0:0:0:
256,192,31902,1,0,0:0:0:0:
256,192,31983,1,8,0:0:0:0:
256,192,32064,1,0,0:0:0:0:
256,192,32226,1,0,0:0:0:0:
256,192,32307,1,0,0:0:0:0:
256,192,32388,1,8,0:0:0:0:
256,192,32469,1,0,0:0:0:0:
256,192,32550,1,8,0:0:0:0:
256,192,32631,1,8,0:0:0:0:
256,192,32713,1,4,0:0:0:0:
256,192,32875,1,8,0:0:0:0:
256,192,33037,1,0,0:0:0:0:
256,192,33199,1,0,0:0:0:0:
256,192,33361,1,8,0:0:0:0:
256,192,33685,1,12,0:0:0:0:
256,192,34010,1,0,0:0:0:0:
256,192,34334,1,8,0:0:0:0:
256,192,34658,1,0,0:0:0:0:
256,192,34821,1,0,0:0:0:0:
256,192,34983,1,8,0:0:0:0:
256,192,35307,1,0,0:0:0:0:
256,192,35469,1,0,0:0:0:0:
256,192,35631,1,8,0:0:0:0:
256,192,35794,1,8,0:0:0:0:
256,192,35956,1,0,0:0:0:0:
256,192,36118,1,0,0:0:0:0:
256,192,36280,1,8,0:0:0:0:
256,192,36604,1,0,0:0:0:0:
256,192,36929,1,8,0:0:0:0:
256,192,37253,1,0,0:0:0:0:
256,192,37415,1,0,0:0:0:0:
256,192,37577,1,8,0:0:0:0:
256,192,37902,1,8,0:0:0:0:
256,192,38064,1,0,0:0:0:0:
256,192,38226,1,8,0:0:0:0:
256,192,38388,1,8,0:0:0:0:
256,192,38550,1,0,0:0:0:0:
256,192,38713,1,0,0:0:0:0:
256,192,38875,1,8,0:0:0:0:
256,192,39199,1,0,0:0:0:0:
256,192,39523,1,8,0:0:0:0:
256,192,39848,1,0,0:0:0:0:
256,192,40010,1,0,0:0:0:0:
256,192,40172,1,8,0:0:0:0:
256,192,40496,1,0,0:0:0:0:
256,192,40821,1,8,0:0:0:0:
256,192,41145,1,0,0:0:0:0:
256,192,41307,1,0,0:0:0:0:
256,192,41469,1,8,0:0:0:0:
256,192,41631,1,8,0:0:0:0:
256,192,41794,1,0,0:0:0:0:
256,192,42118,1,8,0:0:0:0:
256,192,42442,1,0,0:0:0:0:
256,192,42604,1,0,0:0:0:0:
256,192,42767,1,8,0:0:0:0:
256,192,43091,1,0,0:0:0:0:
256,192,43415,1,8,0:0:0:0:
256,192,43740,1,0,0:0:0:0:
256,192,43902,1,0,0:0:0:0:
256,192,44064,1,8,0:0:0:0:
256,192,44388,1,0,0:0:0:0:
256,192,44550,1,0,0:0:0:0:
256,192,44631,1,0,0:0:0:0:
256,192,44713,1,8,0:0:0:0:
256,192,44875,1,8,0:0:0:0:
256,192,44956,1,8,0:0:0:0:
256,192,45037,1,0,0:0:0:0:
256,192,45199,1,0,0:0:0:0:
256,192,45361,1,8,0:0:0:0:
256,192,45523,1,8,0:0:0:0:
256,192,45685,1,0,0:0:0:0:
256,192,45848,1,0,0:0:0:0:
256,192,45929,1,0,0:0:0:0:
256,192,46010,1,8,0:0:0:0:
256,192,46172,1,8,0:0:0:0:
256,192,46334,1,0,0:0:0:0:
256,192,46415,1,8,0:0:0:0:
256,192,46496,1,0,0:0:0:0:
256,192,46658,1,8,0:0:0:0:
256,192,46821,1,8,0:0:0:0:
256,192,46902,1,8,0:0:0:0:
256,192,46983,1,0,0:0:0:0:
256,192,47145,1,0,0:0:0:0:
256,192,47307,1,8,0:0:0:0:
256,192,47469,1,0,0:0:0:0:
256,192,47631,1,8,0:0:0:0:
256,192,47713,1,8,0:0:0:0:
256,192,47794,1,0,0:0:0:0:
256,192,47956,1,8,0:0:0:0:
256,192,48118,1,8,0:0:0:0:
256,192,48280,1,0,0:0:0:0:
256,192,48361,1,8,0:0:0:0:
256,192,48442,1,0,0:0:0:0:
256,192,48604,1,8,0:0:0:0:
256,192,48767,1,8,0:0:0:0:
256,192,48848,1,0,0:0:0:0:
256,192,48929,1,0,0:0:0:0:
256,192,49091,1,0,0:0:0:0:
256,192,49253,1,8,0:0:0:0:
256,192,49415,1,8,0:0:0:0:
256,192,49496,1,8,0:0:0:0:
256,192,49577,1,0,0:0:0:0:
256,192,49740,1,0,0:0:0:0:
256,192,49902,1,8,0:0:0:0:
256,192,50064,1,0,0:0:0:0:
256,192,50145,1,8,0:0:0:0:
256,192,50226,1,0,0:0:0:0:
256,192,50388,1,0,0:0:0:0:
256,192,50550,1,8,0:0:0:0:
256,192,50713,1,0,0:0:0:0:
256,192,50794,1,0,0:0:0:0:
256,192,50875,1,0,0:0:0:0:
256,192,51037,1,0,0:0:0:0:
256,192,51199,1,8,0:0:0:0:
256,192,51280,1,0,0:0:0:0:
256,192,51361,1,8,0:0:0:0:
256,192,51523,1,0,0:0:0:0:
256,192,51685,1,0,0:0:0:0:
256,192,51767,1,0,0:0:0:0:
256,192,51848,1,8,0:0:0:0:
256,192,52010,1,8,0:0:0:0:
256,192,52172,1,0,0:0:0:0:
256,192,52334,1,0,0:0:0:0:
256,192,52415,1,0,0:0:0:0:
256,192,52496,1,8,0:0:0:0:
256,192,52658,1,8,0:0:0:0:
256,192,52821,1,0,0:0:0:0:
256,192,52983,1,0,0:0:0:0:
256,192,53145,1,8,0:0:0:0:
256,192,53226,1,0,0:0:0:0:
256,192,53307,1,8,0:0:0:0:
256,192,53469,1,0,0:0:0:0:
256,192,53631,1,0,0:0:0:0:
256,192,53713,1,0,0:0:0:0:
256,192,53794,1,8,0:0:0:0:
256,192,53956,1,8,0:0:0:0:
256,192,54118,1,0,0:0:0:0:
256,192,54280,1,0,0:0:0:0:
256,192,54361,1,8,0:0:0:0:
256,192,54442,1,8,0:0:0:0:
256,192,54604,1,8,0:0:0:0:
256,192,54767,1,0,0:0:0:0:
256,192,54929,1,0,0:0:0:0:
256,192,55010,1,0,0:0:0:0:
256,192,55091,1,8,0:0:0:0:
256,192,55253,1,8,0:0:0:0:
256,192,55334,1,8,0:0:0:0:
256,192,55415,1,0,0:0:0:0:
256,192,55577,1,0,0:0:0:0:
256,192,55740,1,8,0:0:0:0:
256,192,55821,1,0,0:0:0:0:
256,192,55902,1,8,0:0:0:0:
256,192,55983,1,8,0:0:0:0:
256,192,56064,1,0,0:0:0:0:
256,192,56226,1,0,0:0:0:0:
256,192,56388,1,8,0:0:0:0:
256,192,56550,1,0,0:0:0:0:
256,192,56631,1,8,0:0:0:0:
256,192,56713,1,0,0:0:0:0:
256,192,56875,1,0,0:0:0:0:
256,192,56956,1,0,0:0:0:0:
256,192,57037,1,8,0:0:0:0:
256,192,57118,1,0,0:0:0:0:
256,192,57199,1,8,0:0:0:0:
256,192,57280,1,8,0:0:0:0:
256,192,57361,1,0,0:0:0:0:
256,192,57523,1,0,0:0:0:0:
256,192,57685,1,8,0:0:0:0:
256,192,57848,1,0,0:0:0:0:
256,192,57929,1,0,0:0:0:0:
256,192,58010,1,8,0:0:0:0:
256,192,58091,1,0,0:0:0:0:
256,192,58172,1,8,0:0:0:0:
256,192,58334,1,0,0:0:0:0:
256,192,58496,1,8,0:0:0:0:
256,192,58577,1,8,0:0:0:0:
256,192,58658,1,0,0:0:0:0:
256,192,58821,1,8,0:0:0:0:
256,192,58902,1,0,0:0:0:0:
256,192,58983,1,0,0:0:0:0:
256,192,59145,1,8,0:0:0:0:
256,192,59307,1,0,0:0:0:0:
256,192,59388,1,0,0:0:0:0:
256,192,59469,1,8,0:0:0:0:
256,192,59631,1,0,0:0:0:0:
256,192,59713,1,0,0:0:0:0:
256,192,59794,1,8,0:0:0:0:
256,192,59875,1,8,0:0:0:0:
256,192,59956,1,0,0:0:0:0:
256,192,60118,1,0,0:0:0:0:
256,192,60280,1,8,0:0:0:0:
256,192,60442,1,0,0:0:0:0:
256,192,60523,1,0,0:0:0:0:
256,192,60604,1,0,0:0:0:0:
256,192,60767,1,0,0:0:0:0:
256,192,60848,1,0,0:0:0:0:
256,192,60929,1,8,0:0:0:0:
256,192,61091,1,8,0:0:0:0:
256,192,61253,1,0,0:0:0:0:
256,192,61415,1,0,0:0:0:0:
256,192,61496,1,0,0:0:0:0:
256,192,61577,1,8,0:0:0:0:
256,192,61740,1,8,0:0:0:0:
256,192,61821,1,8,0:0:0:0:
256,192,61902,1,0,0:0:0:0:
256,192,61983,1,8,0:0:0:0:
256,192,62064,1,0,0:0:0:0:
256,192,62226,1,8,0:0:0:0:
256,192,62388,1,8,0:0:0:0:
256,192,62469,1,8,0:0:0:0:
256,192,62550,1,0,0:0:0:0:
256,192,62713,1,0,0:0:0:0:
256,192,62875,1,8,0:0:0:0:
256,192,63037,1,0,0:0:0:0:
256,192,63118,1,0,0:0:0:0:
256,192,63199,1,8,0:0:0:0:
256,192,63280,1,0,0:0:0:0:
256,192,63361,1,8,0:0:0:0:
256,192,63523,1,8,0:0:0:0:
256,192,63604,1,8,0:0:0:0:
256,192,63685,1,0,0:0:0:0:
256,192,63848,1,0,0:0:0:0:
256,192,64010,1,0,0:0:0:0:
256,192,64091,1,0,0:0:0:0:
256,192,64172,1,8,0:0:0:0:
256,192,64334,1,8,0:0:0:0:
256,192,64415,1,0,0:0:0:0:
256,192,64496,1,0,0:0:0:0:
256,192,64658,1,0,0:0:0:0:
256,192,64821,1,8,0:0:0:0:
256,192,64983,1,8,0:0:0:0:
256,192,65064,1,8,0:0:0:0:
256,192,65145,1,0,0:0:0:0:
256,192,65307,1,0,0:0:0:0:
256,192,65469,1,8,0:0:0:0:
256,192,65550,1,0,0:0:0:0:
256,192,65631,1,8,0:0:0:0:
256,192,65713,1,8,0:0:0:0:
256,192,65794,1,0,0:0:0:0:
256,192,65956,1,0,0:0:0:0:
256,192,66118,1,8,0:0:0:0:
256,192,66280,1,8,0:0:0:0:
256,192,66361,1,8,0:0:0:0:
256,192,66442,1,8,0:0:0:0:
256,192,66604,1,0,0:0:0:0:
256,192,66685,1,0,0:0:0:0:
256,192,66767,1,8,0:0:0:0:
256,192,66929,1,8,0:0:0:0:
256,192,67010,1,0,0:0:0:0:
256,192,67091,1,0,0:0:0:0:
256,192,67253,1,0,0:0:0:0:
256,192,67334,1,0,0:0:0:0:
256,192,67415,1,8,0:0:0:0:
256,192,67496,1,8,0:0:0:0:
256,192,67577,1,8,0:0:0:0:
256,192,67658,1,8,0:0:0:0:
256,192,67740,1,0,0:0:0:0:
256,192,67821,1,0,0:0:0:0:
256,192,67902,1,0,0:0:0:0:
256,192,67983,1,0,0:0:0:0:
256,192,68064,1,8,0:0:0:0:
256,192,68145,1,0,0:0:0:0:
256,192,68226,1,0,0:0:0:0:
256,192,68307,1,0,0:0:0:0:
256,192,68388,1,8,0:0:0:0:
256,192,68469,1,8,0:0:0:0:
256,192,68550,1,0,0:0:0:0:
256,192,68631,1,0,0:0:0:0:
256,192,68713,1,8,0:0:0:0:
256,192,68794,1,8,0:0:0:0:
256,192,68875,1,8,0:0:0:0:
256,192,68956,1,0,0:0:0:0:
256,192,69037,1,8,0:0:0:0:
256,192,69118,1,8,0:0:0:0:
256,192,69199,1,0,0:0:0:0:
256,192,69280,1,0,0:0:0:0:
256,192,69361,1,8,0:0:0:0:
256,192,69442,1,8,0:0:0:0:
256,192,69523,1,8,0:0:0:0:
256,192,69604,1,8,0:0:0:0:
256,192,69685,1,0,0:0:0:0:
256,192,69767,1,0,0:0:0:0:
256,192,69848,1,0,0:0:0:0:
256,192,69929,1,0,0:0:0:0:
256,192,70010,1,8,0:0:0:0:
256,192,70091,1,8,0:0:0:0:
256,192,70172,1,0,0:0:0:0:
256,192,70253,1,0,0:0:0:0:
256,192,70334,1,8,0:0:0:0:
256,192,70415,1,0,0:0:0:0:
256,192,70496,1,0,0:0:0:0:
256,192,70577,1,0,0:0:0:0:
256,192,70658,1,8,0:0:0:0:
256,192,70740,1,8,0:0:0:0:
256,192,70821,1,8,0:0:0:0:
256,192,70902,1,8,0:0:0:0:
256,192,70983,1,0,0:0:0:0:
256,192,71064,1,0,0:0:0:0:
256,192,71145,1,8,0:0:0:0:
256,192,71226,1,0,0:0:0:0:
256,192,71307,1,8,0:0:0:0:
256,192,71388,1,8,0:0:0:0:
256,192,71469,1,0,0:0:0:0:
256,192,71550,1,0,0:0:0:0:
256,192,71631,1,8,0:0:0:0:
256,192,71713,1,0,0:0:0:0:
256,192,71794,1,0,0:0:0:0:
256,192,71875,1,0,0:0:0:0:
256,192,71956,1,8,0:0:0:0:
256,192,72037,1,8,0:0:0:0:
256,192,72118,1,0,0:0:0:0:
256,192,72199,1,0,0:0:0:0:
256,192,72280,1,8,0:0:0:0:
256,192,72361,1,0,0:0:0:0:
256,192,72442,1,8,0:0:0:0:
256,192,72523,1,8,0:0:0:0:
256,192,72604,1,0,0:0:0:0:
256,192,72685,1,0,0:0:0:0:
256,192,72767,1,8,0:0:0:0:
256,192,72848,1,8,0:0:0:0:
256,192,72929,1,0,0:0:0:0:
256,192,73010,1,0,0:0:0:0:
256,192,73091,1,0,0:0:0:0:
256,192,73172,1,0,0:0:0:0:
256,192,73253,1,8,0:0:0:0:
256,192,73334,1,0,0:0:0:0:
256,192,73415,1,0,0:0:0:0:
256,192,73496,1,0,0:0:0:0:
256,192,73577,1,8,0:0:0:0:
256,192,73658,1,8,0:0:0:0:
256,192,73740,1,0,0:0:0:0:
256,192,73821,1,0,0:0:0:0:
256,192,73902,1,8,0:0:0:0:
256,192,73983,1,0,0:0:0:0:
256,192,74064,1,0,0:0:0:0:
256,192,74145,1,0,0:0:0:0:
256,192,74226,1,8,0:0:0:0:
256,192,74307,1,8,0:0:0:0:
256,192,74388,1,8,0:0:0:0:
256,192,74469,1,0,0:0:0:0:
256,192,74550,1,8,0:0:0:0:
256,192,74631,1,8,0:0:0:0:
256,192,74713,1,0,0:0:0:0:
256,192,74794,1,0,0:0:0:0:
256,192,74875,1,0,0:0:0:0:
256,192,74956,1,0,0:0:0:0:
256,192,75037,1,8,0:0:0:0:
256,192,75118,1,8,0:0:0:0:
256,192,75199,1,8,0:0:0:0:
256,192,75280,1,0,0:0:0:0:
256,192,75361,1,8,0:0:0:0:
256,192,75442,1,8,0:0:0:0:
256,192,75523,1,0,0:0:0:0:
256,192,80713,5,0,0:0:0:0:
256,192,80875,5,8,0:0:0:0:
256,192,80956,1,8,0:0:0:0:
256,192,81037,1,0,0:0:0:0:
256,192,81199,5,8,0:0:0:0:
256,192,81280,1,8,0:0:0:0:
256,192,81361,1,0,0:0:0:0:
256,192,81523,1,8,0:0:0:0:
256,192,81604,1,8,0:0:0:0:
256,192,81685,1,0,0:0:0:0:
256,192,81848,1,8,0:0:0:0:
256,192,81929,1,8,0:0:0:0:
256,192,82010,1,0,0:0:0:0:
256,192,82172,1,8,0:0:0:0:
256,192,82253,1,8,0:0:0:0:
256,192,82334,1,0,0:0:0:0:
256,192,82496,1,8,0:0:0:0:
256,192,82577,1,8,0:0:0:0:
256,192,82658,1,0,0:0:0:0:
256,192,82821,1,8,0:0:0:0:
256,192,82902,1,8,0:0:0:0:
256,192,82983,1,0,0:0:0:0:
256,192,83145,1,8,0:0:0:0:
256,192,83226,1,8,0:0:0:0:
256,192,83307,1,0,0:0:0:0:
256,192,83469,1,8,0:0:0:0:
256,192,83550,1,8,0:0:0:0:
256,192,83631,1,0,0:0:0:0:
256,192,83794,1,8,0:0:0:0:
256,192,83875,1,8,0:0:0:0:
256,192,83956,1,0,0:0:0:0:
256,192,84118,1,8,0:0:0:0:
256,192,84199,1,8,0:0:0:0:
256,192,84280,1,0,0:0:0:0:
256,192,84442,1,8,0:0:0:0:
256,192,84523,1,8,0:0:0:0:
256,192,84604,1,0,0:0:0:0:
256,192,84767,1,8,0:0:0:0:
256,192,84848,1,8,0:0:0:0:
256,192,84929,1,0,0:0:0:0:
256,192,85091,1,8,0:0:0:0:
256,192,85172,1,8,0:0:0:0:
256,192,85253,1,0,0:0:0:0:
256,192,85415,1,8,0:0:0:0:
256,192,85496,1,8,0:0:0:0:
256,192,85577,1,0,0:0:0:0:
256,192,85740,1,0,0:0:0:0:
256,192,85902,1,0,0:0:0:0:
256,192,85983,1,0,0:0:0:0:
256,192,86064,1,8,0:0:0:0:
256,192,86145,1,8,0:0:0:0:
256,192,86226,1,0,0:0:0:0:
256,192,86307,1,0,0:0:0:0:
256,192,86388,1,8,0:0:0:0:
256,192,86469,1,8,0:0:0:0:
256,192,86550,1,0,0:0:0:0:
256,192,86631,1,0,0:0:0:0:
256,192,86713,1,8,0:0:0:0:
256,192,86794,1,8,0:0:0:0:
256,192,86875,1,0,0:0:0:0:
256,192,86956,1,0,0:0:0:0:
256,192,87037,1,8,0:0:0:0:
256,192,87118,1,8,0:0:0:0:
256,192,87199,1,0,0:0:0:0:
256,192,87280,1,0,0:0:0:0:
256,192,87361,1,8,0:0:0:0:
256,192,87442,1,8,0:0:0:0:
256,192,87523,1,0,0:0:0:0:
256,192,87604,1,0,0:0:0:0:
256,192,87685,1,8,0:0:0:0:
256,192,87767,1,8,0:0:0:0:
256,192,87848,1,0,0:0:0:0:
256,192,87929,1,0,0:0:0:0:
256,192,88010,1,8,0:0:0:0:
256,192,88091,1,8,0:0:0:0:
256,192,88172,1,0,0:0:0:0:
256,192,88253,1,0,0:0:0:0:
256,192,88334,1,8,0:0:0:0:
256,192,88415,1,8,0:0:0:0:
256,192,88496,1,0,0:0:0:0:
256,192,88577,1,0,0:0:0:0:
256,192,88658,1,8,0:0:0:0:
256,192,88740,1,8,0:0:0:0:
256,192,88821,1,0,0:0:0:0:
256,192,88902,1,0,0:0:0:0:
256,192,88983,1,8,0:0:0:0:
256,192,89064,1,8,0:0:0:0:
256,192,89145,1,0,0:0:0:0:
256,192,89226,1,0,0:0:0:0:
256,192,89307,1,8,0:0:0:0:
256,192,89388,1,8,0:0:0:0:
256,192,89469,1,0,0:0:0:0:
256,192,89550,1,0,0:0:0:0:
256,192,89631,1,8,0:0:0:0:
256,192,89713,1,8,0:0:0:0:
256,192,89794,1,0,0:0:0:0:
256,192,89875,1,0,0:0:0:0:
256,192,89956,1,8,0:0:0:0:
256,192,90037,1,8,0:0:0:0:
256,192,90118,1,0,0:0:0:0:
256,192,90199,1,0,0:0:0:0:
256,192,90280,1,8,0:0:0:0:
256,192,90361,1,8,0:0:0:0:
256,192,90442,1,0,0:0:0:0:
256,192,90523,1,0,0:0:0:0:
256,192,90604,1,8,0:0:0:0:
256,192,90685,1,8,0:0:0:0:
256,192,90767,1,0,0:0:0:0:
256,192,90848,1,0,0:0:0:0:
256,192,90929,1,8,0:0:0:0:
256,192,91010,1,8,0:0:0:0:
256,192,91091,1,0,0:0:0:0:
256,192,91253,1,8,0:0:0:0:
256,192,91334,1,8,0:0:0:0:
256,192,91415,1,0,0:0:0:0:
256,192,91496,1,8,0:0:0:0:
256,192,91577,1,8,0:0:0:0:
256,192,91740,1,0,0:0:0:0:
256,192,91902,1,8,0:0:0:0:
256,192,91983,1,8,0:0:0:0:
256,192,92064,1,0,0:0:0:0:
256,192,92145,1,0,0:0:0:0:
256,192,92226,1,8,0:0:0:0:
256,192,92388,1,0,0:0:0:0:
256,192,92550,1,8,0:0:0:0:
256,192,92631,1,0,0:0:0:0:
256,192,92713,1,8,0:0:0:0:
256,192,92794,1,8,0:0:0:0:
256,192,92875,1,0,0:0:0:0:
256,192,93037,1,0,0:0:0:0:
256,192,93118,1,0,0:0:0:0:
256,192,93199,1,8,0:0:0:0:
256,192,93280,1,8,0:0:0:0:
256,192,93361,1,0,0:0:0:0:
256,192,93523,1,8,0:0:0:0:
256,192,93685,1,0,0:0:0:0:
256,192,93848,1,8,0:0:0:0:
256,192,94010,1,0,0:0:0:0:
256,192,94091,1,8,0:0:0:0:
256,192,94172,1,8,0:0:0:0:
256,192,94334,1,0,0:0:0:0:
256,192,94415,1,0,0:0:0:0:
256,192,94496,1,8,0:0:0:0:
256,192,94577,1,0,0:0:0:0:
256,192,94658,1,8,0:0:0:0:
256,192,94821,1,8,0:0:0:0:
256,192,94983,1,0,0:0:0:0:
256,192,95064,1,8,0:0:0:0:
256,192,95145,1,0,0:0:0:0:
256,192,95307,1,8,0:0:0:0:
256,192,95388,1,8,0:0:0:0:
256,192,95469,1,0,0:0:0:0:
256,192,95631,1,8,0:0:0:0:
256,192,95713,1,0,0:0:0:0:
256,192,95794,1,8,0:0:0:0:
256,192,95875,1,8,0:0:0:0:
256,192,95956,1,0,0:0:0:0:
256,192,96118,1,0,0:0:0:0:
256,192,96280,1,8,0:0:0:0:
256,192,96361,1,0,0:0:0:0:
256,192,96442,1,0,0:0:0:0:
256,192,96523,1,8,0:0:0:0:
256,192,96604,1,8,0:0:0:0:
256,192,96685,1,0,0:0:0:0:
256,192,96767,1,0,0:0:0:0:
256,192,96929,1,8,0:0:0:0:
256,192,97091,1,0,0:0:0:0:
256,192,97172,1,8,0:0:0:0:
256,192,97253,1,8,0:0:0:0:
256,192,97415,1,8,0:0:0:0:
256,192,97577,1,0,0:0:0:0:
256,192,97658,1,8,0:0:0:0:
256,192,97740,1,8,0:0:0:0:
256,192,97821,1,0,0:0:0:0:
256,192,97902,1,0,0:0:0:0:
256,192,97983,1,8,0:0:0:0:
256,192,98064,1,8,0:0:0:0:
256,192,98226,1,8,0:0:0:0:
256,192,98307,1,0,0:0:0:0:
256,192,98388,1,8,0:0:0:0:
256,192,98469,1,8,0:0:0:0:
256,192,98550,1,0,0:0:0:0:
256,192,98713,1,0,0:0:0:0:
256,192,98875,1,8,0:0:0:0:
256,192,98956,1,8,0:0:0:0:
256,192,99037,1,0,0:0:0:0:
256,192,99118,1,0,0:0:0:0:
256,192,99199,1,8,0:0:0:0:
256,192,99280,1,0,0:0:0:0:
256,192,99361,1,8,0:0:0:0:
256,192,99523,1,0,0:0:0:0:
256,192,99604,1,0,0:0:0:0:
256,192,99685,1,8,0:0:0:0:
256,192,99767,1,8,0:0:0:0:
256,192,99848,1,0,0:0:0:0:
256,192,100010,1,0,0:0:0:0:
256,192,100172,1,8,0:0:0:0:
256,192,100253,1,0,0:0:0:0:
256,192,100334,1,8,0:0:0:0:
256,192,100496,1,0,0:0:0:0:
256,192,100577,1,0,0:0:0:0:
256,192,100658,1,8,0:0:0:0:
256,192,100740,1,8,0:0:0:0:
256,192,100821,1,0,0:0:0:0:
256,192,100902,1,8,0:0:0:0:
256,192,100983,1,8,0:0:0:0:
256,192,101064,1,0,0:0:0:0:
256,192,101145,1,8,0:0:0:0:
256,192,101226,1,0,0:0:0:0:
256,192,101307,1,8,0:0:0:0:
256,192,101388,1,8,0:0:0:0:
256,192,101469,1,0,0:0:0:0:
256,192,101631,1,8,0:0:0:0:
256,192,101713,1,0,0:0:0:0:
256,192,101794,1,0,0:0:0:0:
256,192,101875,1,8,0:0:0:0:
256,192,101956,1,0,0:0:0:0:
256,192,102037,1,0,0:0:0:0:
256,192,102118,1,8,0:0:0:0:
256,192,102199,1,8,0:0:0:0:
256,192,102280,1,0,0:0:0:0:
256,192,102361,1,8,0:0:0:0:
256,192,102442,1,8,0:0:0:0:
256,192,102523,1,0,0:0:0:0:
256,192,102604,1,8,0:0:0:0:
256,192,102767,1,0,0:0:0:0:
256,192,102848,1,0,0:0:0:0:
256,192,102929,1,8,0:0:0:0:
256,192,103010,1,8,0:0:0:0:
256,192,103091,1,8,0:0:0:0:
256,192,103172,1,0,0:0:0:0:
256,192,103253,1,8,0:0:0:0:
256,192,103334,1,8,0:0:0:0:
256,192,103415,1,0,0:0:0:0:
256,192,103496,1,0,0:0:0:0:
256,192,103577,1,8,0:0:0:0:
256,192,103658,1,0,0:0:0:0:
256,192,103740,1,0,0:0:0:0:
256,192,103821,1,0,0:0:0:0:
256,192,103902,1,8,0:0:0:0:
256,192,103983,1,8,0:0:0:0:
256,192,104064,1,0,0:0:0:0:
256,192,104145,1,0,0:0:0:0:
256,192,104226,1,8,0:0:0:0:
256,192,104307,1,8,0:0:0:0:
256,192,104388,1,8,0:0:0:0:
256,192,104469,1,0,0:0:0:0:
256,192,104550,1,8,0:0:0:0:
256,192,104631,1,8,0:0:0:0:
256,192,104713,1,8,0:0:0:0:
256,192,104794,1,8,0:0:0:0:
256,192,104875,1,0,0:0:0:0:
256,192,104956,1,0,0:0:0:0:
256,192,105037,1,8,0:0:0:0:
256,192,105118,1,8,0:0:0:0:
256,192,105199,1,8,0:0:0:0:
256,192,105280,1,8,0:0:0:0:
256,192,105361,1,0,0:0:0:0:
256,192,105442,1,0,0:0:0:0:
256,192,105523,1,8,0:0:0:0:
256,192,105604,1,8,0:0:0:0:
256,192,105685,1,0,0:0:0:0:
256,192,105767,1,0,0:0:0:0:
256,192,105848,1,8,0:0:0:0:
256,192,105929,1,8,0:0:0:0:
256,192,106010,1,0,0:0:0:0:
256,192,106091,1,0,0:0:0:0:
256,192,106172,1,0,0:0:0:0:
256,192,106253,1,0,0:0:0:0:
256,192,106334,1,8,0:0:0:0:
256,192,106415,1,8,0:0:0:0:
256,192,106496,1,0,0:0:0:0:
256,192,106577,1,0,0:0:0:0:
256,192,106658,1,8,0:0:0:0:
256,192,106740,1,8,0:0:0:0:
256,192,106821,1,8,0:0:0:0:
256,192,106902,1,0,0:0:0:0:
256,192,106983,1,8,0:0:0:0:
256,192,107064,1,8,0:0:0:0:
256,192,107145,1,8,0:0:0:0:
256,192,107226,1,8,0:0:0:0:
256,192,107307,1,0,0:0:0:0:
256,192,107388,1,0,0:0:0:0:
256,192,107469,1,8,0:0:0:0:
256,192,107550,1,0,0:0:0:0:
256,192,107631,1,8,0:0:0:0:
256,192,107713,1,8,0:0:0:0:
256,192,107794,1,8,0:0:0:0:
256,192,107875,1,8,0:0:0:0:
256,192,107956,1,0,0:0:0:0:
256,192,108037,1,0,0:0:0:0:
256,192,108118,1,8,0:0:0:0:
256,192,108199,1,8,0:0:0:0:
256,192,108280,1,0,0:0:0:0:
256,192,108361,1,0,0:0:0:0:
256,192,108442,1,8,0:0:0:0:
256,192,108523,1,8,0:0:0:0:
256,192,108604,1,0,0:0:0:0:
256,192,108685,1,0,0:0:0:0:
256,192,108767,1,0,0:0:0:0:
256,192,108848,1,0,0:0:0:0:
256,192,108929,1,8,0:0:0:0:
256,192,109010,1,8,0:0:0:0:
256,192,109091,1,8,0:0:0:0:
256,192,109172,1,0,0:0:0:0:
256,192,109253,1,8,0:0:0:0:
256,192,109334,1,8,0:0:0:0:
256,192,109415,1,0,0:0:0:0:
256,192,109496,1,0,0:0:0:0:
256,192,109577,1,8,0:0:0:0:
256,192,109658,1,0,0:0:0:0:
256,192,109740,1,0,0:0:0:0:
256,192,109821,1,0,0:0:0:0:
256,192,109902,1,8,0:0:0:0:
256,192,109983,1,8,0:0:0:0:
256,192,110064,1,0,0:0:0:0:
256,192,110145,1,0,0:0:0:0:
256,192,110226,1,8,0:0:0:0:
256,192,110307,1,8,0:0:0:0:
256,192,110388,1,8,0:0:0:0:
256,192,110469,1,8,0:0:0:0:
256,192,110550,1,0,0:0:0:0:
256,192,110631,1,0,0:0:0:0:
256,192,110713,1,8,0:0:0:0:
256,192,110794,1,8,0:0:0:0:
256,192,110875,1,0,0:0:0:0:
256,192,110956,1,0,0:0:0:0:
256,192,111037,1,8,0:0:0:0:
256,192,111118,1,0,0:0:0:0:
256,192,111199,1,8,0:0:0:0:
256,192,111280,1,8,0:0:0:0:
256,192,111361,1,0,0:0:0:0:
256,192,111442,1,0,0:0:0:0:
256,192,111523,1,8,0:0:0:0:
256,192,111604,1,0,0:0:0:0:
256,192,111685,1,8,0:0:0:0:
256,192,111767,1,8,0:0:0:0:
256,192,111848,1,4,0:0:0:0:
256,192,112010,1,4,0:0:0:0:
256,192,112334,1,12,0:0:0:0:
256,192,112658,1,4,0:0:0:0:
256,192,112983,1,12,0:0:0:0:
256,192,113145,1,0,0:0:0:0:
256,192,113226,1,0,0:0:0:0:
256,192,113307,1,8,0:0:0:0:
256,192,113388,1,0,0:0:0:0:
256,192,113469,1,8,0:0:0:0:
256,192,113550,1,0,0:0:0:0:
256,192,113631,1,8,0:0:0:0:
256,192,113713,1,8,0:0:0:0:
256,192,113794,1,0,0:0:0:0:
256,192,113956,1,0,0:0:0:0:
256,192,114118,1,8,0:0:0:0:
256,192,114280,1,0,0:0:0:0:
256,192,114442,1,12,0:0:0:0:
256,192,114604,1,4,0:0:0:0:
256,192,114929,1,4,0:0:0:0:
256,192,115253,1,12,0:0:0:0:
256,192,115577,1,4,0:0:0:0:
256,192,115740,1,8,0:0:0:0:
256,192,115821,1,8,0:0:0:0:
256,192,115902,1,8,0:0:0:0:
256,192,115983,1,0,0:0:0:0:
256,192,116064,1,8,0:0:0:0:
256,192,116145,1,8,0:0:0:0:
256,192,116226,1,0,0:0:0:0:
256,192,116307,1,0,0:0:0:0:
256,192,116388,1,0,0:0:0:0:
256,192,116550,1,0,0:0:0:0:
256,192,116713,1,12,0:0:0:0:
256,192,116875,1,4,0:0:0:0:
256,192,117037,1,12,0:0:0:0:
256,192,117199,1,4,0:0:0:0:
256,192,117523,1,12,0:0:0:0:
256,192,117848,1,4,0:0:0:0:
256,192,118172,1,12,0:0:0:0:
256,192,118334,1,8,0:0:0:0:
256,192,118415,1,8,0:0:0:0:
256,192,118496,1,0,0:0:0:0:
256,192,118577,1,0,0:0:0:0:
256,192,118658,1,8,0:0:0:0:
256,192,118740,1,8,0:0:0:0:
256,192,118821,1,8,0:0:0:0:
256,192,118902,1,8,0:0:0:0:
256,192,118983,1,0,0:0:0:0:
256,192,119145,1,0,0:0:0:0:
256,192,119307,1,12,0:0:0:0:
256,192,119469,1,4,0:0:0:0:
256,192,119631,1,12,0:0:0:0:
256,192,119794,1,4,0:0:0:0:
256,192,120118,1,12,0:0:0:0:
256,192,120442,1,4,0:0:0:0:
256,192,120767,1,12,0:0:0:0:
256,192,120929,1,8,0:0:0:0:
256,192,121010,1,0,0:0:0:0:
256,192,121091,1,8,0:0:0:0:
256,192,121172,1,8,0:0:0:0:
256,192,121253,1,0,0:0:0:0:
256,192,121334,1,8,0:0:0:0:
256,192,121415,1,0,0:0:0:0:
256,192,121496,1,0,0:0:0:0:
256,192,121577,1,8,0:0:0:0:
256,192,121740,1,0,0:0:0:0:
256,192,121902,1,12,0:0:0:0:
256,192,122064,1,12,0:0:0:0:
256,192,122226,1,4,0:0:0:0:
256,192,122388,1,8,0:0:0:0:
256,192,122469,1,8,0:0:0:0:
256,192,122550,1,0,0:0:0:0:
256,192,122631,1,0,0:0:0:0:
256,192,122713,1,8,0:0:0:0:
256,192,122794,1,0,0:0:0:0:
256,192,122875,1,8,0:0:0:0:
256,192,123037,1,0,0:0:0:0:
256,192,123118,1,0,0:0:0:0:
256,192,123199,1,8,0:0:0:0:
256,192,123280,1,0,0:0:0:0:
256,192,123361,1,8,0:0:0:0:
256,192,123442,1,8,0:0:0:0:
256,192,123523,1,0,0:0:0:0:
256,192,123685,1,8,0:0:0:0:
256,192,123848,1,0,0:0:0:0:
256,192,123929,1,0,0:0:0:0:
256,192,124010,1,8,0:0:0:0:
256,192,124172,1,0,0:0:0:0:
256,192,124334,1,8,0:0:0:0:
256,192,124415,1,0,0:0:0:0:
256,192,124496,1,8,0:0:0:0:
256,192,124577,1,8,0:0:0:0:
256,192,124658,1,0,0:0:0:0:
256,192,124821,1,8,0:0:0:0:
256,192,124983,1,8,0:0:0:0:
256,192,125064,1,8,0:0:0:0:
256,192,125145,1,0,0:0:0:0:
256,192,125226,1,0,0:0:0:0:
256,192,125307,1,8,0:0:0:0:
256,192,125469,1,0,0:0:0:0:
256,192,125550,1,0,0:0:0:0:
256,192,125631,1,8,0:0:0:0:
256,192,125713,1,0,0:0:0:0:
256,192,125794,1,0,0:0:0:0:
256,192,125956,1,8,0:0:0:0:
256,192,126118,1,0,0:0:0:0:
256,192,126280,1,0,0:0:0:0:
256,192,126361,1,0,0:0:0:0:
256,192,126442,1,8,0:0:0:0:
256,192,126604,1,0,0:0:0:0:
256,192,126685,1,0,0:0:0:0:
256,192,126767,1,8,0:0:0:0:
256,192,126848,1,0,0:0:0:0:
256,192,126929,1,8,0:0:0:0:
256,192,127010,1,8,0:0:0:0:
256,192,127091,1,0,0:0:0:0:
256,192,127253,1,8,0:0:0:0:
256,192,127415,1,0,0:0:0:0:
256,192,127496,1,0,0:0:0:0:
256,192,127577,1,8,0:0:0:0:
256,192,127658,1,8,0:0:0:0:
256,192,127740,1,0,0:0:0:0:
256,192,127902,1,8,0:0:0:0:
256,192,127983,1,8,0:0:0:0:
256,192,128064,1,0,0:0:0:0:
256,192,128145,1,0,0:0:0:0:
256,192,128226,1,8,0:0:0:0:
256,192,128307,1,0,0:0:0:0:
256,192,128388,1,0,0:0:0:0:
256,192,128469,1,0,0:0:0:0:
256,192,128550,1,8,0:0:0:0:
256,192,128631,1,8,0:0:0:0:
256,192,128713,1,0,0:0:0:0:
256,192,128875,1,0,0:0:0:0:
256,192,128956,1,0,0:0:0:0:
256,192,129037,1,8,0:0:0:0:
256,192,129118,1,8,0:0:0:0:
256,192,129199,1,0,0:0:0:0:
256,192,129280,1,8,0:0:0:0:
256,192,129361,1,0,0:0:0:0:
256,192,129442,1,0,0:0:0:0:
256,192,129523,1,0,0:0:0:0:
256,192,129604,1,0,0:0:0:0:
256,192,129685,1,8,0:0:0:0:
256,192,129767,1,8,0:0:0:0:
256,192,129848,1,8,0:0:0:0:
256,192,129929,1,8,0:0:0:0:
256,192,130010,1,4,0:0:0:0:
256,192,130658,1,4,0:0:0:0:
256,192,131307,1,12,0:0:0:0:
256,192,131469,1,12,0:0:0:0:
256,192,131631,1,4,0:0:0:0:
256,192,131794,1,4,0:0:0:0:
256,192,131956,1,8,0:0:0:0:
256,192,132037,1,8,0:0:0:0:
256,192,132118,1,0,0:0:0:0:
256,192,132199,1,0,0:0:0:0:
256,192,132280,1,8,0:0:0:0:
256,192,132334,1,8,0:0:0:0:
256,192,132388,1,8,0:0:0:0:
256,192,132442,1,8,0:0:0:0:
256,192,132496,1,8,0:0:0:0:
256,192,132550,1,8,0:0:0:0:
256,192,132604,1,4,0:0:0:0:
256,192,132929,5,4,0:0:0:0:
256,192,133091,1,0,0:0:0:0:
256,192,133172,1,0,0:0:0:0:
256,192,133253,1,8,0:0:0:0:
256,192,133307,1,8,0:0:0:0:
256,192,133361,1,8,0:0:0:0:
256,192,133415,1,0,0:0:0:0:
256,192,133496,1,0,0:0:0:0:
256,192,133577,1,8,0:0:0:0:
256,192,133658,1,8,0:0:0:0:
256,192,133740,1,0,0:0:0:0:
256,192,133821,1,0,0:0:0:0:
256,192,133902,1,8,0:0:0:0:
256,192,133956,1,8,0:0:0:0:
256,192,134010,1,8,0:0:0:0:
256,192,134064,1,0,0:0:0:0:
256,192,134145,1,0,0:0:0:0:
256,192,134226,1,8,0:0:0:0:
256,192,134307,1,0,0:0:0:0:
256,192,134388,1,0,0:0:0:0:
256,192,134469,1,0,0:0:0:0:
256,192,134550,1,8,0:0:0:0:
256,192,134604,1,8,0:0:0:0:
256,192,134658,1,8,0:0:0:0:
256,192,134713,1,0,0:0:0:0:
256,192,134794,1,0,0:0:0:0:
256,192,134875,1,8,0:0:0:0:
256,192,134929,1,8,0:0:0:0:
256,192,134983,1,8,0:0:0:0:
256,192,135037,1,0,0:0:0:0:
256,192,135091,1,0,0:0:0:0:
256,192,135145,1,0,0:0:0:0:
256,192,135199,1,8,0:0:0:0:
256,192,135361,1,0,0:0:0:0:
256,192,135442,1,0,0:0:0:0:
256,192,135523,1,8,0:0:0:0:
256,192,135577,1,8,0:0:0:0:
256,192,135631,1,8,0:0:0:0:
256,192,135685,1,0,0:0:0:0:
256,192,135767,1,0,0:0:0:0:
256,192,135848,1,8,0:0:0:0:
256,192,135929,1,8,0:0:0:0:
256,192,136010,1,0,0:0:0:0:
256,192,136091,1,0,0:0:0:0:
256,192,136172,1,8,0:0:0:0:
256,192,136226,1,8,0:0:0:0:
256,192,136280,1,8,0:0:0:0:
256,192,136334,1,0,0:0:0:0:
256,192,136415,1,0,0:0:0:0:
256,192,136496,1,8,0:0:0:0:
256,192,136577,1,0,0:0:0:0:
256,192,136658,1,8,0:0:0:0:
256,192,136740,1,8,0:0:0:0:
256,192,136821,1,0,0:0:0:0:
256,192,136875,1,0,0:0:0:0:
256,192,136929,1,0,0:0:0:0:
256,192,136983,1,8,0:0:0:0:
256,192,137064,1,8,0:0:0:0:
256,192,137145,1,0,0:0:0:0:
256,192,137199,1,8,0:0:0:0:
256,192,137253,1,8,0:0:0:0:
256,192,137307,1,0,0:0:0:0:
256,192,137388,1,0,0:0:0:0:
256,192,137469,1,8,0:0:0:0:
256,192,137523,1,8,0:0:0:0:
256,192,137577,1,8,0:0:0:0:
256,192,137631,1,8,0:0:0:0:
256,192,137685,1,8,0:0:0:0:
256,192,137740,1,8,0:0:0:0:
256,192,137794,1,0,0:0:0:0:
256,192,137956,1,0,0:0:0:0:
256,192,138037,1,0,0:0:0:0:
256,192,138118,1,8,0:0:0:0:
256,192,138172,1,8,0:0:0:0:
256,192,138226,1,8,0:0:0:0:
256,192,138280,1,0,0:0:0:0:
256,192,138361,1,0,0:0:0:0:
256,192,138442,1,8,0:0:0:0:
256,192,138496,1,8,0:0:0:0:
256,192,138550,1,8,0:0:0:0:
256,192,138604,1,0,0:0:0:0:
256,192,138685,1,0,0:0:0:0:
256,192,138767,1,8,0:0:0:0:
256,192,138821,1,0,0:0:0:0:
256,192,138875,1,0,0:0:0:0:
256,192,138929,1,8,0:0:0:0:
256,192,139010,1,0,0:0:0:0:
256,192,139091,1,8,0:0:0:0:
256,192,139145,1,0,0:0:0:0:
256,192,139199,1,0,0:0:0:0:
256,192,139253,1,8,0:0:0:0:
256,192,139334,1,0,0:0:0:0:
256,192,139415,1,8,0:0:0:0:
256,192,139469,1,8,0:0:0:0:
256,192,139523,1,8,0:0:0:0:
256,192,139577,1,0,0:0:0:0:
256,192,139658,1,0,0:0:0:0:
256,192,139740,1,8,0:0:0:0:
256,192,139794,1,0,0:0:0:0:
256,192,139848,1,0,0:0:0:0:
256,192,139902,1,8,0:0:0:0:
256,192,139983,1,0,0:0:0:0:
256,192,140064,1,8,0:0:0:0:
256,192,140118,1,8,0:0:0:0:
256,192,140172,1,8,0:0:0:0:
256,192,140226,1,0,0:0:0:0:
256,192,140307,1,0,0:0:0:0:
256,192,140388,1,8,0:0:0:0:
256,192,140442,1,0,0:0:0:0:
256,192,140496,1,0,0:0:0:0:
256,192,140550,1,8,0:0:0:0:
256,192,140631,1,0,0:0:0:0:
256,192,140713,1,8,0:0:0:0:
256,192,140767,1,8,0:0:0:0:
256,192,140821,1,8,0:0:0:0:
256,192,140875,1,0,0:0:0:0:
256,192,140956,1,0,0:0:0:0:
256,192,141037,1,8,0:0:0:0:
256,192,141091,1,8,0:0:0:0:
256,192,141145,1,8,0:0:0:0:
256,192,141199,1,0,0:0:0:0:
256,192,141280,1,0,0:0:0:0:
256,192,141361,1,8,0:0:0:0:
256,192,141415,1,0,0:0:0:0:
256,192,141469,1,0,0:0:0:0:
256,192,141523,1,8,0:0:0:0:
256,192,141604,1,0,0:0:0:0:
256,192,141685,1,8,0:0:0:0:
256,192,141740,1,0,0:0:0:0:
256,192,141794,1,0,0:0:0:0:
256,192,141848,1,8,0:0:0:0:
256,192,141929,1,0,0:0:0:0:
256,192,142010,1,8,0:0:0:0:
256,192,142064,1,8,0:0:0:0:
256,192,142118,1,8,0:0:0:0:
256,192,142172,1,0,0:0:0:0:
256,192,142253,1,0,0:0:0:0:
256,192,142334,1,8,0:0:0:0:
256,192,142388,1,0,0:0:0:0:
256,192,142442,1,0,0:0:0:0:
256,192,142496,1,8,0:0:0:0:
256,192,142577,1,0,0:0:0:0:
256,192,142658,1,8,0:0:0:0:
256,192,142713,1,8,0:0:0:0:
256,192,142767,1,8,0:0:0:0:
256,192,142821,1,8,0:0:0:0:
256,192,142875,1,8,0:0:0:0:
256,192,142929,1,8,0:0:0:0:
256,192,142983,1,0,0:0:0:0:
256,192,157253,5,4,0:0:0:0:
256,192,159847,5,4,0:0:0:0:
256,192,162442,1,4,0:0:0:0:
256,192,165036,1,4,0:0:0:0:
256,192,166334,1,4,0:0:0:0:
256,192,166982,1,12,0:0:0:0:
256,192,167225,1,12,0:0:0:0:
256,192,167307,1,12,0:0:0:0:
256,192,167469,1,12,0:0:0:0:
256,192,167631,1,0,0:0:0:0:
256,192,167712,1,0,0:0:0:0:
256,192,167793,1,0,0:0:0:0:
256,192,167874,1,0,0:0:0:0:
256,192,167955,1,8,0:0:0:0:
256,192,168036,1,8,0:0:0:0:
256,192,168117,1,0,0:0:0:0:
256,192,168198,1,0,0:0:0:0:
256,192,168280,1,8,0:0:0:0:
256,192,168361,1,8,0:0:0:0:
256,192,168442,1,8,0:0:0:0:
256,192,168523,1,0,0:0:0:0:
256,192,168604,1,8,0:0:0:0:
256,192,168685,1,0,0:0:0:0:
256,192,168766,1,8,0:0:0:0:
256,192,168847,1,8,0:0:0:0:
256,192,168928,1,0,0:0:0:0:
256,192,169009,1,0,0:0:0:0:
256,192,169090,1,0,0:0:0:0:
256,192,169171,1,0,0:0:0:0:
256,192,169253,1,8,0:0:0:0:
256,192,169334,1,8,0:0:0:0:
256,192,169415,1,0,0:0:0:0:
256,192,169496,1,0,0:0:0:0:
256,192,169577,1,8,0:0:0:0:
256,192,169658,1,8,0:0:0:0:
256,192,169739,1,8,0:0:0:0:
256,192,169820,1,0,0:0:0:0:
256,192,169901,1,8,0:0:0:0:
256,192,169982,1,8,0:0:0:0:
256,192,170063,1,8,0:0:0:0:
256,192,170144,1,8,0:0:0:0:
256,192,170225,1,0,0:0:0:0:
256,192,170307,1,0,0:0:0:0:
256,192,170388,1,0,0:0:0:0:
256,192,170469,1,0,0:0:0:0:
256,192,170550,1,8,0:0:0:0:
256,192,170631,1,8,0:0:0:0:
256,192,170712,1,0,0:0:0:0:
256,192,170793,1,0,0:0:0:0:
256,192,170874,1,8,0:0:0:0:
256,192,170955,1,0,0:0:0:0:
256,192,171036,1,0,0:0:0:0:
256,192,171117,1,0,0:0:0:0:
256,192,171198,1,8,0:0:0:0:
256,192,171280,1,8,0:0:0:0:
256,192,171361,1,0,0:0:0:0:
256,192,171442,1,0,0:0:0:0:
256,192,171523,1,8,0:0:0:0:
256,192,171604,1,8,0:0:0:0:
256,192,171685,1,8,0:0:0:0:
256,192,171766,1,0,0:0:0:0:
256,192,171847,1,8,0:0:0:0:
256,192,171928,1,8,0:0:0:0:
256,192,172009,1,0,0:0:0:0:
256,192,172090,1,0,0:0:0:0:
256,192,172171,1,8,0:0:0:0:
256,192,172253,1,8,0:0:0:0:
256,192,172334,1,8,0:0:0:0:
256,192,172415,1,0,0:0:0:0:
256,192,172496,1,8,0:0:0:0:
256,192,172577,1,8,0:0:0:0:
256,192,172658,1,0,0:0:0:0:
256,192,172739,1,0,0:0:0:0:
256,192,172820,1,8,0:0:0:0:
256,192,172901,1,8,0:0:0:0:
256,192,172982,1,8,0:0:0:0:
256,192,173063,1,8,0:0:0:0:
256,192,173144,1,0,0:0:0:0:
256,192,173225,1,0,0:0:0:0:
256,192,173307,1,0,0:0:0:0:
256,192,173388,1,0,0:0:0:0:
256,192,173469,1,8,0:0:0:0:
256,192,173550,1,0,0:0:0:0:
256,192,173631,1,0,0:0:0:0:
256,192,173712,1,0,0:0:0:0:
256,192,173793,1,8,0:0:0:0:
256,192,173874,1,0,0:0:0:0:
256,192,173955,1,0,0:0:0:0:
256,192,174036,1,0,0:0:0:0:
256,192,174117,1,8,0:0:0:0:
256,192,174198,1,8,0:0:0:0:
256,192,174280,1,0,0:0:0:0:
256,192,174361,1,0,0:0:0:0:
256,192,174442,1,8,0:0:0:0:
256,192,174523,1,8,0:0:0:0:
256,192,174604,1,0,0:0:0:0:
256,192,174685,1,0,0:0:0:0:
256,192,174766,1,8,0:0:0:0:
256,192,174847,1,0,0:0:0:0:
256,192,174928,1,0,0:0:0:0:
256,192,175009,1,0,0:0:0:0:
256,192,175090,1,8,0:0:0:0:
256,192,175171,1,8,0:0:0:0:
256,192,175252,1,0,0:0:0:0:
256,192,175334,1,0,0:0:0:0:
256,192,175415,1,8,0:0:0:0:
256,192,175496,1,0,0:0:0:0:
256,192,175577,1,0,0:0:0:0:
256,192,175658,1,0,0:0:0:0:
256,192,175739,1,8,0:0:0:0:
256,192,175820,1,0,0:0:0:0:
256,192,175901,1,0,0:0:0:0:
256,192,175982,1,0,0:0:0:0:
256,192,176063,1,8,0:0:0:0:
256,192,176144,1,8,0:0:0:0:
256,192,176225,1,0,0:0:0:0:
256,192,176307,1,0,0:0:0:0:
256,192,176388,1,8,0:0:0:0:
256,192,176469,1,8,0:0:0:0:
256,192,176550,1,0,0:0:0:0:
256,192,176631,1,0,0:0:0:0:
256,192,176712,1,8,0:0:0:0:
256,192,177036,1,0,0:0:0:0:
256,192,177361,1,8,0:0:0:0:
256,192,177685,1,8,0:0:0:0:
256,192,177766,1,8,0:0:0:0:
256,192,177847,1,8,0:0:0:0:
256,192,177928,1,8,0:0:0:0:
256,192,178009,5,4,0:0:0:0:
256,192,178171,1,0,0:0:0:0:
256,192,178252,1,0,0:0:0:0:
256,192,178334,1,8,0:0:0:0:
256,192,178415,1,8,0:0:0:0:
256,192,178496,1,0,0:0:0:0:
256,192,178658,1,8,0:0:0:0:
256,192,178739,1,0,0:0:0:0:
256,192,178820,1,8,0:0:0:0:
256,192,178901,1,0,0:0:0:0:
256,192,178982,1,8,0:0:0:0:
256,192,179063,1,8,0:0:0:0:
256,192,179144,1,0,0:0:0:0:
256,192,179307,1,0,0:0:0:0:
256,192,179469,1,0,0:0:0:0:
256,192,179550,1,0,0:0:0:0:
256,192,179631,1,8,0:0:0:0:
256,192,179712,1,0,0:0:0:0:
256,192,179793,1,8,0:0:0:0:
256,192,179874,1,8,0:0:0:0:
256,192,179955,1,0,0:0:0:0:
256,192,180117,1,0,0:0:0:0:
256,192,180280,1,8,0:0:0:0:
256,192,180361,1,0,0:0:0:0:
256,192,180442,1,8,0:0:0:0:
256,192,180523,1,8,0:0:0:0:
256,192,180604,1,0,0:0:0:0:
256,192,180766,1,0,0:0:0:0:
256,192,180847,1,0,0:0:0:0:
256,192,180928,1,8,0:0:0:0:
256,192,181009,1,0,0:0:0:0:
256,192,181090,1,8,0:0:0:0:
256,192,181252,1,0,0:0:0:0:
256,192,181334,1,0,0:0:0:0:
256,192,181415,1,8,0:0:0:0:
256,192,181496,1,8,0:0:0:0:
256,192,181577,1,0,0:0:0:0:
256,192,181739,1,8,0:0:0:0:
256,192,181901,1,0,0:0:0:0:
256,192,181982,1,0,0:0:0:0:
256,192,182063,1,8,0:0:0:0:
256,192,182144,1,8,0:0:0:0:
256,192,182225,1,8,0:0:0:0:
256,192,182388,1,0,0:0:0:0:
256,192,182550,1,8,0:0:0:0:
256,192,182712,1,0,0:0:0:0:
256,192,182793,1,0,0:0:0:0:
256,192,182874,1,8,0:0:0:0:
256,192,182955,1,0,0:0:0:0:
256,192,183036,1,8,0:0:0:0:
256,192,183117,1,8,0:0:0:0:
256,192,183198,1,0,0:0:0:0:
256,192,183361,1,0,0:0:0:0:
256,192,183442,1,0,0:0:0:0:
256,192,183523,1,8,0:0:0:0:
256,192,183685,1,0,0:0:0:0:
256,192,183766,1,0,0:0:0:0:
256,192,183847,1,8,0:0:0:0:
256,192,183928,1,0,0:0:0:0:
256,192,184009,1,0,0:0:0:0:
256,192,184171,1,8,0:0:0:0:
256,192,184252,1,0,0:0:0:0:
256,192,184334,1,8,0:0:0:0:
256,192,184415,1,8,0:0:0:0:
256,192,184496,1,0,0:0:0:0:
256,192,184658,1,8,0:0:0:0:
256,192,184739,1,0,0:0:0:0:
256,192,184820,1,8,0:0:0:0:
256,192,184901,1,8,0:0:0:0:
256,192,184982,1,0,0:0:0:0:
256,192,185063,1,0,0:0:0:0:
256,192,185144,1,8,0:0:0:0:
256,192,185307,1,0,0:0:0:0:
256,192,185388,1,0,0:0:0:0:
256,192,185469,1,8,0:0:0:0:
256,192,185550,1,0,0:0:0:0:
256,192,185631,1,8,0:0:0:0:
256,192,185712,1,8,0:0:0:0:
256,192,185793,1,0,0:0:0:0:
256,192,185955,1,8,0:0:0:0:
256,192,186036,1,0,0:0:0:0:
256,192,186117,1,8,0:0:0:0:
256,192,186198,1,0,0:0:0:0:
256,192,186280,1,8,0:0:0:0:
256,192,186361,1,8,0:0:0:0:
256,192,186442,1,0,0:0:0:0:
256,192,186604,1,0,0:0:0:0:
256,192,186685,1,0,0:0:0:0:
256,192,186766,1,8,0:0:0:0:
256,192,186847,1,0,0:0:0:0:
256,192,186928,1,8,0:0:0:0:
256,192,187090,1,0,0:0:0:0:
256,192,187252,1,8,0:0:0:0:
256,192,187334,1,0,0:0:0:0:
256,192,187415,1,8,0:0:0:0:
256,192,187496,1,0,0:0:0:0:
256,192,187577,1,0,0:0:0:0:
256,192,187658,1,0,0:0:0:0:
256,192,187739,1,8,0:0:0:0:
256,192,187901,1,0,0:0:0:0:
256,192,188063,1,8,0:0:0:0:
256,192,188388,1,4,0:0:0:0:
256,192,188550,1,0,0:0:0:0:
256,192,188631,1,0,0:0:0:0:
256,192,188712,1,8,0:0:0:0:
256,192,188793,1,0,0:0:0:0:
256,192,188874,1,0,0:0:0:0:
256,192,188955,1,0,0:0:0:0:
256,192,189036,1,8,0:0:0:0:
256,192,189117,1,0,0:0:0:0:
256,192,189198,1,0,0:0:0:0:
256,192,189280,1,0,0:0:0:0:
256,192,189361,1,8,0:0:0:0:
256,192,189442,1,0,0:0:0:0:
256,192,189523,1,8,0:0:0:0:
256,192,189604,1,8,0:0:0:0:
256,192,189685,1,0,0:0:0:0:
256,192,189766,1,0,0:0:0:0:
256,192,189847,1,8,0:0:0:0:
256,192,189928,1,0,0:0:0:0:
256,192,190009,1,8,0:0:0:0:
256,192,190090,1,8,0:0:0:0:
256,192,190171,1,8,0:0:0:0:
256,192,190252,1,8,0:0:0:0:
256,192,190334,1,0,0:0:0:0:
256,192,190415,1,0,0:0:0:0:
256,192,190496,1,0,0:0:0:0:
256,192,190577,1,0,0:0:0:0:
256,192,190658,1,8,0:0:0:0:
256,192,190739,1,8,0:0:0:0:
256,192,190820,1,8,0:0:0:0:
256,192,190901,1,8,0:0:0:0:
256,192,190982,1,0,0:0:0:0:
256,192,191063,1,0,0:0:0:0:
256,192,191144,1,8,0:0:0:0:
256,192,191225,1,0,0:0:0:0:
256,192,191307,1,8,0:0:0:0:
256,192,191388,1,0,0:0:0:0:
256,192,191469,1,8,0:0:0:0:
256,192,191550,1,8,0:0:0:0:
256,192,191631,1,0,0:0:0:0:
256,192,191712,1,0,0:0:0:0:
256,192,191793,1,0,0:0:0:0:
256,192,191874,1,0,0:0:0:0:
256,192,191955,1,8,0:0:0:0:
256,192,192036,1,0,0:0:0:0:
256,192,192117,1,8,0:0:0:0:
256,192,192198,1,8,0:0:0:0:
256,192,192280,1,0,0:0:0:0:
256,192,192361,1,0,0:0:0:0:
256,192,192442,1,8,0:0:0:0:
256,192,192523,1,0,0:0:0:0:
256,192,192604,1,8,0:0:0:0:
256,192,192685,1,8,0:0:0:0:
256,192,192766,1,8,0:0:0:0:
256,192,192847,1,8,0:0:0:0:
256,192,192928,1,0,0:0:0:0:
256,192,193090,1,0,0:0:0:0:
256,192,193171,1,0,0:0:0:0:
256,192,193252,1,8,0:0:0:0:
256,192,193334,1,0,0:0:0:0:
256,192,193415,1,0,0:0:0:0:
256,192,193496,1,0,0:0:0:0:
256,192,193577,1,8,0:0:0:0:
256,192,193739,1,0,0:0:0:0:
256,192,193820,1,0,0:0:0:0:
256,192,193901,1,8,0:0:0:0:
256,192,193982,1,8,0:0:0:0:
256,192,194063,1,0,0:0:0:0:
256,192,194225,1,8,0:0:0:0:
256,192,194307,1,0,0:0:0:0:
256,192,194388,1,8,0:0:0:0:
256,192,194469,1,8,0:0:0:0:
256,192,194550,1,0,0:0:0:0:
256,192,194631,1,0,0:0:0:0:
256,192,194712,1,8,0:0:0:0:
256,192,194793,1,8,0:0:0:0:
256,192,194874,1,0,0:0:0:0:
256,192,194955,1,0,0:0:0:0:
256,192,195036,1,8,0:0:0:0:
256,192,195117,1,0,0:0:0:0:
256,192,195198,1,8,0:0:0:0:
256,192,195280,1,8,0:0:0:0:
256,192,195361,1,8,0:0:0:0:
256,192,195442,1,8,0:0:0:0:
256,192,195523,1,0,0:0:0:0:
256,192,195604,1,0,0:0:0:0:
256,192,195685,1,0,0:0:0:0:
256,192,195766,1,0,0:0:0:0:
256,192,195847,1,8,0:0:0:0:
256,192,195928,1,0,0:0:0:0:
256,192,196009,1,8,0:0:0:0:
256,192,196090,1,8,0:0:0:0:
256,192,196171,1,0,0:0:0:0:
256,192,196252,1,0,0:0:0:0:
256,192,196334,1,0,0:0:0:0:
256,192,196415,1,0,0:0:0:0:
256,192,196496,1,8,0:0:0:0:
256,192,196577,1,0,0:0:0:0:
256,192,196658,1,8,0:0:0:0:
256,192,196739,1,8,0:0:0:0:
256,192,196820,1,0,0:0:0:0:
256,192,196901,1,0,0:0:0:0:
256,192,196982,1,8,0:0:0:0:
256,192,197063,1,0,0:0:0:0:
256,192,197144,1,8,0:0:0:0:
256,192,197225,1,8,0:0:0:0:
256,192,197307,1,0,0:0:0:0:
256,192,197388,1,8,0:0:0:0:
256,192,197469,1,0,0:0:0:0:
256,192,197631,1,8,0:0:0:0:
256,192,197712,1,0,0:0:0:0:
256,192,197793,1,8,0:0:0:0:
256,192,197874,1,8,0:0:0:0:
256,192,197955,1,0,0:0:0:0:
256,192,198117,1,8,0:0:0:0:
256,192,198198,1,0,0:0:0:0:
256,192,198280,1,0,0:0:0:0:
256,192,198361,1,0,0:0:0:0:
256,192,198442,1,8,0:0:0:0:
256,192,198766,1,4,0:0:0:0:
256,192,198928,1,0,0:0:0:0:
256,192,199009,1,0,0:0:0:0:
256,192,199090,1,8,0:0:0:0:
256,192,199171,1,0,0:0:0:0:
256,192,199252,1,8,0:0:0:0:
256,192,199334,1,0,0:0:0:0:
256,192,199415,1,8,0:0:0:0:
256,192,199577,1,0,0:0:0:0:
256,192,199658,1,0,0:0:0:0:
256,192,199739,1,8,0:0:0:0:
256,192,199820,1,8,0:0:0:0:
256,192,199901,1,0,0:0:0:0:
256,192,199982,1,0,0:0:0:0:
256,192,200063,1,8,0:0:0:0:
256,192,200225,1,0,0:0:0:0:
256,192,200307,1,0,0:0:0:0:
256,192,200388,1,8,0:0:0:0:
256,192,200469,1,0,0:0:0:0:
256,192,200550,1,8,0:0:0:0:
256,192,200631,1,8,0:0:0:0:
256,192,200712,1,0,0:0:0:0:
256,192,201036,1,8,0:0:0:0:
256,192,201198,1,8,0:0:0:0:
256,192,201361,1,0,0:0:0:0:
256,192,201442,1,0,0:0:0:0:
256,192,201523,1,8,0:0:0:0:
256,192,201604,1,8,0:0:0:0:
256,192,201685,1,0,0:0:0:0:
256,192,201847,1,8,0:0:0:0:
256,192,201928,1,0,0:0:0:0:
256,192,202009,1,8,0:0:0:0:
256,192,202090,1,8,0:0:0:0:
256,192,202171,1,0,0:0:0:0:
256,192,202252,1,0,0:0:0:0:
256,192,202334,1,8,0:0:0:0:
256,192,202496,1,0,0:0:0:0:
256,192,202658,1,8,0:0:0:0:
256,192,202739,1,8,0:0:0:0:
256,192,202820,1,0,0:0:0:0:
256,192,202901,1,0,0:0:0:0:
256,192,202982,1,8,0:0:0:0:
256,192,203063,1,0,0:0:0:0:
256,192,203144,1,8,0:0:0:0:
256,192,203225,1,8,0:0:0:0:
256,192,203307,1,0,0:0:0:0:
256,192,203469,1,0,0:0:0:0:
256,192,203631,1,8,0:0:0:0:
256,192,203793,1,8,0:0:0:0:
256,192,203955,1,0,0:0:0:0:
256,192,204117,1,0,0:0:0:0:
256,192,204198,1,0,0:0:0:0:
256,192,204280,1,8,0:0:0:0:
256,192,204442,1,0,0:0:0:0:
256,192,204523,1,0,0:0:0:0:
256,192,204604,1,8,0:0:0:0:
256,192,204685,1,0,0:0:0:0:
256,192,204766,1,8,0:0:0:0:
256,192,204847,1,8,0:0:0:0:
256,192,204928,1,0,0:0:0:0:
256,192,205009,1,8,0:0:0:0:
256,192,205090,1,0,0:0:0:0:
256,192,205171,1,0,0:0:0:0:
256,192,205252,1,8,0:0:0:0:
256,192,205415,1,0,0:0:0:0:
256,192,205496,1,0,0:0:0:0:
256,192,205577,1,8,0:0:0:0:
256,192,205658,1,0,0:0:0:0:
256,192,205739,1,0,0:0:0:0:
256,192,205820,1,0,0:0:0:0:
256,192,205901,1,8,0:0:0:0:
256,192,206225,1,8,0:0:0:0:
256,192,206388,1,8,0:0:0:0:
256,192,206550,1,0,0:0:0:0:
256,192,206712,1,8,0:0:0:0:
256,192,206793,1,0,0:0:0:0:
256,192,206874,1,8,0:0:0:0:
256,192,206955,1,8,0:0:0:0:
256,192,207036,1,0,0:0:0:0:
256,192,207198,1,8,0:0:0:0:
256,192,207280,1,0,0:0:0:0:
256,192,207361,1,0,0:0:0:0:
256,192,207442,1,0,0:0:0:0:
256,192,207523,1,8,0:0:0:0:
256,192,207604,1,8,0:0:0:0:
256,192,207685,1,0,0:0:0:0:
256,192,207847,1,8,0:0:0:0:
256,192,208009,1,0,0:0:0:0:
256,192,208171,1,8,0:0:0:0:
256,192,208252,1,8,0:0:0:0:
256,192,208334,1,0,0:0:0:0:
256,192,208415,1,8,0:0:0:0:
256,192,208496,1,8,0:0:0:0:
256,192,208658,1,0,0:0:0:0:
256,192,208820,1,8,0:0:0:0:
256,192,209144,1,4,0:0:0:0:
256,192,209307,1,8,0:0:0:0:
256,192,209388,1,0,0:0:0:0:
256,192,209469,1,8,0:0:0:0:
256,192,209631,1,0,0:0:0:0:
256,192,209712,1,0,0:0:0:0:
256,192,209793,1,8,0:0:0:0:
256,192,209874,1,8,0:0:0:0:
256,192,209955,1,0,0:0:0:0:
256,192,210036,1,8,0:0:0:0:
256,192,210117,1,8,0:0:0:0:
256,192,210280,1,0,0:0:0:0:
256,192,210442,1,8,0:0:0:0:
256,192,210523,1,0,0:0:0:0:
256,192,210604,1,0,0:0:0:0:
256,192,210685,1,8,0:0:0:0:
256,192,210766,1,8,0:0:0:0:
256,192,210847,1,0,0:0:0:0:
256,192,210928,1,8,0:0:0:0:
256,192,211009,1,0,0:0:0:0:
256,192,211090,1,8,0:0:0:0:
256,192,211171,1,8,0:0:0:0:
256,192,211252,1,0,0:0:0:0:
256,192,211334,1,8,0:0:0:0:
256,192,211415,1,8,0:0:0:0:
256,192,211577,1,0,0:0:0:0:
256,192,211739,1,8,0:0:0:0:
256,192,211820,1,0,0:0:0:0:
256,192,211901,1,0,0:0:0:0:
256,192,211982,1,0,0:0:0:0:
256,192,212063,1,8,0:0:0:0:
256,192,212225,1,0,0:0:0:0:
256,192,212307,1,0,0:0:0:0:
256,192,212388,1,8,0:0:0:0:
256,192,212469,1,8,0:0:0:0:
256,192,212550,1,0,0:0:0:0:
256,192,212631,1,0,0:0:0:0:
256,192,212712,1,8,0:0:0:0:
256,192,212874,1,0,0:0:0:0:
256,192,213036,1,8,0:0:0:0:
256,192,213117,1,0,0:0:0:0:
256,192,213198,1,8,0:0:0:0:
256,192,213280,1,8,0:0:0:0:
256,192,213361,1,8,0:0:0:0:
256,192,213442,1,0,0:0:0:0:
256,192,213523,1,8,0:0:0:0:
256,192,213604,1,8,0:0:0:0:
256,192,213685,1,0,0:0:0:0:
256,192,213847,1,0,0:0:0:0:
256,192,213928,1,0,0:0:0:0:
256,192,214009,1,8,0:0:0:0:
256,192,214090,1,0,0:0:0:0:
256,192,214171,1,8,0:0:0:0:
256,192,214252,1,8,0:0:0:0:
256,192,214334,1,0,0:0:0:0:
256,192,214496,1,0,0:0:0:0:
256,192,214577,1,0,0:0:0:0:
256,192,214658,1,8,0:0:0:0:
256,192,214739,1,0,0:0:0:0:
256,192,214820,1,0,0:0:0:0:
256,192,214982,1,8,0:0:0:0:
256,192,215063,1,0,0:0:0:0:
256,192,215144,1,0,0:0:0:0:
256,192,215225,1,0,0:0:0:0:
256,192,215307,1,8,0:0:0:0:
256,192,215388,1,0,0:0:0:0:
256,192,215469,1,0,0:0:0:0:
256,192,215550,1,8,0:0:0:0:
256,192,215631,1,0,0:0:0:0:
256,192,215793,1,0,0:0:0:0:
256,192,215874,1,0,0:0:0:0:
256,192,215955,1,8,0:0:0:0:
256,192,216117,1,0,0:0:0:0:
256,192,216280,1,8,0:0:0:0:
256,192,216361,1,8,0:0:0:0:
256,192,216442,1,0,0:0:0:0:
256,192,216523,1,8,0:0:0:0:
256,192,216604,1,0,0:0:0:0:
256,192,216685,1,0,0:0:0:0:
256,192,216766,1,8,0:0:0:0:
256,192,216847,1,8,0:0:0:0:
256,192,216928,1,0,0:0:0:0:
256,192,217090,1,0,0:0:0:0:
256,192,217252,1,8,0:0:0:0:
256,192,217334,1,0,0:0:0:0:
256,192,217415,1,0,0:0:0:0:
256,192,217496,1,0,0:0:0:0:
256,192,217577,1,8,0:0:0:0:
256,192,217739,1,0,0:0:0:0:
256,192,217820,1,0,0:0:0:0:
256,192,217901,1,8,0:0:0:0:
256,192,217982,1,0,0:0:0:0:
256,192,218063,1,0,0:0:0:0:
256,192,218225,1,12,0:0:0:0:
256,192,218550,1,8,0:0:0:0:
256,192,218874,1,0,0:0:0:0:
256,192,219198,1,8,0:0:0:0:
256,192,219523,1,4,0:0:0:0:
256,192,219685,1,8,0:0:0:0:
256,192,219847,1,4,0:0:0:0:
256,192,220009,1,8,0:0:0:0:
256,192,220171,1,4,0:0:0:0:
256,192,220334,1,8,0:0:0:0:
256,192,220496,1,4,0:0:0:0:
256,192,220658,1,8,0:0:0:0:
256,192,220820,1,4,0:0:0:0:
256,192,220982,1,8,0:0:0:0:
256,192,221144,1,4,0:0:0:0:
256,192,221307,1,8,0:0:0:0:
256,192,221469,1,4,0:0:0:0:
256,192,221631,1,8,0:0:0:0:
256,192,221793,1,4,0:0:0:0:
256,192,221955,1,8,0:0:0:0:
256,192,222117,1,4,0:0:0:0:
256,192,222280,1,8,0:0:0:0:
256,192,222442,1,4,0:0:0:0:
256,192,222604,1,8,0:0:0:0:
256,192,222766,1,4,0:0:0:0:
256,192,222928,1,8,0:0:0:0:
256,192,223090,1,4,0:0:0:0:
256,192,223252,1,8,0:0:0:0:
256,192,223415,1,4,0:0:0:0:
256,192,223577,1,8,0:0:0:0:
256,192,223739,1,4,0:0:0:0:
256,192,223901,1,8,0:0:0:0:
256,192,224063,1,4,0:0:0:0:
256,192,224225,1,8,0:0:0:0:
256,192,224388,1,4,0:0:0:0:
256,192,224550,1,8,0:0:0:0:
256,192,224712,1,4,0:0:0:0:
256,192,224874,1,4,0:0:0:0:
256,192,225036,1,4,0:0:0:0:
256,192,225198,1,4,0:0:0:0:
256,192,225361,1,4,0:0:0:0:
256,192,225523,1,4,0:0:0:0:
256,192,225685,1,4,0:0:0:0:
256,192,225847,1,4,0:0:0:0:
256,192,226009,1,4,0:0:0:0:
256,192,226171,1,4,0:0:0:0:
256,192,226334,1,4,0:0:0:0:
256,192,226496,1,4,0:0:0:0:
256,192,226658,1,4,0:0:0:0:
256,192,226820,1,4,0:0:0:0:
256,192,226982,1,4,0:0:0:0:
256,192,227144,1,4,0:0:0:0:
256,192,227307,1,0,0:0:0:0:
256,192,227388,1,0,0:0:0:0:
256,192,227469,1,0,0:0:0:0:
256,192,227550,1,0,0:0:0:0:
256,192,227631,1,0,0:0:0:0:
256,192,227712,1,0,0:0:0:0:
256,192,227793,1,0,0:0:0:0:
256,192,227874,1,0,0:0:0:0:
256,192,227955,1,0,0:0:0:0:
256,192,228036,1,0,0:0:0:0:
256,192,228117,1,0,0:0:0:0:
256,192,228198,1,0,0:0:0:0:
256,192,228280,1,0,0:0:0:0:
256,192,228361,1,0,0:0:0:0:
256,192,228442,1,0,0:0:0:0:
256,192,228523,1,0,0:0:0:0:
176,152,228604,2,0,L|209:150,63,26.2500010013581
256,192,231198,12,0,241577,0:0:0:0:
