osu file format v14

[General]
AudioFilename: audio.ogg
AudioLeadIn: 0
PreviewTime: 179648
Countdown: 0
SampleSet: Soft
StackLeniency: 0.7
Mode: 3
LetterboxInBreaks: 0
EpilepsyWarning: 1
SpecialStyle: 0
WidescreenStoryboard: 1

[Editor]
Bookmarks: 190027
DistanceSpacing: 1.8
BeatDivisor: 4
GridSize: 4
TimelineZoom: 1.600001

[Metadata]
Title:INTERNET YAMERO
TitleUnicode:INTERNET YAMERO
Artist:Aiobahn feat. KOTOKO
ArtistUnicode:Aiobahn feat. KOTOKO
Creator:FLeVI
Version:hyahya's Extra
Source:NEEDY GIRL OVERDOSE
Tags:streamer ame KAngel OMGkawaiiAngel p-chan tenshi overload video game japanese electronic female vocal muse dash にゃるら nyalra nyarura angel WSS playground xemono visual novel cute Carpihat hidden is fun shizehao Nicknem_ ExNeko lovely_hyahya Catasmic Hynova まろん maron IOSYS TOHRU MiTSUHASHi 前田地生 Maeda Chisei as_chisei
BeatmapID:4135596
BeatmapSetID:1962727

[Difficulty]
HPDrainRate:8.5
CircleSize:4
OverallDifficulty:8
ApproachRate:5
SliderMultiplier:1.4
SliderTickRate:1

[Events]
//Background and Video events
0,0,"bg.jpg",0,0
Video,-191,"video.mp4"
//Break Periods
//Storyboard Layer 0 (Background)
//Storyboard Layer 1 (Fail)
//Storyboard Layer 2 (Pass)
//Storyboard Layer 3 (Foreground)
//Storyboard Layer 4 (Overlay)
//Storyboard Sound Samples

[TimingPoints]
1930,324.324324324324,4,2,1,50,1,0
4524,324.324324324324,4,2,1,50,1,0
158902,324.324324324324,4,2,1,50,1,0
179658,-100,4,2,1,50,0,1
200415,-100,4,2,1,50,0,0

[HitObjects]
320,192,1930,128,0,2011:0:0:0:0:
64,192,1930,128,0,2173:0:0:0:0:
192,192,2254,128,0,2335:0:0:0:0:
448,192,2254,128,0,2497:0:0:0:0:
192,192,2578,128,0,2659:0:0:0:0:
64,192,2578,128,0,2821:0:0:0:0:
448,192,2740,128,0,2821:0:0:0:0:
320,192,2740,128,0,2984:0:0:0:0:
64,192,2902,128,0,2984:0:0:0:0:
192,192,2902,128,0,3146:0:0:0:0:
320,192,3065,128,0,3146:0:0:0:0:
448,192,3065,128,0,3308:0:0:0:0:
192,192,3227,128,0,3308:0:0:0:0:
64,192,3227,128,0,3470:0:0:0:0:
320,192,3389,128,0,3470:0:0:0:0:
448,192,3389,128,0,3632:0:0:0:0:
192,192,3713,128,0,3794:0:0:0:0:
64,192,3713,128,0,3957:0:0:0:0:
320,192,3875,128,0,3957:0:0:0:0:
448,192,3875,128,0,4119:0:0:0:0:
320,192,4200,128,0,4281:0:0:0:0:
192,192,4200,128,0,4281:0:0:0:0:
64,192,4200,128,0,4281:0:0:0:0:
320,192,4362,128,0,4443:0:0:0:0:
192,192,4362,128,0,4443:0:0:0:0:
64,192,4362,128,0,4443:0:0:0:0:
320,192,4524,128,0,4848:0:0:0:0:
64,192,4524,128,0,4645:0:0:0:0:
448,192,4524,128,0,4645:0:0:0:0:
192,192,4564,128,0,4726:0:0:0:0:
64,192,7118,128,0,7240:0:0:0:0:
448,192,7118,128,0,7240:0:0:0:0:
320,192,7118,128,0,7442:0:0:0:0:
192,192,7159,128,0,7321:0:0:0:0:
320,192,9713,128,0,10037:0:0:0:0:
448,192,9713,128,0,9834:0:0:0:0:
64,192,9713,128,0,9834:0:0:0:0:
192,192,9753,128,0,9915:0:0:0:0:
192,192,11983,128,0,12267:0:0:0:0:
320,192,12023,128,0,12226:0:0:0:0:
448,192,12064,128,0,12186:0:0:0:0:
64,192,12307,128,0,12429:0:0:0:0:
448,192,12307,128,0,12429:0:0:0:0:
320,192,12307,128,0,12632:0:0:0:0:
192,192,12348,128,0,12510:0:0:0:0:
320,192,13605,128,0,13929:0:0:0:0:
448,192,13605,128,0,13726:0:0:0:0:
64,192,13605,128,0,13726:0:0:0:0:
192,192,13645,128,0,13807:0:0:0:0:
448,192,14253,128,0,14334:0:0:0:0:
320,192,14253,128,0,14334:0:0:0:0:
64,192,14253,128,0,14334:0:0:0:0:
448,192,14496,1,0,0:0:0:0:
192,192,14496,1,0,0:0:0:0:
64,192,14496,1,0,0:0:0:0:
448,192,14578,128,0,14659:0:0:0:0:
192,192,14578,128,0,14659:0:0:0:0:
64,192,14578,128,0,14659:0:0:0:0:
320,192,14740,128,0,14821:0:0:0:0:
448,192,14740,128,0,14821:0:0:0:0:
64,192,14740,128,0,14821:0:0:0:0:
192,192,14902,128,0,15064:0:0:0:0:
448,192,14902,128,0,15145:0:0:0:0:
320,192,14902,128,0,14983:0:0:0:0:
64,192,14983,128,0,15145:0:0:0:0:
320,192,15064,128,0,15226:0:0:0:0:
192,192,15145,128,0,15226:0:0:0:0:
448,192,15226,1,0,0:0:0:0:
64,192,15226,128,0,15469:0:0:0:0:
192,192,15307,128,0,15469:0:0:0:0:
320,192,15388,128,0,15469:0:0:0:0:
448,192,15469,128,0,15551:0:0:0:0:
320,192,15551,1,0,0:0:0:0:
64,192,15551,1,0,0:0:0:0:
448,192,15632,1,0,0:0:0:0:
192,192,15713,1,0,0:0:0:0:
320,192,15794,1,0,0:0:0:0:
64,192,15875,1,0,0:0:0:0:
448,192,15875,128,0,16118:0:0:0:0:
320,192,15956,128,0,16118:0:0:0:0:
192,192,16037,128,0,16118:0:0:0:0:
64,192,16118,128,0,16199:0:0:0:0:
448,192,16199,1,0,0:0:0:0:
192,192,16199,1,0,0:0:0:0:
64,192,16280,1,0,0:0:0:0:
320,192,16361,1,0,0:0:0:0:
192,192,16442,1,0,0:0:0:0:
448,192,16523,128,0,16686:0:0:0:0:
64,192,16523,1,0,0:0:0:0:
320,192,16605,128,0,16767:0:0:0:0:
192,192,16686,128,0,16767:0:0:0:0:
448,192,16767,128,0,16848:0:0:0:0:
64,192,16848,1,0,0:0:0:0:
320,192,16848,1,0,0:0:0:0:
448,192,16929,1,0,0:0:0:0:
192,192,17010,1,0,0:0:0:0:
448,192,17091,1,0,0:0:0:0:
64,192,17172,128,0,17415:0:0:0:0:
320,192,17172,1,0,0:0:0:0:
192,192,17226,1,0,0:0:0:0:
448,192,17280,1,0,0:0:0:0:
192,192,17334,1,0,0:0:0:0:
320,192,17388,1,0,0:0:0:0:
448,192,17442,1,0,0:0:0:0:
320,192,17496,128,0,17659:0:0:0:0:
192,192,17496,128,0,17578:0:0:0:0:
64,192,17496,128,0,17740:0:0:0:0:
448,192,17578,128,0,17740:0:0:0:0:
192,192,17659,128,0,17821:0:0:0:0:
320,192,17740,128,0,17821:0:0:0:0:
64,192,17821,1,0,0:0:0:0:
448,192,17821,128,0,18064:0:0:0:0:
320,192,17902,128,0,18064:0:0:0:0:
192,192,17983,128,0,18064:0:0:0:0:
64,192,18064,128,0,18145:0:0:0:0:
192,192,18145,1,0,0:0:0:0:
448,192,18145,1,0,0:0:0:0:
64,192,18226,1,0,0:0:0:0:
320,192,18307,1,0,0:0:0:0:
192,192,18388,1,0,0:0:0:0:
448,192,18469,1,0,0:0:0:0:
64,192,18469,128,0,18713:0:0:0:0:
192,192,18551,128,0,18713:0:0:0:0:
320,192,18632,128,0,18713:0:0:0:0:
448,192,18713,128,0,18794:0:0:0:0:
64,192,18794,1,0,0:0:0:0:
320,192,18794,1,0,0:0:0:0:
448,192,18875,1,0,0:0:0:0:
192,192,18956,1,0,0:0:0:0:
320,192,19037,1,0,0:0:0:0:
64,192,19118,128,0,19280:0:0:0:0:
448,192,19118,1,0,0:0:0:0:
192,192,19199,128,0,19361:0:0:0:0:
320,192,19280,128,0,19361:0:0:0:0:
64,192,19361,128,0,19442:0:0:0:0:
448,192,19442,1,0,0:0:0:0:
192,192,19442,1,0,0:0:0:0:
64,192,19523,1,0,0:0:0:0:
320,192,19605,1,0,0:0:0:0:
64,192,19686,1,0,0:0:0:0:
192,192,19686,1,0,0:0:0:0:
448,192,19767,1,0,0:0:0:0:
320,192,19767,128,0,19929:0:0:0:0:
64,192,19848,128,0,20010:0:0:0:0:
192,192,19929,128,0,20010:0:0:0:0:
448,192,19929,1,0,0:0:0:0:
320,192,20010,128,0,20091:0:0:0:0:
64,192,20091,128,0,20172:0:0:0:0:
448,192,20091,128,0,20253:0:0:0:0:
192,192,20091,128,0,20334:0:0:0:0:
320,192,20172,128,0,20334:0:0:0:0:
64,192,20253,128,0,20415:0:0:0:0:
448,192,20334,128,0,20415:0:0:0:0:
320,192,20415,128,0,20659:0:0:0:0:
192,192,20415,1,0,0:0:0:0:
64,192,20496,128,0,20659:0:0:0:0:
448,192,20578,128,0,20659:0:0:0:0:
192,192,20659,128,0,20740:0:0:0:0:
64,192,20740,1,0,0:0:0:0:
320,192,20740,1,0,0:0:0:0:
448,192,20821,1,0,0:0:0:0:
192,192,20902,1,0,0:0:0:0:
320,192,20983,1,0,0:0:0:0:
64,192,21064,1,0,0:0:0:0:
448,192,21064,128,0,21307:0:0:0:0:
192,192,21145,128,0,21307:0:0:0:0:
320,192,21226,128,0,21307:0:0:0:0:
64,192,21307,128,0,21388:0:0:0:0:
320,192,21388,128,0,21469:0:0:0:0:
448,192,21388,128,0,21632:0:0:0:0:
192,192,21388,128,0,21551:0:0:0:0:
64,192,21469,128,0,21632:0:0:0:0:
320,192,21551,128,0,21713:0:0:0:0:
192,192,21632,128,0,21713:0:0:0:0:
448,192,21713,1,0,0:0:0:0:
64,192,21713,128,0,21956:0:0:0:0:
320,192,21794,128,0,21956:0:0:0:0:
192,192,21875,128,0,21956:0:0:0:0:
448,192,21956,128,0,22037:0:0:0:0:
192,192,22037,1,0,0:0:0:0:
64,192,22037,1,0,0:0:0:0:
448,192,22118,1,0,0:0:0:0:
320,192,22199,1,0,0:0:0:0:
64,192,22280,1,0,0:0:0:0:
448,192,22361,128,0,22605:0:0:0:0:
192,192,22361,1,0,0:0:0:0:
320,192,22415,1,0,0:0:0:0:
64,192,22469,1,0,0:0:0:0:
320,192,22523,1,0,0:0:0:0:
192,192,22578,1,0,0:0:0:0:
64,192,22632,1,0,0:0:0:0:
192,192,22686,128,0,22767:0:0:0:0:
320,192,22686,128,0,22848:0:0:0:0:
448,192,22686,128,0,22929:0:0:0:0:
64,192,22767,128,0,22929:0:0:0:0:
192,192,22848,128,0,23010:0:0:0:0:
320,192,22929,128,0,23010:0:0:0:0:
64,192,23010,1,0,0:0:0:0:
448,192,23010,128,0,23253:0:0:0:0:
192,192,23091,1,0,0:0:0:0:
320,192,23172,1,0,0:0:0:0:
64,192,23253,1,0,0:0:0:0:
192,192,23334,128,0,23496:0:0:0:0:
320,192,23334,128,0,23415:0:0:0:0:
448,192,23334,128,0,23578:0:0:0:0:
64,192,23415,128,0,23578:0:0:0:0:
320,192,23496,128,0,23578:0:0:0:0:
192,192,23578,128,0,23659:0:0:0:0:
64,192,23659,128,0,23821:0:0:0:0:
448,192,23659,1,0,0:0:0:0:
320,192,23713,1,0,0:0:0:0:
192,192,23767,1,0,0:0:0:0:
448,192,23821,1,0,0:0:0:0:
192,192,23875,1,0,0:0:0:0:
320,192,23929,1,0,0:0:0:0:
448,192,23983,128,0,24064:0:0:0:0:
64,192,23983,128,0,24105:0:0:0:0:
448,192,24307,128,0,24388:0:0:0:0:
192,192,24307,128,0,24415:0:0:0:0:
448,192,24632,128,0,24713:0:0:0:0:
320,192,24632,128,0,24740:0:0:0:0:
64,192,24956,1,0,0:0:0:0:
448,192,24956,1,0,0:0:0:0:
320,192,24956,1,0,0:0:0:0:
320,192,25037,1,0,0:0:0:0:
192,192,25118,1,0,0:0:0:0:
192,192,25199,1,0,0:0:0:0:
64,192,25280,128,0,25523:0:0:0:0:
448,192,25280,128,0,25442:0:0:0:0:
320,192,25280,1,0,0:0:0:0:
192,192,25442,128,0,25523:0:0:0:0:
320,192,25442,128,0,25605:0:0:0:0:
192,192,25605,128,0,25848:0:0:0:0:
448,192,25605,128,0,25767:0:0:0:0:
64,192,25605,1,0,0:0:0:0:
64,192,25767,128,0,25848:0:0:0:0:
320,192,25767,128,0,25929:0:0:0:0:
64,192,25929,128,0,26010:0:0:0:0:
448,192,25929,128,0,26010:0:0:0:0:
192,192,25929,1,0,0:0:0:0:
320,192,26091,128,0,26172:0:0:0:0:
64,192,26091,1,0,0:0:0:0:
192,192,26172,128,0,26253:0:0:0:0:
448,192,26172,1,0,0:0:0:0:
320,192,26253,128,0,26496:0:0:0:0:
64,192,26253,128,0,26415:0:0:0:0:
448,192,26253,1,0,0:0:0:0:
448,192,26415,128,0,26496:0:0:0:0:
192,192,26415,128,0,26578:0:0:0:0:
448,192,26578,128,0,26821:0:0:0:0:
64,192,26578,128,0,26740:0:0:0:0:
320,192,26578,1,0,0:0:0:0:
320,192,26740,128,0,26821:0:0:0:0:
192,192,26740,128,0,26902:0:0:0:0:
320,192,26902,128,0,27145:0:0:0:0:
448,192,26902,1,0,0:0:0:0:
64,192,26902,128,0,27064:0:0:0:0:
448,192,27064,128,0,27145:0:0:0:0:
192,192,27064,128,0,27226:0:0:0:0:
448,192,27226,128,0,27388:0:0:0:0:
64,192,27226,128,0,27388:0:0:0:0:
320,192,27226,128,0,27388:0:0:0:0:
192,192,27551,1,0,0:0:0:0:
320,192,27551,128,0,27794:0:0:0:0:
64,192,27551,128,0,27713:0:0:0:0:
192,192,27713,128,0,27875:0:0:0:0:
448,192,27713,128,0,27794:0:0:0:0:
320,192,27875,1,0,0:0:0:0:
64,192,27875,128,0,28037:0:0:0:0:
448,192,27875,128,0,28118:0:0:0:0:
192,192,28037,128,0,28199:0:0:0:0:
320,192,28037,128,0,28118:0:0:0:0:
448,192,28199,1,0,0:0:0:0:
64,192,28199,128,0,28361:0:0:0:0:
320,192,28199,128,0,28442:0:0:0:0:
192,192,28361,128,0,28523:0:0:0:0:
448,192,28361,128,0,28442:0:0:0:0:
448,192,28523,128,0,28605:0:0:0:0:
64,192,28523,128,0,28605:0:0:0:0:
320,192,28523,1,0,0:0:0:0:
448,192,28686,1,0,0:0:0:0:
192,192,28686,128,0,28767:0:0:0:0:
64,192,28767,1,0,0:0:0:0:
320,192,28767,128,0,28848:0:0:0:0:
192,192,28848,1,0,0:0:0:0:
448,192,28848,128,0,29010:0:0:0:0:
64,192,28848,128,0,29091:0:0:0:0:
192,192,29010,128,0,29172:0:0:0:0:
320,192,29010,128,0,29091:0:0:0:0:
320,192,29172,1,0,0:0:0:0:
448,192,29172,128,0,29415:0:0:0:0:
64,192,29172,128,0,29334:0:0:0:0:
320,192,29334,128,0,29496:0:0:0:0:
192,192,29334,128,0,29415:0:0:0:0:
448,192,29496,128,0,29659:0:0:0:0:
64,192,29496,1,0,0:0:0:0:
192,192,29496,128,0,29740:0:0:0:0:
320,192,29659,128,0,29821:0:0:0:0:
64,192,29659,128,0,29740:0:0:0:0:
192,192,29821,1,0,0:0:0:0:
448,192,29821,128,0,29983:0:0:0:0:
64,192,29821,128,0,30064:0:0:0:0:
192,192,29983,128,0,30064:0:0:0:0:
320,192,29983,128,0,30145:0:0:0:0:
64,192,30145,128,0,30226:0:0:0:0:
448,192,30145,1,0,0:0:0:0:
320,192,30226,1,0,0:0:0:0:
192,192,30226,1,0,0:0:0:0:
448,192,30307,128,0,30388:0:0:0:0:
64,192,30307,1,0,0:0:0:0:
192,192,30388,1,0,0:0:0:0:
320,192,30388,1,0,0:0:0:0:
320,192,30469,128,0,30713:0:0:0:0:
448,192,30469,1,0,0:0:0:0:
64,192,30469,128,0,30632:0:0:0:0:
192,192,30632,128,0,30713:0:0:0:0:
448,192,30632,128,0,30794:0:0:0:0:
320,192,30794,1,0,0:0:0:0:
64,192,30794,128,0,30875:0:0:0:0:
192,192,30794,128,0,31037:0:0:0:0:
320,192,30956,128,0,31118:0:0:0:0:
64,192,30956,1,0,0:0:0:0:
448,192,30956,128,0,31037:0:0:0:0:
192,192,31118,1,0,0:0:0:0:
64,192,31118,128,0,31199:0:0:0:0:
448,192,31118,128,0,31199:0:0:0:0:
192,192,31280,128,0,31361:0:0:0:0:
448,192,31280,1,0,0:0:0:0:
64,192,31361,128,0,31442:0:0:0:0:
320,192,31361,1,0,0:0:0:0:
192,192,31442,1,0,0:0:0:0:
320,192,31442,128,0,31686:0:0:0:0:
448,192,31442,128,0,31605:0:0:0:0:
64,192,31605,128,0,31686:0:0:0:0:
192,192,31605,128,0,31767:0:0:0:0:
448,192,31767,1,0,0:0:0:0:
64,192,31767,128,0,32010:0:0:0:0:
320,192,31767,128,0,31929:0:0:0:0:
448,192,31929,128,0,32010:0:0:0:0:
192,192,31929,128,0,32091:0:0:0:0:
64,192,32091,1,0,0:0:0:0:
448,192,32091,128,0,32334:0:0:0:0:
320,192,32091,128,0,32253:0:0:0:0:
64,192,32253,128,0,32334:0:0:0:0:
192,192,32253,128,0,32415:0:0:0:0:
64,192,32415,1,0,0:0:0:0:
320,192,32415,128,0,32659:0:0:0:0:
448,192,32415,128,0,32578:0:0:0:0:
192,192,32578,128,0,32659:0:0:0:0:
64,192,32578,128,0,32740:0:0:0:0:
448,192,32740,128,0,32821:0:0:0:0:
320,192,32740,1,0,0:0:0:0:
192,192,32740,128,0,32983:0:0:0:0:
448,192,32902,1,0,0:0:0:0:
320,192,32902,128,0,32983:0:0:0:0:
64,192,32902,128,0,33064:0:0:0:0:
192,192,33064,1,0,0:0:0:0:
320,192,33064,128,0,33307:0:0:0:0:
448,192,33064,128,0,33226:0:0:0:0:
192,192,33226,128,0,33307:0:0:0:0:
64,192,33226,128,0,33388:0:0:0:0:
320,192,33388,1,0,0:0:0:0:
448,192,33388,128,0,33632:0:0:0:0:
192,192,33388,128,0,33551:0:0:0:0:
64,192,33551,128,0,33632:0:0:0:0:
320,192,33551,128,0,33713:0:0:0:0:
192,192,33713,1,0,0:0:0:0:
64,192,33713,128,0,33794:0:0:0:0:
448,192,33713,128,0,33794:0:0:0:0:
320,192,33875,128,0,33956:0:0:0:0:
192,192,33875,128,0,33956:0:0:0:0:
64,192,33956,128,0,34037:0:0:0:0:
192,192,34037,128,0,34199:0:0:0:0:
320,192,34037,1,0,0:0:0:0:
448,192,34037,128,0,34118:0:0:0:0:
64,192,34118,128,0,34280:0:0:0:0:
320,192,34199,128,0,34280:0:0:0:0:
448,192,34199,128,0,34280:0:0:0:0:
192,192,34280,128,0,34361:0:0:0:0:
320,192,34361,1,0,0:0:0:0:
64,192,34361,128,0,34605:0:0:0:0:
448,192,34361,128,0,34523:0:0:0:0:
192,192,34523,128,0,34605:0:0:0:0:
320,192,34523,128,0,34686:0:0:0:0:
448,192,34686,128,0,34929:0:0:0:0:
64,192,34686,128,0,34848:0:0:0:0:
320,192,34848,128,0,34929:0:0:0:0:
192,192,34848,128,0,35010:0:0:0:0:
448,192,35010,128,0,35172:0:0:0:0:
64,192,35010,128,0,35172:0:0:0:0:
320,192,35334,128,0,35578:0:0:0:0:
448,192,35334,128,0,35578:0:0:0:0:
64,192,35334,128,0,35578:0:0:0:0:
192,192,35334,128,0,35578:0:0:0:0:
320,192,35659,1,0,0:0:0:0:
192,192,35659,1,0,0:0:0:0:
64,192,35659,1,0,0:0:0:0:
448,192,35983,1,0,0:0:0:0:
320,192,35983,1,0,0:0:0:0:
64,192,35983,1,0,0:0:0:0:
64,192,36145,128,0,36551:0:0:0:0:
448,192,36307,1,0,0:0:0:0:
192,192,36307,128,0,36551:0:0:0:0:
320,192,36469,128,0,36632:0:0:0:0:
448,192,36632,1,0,0:0:0:0:
192,192,36632,1,0,0:0:0:0:
64,192,36632,1,0,0:0:0:0:
448,192,36794,128,0,36956:0:0:0:0:
64,192,36956,1,0,0:0:0:0:
320,192,36956,1,0,0:0:0:0:
320,192,37118,128,0,37280:0:0:0:0:
192,192,37280,1,0,0:0:0:0:
448,192,37280,1,0,0:0:0:0:
64,192,37280,1,0,0:0:0:0:
192,192,37442,128,0,37605:0:0:0:0:
448,192,37605,1,0,0:0:0:0:
320,192,37605,1,0,0:0:0:0:
64,192,37605,1,0,0:0:0:0:
320,192,37767,1,0,0:0:0:0:
64,192,37767,128,0,37929:0:0:0:0:
448,192,37929,1,0,0:0:0:0:
320,192,37929,1,0,0:0:0:0:
192,192,37929,1,0,0:0:0:0:
448,192,38091,128,0,38253:0:0:0:0:
64,192,38253,1,0,0:0:0:0:
320,192,38253,1,0,0:0:0:0:
448,192,38578,1,0,0:0:0:0:
192,192,38578,1,0,0:0:0:0:
64,192,38578,1,0,0:0:0:0:
448,192,38740,128,0,39145:0:0:0:0:
64,192,38902,1,0,0:0:0:0:
320,192,38902,128,0,39145:0:0:0:0:
192,192,39064,128,0,39226:0:0:0:0:
448,192,39226,1,0,0:0:0:0:
320,192,39226,1,0,0:0:0:0:
64,192,39226,1,0,0:0:0:0:
64,192,39388,128,0,39551:0:0:0:0:
448,192,39551,1,0,0:0:0:0:
192,192,39551,1,0,0:0:0:0:
192,192,39713,128,0,39875:0:0:0:0:
448,192,39875,1,0,0:0:0:0:
320,192,39875,1,0,0:0:0:0:
64,192,39875,1,0,0:0:0:0:
320,192,40037,128,0,40199:0:0:0:0:
192,192,40199,1,0,0:0:0:0:
448,192,40199,1,0,0:0:0:0:
448,192,40361,128,0,40523:0:0:0:0:
192,192,40361,1,0,0:0:0:0:
320,192,40523,1,0,0:0:0:0:
192,192,40523,1,0,0:0:0:0:
64,192,40523,1,0,0:0:0:0:
320,192,40686,128,0,40848:0:0:0:0:
64,192,40848,1,0,0:0:0:0:
448,192,40848,1,0,0:0:0:0:
192,192,41010,1,0,0:0:0:0:
64,192,41172,1,0,0:0:0:0:
320,192,41172,1,0,0:0:0:0:
448,192,41172,1,0,0:0:0:0:
192,192,41334,1,0,0:0:0:0:
448,192,41496,1,0,0:0:0:0:
64,192,41496,1,0,0:0:0:0:
320,192,41659,1,0,0:0:0:0:
448,192,41821,1,0,0:0:0:0:
192,192,41821,1,0,0:0:0:0:
64,192,41821,1,0,0:0:0:0:
320,192,41983,1,0,0:0:0:0:
64,192,42145,1,0,0:0:0:0:
448,192,42145,1,0,0:0:0:0:
192,192,42307,1,0,0:0:0:0:
448,192,42469,1,0,0:0:0:0:
320,192,42469,1,0,0:0:0:0:
64,192,42469,1,0,0:0:0:0:
192,192,42632,1,0,0:0:0:0:
448,192,42794,1,0,0:0:0:0:
64,192,42794,1,0,0:0:0:0:
448,192,42956,128,0,43361:0:0:0:0:
320,192,42956,1,0,0:0:0:0:
64,192,43118,1,0,0:0:0:0:
320,192,43118,128,0,43686:0:0:0:0:
192,192,43118,1,0,0:0:0:0:
192,192,43280,128,0,43686:0:0:0:0:
448,192,43442,1,0,0:0:0:0:
64,192,43442,1,0,0:0:0:0:
64,192,43605,1,0,0:0:0:0:
448,192,43767,1,0,0:0:0:0:
320,192,43767,1,0,0:0:0:0:
192,192,43767,1,0,0:0:0:0:
64,192,43929,1,0,0:0:0:0:
320,192,44091,1,0,0:0:0:0:
192,192,44091,1,0,0:0:0:0:
448,192,44253,1,0,0:0:0:0:
320,192,44415,1,0,0:0:0:0:
192,192,44415,1,0,0:0:0:0:
64,192,44415,1,0,0:0:0:0:
448,192,44578,1,0,0:0:0:0:
320,192,44740,1,0,0:0:0:0:
64,192,44740,1,0,0:0:0:0:
192,192,44902,1,0,0:0:0:0:
64,192,45064,1,0,0:0:0:0:
448,192,45064,1,0,0:0:0:0:
320,192,45064,1,0,0:0:0:0:
192,192,45226,1,0,0:0:0:0:
448,192,45388,1,0,0:0:0:0:
64,192,45388,1,0,0:0:0:0:
192,192,45551,1,0,0:0:0:0:
320,192,45551,1,0,0:0:0:0:
448,192,45713,1,0,0:0:0:0:
192,192,45713,1,0,0:0:0:0:
64,192,45713,1,0,0:0:0:0:
192,192,46037,1,0,0:0:0:0:
64,192,46037,1,0,0:0:0:0:
448,192,46037,1,0,0:0:0:0:
192,192,46199,1,0,0:0:0:0:
448,192,46361,1,0,0:0:0:0:
320,192,46361,1,0,0:0:0:0:
64,192,46361,1,0,0:0:0:0:
64,192,46523,128,0,46929:0:0:0:0:
320,192,46523,1,0,0:0:0:0:
192,192,46686,128,0,46929:0:0:0:0:
448,192,46686,1,0,0:0:0:0:
320,192,46848,128,0,47010:0:0:0:0:
448,192,47010,1,0,0:0:0:0:
192,192,47010,1,0,0:0:0:0:
64,192,47010,1,0,0:0:0:0:
448,192,47172,128,0,47334:0:0:0:0:
320,192,47334,1,0,0:0:0:0:
64,192,47334,1,0,0:0:0:0:
320,192,47496,128,0,47659:0:0:0:0:
192,192,47659,1,0,0:0:0:0:
448,192,47659,1,0,0:0:0:0:
64,192,47659,1,0,0:0:0:0:
192,192,47821,128,0,47983:0:0:0:0:
64,192,47983,1,0,0:0:0:0:
320,192,47983,1,0,0:0:0:0:
64,192,48145,128,0,48307:0:0:0:0:
320,192,48145,1,0,0:0:0:0:
448,192,48307,1,0,0:0:0:0:
320,192,48307,1,0,0:0:0:0:
192,192,48307,1,0,0:0:0:0:
448,192,48469,128,0,48632:0:0:0:0:
320,192,48632,1,0,0:0:0:0:
64,192,48632,1,0,0:0:0:0:
320,192,48794,1,0,0:0:0:0:
448,192,48956,1,0,0:0:0:0:
192,192,48956,1,0,0:0:0:0:
64,192,48956,1,0,0:0:0:0:
448,192,49118,128,0,49523:0:0:0:0:
64,192,49280,1,0,0:0:0:0:
320,192,49280,128,0,49523:0:0:0:0:
192,192,49442,128,0,49605:0:0:0:0:
64,192,49605,1,0,0:0:0:0:
448,192,49605,1,0,0:0:0:0:
320,192,49605,1,0,0:0:0:0:
64,192,49767,128,0,49929:0:0:0:0:
192,192,49929,1,0,0:0:0:0:
448,192,49929,1,0,0:0:0:0:
192,192,50091,128,0,50253:0:0:0:0:
320,192,50253,1,0,0:0:0:0:
64,192,50253,1,0,0:0:0:0:
448,192,50253,1,0,0:0:0:0:
320,192,50415,128,0,50578:0:0:0:0:
448,192,50578,1,0,0:0:0:0:
192,192,50578,1,0,0:0:0:0:
64,192,50578,1,0,0:0:0:0:
192,192,50740,1,0,0:0:0:0:
448,192,50740,128,0,50902:0:0:0:0:
320,192,50902,1,0,0:0:0:0:
64,192,50902,1,0,0:0:0:0:
192,192,50902,1,0,0:0:0:0:
320,192,51064,128,0,51226:0:0:0:0:
448,192,51226,1,0,0:0:0:0:
64,192,51226,1,0,0:0:0:0:
192,192,51388,1,0,0:0:0:0:
448,192,51551,1,0,0:0:0:0:
320,192,51551,1,0,0:0:0:0:
64,192,51551,1,0,0:0:0:0:
192,192,51713,1,0,0:0:0:0:
64,192,51875,1,0,0:0:0:0:
448,192,51875,1,0,0:0:0:0:
320,192,52037,1,0,0:0:0:0:
448,192,52199,1,0,0:0:0:0:
192,192,52199,1,0,0:0:0:0:
64,192,52199,1,0,0:0:0:0:
320,192,52361,1,0,0:0:0:0:
448,192,52523,1,0,0:0:0:0:
64,192,52523,1,0,0:0:0:0:
192,192,52686,1,0,0:0:0:0:
64,192,52848,1,0,0:0:0:0:
448,192,52848,1,0,0:0:0:0:
320,192,52848,1,0,0:0:0:0:
192,192,53010,1,0,0:0:0:0:
448,192,53172,1,0,0:0:0:0:
64,192,53172,1,0,0:0:0:0:
448,192,53334,128,0,53740:0:0:0:0:
320,192,53334,1,0,0:0:0:0:
64,192,53496,1,0,0:0:0:0:
320,192,53496,128,0,53821:0:0:0:0:
192,192,53496,1,0,0:0:0:0:
192,192,53659,128,0,53821:0:0:0:0:
448,192,53821,1,0,0:0:0:0:
64,192,53821,1,0,0:0:0:0:
64,192,53983,128,0,54145:0:0:0:0:
448,192,54145,1,0,0:0:0:0:
320,192,54145,1,0,0:0:0:0:
192,192,54145,1,0,0:0:0:0:
64,192,54307,128,0,54469:0:0:0:0:
448,192,54469,1,0,0:0:0:0:
320,192,54469,1,0,0:0:0:0:
192,192,54632,1,0,0:0:0:0:
448,192,54794,1,0,0:0:0:0:
320,192,54794,1,0,0:0:0:0:
64,192,54794,1,0,0:0:0:0:
192,192,54956,1,0,0:0:0:0:
448,192,55118,1,0,0:0:0:0:
64,192,55118,1,0,0:0:0:0:
320,192,55280,1,0,0:0:0:0:
192,192,55442,1,0,0:0:0:0:
448,192,55442,1,0,0:0:0:0:
64,192,55442,1,0,0:0:0:0:
64,192,55605,128,0,55767:0:0:0:0:
320,192,55605,1,0,0:0:0:0:
192,192,55767,128,0,55929:0:0:0:0:
448,192,55767,1,0,0:0:0:0:
448,192,55929,1,0,0:0:0:0:
320,192,55929,128,0,56091:0:0:0:0:
192,192,56010,1,0,0:0:0:0:
64,192,56010,1,0,0:0:0:0:
448,192,56091,1,0,0:0:0:0:
64,192,56091,1,0,0:0:0:0:
192,192,56091,128,0,56253:0:0:0:0:
64,192,56253,1,0,0:0:0:0:
320,192,56253,1,0,0:0:0:0:
448,192,56253,128,0,56415:0:0:0:0:
320,192,56415,128,0,56659:0:0:0:0:
192,192,56415,1,0,0:0:0:0:
64,192,56415,1,0,0:0:0:0:
448,192,56578,1,0,0:0:0:0:
192,192,56740,128,0,56821:0:0:0:0:
448,192,56740,1,0,0:0:0:0:
64,192,56740,1,0,0:0:0:0:
320,192,56902,128,0,56983:0:0:0:0:
64,192,56902,128,0,57307:0:0:0:0:
448,192,57064,128,0,57145:0:0:0:0:
192,192,57064,128,0,57307:0:0:0:0:
320,192,57226,128,0,57551:0:0:0:0:
192,192,57388,1,0,0:0:0:0:
64,192,57388,1,0,0:0:0:0:
448,192,57388,1,0,0:0:0:0:
448,192,57551,128,0,57713:0:0:0:0:
64,192,57713,1,0,0:0:0:0:
320,192,57713,1,0,0:0:0:0:
320,192,57875,128,0,57956:0:0:0:0:
64,192,58037,1,0,0:0:0:0:
448,192,58037,1,0,0:0:0:0:
192,192,58037,1,0,0:0:0:0:
192,192,58199,128,0,58361:0:0:0:0:
320,192,58361,1,0,0:0:0:0:
64,192,58361,1,0,0:0:0:0:
320,192,58523,1,0,0:0:0:0:
64,192,58523,128,0,58686:0:0:0:0:
320,192,58686,1,0,0:0:0:0:
192,192,58686,1,0,0:0:0:0:
448,192,58686,1,0,0:0:0:0:
448,192,58848,128,0,59010:0:0:0:0:
192,192,59010,128,0,59253:0:0:0:0:
64,192,59010,1,0,0:0:0:0:
320,192,59172,1,0,0:0:0:0:
320,192,59334,128,0,59415:0:0:0:0:
448,192,59334,1,0,0:0:0:0:
64,192,59334,1,0,0:0:0:0:
192,192,59496,128,0,59578:0:0:0:0:
448,192,59496,128,0,59902:0:0:0:0:
64,192,59659,128,0,59740:0:0:0:0:
320,192,59659,128,0,59902:0:0:0:0:
192,192,59821,128,0,60145:0:0:0:0:
64,192,59983,1,0,0:0:0:0:
448,192,59983,1,0,0:0:0:0:
320,192,59983,1,0,0:0:0:0:
64,192,60145,128,0,60226:0:0:0:0:
192,192,60307,1,0,0:0:0:0:
448,192,60307,1,0,0:0:0:0:
192,192,60469,128,0,60632:0:0:0:0:
320,192,60632,1,0,0:0:0:0:
64,192,60632,1,0,0:0:0:0:
448,192,60632,1,0,0:0:0:0:
320,192,60794,128,0,60956:0:0:0:0:
448,192,60956,1,0,0:0:0:0:
192,192,60956,1,0,0:0:0:0:
448,192,61118,128,0,61280:0:0:0:0:
192,192,61118,1,0,0:0:0:0:
64,192,61280,1,0,0:0:0:0:
320,192,61280,1,0,0:0:0:0:
192,192,61280,1,0,0:0:0:0:
320,192,61442,128,0,61605:0:0:0:0:
192,192,61605,128,0,61848:0:0:0:0:
64,192,61605,1,0,0:0:0:0:
448,192,61767,1,0,0:0:0:0:
320,192,61929,128,0,62010:0:0:0:0:
64,192,61929,1,0,0:0:0:0:
448,192,61929,1,0,0:0:0:0:
192,192,62091,128,0,62172:0:0:0:0:
448,192,62253,128,0,62334:0:0:0:0:
64,192,62253,1,0,0:0:0:0:
320,192,62415,128,0,62740:0:0:0:0:
64,192,62578,1,0,0:0:0:0:
448,192,62578,1,0,0:0:0:0:
192,192,62578,1,0,0:0:0:0:
192,192,62740,128,0,62821:0:0:0:0:
448,192,62902,1,0,0:0:0:0:
64,192,62902,1,0,0:0:0:0:
192,192,63064,1,0,0:0:0:0:
448,192,63226,1,0,0:0:0:0:
64,192,63226,1,0,0:0:0:0:
320,192,63226,1,0,0:0:0:0:
192,192,63388,1,0,0:0:0:0:
448,192,63551,1,0,0:0:0:0:
64,192,63551,1,0,0:0:0:0:
448,192,63713,128,0,64037:0:0:0:0:
320,192,63713,1,0,0:0:0:0:
320,192,63875,128,0,64199:0:0:0:0:
64,192,63875,1,0,0:0:0:0:
192,192,63875,1,0,0:0:0:0:
192,192,64037,128,0,64199:0:0:0:0:
64,192,64199,128,0,64442:0:0:0:0:
448,192,64199,1,0,0:0:0:0:
448,192,64361,1,0,0:0:0:0:
320,192,64523,128,0,64605:0:0:0:0:
192,192,64523,1,0,0:0:0:0:
448,192,64523,1,0,0:0:0:0:
192,192,64686,128,0,64767:0:0:0:0:
448,192,64848,128,0,64929:0:0:0:0:
320,192,64848,1,0,0:0:0:0:
64,192,65010,128,0,65334:0:0:0:0:
448,192,65172,1,0,0:0:0:0:
320,192,65172,1,0,0:0:0:0:
192,192,65172,1,0,0:0:0:0:
320,192,65334,128,0,65415:0:0:0:0:
448,192,65496,1,0,0:0:0:0:
192,192,65496,1,0,0:0:0:0:
320,192,65659,1,0,0:0:0:0:
448,192,65821,1,0,0:0:0:0:
192,192,65821,1,0,0:0:0:0:
64,192,65821,1,0,0:0:0:0:
320,192,65983,1,0,0:0:0:0:
192,192,66145,1,0,0:0:0:0:
64,192,66145,1,0,0:0:0:0:
192,192,66307,1,0,0:0:0:0:
64,192,66307,1,0,0:0:0:0:
320,192,66469,1,0,0:0:0:0:
448,192,66469,1,0,0:0:0:0:
64,192,66469,1,0,0:0:0:0:
192,192,66632,1,0,0:0:0:0:
448,192,66794,128,0,67037:0:0:0:0:
192,192,66794,1,0,0:0:0:0:
64,192,66794,1,0,0:0:0:0:
320,192,66956,1,0,0:0:0:0:
192,192,67118,128,0,67199:0:0:0:0:
448,192,67118,1,0,0:0:0:0:
64,192,67118,1,0,0:0:0:0:
320,192,67280,128,0,67361:0:0:0:0:
64,192,67280,128,0,67686:0:0:0:0:
448,192,67442,128,0,67523:0:0:0:0:
192,192,67442,128,0,67686:0:0:0:0:
320,192,67605,128,0,67929:0:0:0:0:
192,192,67767,1,0,0:0:0:0:
64,192,67767,1,0,0:0:0:0:
448,192,67767,1,0,0:0:0:0:
448,192,67929,128,0,68010:0:0:0:0:
320,192,68091,1,0,0:0:0:0:
320,192,68253,128,0,68415:0:0:0:0:
64,192,68415,1,0,0:0:0:0:
448,192,68415,1,0,0:0:0:0:
192,192,68415,1,0,0:0:0:0:
192,192,68578,128,0,68740:0:0:0:0:
64,192,68740,1,0,0:0:0:0:
64,192,68902,128,0,69064:0:0:0:0:
320,192,69064,1,0,0:0:0:0:
192,192,69064,1,0,0:0:0:0:
448,192,69064,1,0,0:0:0:0:
448,192,69226,128,0,69388:0:0:0:0:
64,192,69388,128,0,69632:0:0:0:0:
320,192,69388,1,0,0:0:0:0:
192,192,69551,1,0,0:0:0:0:
320,192,69713,128,0,69794:0:0:0:0:
448,192,69713,1,0,0:0:0:0:
64,192,69713,1,0,0:0:0:0:
192,192,69875,128,0,69956:0:0:0:0:
448,192,69875,128,0,70280:0:0:0:0:
64,192,70037,128,0,70118:0:0:0:0:
320,192,70037,128,0,70280:0:0:0:0:
192,192,70199,128,0,70523:0:0:0:0:
64,192,70361,1,0,0:0:0:0:
448,192,70361,1,0,0:0:0:0:
320,192,70361,1,0,0:0:0:0:
64,192,70523,128,0,70605:0:0:0:0:
192,192,70686,1,0,0:0:0:0:
192,192,70848,128,0,71010:0:0:0:0:
320,192,71010,1,0,0:0:0:0:
64,192,71010,1,0,0:0:0:0:
448,192,71010,1,0,0:0:0:0:
320,192,71172,128,0,71334:0:0:0:0:
448,192,71334,1,0,0:0:0:0:
448,192,71496,128,0,71659:0:0:0:0:
64,192,71659,1,0,0:0:0:0:
320,192,71659,1,0,0:0:0:0:
192,192,71659,1,0,0:0:0:0:
64,192,71821,128,0,71983:0:0:0:0:
448,192,71983,128,0,72226:0:0:0:0:
192,192,72064,1,0,0:0:0:0:
320,192,72145,1,0,0:0:0:0:
64,192,72226,1,0,0:0:0:0:
192,192,72307,128,0,72388:0:0:0:0:
448,192,72307,1,0,0:0:0:0:
64,192,72388,1,0,0:0:0:0:
448,192,72469,128,0,72551:0:0:0:0:
192,192,72551,1,0,0:0:0:0:
320,192,72632,128,0,72713:0:0:0:0:
64,192,72713,1,0,0:0:0:0:
448,192,72794,128,0,73037:0:0:0:0:
192,192,72875,1,0,0:0:0:0:
64,192,72956,1,0,0:0:0:0:
320,192,72956,1,0,0:0:0:0:
192,192,73037,1,0,0:0:0:0:
448,192,73118,128,0,73199:0:0:0:0:
320,192,73199,1,0,0:0:0:0:
64,192,73280,1,0,0:0:0:0:
448,192,73361,1,0,0:0:0:0:
192,192,73442,1,0,0:0:0:0:
320,192,73523,1,0,0:0:0:0:
64,192,73605,1,0,0:0:0:0:
448,192,73605,1,0,0:0:0:0:
192,192,73686,1,0,0:0:0:0:
320,192,73767,1,0,0:0:0:0:
64,192,73848,1,0,0:0:0:0:
320,192,73929,1,0,0:0:0:0:
192,192,74010,1,0,0:0:0:0:
448,192,74091,128,0,74253:0:0:0:0:
192,192,74172,1,0,0:0:0:0:
64,192,74253,1,0,0:0:0:0:
320,192,74253,128,0,74415:0:0:0:0:
448,192,74334,1,0,0:0:0:0:
192,192,74415,128,0,74578:0:0:0:0:
64,192,74496,1,0,0:0:0:0:
448,192,74578,128,0,74821:0:0:0:0:
320,192,74659,1,0,0:0:0:0:
64,192,74740,128,0,74902:0:0:0:0:
192,192,74821,1,0,0:0:0:0:
448,192,74902,1,0,0:0:0:0:
320,192,74902,128,0,74983:0:0:0:0:
192,192,74983,1,0,0:0:0:0:
64,192,75064,128,0,75226:0:0:0:0:
448,192,75064,128,0,75145:0:0:0:0:
320,192,75145,1,0,0:0:0:0:
192,192,75226,128,0,75307:0:0:0:0:
64,192,75307,1,0,0:0:0:0:
448,192,75388,128,0,75632:0:0:0:0:
192,192,75469,1,0,0:0:0:0:
320,192,75551,1,0,0:0:0:0:
64,192,75551,1,0,0:0:0:0:
192,192,75632,1,0,0:0:0:0:
448,192,75713,128,0,75794:0:0:0:0:
320,192,75794,1,0,0:0:0:0:
64,192,75875,1,0,0:0:0:0:
448,192,75956,1,0,0:0:0:0:
192,192,76037,1,0,0:0:0:0:
320,192,76118,1,0,0:0:0:0:
64,192,76199,1,0,0:0:0:0:
448,192,76199,1,0,0:0:0:0:
192,192,76280,1,0,0:0:0:0:
320,192,76361,1,0,0:0:0:0:
64,192,76442,1,0,0:0:0:0:
448,192,76523,1,0,0:0:0:0:
320,192,76605,1,0,0:0:0:0:
64,192,76686,1,0,0:0:0:0:
192,192,76686,1,0,0:0:0:0:
448,192,76767,1,0,0:0:0:0:
320,192,76767,1,0,0:0:0:0:
64,192,76848,1,0,0:0:0:0:
192,192,76848,1,0,0:0:0:0:
192,192,77010,1,0,0:0:0:0:
64,192,77010,1,0,0:0:0:0:
320,192,77172,128,0,77415:0:0:0:0:
192,192,77496,128,0,77578:0:0:0:0:
320,192,77659,128,0,77740:0:0:0:0:
64,192,77821,128,0,77902:0:0:0:0:
192,192,77983,128,0,78307:0:0:0:0:
448,192,78307,128,0,78388:0:0:0:0:
320,192,79767,128,0,80010:0:0:0:0:
192,192,80091,128,0,80172:0:0:0:0:
320,192,80253,128,0,80334:0:0:0:0:
64,192,80415,128,0,80496:0:0:0:0:
192,192,80578,128,0,80902:0:0:0:0:
448,192,80902,128,0,80983:0:0:0:0:
320,192,82361,128,0,82523:0:0:0:0:
192,192,82361,128,0,82523:0:0:0:0:
448,192,82361,1,0,0:0:0:0:
448,192,82523,1,0,0:0:0:0:
448,192,82605,1,0,0:0:0:0:
192,192,82686,128,0,82848:0:0:0:0:
64,192,82686,128,0,82848:0:0:0:0:
320,192,82686,1,0,0:0:0:0:
320,192,82848,1,0,0:0:0:0:
320,192,82929,1,0,0:0:0:0:
64,192,83010,128,0,83172:0:0:0:0:
448,192,83010,128,0,83172:0:0:0:0:
192,192,83010,1,0,0:0:0:0:
192,192,83172,1,0,0:0:0:0:
192,192,83253,1,0,0:0:0:0:
448,192,83334,128,0,83496:0:0:0:0:
320,192,83334,128,0,83496:0:0:0:0:
64,192,83334,1,0,0:0:0:0:
64,192,83496,1,0,0:0:0:0:
64,192,83578,1,0,0:0:0:0:
320,192,83659,128,0,83821:0:0:0:0:
192,192,83659,128,0,83821:0:0:0:0:
448,192,83659,1,0,0:0:0:0:
448,192,83821,1,0,0:0:0:0:
448,192,83902,1,0,0:0:0:0:
192,192,83983,128,0,84145:0:0:0:0:
64,192,83983,128,0,84145:0:0:0:0:
320,192,83983,1,0,0:0:0:0:
320,192,84145,1,0,0:0:0:0:
320,192,84226,1,0,0:0:0:0:
64,192,84307,128,0,84469:0:0:0:0:
448,192,84307,128,0,84469:0:0:0:0:
192,192,84307,1,0,0:0:0:0:
192,192,84469,1,0,0:0:0:0:
192,192,84551,1,0,0:0:0:0:
448,192,84632,128,0,84794:0:0:0:0:
320,192,84632,128,0,84794:0:0:0:0:
64,192,84632,1,0,0:0:0:0:
64,192,84794,1,0,0:0:0:0:
64,192,84875,1,0,0:0:0:0:
448,192,84956,128,0,85118:0:0:0:0:
192,192,84956,128,0,85118:0:0:0:0:
320,192,84956,1,0,0:0:0:0:
320,192,85118,1,0,0:0:0:0:
320,192,85199,1,0,0:0:0:0:
64,192,85280,128,0,85442:0:0:0:0:
448,192,85280,128,0,85442:0:0:0:0:
192,192,85280,1,0,0:0:0:0:
192,192,85442,1,0,0:0:0:0:
192,192,85523,1,0,0:0:0:0:
320,192,85605,128,0,85767:0:0:0:0:
64,192,85605,128,0,85767:0:0:0:0:
448,192,85605,1,0,0:0:0:0:
448,192,85767,1,0,0:0:0:0:
448,192,85848,1,0,0:0:0:0:
192,192,85929,128,0,86091:0:0:0:0:
320,192,85929,128,0,86091:0:0:0:0:
64,192,85929,1,0,0:0:0:0:
64,192,86091,1,0,0:0:0:0:
64,192,86172,1,0,0:0:0:0:
448,192,86253,128,0,86415:0:0:0:0:
192,192,86253,128,0,86415:0:0:0:0:
320,192,86253,1,0,0:0:0:0:
320,192,86415,1,0,0:0:0:0:
320,192,86496,1,0,0:0:0:0:
64,192,86578,128,0,86740:0:0:0:0:
448,192,86578,128,0,86740:0:0:0:0:
192,192,86578,1,0,0:0:0:0:
192,192,86740,1,0,0:0:0:0:
192,192,86821,1,0,0:0:0:0:
320,192,86902,128,0,87064:0:0:0:0:
64,192,86902,128,0,87064:0:0:0:0:
448,192,86902,1,0,0:0:0:0:
448,192,87064,1,0,0:0:0:0:
448,192,87145,1,0,0:0:0:0:
64,192,87226,128,0,87307:0:0:0:0:
192,192,87226,1,0,0:0:0:0:
320,192,87226,128,0,87307:0:0:0:0:
448,192,87388,128,0,87469:0:0:0:0:
192,192,87388,128,0,87469:0:0:0:0:
64,192,87388,1,0,0:0:0:0:
64,192,87469,1,0,0:0:0:0:
448,192,87551,128,0,87659:0:0:0:0:
320,192,87551,128,0,87659:0:0:0:0:
64,192,87605,128,0,87713:0:0:0:0:
192,192,87659,1,0,0:0:0:0:
448,192,87713,1,0,0:0:0:0:
320,192,87767,1,0,0:0:0:0:
192,192,87821,1,0,0:0:0:0:
64,192,87875,128,0,87983:0:0:0:0:
448,192,87875,128,0,87983:0:0:0:0:
320,192,87929,128,0,88037:0:0:0:0:
192,192,87983,128,0,88091:0:0:0:0:
64,192,88037,1,0,0:0:0:0:
320,192,88091,1,0,0:0:0:0:
448,192,88145,1,0,0:0:0:0:
64,192,88199,128,0,88307:0:0:0:0:
192,192,88199,128,0,88307:0:0:0:0:
320,192,88253,128,0,88361:0:0:0:0:
448,192,88307,128,0,88415:0:0:0:0:
64,192,88361,1,0,0:0:0:0:
192,192,88415,1,0,0:0:0:0:
320,192,88469,1,0,0:0:0:0:
448,192,88523,128,0,88632:0:0:0:0:
64,192,88523,128,0,88632:0:0:0:0:
192,192,88578,128,0,88686:0:0:0:0:
320,192,88632,128,0,88740:0:0:0:0:
448,192,88686,1,0,0:0:0:0:
64,192,88740,1,0,0:0:0:0:
192,192,88794,1,0,0:0:0:0:
448,192,88848,128,0,88956:0:0:0:0:
320,192,88848,128,0,88956:0:0:0:0:
64,192,88902,128,0,89010:0:0:0:0:
192,192,88956,128,0,89064:0:0:0:0:
448,192,89010,1,0,0:0:0:0:
320,192,89064,1,0,0:0:0:0:
192,192,89118,1,0,0:0:0:0:
64,192,89172,128,0,89280:0:0:0:0:
448,192,89172,128,0,89280:0:0:0:0:
320,192,89226,128,0,89334:0:0:0:0:
192,192,89280,128,0,89388:0:0:0:0:
64,192,89334,1,0,0:0:0:0:
320,192,89388,1,0,0:0:0:0:
448,192,89442,1,0,0:0:0:0:
64,192,89496,128,0,89605:0:0:0:0:
192,192,89496,128,0,89605:0:0:0:0:
320,192,89551,128,0,89659:0:0:0:0:
448,192,89605,128,0,89713:0:0:0:0:
64,192,89659,1,0,0:0:0:0:
192,192,89713,1,0,0:0:0:0:
320,192,89767,1,0,0:0:0:0:
448,192,89821,128,0,89929:0:0:0:0:
64,192,89821,128,0,89929:0:0:0:0:
192,192,89875,128,0,89983:0:0:0:0:
320,192,89929,128,0,90037:0:0:0:0:
448,192,89983,1,0,0:0:0:0:
64,192,90037,1,0,0:0:0:0:
192,192,90091,1,0,0:0:0:0:
448,192,90145,128,0,90253:0:0:0:0:
320,192,90145,128,0,90253:0:0:0:0:
64,192,90199,128,0,90307:0:0:0:0:
192,192,90253,1,0,0:0:0:0:
448,192,90307,1,0,0:0:0:0:
320,192,90361,1,0,0:0:0:0:
64,192,90415,1,0,0:0:0:0:
192,192,90469,128,0,90578:0:0:0:0:
448,192,90469,128,0,90578:0:0:0:0:
320,192,90523,128,0,90632:0:0:0:0:
64,192,90578,1,0,0:0:0:0:
192,192,90632,1,0,0:0:0:0:
448,192,90686,1,0,0:0:0:0:
320,192,90740,1,0,0:0:0:0:
64,192,90794,128,0,90902:0:0:0:0:
192,192,90794,128,0,90902:0:0:0:0:
448,192,90848,128,0,90956:0:0:0:0:
320,192,90902,1,0,0:0:0:0:
64,192,90956,1,0,0:0:0:0:
192,192,91010,1,0,0:0:0:0:
448,192,91064,1,0,0:0:0:0:
320,192,91118,128,0,91226:0:0:0:0:
64,192,91118,128,0,91226:0:0:0:0:
192,192,91172,128,0,91280:0:0:0:0:
448,192,91226,1,0,0:0:0:0:
320,192,91280,1,0,0:0:0:0:
64,192,91334,1,0,0:0:0:0:
448,192,91388,1,0,0:0:0:0:
320,192,91442,128,0,91551:0:0:0:0:
192,192,91442,128,0,91551:0:0:0:0:
64,192,91496,1,0,0:0:0:0:
448,192,91551,1,0,0:0:0:0:
320,192,91605,1,0,0:0:0:0:
192,192,91659,1,0,0:0:0:0:
64,192,91713,1,0,0:0:0:0:
320,192,91767,128,0,91875:0:0:0:0:
448,192,91767,128,0,91875:0:0:0:0:
192,192,91821,1,0,0:0:0:0:
64,192,91875,1,0,0:0:0:0:
320,192,91929,1,0,0:0:0:0:
448,192,91983,1,0,0:0:0:0:
192,192,92037,1,0,0:0:0:0:
64,192,92091,128,0,92199:0:0:0:0:
320,192,92091,128,0,92199:0:0:0:0:
448,192,92145,1,0,0:0:0:0:
192,192,92199,1,0,0:0:0:0:
64,192,92253,1,0,0:0:0:0:
320,192,92307,1,0,0:0:0:0:
448,192,92361,1,0,0:0:0:0:
192,192,92415,128,0,92523:0:0:0:0:
64,192,92415,128,0,92523:0:0:0:0:
320,192,92469,1,0,0:0:0:0:
448,192,92523,1,0,0:0:0:0:
192,192,92578,1,0,0:0:0:0:
64,192,92632,1,0,0:0:0:0:
320,192,92686,1,0,0:0:0:0:
64,192,92740,1,0,0:0:0:0:
192,192,92740,1,0,0:0:0:0:
448,192,92740,1,0,0:0:0:0:
448,192,92902,5,0,0:0:0:0:
320,192,92983,1,0,0:0:0:0:
448,192,93064,1,0,0:0:0:0:
192,192,93064,1,0,0:0:0:0:
64,192,93064,1,0,0:0:0:0:
320,192,93145,1,0,0:0:0:0:
192,192,93226,1,0,0:0:0:0:
448,192,93388,128,0,93469:0:0:0:0:
64,192,93388,128,0,93469:0:0:0:0:
320,192,93388,1,0,0:0:0:0:
192,192,93551,1,0,0:0:0:0:
320,192,93632,1,0,0:0:0:0:
448,192,93713,1,0,0:0:0:0:
192,192,93713,1,0,0:0:0:0:
64,192,93713,1,0,0:0:0:0:
320,192,93794,1,0,0:0:0:0:
192,192,93875,1,0,0:0:0:0:
320,192,94037,1,0,0:0:0:0:
64,192,94037,1,0,0:0:0:0:
448,192,94037,1,0,0:0:0:0:
64,192,94199,1,0,0:0:0:0:
320,192,94280,1,0,0:0:0:0:
448,192,94361,1,0,0:0:0:0:
192,192,94361,1,0,0:0:0:0:
64,192,94361,1,0,0:0:0:0:
320,192,94442,1,0,0:0:0:0:
192,192,94523,1,0,0:0:0:0:
448,192,94686,128,0,94767:0:0:0:0:
64,192,94686,128,0,94767:0:0:0:0:
320,192,94686,1,0,0:0:0:0:
192,192,94767,1,0,0:0:0:0:
320,192,94848,1,0,0:0:0:0:
192,192,94929,1,0,0:0:0:0:
320,192,95010,1,0,0:0:0:0:
448,192,95010,1,0,0:0:0:0:
64,192,95010,1,0,0:0:0:0:
448,192,95172,1,0,0:0:0:0:
64,192,95334,1,0,0:0:0:0:
192,192,95334,1,0,0:0:0:0:
320,192,95334,1,0,0:0:0:0:
64,192,95496,1,0,0:0:0:0:
448,192,95659,1,0,0:0:0:0:
320,192,95659,1,0,0:0:0:0:
192,192,95659,1,0,0:0:0:0:
64,192,95740,1,0,0:0:0:0:
320,192,95821,1,0,0:0:0:0:
192,192,95902,1,0,0:0:0:0:
64,192,95983,128,0,96064:0:0:0:0:
320,192,95983,128,0,96064:0:0:0:0:
448,192,95983,1,0,0:0:0:0:
192,192,96064,1,0,0:0:0:0:
448,192,96145,1,0,0:0:0:0:
320,192,96226,1,0,0:0:0:0:
64,192,96307,1,0,0:0:0:0:
448,192,96307,1,0,0:0:0:0:
192,192,96307,1,0,0:0:0:0:
320,192,96388,1,0,0:0:0:0:
320,192,96632,1,0,0:0:0:0:
448,192,96632,1,0,0:0:0:0:
64,192,96632,1,0,0:0:0:0:
192,192,96713,1,0,0:0:0:0:
320,192,96875,1,0,0:0:0:0:
64,192,96956,1,0,0:0:0:0:
448,192,96956,1,0,0:0:0:0:
192,192,96956,1,0,0:0:0:0:
320,192,97037,1,0,0:0:0:0:
64,192,97118,1,0,0:0:0:0:
320,192,97199,1,0,0:0:0:0:
448,192,97280,128,0,97361:0:0:0:0:
192,192,97280,128,0,97361:0:0:0:0:
64,192,97280,1,0,0:0:0:0:
448,192,97442,1,0,0:0:0:0:
192,192,97523,1,0,0:0:0:0:
448,192,97605,1,0,0:0:0:0:
320,192,97605,1,0,0:0:0:0:
64,192,97605,1,0,0:0:0:0:
192,192,97767,1,0,0:0:0:0:
448,192,97929,1,0,0:0:0:0:
192,192,97929,1,0,0:0:0:0:
64,192,97929,1,0,0:0:0:0:
320,192,98010,1,0,0:0:0:0:
64,192,98091,1,0,0:0:0:0:
192,192,98172,1,0,0:0:0:0:
64,192,98253,1,0,0:0:0:0:
448,192,98253,1,0,0:0:0:0:
320,192,98253,1,0,0:0:0:0:
192,192,98334,1,0,0:0:0:0:
320,192,98415,1,0,0:0:0:0:
64,192,98578,128,0,98659:0:0:0:0:
192,192,98578,128,0,98659:0:0:0:0:
448,192,98578,1,0,0:0:0:0:
192,192,98740,1,0,0:0:0:0:
320,192,98821,1,0,0:0:0:0:
448,192,98902,1,0,0:0:0:0:
192,192,98902,1,0,0:0:0:0:
64,192,98902,1,0,0:0:0:0:
320,192,99064,1,0,0:0:0:0:
320,192,99226,1,0,0:0:0:0:
448,192,99226,1,0,0:0:0:0:
64,192,99226,1,0,0:0:0:0:
192,192,99307,1,0,0:0:0:0:
448,192,99388,1,0,0:0:0:0:
320,192,99469,1,0,0:0:0:0:
448,192,99551,1,0,0:0:0:0:
192,192,99551,1,0,0:0:0:0:
64,192,99551,1,0,0:0:0:0:
320,192,99632,1,0,0:0:0:0:
192,192,99713,1,0,0:0:0:0:
448,192,99794,1,0,0:0:0:0:
320,192,99875,128,0,99956:0:0:0:0:
192,192,99875,128,0,99956:0:0:0:0:
64,192,99875,1,0,0:0:0:0:
448,192,99956,1,0,0:0:0:0:
64,192,100037,1,0,0:0:0:0:
320,192,100118,1,0,0:0:0:0:
64,192,100199,1,0,0:0:0:0:
448,192,100199,1,0,0:0:0:0:
192,192,100199,1,0,0:0:0:0:
192,192,100361,1,0,0:0:0:0:
64,192,100523,1,0,0:0:0:0:
448,192,100523,1,0,0:0:0:0:
320,192,100523,1,0,0:0:0:0:
448,192,100686,1,0,0:0:0:0:
320,192,100767,1,0,0:0:0:0:
448,192,100848,1,0,0:0:0:0:
192,192,100848,1,0,0:0:0:0:
64,192,100848,1,0,0:0:0:0:
320,192,100929,1,0,0:0:0:0:
192,192,101010,1,0,0:0:0:0:
448,192,101091,1,0,0:0:0:0:
320,192,101172,128,0,101253:0:0:0:0:
64,192,101172,128,0,101253:0:0:0:0:
192,192,101172,1,0,0:0:0:0:
448,192,101253,1,0,0:0:0:0:
64,192,101334,1,0,0:0:0:0:
192,192,101415,1,0,0:0:0:0:
448,192,101496,1,0,0:0:0:0:
64,192,101496,1,0,0:0:0:0:
320,192,101496,1,0,0:0:0:0:
192,192,101578,1,0,0:0:0:0:
320,192,101659,1,0,0:0:0:0:
448,192,101821,1,0,0:0:0:0:
320,192,101821,1,0,0:0:0:0:
192,192,101821,1,0,0:0:0:0:
64,192,101983,1,0,0:0:0:0:
192,192,102145,1,0,0:0:0:0:
320,192,102145,1,0,0:0:0:0:
64,192,102145,1,0,0:0:0:0:
448,192,102307,1,0,0:0:0:0:
320,192,102388,1,0,0:0:0:0:
64,192,102469,128,0,102551:0:0:0:0:
192,192,102469,1,0,0:0:0:0:
448,192,102469,128,0,102632:0:0:0:0:
320,192,102551,1,0,0:0:0:0:
192,192,102632,1,0,0:0:0:0:
64,192,102713,1,0,0:0:0:0:
320,192,102794,1,0,0:0:0:0:
448,192,102794,128,0,102875:0:0:0:0:
448,192,102956,1,0,0:0:0:0:
448,192,103037,128,0,103118:0:0:0:0:
192,192,103118,1,0,0:0:0:0:
64,192,103118,1,0,0:0:0:0:
192,192,103280,1,0,0:0:0:0:
64,192,103280,128,0,103361:0:0:0:0:
192,192,103361,1,0,0:0:0:0:
320,192,103442,1,0,0:0:0:0:
448,192,103442,1,0,0:0:0:0:
64,192,103523,128,0,103605:0:0:0:0:
320,192,103605,1,0,0:0:0:0:
320,192,103686,1,0,0:0:0:0:
64,192,103767,128,0,103929:0:0:0:0:
192,192,103767,128,0,103848:0:0:0:0:
192,192,103929,1,0,0:0:0:0:
192,192,104010,128,0,104091:0:0:0:0:
320,192,104091,1,0,0:0:0:0:
448,192,104091,1,0,0:0:0:0:
448,192,104253,1,0,0:0:0:0:
320,192,104253,128,0,104334:0:0:0:0:
448,192,104334,1,0,0:0:0:0:
64,192,104415,1,0,0:0:0:0:
192,192,104415,1,0,0:0:0:0:
320,192,104496,128,0,104578:0:0:0:0:
192,192,104578,1,0,0:0:0:0:
192,192,104659,1,0,0:0:0:0:
320,192,104740,1,0,0:0:0:0:
448,192,104740,128,0,104821:0:0:0:0:
320,192,104902,1,0,0:0:0:0:
320,192,104983,1,0,0:0:0:0:
448,192,104983,128,0,105064:0:0:0:0:
64,192,105064,128,0,105226:0:0:0:0:
192,192,105064,128,0,105145:0:0:0:0:
448,192,105145,1,0,0:0:0:0:
192,192,105226,1,0,0:0:0:0:
192,192,105307,1,0,0:0:0:0:
448,192,105388,128,0,105551:0:0:0:0:
64,192,105388,1,0,0:0:0:0:
320,192,105469,1,0,0:0:0:0:
64,192,105551,1,0,0:0:0:0:
64,192,105632,1,0,0:0:0:0:
320,192,105713,128,0,105875:0:0:0:0:
448,192,105713,1,0,0:0:0:0:
192,192,105794,1,0,0:0:0:0:
448,192,105875,1,0,0:0:0:0:
448,192,105956,1,0,0:0:0:0:
192,192,106037,128,0,106199:0:0:0:0:
320,192,106037,1,0,0:0:0:0:
64,192,106118,1,0,0:0:0:0:
320,192,106199,1,0,0:0:0:0:
320,192,106280,1,0,0:0:0:0:
192,192,106361,128,0,106442:0:0:0:0:
64,192,106361,128,0,106523:0:0:0:0:
448,192,106442,1,0,0:0:0:0:
192,192,106523,1,0,0:0:0:0:
192,192,106605,1,0,0:0:0:0:
448,192,106686,128,0,106848:0:0:0:0:
64,192,106686,1,0,0:0:0:0:
320,192,106767,1,0,0:0:0:0:
64,192,106848,1,0,0:0:0:0:
64,192,106929,1,0,0:0:0:0:
320,192,107010,128,0,107172:0:0:0:0:
448,192,107010,1,0,0:0:0:0:
192,192,107091,1,0,0:0:0:0:
448,192,107172,1,0,0:0:0:0:
448,192,107253,1,0,0:0:0:0:
192,192,107334,128,0,107496:0:0:0:0:
320,192,107334,1,0,0:0:0:0:
64,192,107415,1,0,0:0:0:0:
320,192,107496,1,0,0:0:0:0:
320,192,107578,1,0,0:0:0:0:
192,192,107659,128,0,107740:0:0:0:0:
64,192,107659,128,0,107821:0:0:0:0:
448,192,107713,1,0,0:0:0:0:
320,192,107767,1,0,0:0:0:0:
192,192,107821,1,0,0:0:0:0:
448,192,107875,1,0,0:0:0:0:
320,192,107929,1,0,0:0:0:0:
64,192,107983,1,0,0:0:0:0:
448,192,108037,1,0,0:0:0:0:
192,192,108091,1,0,0:0:0:0:
64,192,108145,1,0,0:0:0:0:
320,192,108226,1,0,0:0:0:0:
192,192,108307,1,0,0:0:0:0:
64,192,108307,1,0,0:0:0:0:
448,192,108361,1,0,0:0:0:0:
320,192,108415,1,0,0:0:0:0:
192,192,108469,1,0,0:0:0:0:
448,192,108523,1,0,0:0:0:0:
320,192,108578,1,0,0:0:0:0:
64,192,108632,1,0,0:0:0:0:
448,192,108686,1,0,0:0:0:0:
192,192,108740,1,0,0:0:0:0:
64,192,108794,1,0,0:0:0:0:
320,192,108848,1,0,0:0:0:0:
192,192,108902,1,0,0:0:0:0:
448,192,108956,128,0,109037:0:0:0:0:
64,192,108956,1,0,0:0:0:0:
320,192,109010,1,0,0:0:0:0:
192,192,109064,1,0,0:0:0:0:
448,192,109118,1,0,0:0:0:0:
320,192,109172,1,0,0:0:0:0:
64,192,109226,1,0,0:0:0:0:
448,192,109280,1,0,0:0:0:0:
192,192,109334,1,0,0:0:0:0:
64,192,109388,1,0,0:0:0:0:
448,192,109442,1,0,0:0:0:0:
320,192,109496,1,0,0:0:0:0:
192,192,109551,1,0,0:0:0:0:
64,192,109605,128,0,109767:0:0:0:0:
448,192,109605,1,0,0:0:0:0:
320,192,109686,1,0,0:0:0:0:
192,192,109767,1,0,0:0:0:0:
192,192,109848,1,0,0:0:0:0:
448,192,109929,128,0,110091:0:0:0:0:
320,192,109929,1,0,0:0:0:0:
64,192,110010,1,0,0:0:0:0:
320,192,110091,1,0,0:0:0:0:
320,192,110172,1,0,0:0:0:0:
192,192,110253,128,0,110415:0:0:0:0:
64,192,110253,128,0,110334:0:0:0:0:
448,192,110334,1,0,0:0:0:0:
64,192,110415,1,0,0:0:0:0:
64,192,110496,1,0,0:0:0:0:
320,192,110578,128,0,110740:0:0:0:0:
448,192,110578,1,0,0:0:0:0:
192,192,110659,1,0,0:0:0:0:
448,192,110740,1,0,0:0:0:0:
448,192,110821,1,0,0:0:0:0:
64,192,110902,128,0,111064:0:0:0:0:
192,192,110902,1,0,0:0:0:0:
320,192,110983,1,0,0:0:0:0:
192,192,111064,1,0,0:0:0:0:
192,192,111145,1,0,0:0:0:0:
448,192,111226,128,0,111388:0:0:0:0:
320,192,111226,1,0,0:0:0:0:
64,192,111307,1,0,0:0:0:0:
320,192,111388,1,0,0:0:0:0:
320,192,111469,1,0,0:0:0:0:
192,192,111551,128,0,111713:0:0:0:0:
64,192,111551,128,0,111632:0:0:0:0:
448,192,111632,1,0,0:0:0:0:
64,192,111713,1,0,0:0:0:0:
64,192,111794,1,0,0:0:0:0:
320,192,111875,128,0,112037:0:0:0:0:
448,192,111875,1,0,0:0:0:0:
192,192,111956,1,0,0:0:0:0:
448,192,112037,1,0,0:0:0:0:
448,192,112118,1,0,0:0:0:0:
64,192,112199,128,0,112361:0:0:0:0:
192,192,112199,1,0,0:0:0:0:
320,192,112280,1,0,0:0:0:0:
192,192,112361,1,0,0:0:0:0:
192,192,112442,1,0,0:0:0:0:
448,192,112523,128,0,112686:0:0:0:0:
320,192,112523,1,0,0:0:0:0:
64,192,112605,1,0,0:0:0:0:
192,192,112686,128,0,112767:0:0:0:0:
320,192,112686,1,0,0:0:0:0:
320,192,112767,1,0,0:0:0:0:
64,192,112848,128,0,112929:0:0:0:0:
192,192,112848,128,0,113010:0:0:0:0:
448,192,112929,1,0,0:0:0:0:
320,192,113010,128,0,113091:0:0:0:0:
64,192,113091,1,0,0:0:0:0:
192,192,113172,128,0,113253:0:0:0:0:
448,192,113226,1,0,0:0:0:0:
320,192,113280,1,0,0:0:0:0:
64,192,113334,128,0,113415:0:0:0:0:
448,192,113388,1,0,0:0:0:0:
320,192,113442,1,0,0:0:0:0:
448,192,113496,128,0,113578:0:0:0:0:
192,192,113496,128,0,113578:0:0:0:0:
64,192,113496,128,0,113578:0:0:0:0:
320,192,113659,128,0,113821:0:0:0:0:
64,192,113659,128,0,113821:0:0:0:0:
192,192,113659,128,0,113821:0:0:0:0:
192,192,113983,128,0,114145:0:0:0:0:
448,192,113983,128,0,114145:0:0:0:0:
64,192,113983,128,0,114145:0:0:0:0:
448,192,114307,128,0,114469:0:0:0:0:
320,192,114307,128,0,114469:0:0:0:0:
64,192,114307,128,0,114469:0:0:0:0:
320,192,114632,128,0,114794:0:0:0:0:
192,192,114632,128,0,114956:0:0:0:0:
64,192,114632,128,0,115118:0:0:0:0:
448,192,114794,1,0,0:0:0:0:
448,192,114875,1,0,0:0:0:0:
320,192,114956,1,0,0:0:0:0:
320,192,115037,1,0,0:0:0:0:
192,192,115118,1,0,0:0:0:0:
192,192,115199,1,0,0:0:0:0:
64,192,115280,1,0,0:0:0:0:
64,192,115361,1,0,0:0:0:0:
448,192,115442,1,0,0:0:0:0:
448,192,115523,1,0,0:0:0:0:
192,192,115605,1,0,0:0:0:0:
64,192,115605,128,0,115686:0:0:0:0:
192,192,115686,1,0,0:0:0:0:
320,192,115767,1,0,0:0:0:0:
64,192,115767,128,0,115848:0:0:0:0:
320,192,115848,1,0,0:0:0:0:
448,192,115929,1,0,0:0:0:0:
192,192,115929,128,0,116010:0:0:0:0:
448,192,116010,1,0,0:0:0:0:
192,192,116091,128,0,116172:0:0:0:0:
320,192,116091,128,0,116172:0:0:0:0:
64,192,116091,128,0,116172:0:0:0:0:
64,192,116253,128,0,116415:0:0:0:0:
320,192,116253,128,0,116415:0:0:0:0:
192,192,116253,128,0,116415:0:0:0:0:
320,192,116578,128,0,116740:0:0:0:0:
64,192,116578,128,0,116740:0:0:0:0:
448,192,116578,128,0,116740:0:0:0:0:
64,192,116902,128,0,117064:0:0:0:0:
448,192,116902,128,0,117064:0:0:0:0:
192,192,116902,128,0,117064:0:0:0:0:
448,192,117226,128,0,117713:0:0:0:0:
320,192,117226,128,0,117551:0:0:0:0:
192,192,117226,128,0,117388:0:0:0:0:
64,192,117388,1,0,0:0:0:0:
64,192,117469,1,0,0:0:0:0:
192,192,117551,1,0,0:0:0:0:
192,192,117632,1,0,0:0:0:0:
320,192,117713,1,0,0:0:0:0:
320,192,117794,1,0,0:0:0:0:
448,192,117875,1,0,0:0:0:0:
448,192,117956,1,0,0:0:0:0:
64,192,118037,1,0,0:0:0:0:
64,192,118118,1,0,0:0:0:0:
192,192,118199,128,0,118280:0:0:0:0:
320,192,118199,128,0,118280:0:0:0:0:
448,192,118280,1,0,0:0:0:0:
64,192,118361,128,0,118442:0:0:0:0:
192,192,118361,128,0,118442:0:0:0:0:
320,192,118361,128,0,118442:0:0:0:0:
448,192,118523,128,0,118605:0:0:0:0:
192,192,118523,128,0,118605:0:0:0:0:
64,192,118523,128,0,118605:0:0:0:0:
448,192,118686,128,0,118767:0:0:0:0:
320,192,118686,128,0,118767:0:0:0:0:
64,192,118686,128,0,118767:0:0:0:0:
448,192,118848,128,0,119010:0:0:0:0:
192,192,118848,128,0,119010:0:0:0:0:
320,192,118848,128,0,119010:0:0:0:0:
320,192,119172,128,0,119334:0:0:0:0:
64,192,119172,128,0,119334:0:0:0:0:
192,192,119172,128,0,119334:0:0:0:0:
64,192,119496,128,0,119659:0:0:0:0:
320,192,119496,128,0,119659:0:0:0:0:
448,192,119496,128,0,119659:0:0:0:0:
192,192,119821,128,0,119983:0:0:0:0:
320,192,119821,128,0,120145:0:0:0:0:
64,192,119821,128,0,120307:0:0:0:0:
448,192,119983,1,0,0:0:0:0:
448,192,120064,1,0,0:0:0:0:
192,192,120145,1,0,0:0:0:0:
192,192,120226,1,0,0:0:0:0:
320,192,120307,1,0,0:0:0:0:
320,192,120388,1,0,0:0:0:0:
64,192,120469,1,0,0:0:0:0:
64,192,120551,1,0,0:0:0:0:
448,192,120632,1,0,0:0:0:0:
448,192,120713,1,0,0:0:0:0:
192,192,120794,128,0,120875:0:0:0:0:
64,192,120794,128,0,120875:0:0:0:0:
448,192,120956,128,0,121037:0:0:0:0:
320,192,120956,128,0,121037:0:0:0:0:
192,192,120956,128,0,121037:0:0:0:0:
192,192,121118,128,0,121199:0:0:0:0:
64,192,121118,128,0,121199:0:0:0:0:
448,192,121118,128,0,121199:0:0:0:0:
448,192,121280,128,0,121361:0:0:0:0:
320,192,121280,128,0,121361:0:0:0:0:
64,192,121280,128,0,121361:0:0:0:0:
192,192,121442,128,0,121605:0:0:0:0:
448,192,121442,128,0,121605:0:0:0:0:
320,192,121442,128,0,121605:0:0:0:0:
320,192,121767,128,0,121929:0:0:0:0:
192,192,121767,128,0,121929:0:0:0:0:
64,192,121767,128,0,121929:0:0:0:0:
64,192,122091,128,0,122253:0:0:0:0:
448,192,122091,128,0,122253:0:0:0:0:
192,192,122091,128,0,122253:0:0:0:0:
448,192,122415,128,0,122902:0:0:0:0:
192,192,122415,128,0,122740:0:0:0:0:
320,192,122415,128,0,122578:0:0:0:0:
64,192,122578,1,0,0:0:0:0:
64,192,122659,1,0,0:0:0:0:
320,192,122740,1,0,0:0:0:0:
320,192,122821,1,0,0:0:0:0:
192,192,122902,1,0,0:0:0:0:
192,192,122983,1,0,0:0:0:0:
448,192,123064,1,0,0:0:0:0:
448,192,123145,1,0,0:0:0:0:
64,192,123226,1,0,0:0:0:0:
64,192,123307,1,0,0:0:0:0:
448,192,123388,128,0,123469:0:0:0:0:
320,192,123388,128,0,123469:0:0:0:0:
448,192,123551,128,0,123632:0:0:0:0:
320,192,123551,128,0,123632:0:0:0:0:
192,192,123551,1,0,0:0:0:0:
64,192,123551,128,0,123632:0:0:0:0:
448,192,123713,128,0,123794:0:0:0:0:
64,192,123713,128,0,123794:0:0:0:0:
192,192,123713,1,0,0:0:0:0:
320,192,123713,128,0,123794:0:0:0:0:
192,192,123875,128,0,124118:0:0:0:0:
448,192,123875,128,0,124037:0:0:0:0:
64,192,123875,128,0,123956:0:0:0:0:
320,192,124037,128,0,124118:0:0:0:0:
64,192,124037,128,0,124199:0:0:0:0:
320,192,124199,128,0,124442:0:0:0:0:
448,192,124199,1,0,0:0:0:0:
192,192,124199,128,0,124280:0:0:0:0:
448,192,124361,128,0,124442:0:0:0:0:
192,192,124361,128,0,124523:0:0:0:0:
64,192,124442,1,0,0:0:0:0:
448,192,124523,128,0,124767:0:0:0:0:
320,192,124523,128,0,124605:0:0:0:0:
64,192,124686,128,0,124767:0:0:0:0:
320,192,124686,128,0,124848:0:0:0:0:
192,192,124848,128,0,125091:0:0:0:0:
64,192,124848,1,0,0:0:0:0:
448,192,124848,128,0,124929:0:0:0:0:
320,192,125010,128,0,125091:0:0:0:0:
448,192,125010,128,0,125659:0:0:0:0:
192,192,125172,128,0,125415:0:0:0:0:
64,192,125172,128,0,125253:0:0:0:0:
64,192,125334,128,0,125415:0:0:0:0:
192,192,125496,128,0,125740:0:0:0:0:
320,192,125496,128,0,125578:0:0:0:0:
64,192,125496,1,0,0:0:0:0:
320,192,125659,128,0,125740:0:0:0:0:
64,192,125740,1,0,0:0:0:0:
192,192,125821,128,0,126064:0:0:0:0:
448,192,125821,128,0,125902:0:0:0:0:
320,192,125983,1,0,0:0:0:0:
448,192,125983,128,0,126145:0:0:0:0:
320,192,126145,128,0,126307:0:0:0:0:
64,192,126145,1,0,0:0:0:0:
192,192,126145,128,0,126226:0:0:0:0:
448,192,126226,1,0,0:0:0:0:
64,192,126307,128,0,126388:0:0:0:0:
192,192,126307,128,0,126469:0:0:0:0:
320,192,126388,1,0,0:0:0:0:
64,192,126469,128,0,126632:0:0:0:0:
448,192,126469,128,0,126551:0:0:0:0:
192,192,126632,128,0,126713:0:0:0:0:
448,192,126632,128,0,126794:0:0:0:0:
192,192,126794,128,0,127037:0:0:0:0:
64,192,126794,1,0,0:0:0:0:
320,192,126794,128,0,126875:0:0:0:0:
64,192,126956,128,0,127037:0:0:0:0:
320,192,126956,128,0,127118:0:0:0:0:
448,192,127037,1,0,0:0:0:0:
64,192,127118,128,0,127361:0:0:0:0:
192,192,127118,128,0,127199:0:0:0:0:
448,192,127280,128,0,127361:0:0:0:0:
192,192,127280,128,0,127442:0:0:0:0:
320,192,127442,128,0,127686:0:0:0:0:
448,192,127442,1,0,0:0:0:0:
64,192,127442,128,0,127523:0:0:0:0:
192,192,127605,128,0,127686:0:0:0:0:
64,192,127605,128,0,128253:0:0:0:0:
320,192,127767,128,0,128010:0:0:0:0:
448,192,127767,128,0,127848:0:0:0:0:
448,192,127929,128,0,128010:0:0:0:0:
320,192,128091,128,0,128334:0:0:0:0:
448,192,128091,1,0,0:0:0:0:
192,192,128091,128,0,128172:0:0:0:0:
192,192,128253,128,0,128334:0:0:0:0:
448,192,128334,1,0,0:0:0:0:
320,192,128415,128,0,128659:0:0:0:0:
64,192,128415,128,0,128496:0:0:0:0:
64,192,128578,128,0,128740:0:0:0:0:
192,192,128578,1,0,0:0:0:0:
192,192,128740,128,0,128902:0:0:0:0:
448,192,128740,1,0,0:0:0:0:
320,192,128740,128,0,128821:0:0:0:0:
64,192,128821,1,0,0:0:0:0:
448,192,128902,128,0,128983:0:0:0:0:
320,192,128902,128,0,129064:0:0:0:0:
192,192,128983,1,0,0:0:0:0:
448,192,129064,128,0,129226:0:0:0:0:
64,192,129064,128,0,129145:0:0:0:0:
64,192,129226,128,0,129388:0:0:0:0:
192,192,129226,128,0,129307:0:0:0:0:
192,192,129388,128,0,129632:0:0:0:0:
320,192,129388,128,0,129469:0:0:0:0:
448,192,129388,1,0,0:0:0:0:
320,192,129551,128,0,129713:0:0:0:0:
448,192,129551,128,0,129632:0:0:0:0:
64,192,129632,1,0,0:0:0:0:
448,192,129713,128,0,129956:0:0:0:0:
192,192,129713,128,0,129794:0:0:0:0:
192,192,129875,128,0,130037:0:0:0:0:
64,192,129875,128,0,129956:0:0:0:0:
320,192,130037,128,0,130280:0:0:0:0:
448,192,130037,128,0,130118:0:0:0:0:
64,192,130037,1,0,0:0:0:0:
448,192,130199,128,0,130848:0:0:0:0:
192,192,130199,128,0,130280:0:0:0:0:
320,192,130361,128,0,130605:0:0:0:0:
64,192,130361,128,0,130442:0:0:0:0:
64,192,130523,128,0,130605:0:0:0:0:
320,192,130686,128,0,130929:0:0:0:0:
64,192,130686,1,0,0:0:0:0:
192,192,130686,128,0,130767:0:0:0:0:
192,192,130848,128,0,130929:0:0:0:0:
64,192,130929,1,0,0:0:0:0:
448,192,131010,128,0,131091:0:0:0:0:
320,192,131010,128,0,131253:0:0:0:0:
192,192,131010,1,0,0:0:0:0:
64,192,131172,128,0,131334:0:0:0:0:
192,192,131172,128,0,131253:0:0:0:0:
192,192,131334,128,0,131496:0:0:0:0:
320,192,131334,128,0,131415:0:0:0:0:
448,192,131334,1,0,0:0:0:0:
64,192,131415,1,0,0:0:0:0:
448,192,131496,128,0,131578:0:0:0:0:
320,192,131496,128,0,131578:0:0:0:0:
192,192,131578,1,0,0:0:0:0:
448,192,131659,128,0,131821:0:0:0:0:
64,192,131659,128,0,131821:0:0:0:0:
320,192,131659,128,0,131821:0:0:0:0:
448,192,132307,128,0,132469:0:0:0:0:
64,192,132307,128,0,132469:0:0:0:0:
192,192,132307,128,0,132469:0:0:0:0:
192,192,132956,128,0,133037:0:0:0:0:
320,192,132956,128,0,133037:0:0:0:0:
448,192,132956,128,0,133037:0:0:0:0:
64,192,133118,128,0,133199:0:0:0:0:
448,192,133118,128,0,133199:0:0:0:0:
320,192,133118,128,0,133199:0:0:0:0:
448,192,133280,128,0,133361:0:0:0:0:
192,192,133280,128,0,133361:0:0:0:0:
64,192,133280,128,0,133361:0:0:0:0:
320,192,133442,128,0,133523:0:0:0:0:
192,192,133442,128,0,133523:0:0:0:0:
64,192,133442,128,0,133523:0:0:0:0:
448,192,133605,1,0,0:0:0:0:
192,192,133605,1,0,0:0:0:0:
64,192,133605,1,0,0:0:0:0:
448,192,133686,1,0,0:0:0:0:
320,192,133767,1,0,0:0:0:0:
320,192,133848,1,0,0:0:0:0:
64,192,133929,1,0,0:0:0:0:
192,192,133929,1,0,0:0:0:0:
448,192,133969,1,0,0:0:0:0:
320,192,134010,1,0,0:0:0:0:
192,192,134051,1,0,0:0:0:0:
64,192,134091,1,0,0:0:0:0:
448,192,134132,1,0,0:0:0:0:
320,192,134172,1,0,0:0:0:0:
192,192,134213,1,0,0:0:0:0:
64,192,134253,1,0,0:0:0:0:
448,192,134253,1,0,0:0:0:0:
320,192,134334,1,0,0:0:0:0:
192,192,134415,1,0,0:0:0:0:
64,192,134578,128,0,134821:0:0:0:0:
320,192,134578,1,0,0:0:0:0:
448,192,134659,1,0,0:0:0:0:
192,192,134740,1,0,0:0:0:0:
320,192,134821,1,0,0:0:0:0:
448,192,134902,1,0,0:0:0:0:
64,192,134902,1,0,0:0:0:0:
192,192,134956,1,0,0:0:0:0:
320,192,135010,1,0,0:0:0:0:
64,192,135064,1,0,0:0:0:0:
320,192,135118,1,0,0:0:0:0:
192,192,135172,1,0,0:0:0:0:
64,192,135226,1,0,0:0:0:0:
448,192,135226,1,0,0:0:0:0:
320,192,135280,1,0,0:0:0:0:
192,192,135334,1,0,0:0:0:0:
448,192,135388,128,0,135496:0:0:0:0:
192,192,135442,1,0,0:0:0:0:
320,192,135496,1,0,0:0:0:0:
64,192,135551,1,0,0:0:0:0:
448,192,135551,1,0,0:0:0:0:
192,192,135632,1,0,0:0:0:0:
448,192,135713,128,0,135821:0:0:0:0:
448,192,135875,128,0,136145:0:0:0:0:
64,192,135875,1,0,0:0:0:0:
192,192,135956,1,0,0:0:0:0:
64,192,136037,1,0,0:0:0:0:
320,192,136091,1,0,0:0:0:0:
192,192,136145,1,0,0:0:0:0:
64,192,136199,1,0,0:0:0:0:
448,192,136199,1,0,0:0:0:0:
320,192,136253,1,0,0:0:0:0:
192,192,136307,1,0,0:0:0:0:
64,192,136361,1,0,0:0:0:0:
192,192,136415,1,0,0:0:0:0:
320,192,136469,1,0,0:0:0:0:
448,192,136523,128,0,136632:0:0:0:0:
64,192,136523,1,0,0:0:0:0:
192,192,136578,1,0,0:0:0:0:
320,192,136632,1,0,0:0:0:0:
448,192,136686,128,0,136794:0:0:0:0:
320,192,136740,1,0,0:0:0:0:
192,192,136794,1,0,0:0:0:0:
448,192,136848,1,0,0:0:0:0:
64,192,136848,1,0,0:0:0:0:
192,192,136929,1,0,0:0:0:0:
320,192,137010,1,0,0:0:0:0:
448,192,137172,128,0,137442:0:0:0:0:
64,192,137172,1,0,0:0:0:0:
192,192,137226,1,0,0:0:0:0:
320,192,137280,1,0,0:0:0:0:
64,192,137334,1,0,0:0:0:0:
320,192,137388,1,0,0:0:0:0:
192,192,137442,1,0,0:0:0:0:
448,192,137496,1,0,0:0:0:0:
64,192,137496,1,0,0:0:0:0:
320,192,137551,1,0,0:0:0:0:
192,192,137605,1,0,0:0:0:0:
448,192,137659,1,0,0:0:0:0:
192,192,137713,1,0,0:0:0:0:
320,192,137767,1,0,0:0:0:0:
64,192,137821,1,0,0:0:0:0:
448,192,137821,1,0,0:0:0:0:
320,192,137902,1,0,0:0:0:0:
64,192,137983,128,0,138091:0:0:0:0:
192,192,138037,1,0,0:0:0:0:
320,192,138091,1,0,0:0:0:0:
64,192,138145,1,0,0:0:0:0:
448,192,138145,1,0,0:0:0:0:
320,192,138199,1,0,0:0:0:0:
192,192,138253,1,0,0:0:0:0:
64,192,138307,128,0,138415:0:0:0:0:
192,192,138361,1,0,0:0:0:0:
320,192,138415,1,0,0:0:0:0:
64,192,138469,128,0,138713:0:0:0:0:
448,192,138469,1,0,0:0:0:0:
192,192,138551,1,0,0:0:0:0:
320,192,138632,1,0,0:0:0:0:
192,192,138713,1,0,0:0:0:0:
448,192,138794,1,0,0:0:0:0:
64,192,138794,1,0,0:0:0:0:
320,192,138848,1,0,0:0:0:0:
192,192,138902,1,0,0:0:0:0:
448,192,138956,1,0,0:0:0:0:
320,192,139010,1,0,0:0:0:0:
192,192,139064,1,0,0:0:0:0:
64,192,139118,1,0,0:0:0:0:
448,192,139118,1,0,0:0:0:0:
320,192,139199,1,0,0:0:0:0:
192,192,139199,1,0,0:0:0:0:
448,192,139280,1,0,0:0:0:0:
64,192,139280,1,0,0:0:0:0:
192,192,139361,1,0,0:0:0:0:
320,192,139361,1,0,0:0:0:0:
448,192,139442,1,0,0:0:0:0:
64,192,139442,1,0,0:0:0:0:
192,192,139523,1,0,0:0:0:0:
320,192,139605,1,0,0:0:0:0:
448,192,139767,128,0,140010:0:0:0:0:
192,192,139767,1,0,0:0:0:0:
64,192,139848,1,0,0:0:0:0:
320,192,139929,1,0,0:0:0:0:
192,192,140010,1,0,0:0:0:0:
64,192,140091,1,0,0:0:0:0:
448,192,140091,1,0,0:0:0:0:
320,192,140145,1,0,0:0:0:0:
192,192,140199,1,0,0:0:0:0:
448,192,140253,1,0,0:0:0:0:
192,192,140307,1,0,0:0:0:0:
320,192,140361,1,0,0:0:0:0:
448,192,140415,1,0,0:0:0:0:
64,192,140415,1,0,0:0:0:0:
192,192,140469,1,0,0:0:0:0:
320,192,140523,1,0,0:0:0:0:
64,192,140578,128,0,140686:0:0:0:0:
320,192,140632,1,0,0:0:0:0:
192,192,140686,1,0,0:0:0:0:
448,192,140740,1,0,0:0:0:0:
64,192,140740,1,0,0:0:0:0:
320,192,140821,1,0,0:0:0:0:
64,192,140902,128,0,141010:0:0:0:0:
192,192,140983,1,0,0:0:0:0:
64,192,141064,128,0,141334:0:0:0:0:
448,192,141064,1,0,0:0:0:0:
320,192,141145,1,0,0:0:0:0:
448,192,141226,1,0,0:0:0:0:
192,192,141280,1,0,0:0:0:0:
320,192,141334,1,0,0:0:0:0:
448,192,141388,1,0,0:0:0:0:
64,192,141388,1,0,0:0:0:0:
192,192,141442,1,0,0:0:0:0:
320,192,141496,1,0,0:0:0:0:
64,192,141551,1,0,0:0:0:0:
320,192,141605,1,0,0:0:0:0:
192,192,141659,1,0,0:0:0:0:
448,192,141713,1,0,0:0:0:0:
64,192,141713,1,0,0:0:0:0:
320,192,141767,1,0,0:0:0:0:
192,192,141821,1,0,0:0:0:0:
448,192,141875,1,0,0:0:0:0:
192,192,141929,1,0,0:0:0:0:
320,192,141983,1,0,0:0:0:0:
64,192,142037,128,0,142307:0:0:0:0:
448,192,142037,1,0,0:0:0:0:
192,192,142091,1,0,0:0:0:0:
320,192,142145,1,0,0:0:0:0:
448,192,142199,1,0,0:0:0:0:
192,192,142253,1,0,0:0:0:0:
320,192,142307,1,0,0:0:0:0:
64,192,142361,1,0,0:0:0:0:
448,192,142361,1,0,0:0:0:0:
320,192,142415,1,0,0:0:0:0:
192,192,142469,1,0,0:0:0:0:
64,192,142523,1,0,0:0:0:0:
320,192,142578,1,0,0:0:0:0:
192,192,142632,1,0,0:0:0:0:
448,192,142686,1,0,0:0:0:0:
64,192,142686,1,0,0:0:0:0:
320,192,142740,1,0,0:0:0:0:
192,192,142794,1,0,0:0:0:0:
448,192,142848,1,0,0:0:0:0:
192,192,142902,1,0,0:0:0:0:
320,192,142956,1,0,0:0:0:0:
64,192,143010,1,0,0:0:0:0:
448,192,143010,1,0,0:0:0:0:
192,192,143091,1,0,0:0:0:0:
320,192,143172,1,0,0:0:0:0:
64,192,143253,1,0,0:0:0:0:
448,192,143334,1,0,0:0:0:0:
192,192,143334,1,0,0:0:0:0:
64,192,143415,1,0,0:0:0:0:
448,192,143496,1,0,0:0:0:0:
320,192,143551,1,0,0:0:0:0:
192,192,143605,1,0,0:0:0:0:
448,192,143659,1,0,0:0:0:0:
64,192,143659,1,0,0:0:0:0:
320,192,143713,1,0,0:0:0:0:
192,192,143767,1,0,0:0:0:0:
64,192,143821,1,0,0:0:0:0:
320,192,143875,1,0,0:0:0:0:
192,192,143929,1,0,0:0:0:0:
448,192,143983,1,0,0:0:0:0:
64,192,143983,1,0,0:0:0:0:
320,192,144037,1,0,0:0:0:0:
192,192,144091,1,0,0:0:0:0:
448,192,144145,1,0,0:0:0:0:
320,192,144199,1,0,0:0:0:0:
192,192,144253,1,0,0:0:0:0:
448,192,144307,1,0,0:0:0:0:
64,192,144307,1,0,0:0:0:0:
192,192,144348,1,0,0:0:0:0:
320,192,144388,1,0,0:0:0:0:
64,192,144429,1,0,0:0:0:0:
448,192,144469,1,0,0:0:0:0:
192,192,144510,1,0,0:0:0:0:
320,192,144551,1,0,0:0:0:0:
448,192,144591,1,0,0:0:0:0:
192,192,144632,1,0,0:0:0:0:
64,192,144632,1,0,0:0:0:0:
64,192,144794,1,0,0:0:0:0:
192,192,144956,1,0,0:0:0:0:
320,192,145118,1,0,0:0:0:0:
64,192,145280,1,0,0:0:0:0:
448,192,145280,1,0,0:0:0:0:
320,192,145442,1,0,0:0:0:0:
192,192,145523,1,0,0:0:0:0:
320,192,145605,1,0,0:0:0:0:
64,192,145767,1,0,0:0:0:0:
192,192,145929,1,0,0:0:0:0:
448,192,145929,1,0,0:0:0:0:
320,192,146091,1,0,0:0:0:0:
192,192,146253,1,0,0:0:0:0:
64,192,146415,1,0,0:0:0:0:
448,192,146578,1,0,0:0:0:0:
320,192,146740,1,0,0:0:0:0:
320,192,146902,1,0,0:0:0:0:
192,192,146902,1,0,0:0:0:0:
64,192,147064,1,0,0:0:0:0:
192,192,147226,1,0,0:0:0:0:
448,192,147226,1,0,0:0:0:0:
64,192,147388,1,0,0:0:0:0:
320,192,147551,1,0,0:0:0:0:
448,192,147713,1,0,0:0:0:0:
64,192,147875,1,0,0:0:0:0:
448,192,147875,1,0,0:0:0:0:
192,192,148037,1,0,0:0:0:0:
448,192,148118,1,0,0:0:0:0:
320,192,148199,1,0,0:0:0:0:
64,192,148361,1,0,0:0:0:0:
448,192,148523,1,0,0:0:0:0:
320,192,148523,1,0,0:0:0:0:
192,192,148523,1,0,0:0:0:0:
192,192,148686,1,0,0:0:0:0:
64,192,148848,1,0,0:0:0:0:
448,192,148848,1,0,0:0:0:0:
320,192,148848,1,0,0:0:0:0:
320,192,149010,1,0,0:0:0:0:
192,192,149172,1,0,0:0:0:0:
448,192,149172,1,0,0:0:0:0:
64,192,149172,1,0,0:0:0:0:
448,192,149496,128,0,149821:0:0:0:0:
320,192,149496,1,0,0:0:0:0:
192,192,149496,1,0,0:0:0:0:
320,192,149821,1,0,0:0:0:0:
64,192,149821,1,0,0:0:0:0:
448,192,149983,1,0,0:0:0:0:
320,192,150145,1,0,0:0:0:0:
192,192,150307,1,0,0:0:0:0:
448,192,150469,1,0,0:0:0:0:
64,192,150469,1,0,0:0:0:0:
192,192,150632,1,0,0:0:0:0:
320,192,150713,1,0,0:0:0:0:
192,192,150794,1,0,0:0:0:0:
448,192,150956,1,0,0:0:0:0:
320,192,151118,1,0,0:0:0:0:
64,192,151118,1,0,0:0:0:0:
192,192,151280,1,0,0:0:0:0:
320,192,151442,1,0,0:0:0:0:
448,192,151605,1,0,0:0:0:0:
448,192,151767,1,0,0:0:0:0:
64,192,151767,1,0,0:0:0:0:
64,192,151929,1,0,0:0:0:0:
192,192,152091,1,0,0:0:0:0:
448,192,152091,1,0,0:0:0:0:
320,192,152091,1,0,0:0:0:0:
192,192,152253,1,0,0:0:0:0:
64,192,152415,1,0,0:0:0:0:
320,192,152415,1,0,0:0:0:0:
448,192,152578,1,0,0:0:0:0:
192,192,152740,1,0,0:0:0:0:
320,192,152902,1,0,0:0:0:0:
64,192,153064,1,0,0:0:0:0:
320,192,153226,1,0,0:0:0:0:
192,192,153388,1,0,0:0:0:0:
448,192,153551,1,0,0:0:0:0:
192,192,153713,1,0,0:0:0:0:
320,192,153713,1,0,0:0:0:0:
64,192,153875,1,0,0:0:0:0:
448,192,154037,1,0,0:0:0:0:
192,192,154199,1,0,0:0:0:0:
448,192,154361,1,0,0:0:0:0:
64,192,154361,1,0,0:0:0:0:
320,192,154523,1,0,0:0:0:0:
64,192,154686,1,0,0:0:0:0:
192,192,154848,1,0,0:0:0:0:
64,192,155010,1,0,0:0:0:0:
448,192,155010,1,0,0:0:0:0:
320,192,155010,1,0,0:0:0:0:
320,192,155172,1,0,0:0:0:0:
448,192,155334,1,0,0:0:0:0:
192,192,155334,1,0,0:0:0:0:
192,192,155659,1,0,0:0:0:0:
448,192,155659,1,0,0:0:0:0:
64,192,155659,1,0,0:0:0:0:
192,192,155821,1,0,0:0:0:0:
320,192,155983,1,0,0:0:0:0:
64,192,155983,1,0,0:0:0:0:
64,192,156267,1,0,0:0:0:0:
320,192,156307,1,0,0:0:0:0:
448,192,156348,1,0,0:0:0:0:
320,192,157118,1,0,0:0:0:0:
448,192,157280,1,0,0:0:0:0:
320,192,157442,1,0,0:0:0:0:
192,192,157605,1,0,0:0:0:0:
192,192,158415,128,0,158821:0:0:0:0:
320,192,158902,128,0,159226:0:0:0:0:
448,192,158902,128,0,159023:0:0:0:0:
64,192,158902,128,0,159023:0:0:0:0:
192,192,158942,128,0,159104:0:0:0:0:
448,192,161496,128,0,161618:0:0:0:0:
64,192,161496,128,0,161618:0:0:0:0:
320,192,161496,128,0,161820:0:0:0:0:
192,192,161537,128,0,161699:0:0:0:0:
320,192,164091,128,0,164415:0:0:0:0:
64,192,164091,128,0,164212:0:0:0:0:
448,192,164091,128,0,164212:0:0:0:0:
192,192,164131,128,0,164293:0:0:0:0:
192,192,166361,128,0,166645:0:0:0:0:
320,192,166402,128,0,166604:0:0:0:0:
448,192,166442,128,0,166564:0:0:0:0:
448,192,166685,128,0,166807:0:0:0:0:
64,192,166685,128,0,166807:0:0:0:0:
320,192,166685,128,0,167010:0:0:0:0:
192,192,166726,128,0,166888:0:0:0:0:
320,192,167983,128,0,168307:0:0:0:0:
64,192,167983,128,0,168104:0:0:0:0:
448,192,167983,128,0,168104:0:0:0:0:
192,192,168023,128,0,168185:0:0:0:0:
64,192,168631,128,0,168712:0:0:0:0:
320,192,168631,128,0,168712:0:0:0:0:
448,192,168631,128,0,168712:0:0:0:0:
64,192,168874,1,0,0:0:0:0:
192,192,168874,1,0,0:0:0:0:
448,192,168874,1,0,0:0:0:0:
64,192,168956,128,0,169037:0:0:0:0:
192,192,168956,128,0,169037:0:0:0:0:
448,192,168956,128,0,169037:0:0:0:0:
320,192,169118,128,0,169199:0:0:0:0:
64,192,169118,128,0,169199:0:0:0:0:
448,192,169118,128,0,169199:0:0:0:0:
320,192,169280,128,0,169442:0:0:0:0:
64,192,169280,128,0,169523:0:0:0:0:
192,192,169280,128,0,169361:0:0:0:0:
448,192,169361,128,0,169523:0:0:0:0:
192,192,169442,128,0,169604:0:0:0:0:
320,192,169523,128,0,169604:0:0:0:0:
64,192,169604,1,0,0:0:0:0:
448,192,169604,128,0,169847:0:0:0:0:
320,192,169685,128,0,169847:0:0:0:0:
192,192,169766,128,0,169929:0:0:0:0:
64,192,169847,128,0,169929:0:0:0:0:
320,192,169929,1,0,0:0:0:0:
448,192,169929,1,0,0:0:0:0:
64,192,170010,1,0,0:0:0:0:
320,192,170091,1,0,0:0:0:0:
192,192,170172,1,0,0:0:0:0:
448,192,170253,1,0,0:0:0:0:
64,192,170253,128,0,170496:0:0:0:0:
192,192,170334,128,0,170496:0:0:0:0:
320,192,170415,128,0,170577:0:0:0:0:
448,192,170496,128,0,170577:0:0:0:0:
64,192,170577,1,0,0:0:0:0:
192,192,170577,1,0,0:0:0:0:
448,192,170658,1,0,0:0:0:0:
192,192,170739,1,0,0:0:0:0:
320,192,170820,1,0,0:0:0:0:
64,192,170902,128,0,171064:0:0:0:0:
448,192,170902,1,0,0:0:0:0:
192,192,170983,128,0,171226:0:0:0:0:
320,192,171064,128,0,171145:0:0:0:0:
64,192,171145,128,0,171226:0:0:0:0:
448,192,171226,1,0,0:0:0:0:
320,192,171226,1,0,0:0:0:0:
64,192,171307,1,0,0:0:0:0:
320,192,171388,1,0,0:0:0:0:
64,192,171469,1,0,0:0:0:0:
448,192,171550,128,0,171793:0:0:0:0:
192,192,171550,1,0,0:0:0:0:
320,192,171604,1,0,0:0:0:0:
64,192,171658,1,0,0:0:0:0:
320,192,171712,1,0,0:0:0:0:
192,192,171766,1,0,0:0:0:0:
64,192,171820,1,0,0:0:0:0:
192,192,171874,128,0,172037:0:0:0:0:
320,192,171874,128,0,171956:0:0:0:0:
448,192,171874,128,0,172118:0:0:0:0:
64,192,171956,128,0,172118:0:0:0:0:
320,192,172037,128,0,172199:0:0:0:0:
192,192,172118,128,0,172199:0:0:0:0:
448,192,172199,1,0,0:0:0:0:
64,192,172199,128,0,172442:0:0:0:0:
192,192,172280,128,0,172442:0:0:0:0:
320,192,172361,128,0,172523:0:0:0:0:
448,192,172442,128,0,172523:0:0:0:0:
192,192,172523,1,0,0:0:0:0:
64,192,172523,1,0,0:0:0:0:
448,192,172604,1,0,0:0:0:0:
192,192,172685,1,0,0:0:0:0:
320,192,172766,1,0,0:0:0:0:
64,192,172847,1,0,0:0:0:0:
448,192,172847,128,0,173091:0:0:0:0:
320,192,172929,128,0,173091:0:0:0:0:
192,192,173010,128,0,173172:0:0:0:0:
64,192,173091,128,0,173172:0:0:0:0:
448,192,173172,1,0,0:0:0:0:
320,192,173172,1,0,0:0:0:0:
64,192,173253,1,0,0:0:0:0:
320,192,173334,1,0,0:0:0:0:
192,192,173415,1,0,0:0:0:0:
448,192,173496,128,0,173658:0:0:0:0:
64,192,173496,1,0,0:0:0:0:
320,192,173577,128,0,173820:0:0:0:0:
192,192,173658,128,0,173739:0:0:0:0:
448,192,173739,128,0,173820:0:0:0:0:
64,192,173820,1,0,0:0:0:0:
192,192,173820,1,0,0:0:0:0:
448,192,173901,1,0,0:0:0:0:
192,192,173983,1,0,0:0:0:0:
448,192,174064,1,0,0:0:0:0:
320,192,174064,1,0,0:0:0:0:
192,192,174145,128,0,174307:0:0:0:0:
64,192,174145,1,0,0:0:0:0:
448,192,174226,128,0,174388:0:0:0:0:
64,192,174307,1,0,0:0:0:0:
320,192,174307,128,0,174388:0:0:0:0:
192,192,174388,128,0,174469:0:0:0:0:
448,192,174469,128,0,174550:0:0:0:0:
64,192,174469,128,0,174631:0:0:0:0:
320,192,174469,128,0,174712:0:0:0:0:
192,192,174550,128,0,174712:0:0:0:0:
448,192,174631,128,0,174793:0:0:0:0:
64,192,174712,128,0,174793:0:0:0:0:
320,192,174793,1,0,0:0:0:0:
192,192,174793,128,0,175037:0:0:0:0:
448,192,174874,128,0,175037:0:0:0:0:
64,192,174956,128,0,175037:0:0:0:0:
320,192,175037,128,0,175118:0:0:0:0:
448,192,175118,1,0,0:0:0:0:
192,192,175118,1,0,0:0:0:0:
64,192,175199,1,0,0:0:0:0:
320,192,175280,1,0,0:0:0:0:
192,192,175361,1,0,0:0:0:0:
448,192,175442,1,0,0:0:0:0:
64,192,175442,128,0,175685:0:0:0:0:
320,192,175523,128,0,175685:0:0:0:0:
192,192,175604,128,0,175685:0:0:0:0:
448,192,175685,128,0,175766:0:0:0:0:
192,192,175766,128,0,175847:0:0:0:0:
64,192,175766,128,0,176010:0:0:0:0:
320,192,175766,128,0,175929:0:0:0:0:
448,192,175847,128,0,176010:0:0:0:0:
192,192,175929,128,0,176091:0:0:0:0:
320,192,176010,128,0,176091:0:0:0:0:
64,192,176091,1,0,0:0:0:0:
448,192,176091,128,0,176334:0:0:0:0:
192,192,176172,128,0,176253:0:0:0:0:
320,192,176253,128,0,176334:0:0:0:0:
192,192,176334,128,0,176415:0:0:0:0:
64,192,176415,128,0,176658:0:0:0:0:
448,192,176415,1,0,0:0:0:0:
320,192,176496,1,0,0:0:0:0:
192,192,176577,1,0,0:0:0:0:
448,192,176658,1,0,0:0:0:0:
320,192,176739,1,0,0:0:0:0:
64,192,176739,128,0,176983:0:0:0:0:
192,192,176793,1,0,0:0:0:0:
448,192,176847,1,0,0:0:0:0:
192,192,176901,1,0,0:0:0:0:
320,192,176956,1,0,0:0:0:0:
448,192,177010,1,0,0:0:0:0:
192,192,177064,128,0,177226:0:0:0:0:
64,192,177064,128,0,177307:0:0:0:0:
320,192,177064,128,0,177145:0:0:0:0:
448,192,177145,128,0,177307:0:0:0:0:
320,192,177226,128,0,177388:0:0:0:0:
192,192,177307,128,0,177388:0:0:0:0:
448,192,177388,1,0,0:0:0:0:
64,192,177388,128,0,177631:0:0:0:0:
192,192,177469,1,0,0:0:0:0:
320,192,177550,1,0,0:0:0:0:
448,192,177631,1,0,0:0:0:0:
320,192,177712,128,0,177874:0:0:0:0:
192,192,177712,128,0,177793:0:0:0:0:
64,192,177712,128,0,177956:0:0:0:0:
448,192,177793,128,0,177956:0:0:0:0:
192,192,177874,128,0,177956:0:0:0:0:
320,192,177956,128,0,178037:0:0:0:0:
448,192,178037,128,0,178199:0:0:0:0:
64,192,178037,1,0,0:0:0:0:
192,192,178091,1,0,0:0:0:0:
320,192,178145,1,0,0:0:0:0:
64,192,178199,1,0,0:0:0:0:
320,192,178253,1,0,0:0:0:0:
192,192,178307,1,0,0:0:0:0:
64,192,178361,128,0,178442:0:0:0:0:
448,192,178361,128,0,178469:0:0:0:0:
64,192,178685,128,0,178766:0:0:0:0:
320,192,178685,128,0,178793:0:0:0:0:
64,192,179010,128,0,179091:0:0:0:0:
192,192,179010,128,0,179118:0:0:0:0:
448,192,179334,1,0,0:0:0:0:
64,192,179334,1,0,0:0:0:0:
320,192,179334,1,0,0:0:0:0:
320,192,179415,1,0,0:0:0:0:
192,192,179496,1,0,0:0:0:0:
192,192,179577,1,0,0:0:0:0:
320,192,179658,128,0,179901:0:0:0:0:
448,192,179658,128,0,179901:0:0:0:0:
64,192,179658,128,0,179901:0:0:0:0:
192,192,179820,128,0,179901:0:0:0:0:
64,192,179983,128,0,180226:0:0:0:0:
448,192,179983,128,0,180226:0:0:0:0:
192,192,179983,128,0,180226:0:0:0:0:
320,192,180145,128,0,180226:0:0:0:0:
64,192,180307,128,0,180550:0:0:0:0:
320,192,180307,128,0,180388:0:0:0:0:
448,192,180307,128,0,180469:0:0:0:0:
192,192,180469,128,0,180550:0:0:0:0:
320,192,180469,128,0,180631:0:0:0:0:
448,192,180631,128,0,180874:0:0:0:0:
64,192,180631,128,0,180712:0:0:0:0:
192,192,180631,128,0,180793:0:0:0:0:
320,192,180793,128,0,180874:0:0:0:0:
64,192,180793,128,0,181037:0:0:0:0:
192,192,180956,128,0,181037:0:0:0:0:
448,192,180956,128,0,181199:0:0:0:0:
320,192,180956,128,0,181037:0:0:0:0:
192,192,181118,128,0,181199:0:0:0:0:
64,192,181118,128,0,181280:0:0:0:0:
192,192,181280,128,0,181523:0:0:0:0:
320,192,181280,128,0,181361:0:0:0:0:
448,192,181280,128,0,181442:0:0:0:0:
320,192,181442,128,0,181523:0:0:0:0:
64,192,181442,128,0,181604:0:0:0:0:
320,192,181604,128,0,181847:0:0:0:0:
192,192,181604,128,0,181847:0:0:0:0:
448,192,181604,128,0,181847:0:0:0:0:
64,192,181766,128,0,181847:0:0:0:0:
64,192,181929,128,0,182172:0:0:0:0:
320,192,181929,128,0,182010:0:0:0:0:
448,192,181929,128,0,182091:0:0:0:0:
192,192,182091,128,0,182172:0:0:0:0:
320,192,182091,128,0,182253:0:0:0:0:
448,192,182253,128,0,182496:0:0:0:0:
64,192,182253,128,0,182334:0:0:0:0:
192,192,182253,128,0,182415:0:0:0:0:
64,192,182415,128,0,182496:0:0:0:0:
320,192,182415,128,0,182577:0:0:0:0:
448,192,182577,128,0,182820:0:0:0:0:
192,192,182577,128,0,182658:0:0:0:0:
64,192,182577,128,0,182739:0:0:0:0:
320,192,182739,128,0,182820:0:0:0:0:
192,192,182739,128,0,182901:0:0:0:0:
64,192,182901,128,0,183145:0:0:0:0:
320,192,182901,128,0,182983:0:0:0:0:
448,192,182901,128,0,183064:0:0:0:0:
192,192,183064,128,0,183145:0:0:0:0:
320,192,183064,128,0,183226:0:0:0:0:
448,192,183226,128,0,183469:0:0:0:0:
64,192,183226,128,0,183307:0:0:0:0:
192,192,183226,128,0,183388:0:0:0:0:
64,192,183388,128,0,183469:0:0:0:0:
320,192,183388,128,0,183631:0:0:0:0:
448,192,183550,128,0,183793:0:0:0:0:
192,192,183550,128,0,183631:0:0:0:0:
64,192,183550,128,0,183631:0:0:0:0:
320,192,183712,128,0,183793:0:0:0:0:
192,192,183712,128,0,183874:0:0:0:0:
448,192,183874,128,0,184118:0:0:0:0:
320,192,183874,128,0,184118:0:0:0:0:
64,192,183874,128,0,184118:0:0:0:0:
192,192,184037,128,0,184118:0:0:0:0:
64,192,184199,128,0,184442:0:0:0:0:
448,192,184199,128,0,184442:0:0:0:0:
192,192,184199,128,0,184442:0:0:0:0:
320,192,184361,128,0,184442:0:0:0:0:
192,192,184523,1,0,0:0:0:0:
64,192,184523,1,0,0:0:0:0:
448,192,184604,1,0,0:0:0:0:
320,192,184604,1,0,0:0:0:0:
64,192,184685,1,0,0:0:0:0:
192,192,184685,1,0,0:0:0:0:
448,192,184766,1,0,0:0:0:0:
320,192,184766,1,0,0:0:0:0:
192,192,184847,128,0,185091:0:0:0:0:
64,192,184847,128,0,185091:0:0:0:0:
448,192,184847,128,0,185091:0:0:0:0:
320,192,185010,128,0,185091:0:0:0:0:
448,192,185172,128,0,185415:0:0:0:0:
64,192,185172,128,0,185415:0:0:0:0:
320,192,185172,128,0,185415:0:0:0:0:
192,192,185334,128,0,185415:0:0:0:0:
320,192,185496,128,0,185739:0:0:0:0:
448,192,185496,128,0,185739:0:0:0:0:
192,192,185496,128,0,185739:0:0:0:0:
64,192,185658,128,0,185739:0:0:0:0:
64,192,185820,128,0,186064:0:0:0:0:
448,192,185820,128,0,185901:0:0:0:0:
320,192,185820,128,0,185983:0:0:0:0:
192,192,185983,128,0,186064:0:0:0:0:
448,192,185983,128,0,186226:0:0:0:0:
320,192,186145,128,0,186226:0:0:0:0:
64,192,186145,128,0,186388:0:0:0:0:
192,192,186145,128,0,186226:0:0:0:0:
320,192,186307,128,0,186388:0:0:0:0:
448,192,186307,128,0,186469:0:0:0:0:
320,192,186469,128,0,186712:0:0:0:0:
192,192,186469,128,0,186712:0:0:0:0:
64,192,186469,128,0,186712:0:0:0:0:
448,192,186631,128,0,186712:0:0:0:0:
192,192,186793,128,0,187037:0:0:0:0:
320,192,186793,128,0,187037:0:0:0:0:
448,192,186793,128,0,187037:0:0:0:0:
64,192,186956,128,0,187037:0:0:0:0:
64,192,187118,128,0,187361:0:0:0:0:
320,192,187118,128,0,187199:0:0:0:0:
192,192,187118,128,0,187199:0:0:0:0:
448,192,187280,128,0,187361:0:0:0:0:
320,192,187280,128,0,187361:0:0:0:0:
192,192,187280,128,0,187442:0:0:0:0:
64,192,187442,128,0,187685:0:0:0:0:
448,192,187442,128,0,187523:0:0:0:0:
320,192,187442,128,0,187604:0:0:0:0:
448,192,187604,128,0,187685:0:0:0:0:
192,192,187604,128,0,187766:0:0:0:0:
64,192,187766,128,0,188010:0:0:0:0:
320,192,187766,128,0,187847:0:0:0:0:
448,192,187766,128,0,187929:0:0:0:0:
192,192,187929,128,0,188010:0:0:0:0:
320,192,187929,128,0,188091:0:0:0:0:
448,192,188091,128,0,188334:0:0:0:0:
192,192,188091,128,0,188172:0:0:0:0:
64,192,188091,128,0,188253:0:0:0:0:
320,192,188253,128,0,188334:0:0:0:0:
192,192,188253,128,0,188415:0:0:0:0:
64,192,188415,128,0,188658:0:0:0:0:
448,192,188415,128,0,188496:0:0:0:0:
320,192,188415,128,0,188577:0:0:0:0:
448,192,188577,128,0,188658:0:0:0:0:
192,192,188577,128,0,188820:0:0:0:0:
64,192,188739,128,0,188983:0:0:0:0:
320,192,188739,128,0,188820:0:0:0:0:
448,192,188739,128,0,188820:0:0:0:0:
320,192,188901,128,0,188983:0:0:0:0:
192,192,188901,128,0,189064:0:0:0:0:
320,192,189064,1,0,0:0:0:0:
448,192,189064,1,0,0:0:0:0:
64,192,189145,1,0,0:0:0:0:
192,192,189145,1,0,0:0:0:0:
448,192,189226,1,0,0:0:0:0:
320,192,189226,1,0,0:0:0:0:
64,192,189307,1,0,0:0:0:0:
192,192,189307,1,0,0:0:0:0:
320,192,189388,128,0,189469:0:0:0:0:
448,192,189388,128,0,189631:0:0:0:0:
64,192,189388,128,0,189469:0:0:0:0:
320,192,189550,1,0,0:0:0:0:
192,192,189550,128,0,189631:0:0:0:0:
64,192,189550,128,0,189631:0:0:0:0:
320,192,189712,128,0,189956:0:0:0:0:
192,192,189712,128,0,189956:0:0:0:0:
64,192,189712,128,0,189793:0:0:0:0:
448,192,189712,128,0,189793:0:0:0:0:
64,192,189874,1,0,0:0:0:0:
448,192,189874,1,0,0:0:0:0:
192,192,190037,128,0,190280:0:0:0:0:
448,192,190037,128,0,190280:0:0:0:0:
64,192,190037,128,0,190280:0:0:0:0:
320,192,190199,128,0,190280:0:0:0:0:
320,192,190361,128,0,190604:0:0:0:0:
64,192,190361,128,0,190604:0:0:0:0:
448,192,190361,128,0,190604:0:0:0:0:
192,192,190523,128,0,190604:0:0:0:0:
64,192,190685,128,0,190929:0:0:0:0:
320,192,190685,128,0,190929:0:0:0:0:
192,192,190685,128,0,190929:0:0:0:0:
448,192,190847,128,0,190929:0:0:0:0:
448,192,191010,128,0,191253:0:0:0:0:
64,192,191010,128,0,191091:0:0:0:0:
320,192,191010,128,0,191172:0:0:0:0:
192,192,191172,128,0,191253:0:0:0:0:
64,192,191172,128,0,191415:0:0:0:0:
320,192,191334,128,0,191415:0:0:0:0:
448,192,191334,128,0,191577:0:0:0:0:
192,192,191334,128,0,191415:0:0:0:0:
320,192,191496,128,0,191577:0:0:0:0:
64,192,191496,128,0,191658:0:0:0:0:
320,192,191658,128,0,191901:0:0:0:0:
192,192,191658,128,0,191901:0:0:0:0:
448,192,191658,128,0,191901:0:0:0:0:
64,192,191820,128,0,191901:0:0:0:0:
192,192,191983,128,0,192226:0:0:0:0:
320,192,191983,128,0,192226:0:0:0:0:
64,192,191983,128,0,192226:0:0:0:0:
448,192,192145,128,0,192226:0:0:0:0:
64,192,192307,128,0,192550:0:0:0:0:
192,192,192307,128,0,192388:0:0:0:0:
448,192,192307,128,0,192469:0:0:0:0:
320,192,192469,128,0,192550:0:0:0:0:
192,192,192469,128,0,192631:0:0:0:0:
448,192,192631,128,0,192874:0:0:0:0:
64,192,192631,128,0,192712:0:0:0:0:
320,192,192631,128,0,192793:0:0:0:0:
64,192,192793,128,0,192874:0:0:0:0:
192,192,192793,128,0,192956:0:0:0:0:
448,192,192956,128,0,193199:0:0:0:0:
320,192,192956,128,0,193037:0:0:0:0:
64,192,192956,128,0,193118:0:0:0:0:
192,192,193118,128,0,193199:0:0:0:0:
320,192,193118,128,0,193280:0:0:0:0:
64,192,193280,128,0,193523:0:0:0:0:
192,192,193280,128,0,193523:0:0:0:0:
448,192,193280,128,0,193523:0:0:0:0:
320,192,193442,128,0,193523:0:0:0:0:
448,192,193604,128,0,193847:0:0:0:0:
64,192,193604,128,0,193685:0:0:0:0:
320,192,193604,128,0,193766:0:0:0:0:
64,192,193766,128,0,193847:0:0:0:0:
192,192,193766,128,0,194010:0:0:0:0:
448,192,193929,128,0,194172:0:0:0:0:
320,192,193929,128,0,194010:0:0:0:0:
64,192,193929,128,0,194010:0:0:0:0:
192,192,194091,128,0,194172:0:0:0:0:
320,192,194091,128,0,194253:0:0:0:0:
448,192,194253,128,0,194496:0:0:0:0:
192,192,194253,128,0,194496:0:0:0:0:
64,192,194253,128,0,194496:0:0:0:0:
320,192,194415,128,0,194496:0:0:0:0:
64,192,194577,128,0,194820:0:0:0:0:
448,192,194577,128,0,194820:0:0:0:0:
320,192,194577,128,0,194820:0:0:0:0:
192,192,194739,128,0,194820:0:0:0:0:
192,192,194901,1,0,0:0:0:0:
448,192,194901,1,0,0:0:0:0:
64,192,194983,1,0,0:0:0:0:
320,192,194983,1,0,0:0:0:0:
448,192,195064,1,0,0:0:0:0:
192,192,195064,1,0,0:0:0:0:
64,192,195145,1,0,0:0:0:0:
320,192,195145,1,0,0:0:0:0:
192,192,195226,128,0,195469:0:0:0:0:
64,192,195226,128,0,195469:0:0:0:0:
448,192,195226,128,0,195469:0:0:0:0:
320,192,195388,128,0,195469:0:0:0:0:
448,192,195550,128,0,195793:0:0:0:0:
192,192,195550,128,0,195631:0:0:0:0:
320,192,195550,128,0,195631:0:0:0:0:
192,192,195712,128,0,195793:0:0:0:0:
64,192,195712,128,0,195793:0:0:0:0:
320,192,195712,128,0,195793:0:0:0:0:
320,192,195874,128,0,196037:0:0:0:0:
448,192,195874,128,0,195956:0:0:0:0:
64,192,195874,128,0,195956:0:0:0:0:
64,192,196037,128,0,196118:0:0:0:0:
448,192,196037,128,0,196118:0:0:0:0:
192,192,196037,128,0,196118:0:0:0:0:
320,192,196118,1,0,0:0:0:0:
64,192,196199,128,0,196442:0:0:0:0:
448,192,196199,128,0,196280:0:0:0:0:
320,192,196199,128,0,196361:0:0:0:0:
192,192,196361,128,0,196442:0:0:0:0:
448,192,196361,128,0,196523:0:0:0:0:
192,192,196523,128,0,196604:0:0:0:0:
64,192,196523,128,0,196766:0:0:0:0:
320,192,196523,128,0,196604:0:0:0:0:
192,192,196685,128,0,196766:0:0:0:0:
320,192,196685,128,0,196847:0:0:0:0:
192,192,196847,128,0,197091:0:0:0:0:
448,192,196847,128,0,197091:0:0:0:0:
64,192,196847,128,0,197091:0:0:0:0:
320,192,197010,128,0,197091:0:0:0:0:
64,192,197172,128,0,197415:0:0:0:0:
192,192,197172,128,0,197415:0:0:0:0:
320,192,197172,128,0,197415:0:0:0:0:
448,192,197334,128,0,197415:0:0:0:0:
192,192,197496,128,0,197577:0:0:0:0:
448,192,197496,128,0,197739:0:0:0:0:
320,192,197496,128,0,197577:0:0:0:0:
64,192,197658,128,0,197739:0:0:0:0:
192,192,197658,128,0,197739:0:0:0:0:
320,192,197658,128,0,197820:0:0:0:0:
64,192,197820,128,0,198064:0:0:0:0:
448,192,197820,128,0,197901:0:0:0:0:
192,192,197820,128,0,197983:0:0:0:0:
448,192,197983,128,0,198064:0:0:0:0:
320,192,197983,128,0,198145:0:0:0:0:
64,192,198145,128,0,198388:0:0:0:0:
192,192,198145,128,0,198226:0:0:0:0:
448,192,198145,128,0,198307:0:0:0:0:
320,192,198307,128,0,198388:0:0:0:0:
192,192,198307,128,0,198469:0:0:0:0:
448,192,198469,128,0,198712:0:0:0:0:
320,192,198469,128,0,198550:0:0:0:0:
64,192,198469,128,0,198631:0:0:0:0:
192,192,198631,128,0,198712:0:0:0:0:
320,192,198631,128,0,198793:0:0:0:0:
64,192,198793,128,0,199037:0:0:0:0:
448,192,198793,128,0,198874:0:0:0:0:
192,192,198793,128,0,198956:0:0:0:0:
448,192,198956,128,0,199037:0:0:0:0:
320,192,198956,128,0,199199:0:0:0:0:
64,192,199118,128,0,199361:0:0:0:0:
192,192,199118,128,0,199199:0:0:0:0:
448,192,199118,128,0,199199:0:0:0:0:
320,192,199280,128,0,199361:0:0:0:0:
192,192,199280,128,0,199442:0:0:0:0:
320,192,199442,1,0,0:0:0:0:
64,192,199442,1,0,0:0:0:0:
448,192,199523,1,0,0:0:0:0:
192,192,199523,1,0,0:0:0:0:
64,192,199604,1,0,0:0:0:0:
320,192,199604,1,0,0:0:0:0:
448,192,199685,1,0,0:0:0:0:
192,192,199685,1,0,0:0:0:0:
320,192,199766,128,0,200010:0:0:0:0:
448,192,199766,128,0,199847:0:0:0:0:
64,192,199766,128,0,199847:0:0:0:0:
192,192,199929,128,0,200010:0:0:0:0:
448,192,199929,128,0,200010:0:0:0:0:
64,192,199929,128,0,200010:0:0:0:0:
192,192,200091,128,0,200334:0:0:0:0:
320,192,200091,128,0,200334:0:0:0:0:
64,192,200091,128,0,200172:0:0:0:0:
448,192,200091,128,0,200172:0:0:0:0:
448,192,200253,1,0,0:0:0:0:
64,192,200253,1,0,0:0:0:0:
192,192,200415,1,0,0:0:0:0:
64,192,200415,128,0,200577:0:0:0:0:
448,192,200415,128,0,200496:0:0:0:0:
320,192,200496,128,0,200658:0:0:0:0:
448,192,200577,128,0,200658:0:0:0:0:
192,192,200577,128,0,200658:0:0:0:0:
64,192,200658,128,0,200820:0:0:0:0:
320,192,200739,1,0,0:0:0:0:
192,192,200739,128,0,200983:0:0:0:0:
448,192,200739,128,0,200901:0:0:0:0:
320,192,200901,128,0,200983:0:0:0:0:
64,192,200901,128,0,200983:0:0:0:0:
320,192,201064,1,0,0:0:0:0:
192,192,201064,128,0,201145:0:0:0:0:
448,192,201064,128,0,201145:0:0:0:0:
448,192,201226,128,0,201307:0:0:0:0:
64,192,201226,128,0,201307:0:0:0:0:
320,192,201307,128,0,201388:0:0:0:0:
64,192,201388,1,0,0:0:0:0:
192,192,201388,128,0,201550:0:0:0:0:
448,192,201388,128,0,201631:0:0:0:0:
320,192,201550,128,0,201631:0:0:0:0:
64,192,201550,128,0,201631:0:0:0:0:
64,192,201712,128,0,201956:0:0:0:0:
448,192,201712,1,0,0:0:0:0:
320,192,201712,128,0,201874:0:0:0:0:
448,192,201874,128,0,201956:0:0:0:0:
192,192,201874,128,0,201956:0:0:0:0:
320,192,201956,128,0,202037:0:0:0:0:
192,192,202037,1,0,0:0:0:0:
64,192,202037,128,0,202118:0:0:0:0:
448,192,202037,128,0,202280:0:0:0:0:
320,192,202118,128,0,202280:0:0:0:0:
64,192,202199,128,0,202280:0:0:0:0:
192,192,202199,128,0,202280:0:0:0:0:
64,192,202361,128,0,202604:0:0:0:0:
192,192,202361,128,0,202604:0:0:0:0:
448,192,202361,128,0,202604:0:0:0:0:
320,192,202361,128,0,202604:0:0:0:0:
320,192,202685,1,0,0:0:0:0:
192,192,202685,128,0,202929:0:0:0:0:
64,192,202685,128,0,202766:0:0:0:0:
64,192,202847,128,0,202929:0:0:0:0:
320,192,202847,128,0,202929:0:0:0:0:
192,192,203010,128,0,203091:0:0:0:0:
320,192,203010,128,0,203253:0:0:0:0:
448,192,203010,1,0,0:0:0:0:
192,192,203172,128,0,203253:0:0:0:0:
448,192,203172,128,0,203253:0:0:0:0:
64,192,203334,1,0,0:0:0:0:
192,192,203334,128,0,203577:0:0:0:0:
320,192,203334,128,0,203415:0:0:0:0:
320,192,203496,128,0,203577:0:0:0:0:
64,192,203496,128,0,203577:0:0:0:0:
448,192,203658,128,0,203739:0:0:0:0:
320,192,203658,1,0,0:0:0:0:
192,192,203658,128,0,203739:0:0:0:0:
448,192,203820,128,0,203901:0:0:0:0:
64,192,203820,128,0,203901:0:0:0:0:
192,192,203901,128,0,203983:0:0:0:0:
320,192,203983,1,0,0:0:0:0:
64,192,203983,128,0,204145:0:0:0:0:
448,192,203983,128,0,204226:0:0:0:0:
320,192,204145,128,0,204226:0:0:0:0:
192,192,204145,128,0,204226:0:0:0:0:
64,192,204307,128,0,204550:0:0:0:0:
320,192,204307,128,0,204469:0:0:0:0:
192,192,204307,1,0,0:0:0:0:
192,192,204469,128,0,204550:0:0:0:0:
448,192,204469,128,0,204550:0:0:0:0:
64,192,204631,128,0,204793:0:0:0:0:
448,192,204631,128,0,204874:0:0:0:0:
320,192,204631,1,0,0:0:0:0:
192,192,204793,128,0,204874:0:0:0:0:
320,192,204793,128,0,204874:0:0:0:0:
192,192,204956,128,0,205199:0:0:0:0:
448,192,204956,128,0,205118:0:0:0:0:
64,192,204956,1,0,0:0:0:0:
320,192,205118,128,0,205199:0:0:0:0:
64,192,205118,128,0,205199:0:0:0:0:
320,192,205280,1,0,0:0:0:0:
64,192,205280,128,0,205361:0:0:0:0:
320,192,205361,1,0,0:0:0:0:
192,192,205442,1,0,0:0:0:0:
448,192,205442,128,0,205523:0:0:0:0:
192,192,205523,1,0,0:0:0:0:
64,192,205604,128,0,205766:0:0:0:0:
448,192,205604,1,0,0:0:0:0:
320,192,205604,128,0,205685:0:0:0:0:
192,192,205685,128,0,205847:0:0:0:0:
320,192,205766,128,0,205847:0:0:0:0:
448,192,205766,128,0,205847:0:0:0:0:
64,192,205847,128,0,205929:0:0:0:0:
320,192,205929,1,0,0:0:0:0:
448,192,205929,128,0,206091:0:0:0:0:
192,192,205929,128,0,206172:0:0:0:0:
320,192,206091,128,0,206172:0:0:0:0:
64,192,206091,128,0,206172:0:0:0:0:
192,192,206253,1,0,0:0:0:0:
64,192,206253,128,0,206334:0:0:0:0:
448,192,206253,128,0,206334:0:0:0:0:
64,192,206415,128,0,206496:0:0:0:0:
320,192,206415,128,0,206496:0:0:0:0:
448,192,206496,128,0,206577:0:0:0:0:
64,192,206577,128,0,206820:0:0:0:0:
320,192,206577,128,0,206739:0:0:0:0:
192,192,206577,1,0,0:0:0:0:
192,192,206739,128,0,206820:0:0:0:0:
448,192,206739,128,0,206820:0:0:0:0:
64,192,206901,1,0,0:0:0:0:
448,192,206901,128,0,207145:0:0:0:0:
192,192,206901,128,0,207064:0:0:0:0:
320,192,207064,128,0,207145:0:0:0:0:
64,192,207064,128,0,207145:0:0:0:0:
192,192,207145,128,0,207307:0:0:0:0:
448,192,207226,1,0,0:0:0:0:
64,192,207226,128,0,207469:0:0:0:0:
320,192,207226,128,0,207388:0:0:0:0:
192,192,207388,128,0,207469:0:0:0:0:
448,192,207388,128,0,207469:0:0:0:0:
320,192,207469,128,0,207550:0:0:0:0:
64,192,207550,128,0,207712:0:0:0:0:
448,192,207550,128,0,207658:0:0:0:0:
192,192,207550,1,0,0:0:0:0:
320,192,207658,128,0,207766:0:0:0:0:
192,192,207766,128,0,207874:0:0:0:0:
448,192,207874,128,0,208037:0:0:0:0:
64,192,207874,128,0,207956:0:0:0:0:
320,192,207874,1,0,0:0:0:0:
192,192,207956,128,0,208118:0:0:0:0:
320,192,208037,128,0,208118:0:0:0:0:
64,192,208037,1,0,0:0:0:0:
448,192,208118,128,0,208199:0:0:0:0:
320,192,208199,128,0,208442:0:0:0:0:
192,192,208199,1,0,0:0:0:0:
64,192,208199,128,0,208361:0:0:0:0:
448,192,208361,128,0,208442:0:0:0:0:
192,192,208361,128,0,208442:0:0:0:0:
192,192,208523,128,0,208766:0:0:0:0:
320,192,208523,1,0,0:0:0:0:
448,192,208523,128,0,208685:0:0:0:0:
320,192,208685,128,0,208766:0:0:0:0:
64,192,208685,128,0,208766:0:0:0:0:
192,192,208847,128,0,208929:0:0:0:0:
448,192,208847,1,0,0:0:0:0:
320,192,208847,128,0,208929:0:0:0:0:
64,192,208929,128,0,209091:0:0:0:0:
192,192,209010,128,0,209091:0:0:0:0:
448,192,209010,128,0,209091:0:0:0:0:
320,192,209091,128,0,209172:0:0:0:0:
64,192,209172,1,0,0:0:0:0:
192,192,209172,128,0,209253:0:0:0:0:
448,192,209172,128,0,209415:0:0:0:0:
320,192,209253,128,0,209415:0:0:0:0:
192,192,209334,128,0,209415:0:0:0:0:
64,192,209334,128,0,209415:0:0:0:0:
320,192,209496,1,0,0:0:0:0:
64,192,209496,128,0,209739:0:0:0:0:
448,192,209496,128,0,209739:0:0:0:0:
192,192,209658,128,0,209739:0:0:0:0:
320,192,209658,128,0,209739:0:0:0:0:
320,192,209820,128,0,209983:0:0:0:0:
64,192,209820,128,0,209983:0:0:0:0:
192,192,209820,1,0,0:0:0:0:
192,192,209983,128,0,210064:0:0:0:0:
448,192,209983,1,0,0:0:0:0:
320,192,210064,1,0,0:0:0:0:
64,192,210064,128,0,210145:0:0:0:0:
448,192,210145,128,0,210388:0:0:0:0:
320,192,210145,128,0,210388:0:0:0:0:
192,192,210145,1,0,0:0:0:0:
64,192,210307,128,0,210388:0:0:0:0:
192,192,210307,1,0,0:0:0:0:
192,192,210469,128,0,210712:0:0:0:0:
320,192,210469,128,0,210712:0:0:0:0:
448,192,210469,128,0,210550:0:0:0:0:
64,192,210469,1,0,0:0:0:0:
64,192,210631,128,0,210712:0:0:0:0:
448,192,210631,1,0,0:0:0:0:
320,192,210793,128,0,210956:0:0:0:0:
448,192,210793,128,0,210874:0:0:0:0:
192,192,210793,1,0,0:0:0:0:
64,192,210874,128,0,211037:0:0:0:0:
192,192,210956,128,0,211037:0:0:0:0:
448,192,210956,128,0,211037:0:0:0:0:
320,192,211037,128,0,211199:0:0:0:0:
192,192,211118,1,0,0:0:0:0:
448,192,211118,128,0,211361:0:0:0:0:
64,192,211118,128,0,211280:0:0:0:0:
192,192,211280,128,0,211361:0:0:0:0:
320,192,211280,128,0,211361:0:0:0:0:
320,192,211442,1,0,0:0:0:0:
448,192,211442,128,0,211523:0:0:0:0:
64,192,211442,128,0,211523:0:0:0:0:
64,192,211604,128,0,211685:0:0:0:0:
448,192,211604,128,0,211685:0:0:0:0:
192,192,211685,128,0,211766:0:0:0:0:
448,192,211766,1,0,0:0:0:0:
320,192,211766,128,0,211929:0:0:0:0:
64,192,211766,128,0,212010:0:0:0:0:
192,192,211929,128,0,212010:0:0:0:0:
448,192,211929,128,0,212010:0:0:0:0:
64,192,212091,1,0,0:0:0:0:
192,192,212091,128,0,212253:0:0:0:0:
320,192,212091,128,0,212172:0:0:0:0:
448,192,212172,128,0,212334:0:0:0:0:
64,192,212253,128,0,212334:0:0:0:0:
320,192,212253,128,0,212334:0:0:0:0:
192,192,212334,128,0,212415:0:0:0:0:
320,192,212415,1,0,0:0:0:0:
448,192,212415,128,0,212496:0:0:0:0:
64,192,212415,128,0,212658:0:0:0:0:
192,192,212496,128,0,212658:0:0:0:0:
448,192,212577,128,0,212658:0:0:0:0:
320,192,212577,128,0,212658:0:0:0:0:
448,192,212739,128,0,212983:0:0:0:0:
320,192,212739,128,0,212983:0:0:0:0:
64,192,212739,128,0,212983:0:0:0:0:
192,192,212739,128,0,212983:0:0:0:0:
192,192,213064,1,0,0:0:0:0:
320,192,213064,128,0,213307:0:0:0:0:
448,192,213064,128,0,213145:0:0:0:0:
448,192,213226,128,0,213307:0:0:0:0:
192,192,213226,128,0,213307:0:0:0:0:
320,192,213388,128,0,213469:0:0:0:0:
192,192,213388,128,0,213631:0:0:0:0:
64,192,213388,1,0,0:0:0:0:
320,192,213550,128,0,213631:0:0:0:0:
64,192,213550,128,0,213631:0:0:0:0:
448,192,213712,1,0,0:0:0:0:
320,192,213712,128,0,213956:0:0:0:0:
192,192,213712,128,0,213793:0:0:0:0:
192,192,213874,128,0,213956:0:0:0:0:
448,192,213874,128,0,213956:0:0:0:0:
64,192,214037,128,0,214118:0:0:0:0:
192,192,214037,1,0,0:0:0:0:
320,192,214037,128,0,214118:0:0:0:0:
64,192,214199,128,0,214280:0:0:0:0:
448,192,214199,128,0,214280:0:0:0:0:
320,192,214280,128,0,214361:0:0:0:0:
192,192,214361,1,0,0:0:0:0:
448,192,214361,128,0,214604:0:0:0:0:
64,192,214361,128,0,214523:0:0:0:0:
192,192,214523,128,0,214604:0:0:0:0:
320,192,214523,128,0,214604:0:0:0:0:
448,192,214685,128,0,214847:0:0:0:0:
192,192,214685,128,0,214929:0:0:0:0:
320,192,214685,1,0,0:0:0:0:
320,192,214847,128,0,214929:0:0:0:0:
64,192,214847,128,0,214929:0:0:0:0:
448,192,215010,128,0,215253:0:0:0:0:
64,192,215010,128,0,215172:0:0:0:0:
192,192,215010,1,0,0:0:0:0:
320,192,215172,128,0,215253:0:0:0:0:
192,192,215172,128,0,215253:0:0:0:0:
320,192,215334,128,0,215496:0:0:0:0:
64,192,215334,128,0,215577:0:0:0:0:
448,192,215334,1,0,0:0:0:0:
192,192,215496,128,0,215577:0:0:0:0:
448,192,215496,128,0,215577:0:0:0:0:
192,192,215658,1,0,0:0:0:0:
448,192,215658,128,0,215739:0:0:0:0:
192,192,215739,1,0,0:0:0:0:
320,192,215820,1,0,0:0:0:0:
64,192,215820,128,0,215901:0:0:0:0:
320,192,215901,1,0,0:0:0:0:
448,192,215983,128,0,216145:0:0:0:0:
64,192,215983,1,0,0:0:0:0:
192,192,215983,128,0,216064:0:0:0:0:
320,192,216064,128,0,216226:0:0:0:0:
192,192,216145,128,0,216226:0:0:0:0:
64,192,216145,128,0,216226:0:0:0:0:
448,192,216226,128,0,216307:0:0:0:0:
192,192,216307,1,0,0:0:0:0:
320,192,216307,128,0,216550:0:0:0:0:
64,192,216307,128,0,216469:0:0:0:0:
192,192,216469,128,0,216550:0:0:0:0:
448,192,216469,1,0,0:0:0:0:
448,192,216631,128,0,216712:0:0:0:0:
64,192,216631,128,0,216712:0:0:0:0:
320,192,216631,1,0,0:0:0:0:
64,192,216793,128,0,216874:0:0:0:0:
448,192,216793,1,0,0:0:0:0:
320,192,216874,128,0,216956:0:0:0:0:
192,192,216874,1,0,0:0:0:0:
448,192,216956,128,0,217118:0:0:0:0:
192,192,216956,128,0,217199:0:0:0:0:
64,192,216956,1,0,0:0:0:0:
320,192,217118,128,0,217199:0:0:0:0:
64,192,217118,128,0,217199:0:0:0:0:
448,192,217280,1,0,0:0:0:0:
64,192,217280,128,0,217523:0:0:0:0:
320,192,217280,128,0,217442:0:0:0:0:
192,192,217442,128,0,217523:0:0:0:0:
448,192,217442,128,0,217523:0:0:0:0:
320,192,217523,128,0,217685:0:0:0:0:
64,192,217604,1,0,0:0:0:0:
448,192,217604,128,0,217847:0:0:0:0:
192,192,217604,128,0,217766:0:0:0:0:
320,192,217766,128,0,217847:0:0:0:0:
64,192,217766,128,0,217847:0:0:0:0:
192,192,217847,128,0,217929:0:0:0:0:
64,192,217929,128,0,218172:0:0:0:0:
448,192,217929,128,0,218172:0:0:0:0:
320,192,217929,1,0,0:0:0:0:
320,192,218091,128,0,218172:0:0:0:0:
192,192,218091,128,0,218172:0:0:0:0:
64,192,218253,128,0,218415:0:0:0:0:
320,192,218253,128,0,218496:0:0:0:0:
192,192,218253,1,0,0:0:0:0:
192,192,218415,128,0,218496:0:0:0:0:
448,192,218415,1,0,0:0:0:0:
192,192,218577,128,0,218820:0:0:0:0:
448,192,218577,128,0,218739:0:0:0:0:
320,192,218577,1,0,0:0:0:0:
320,192,218739,128,0,218820:0:0:0:0:
64,192,218739,128,0,218820:0:0:0:0:
192,192,218901,128,0,219145:0:0:0:0:
320,192,218901,128,0,219064:0:0:0:0:
64,192,218901,1,0,0:0:0:0:
64,192,219064,128,0,219145:0:0:0:0:
448,192,219064,128,0,219145:0:0:0:0:
448,192,219226,128,0,219469:0:0:0:0:
320,192,219226,1,0,0:0:0:0:
192,192,219226,128,0,219307:0:0:0:0:
320,192,219388,128,0,219469:0:0:0:0:
64,192,219388,128,0,219469:0:0:0:0:
192,192,219469,128,0,219550:0:0:0:0:
64,192,219550,1,0,0:0:0:0:
448,192,219550,128,0,219712:0:0:0:0:
320,192,219550,128,0,219631:0:0:0:0:
192,192,219631,128,0,219793:0:0:0:0:
320,192,219712,128,0,219793:0:0:0:0:
64,192,219712,128,0,219793:0:0:0:0:
448,192,219793,128,0,219874:0:0:0:0:
320,192,219874,128,0,220118:0:0:0:0:
64,192,219874,128,0,220118:0:0:0:0:
192,192,219874,128,0,220118:0:0:0:0:
448,192,220037,128,0,220361:0:0:0:0:
64,192,220199,128,0,220361:0:0:0:0:
192,192,220199,128,0,220361:0:0:0:0:
320,192,220361,128,0,220685:0:0:0:0:
64,192,220523,128,0,220685:0:0:0:0:
448,192,220523,128,0,220685:0:0:0:0:
64,192,220847,128,0,221091:0:0:0:0:
192,192,220847,128,0,221091:0:0:0:0:
320,192,220847,128,0,221091:0:0:0:0:
448,192,220847,128,0,221091:0:0:0:0:
64,192,221172,1,0,0:0:0:0:
320,192,221172,128,0,221253:0:0:0:0:
192,192,221172,128,0,221334:0:0:0:0:
64,192,221334,128,0,221496:0:0:0:0:
320,192,221334,128,0,221415:0:0:0:0:
320,192,221496,128,0,221658:0:0:0:0:
192,192,221496,128,0,221577:0:0:0:0:
448,192,221496,1,0,0:0:0:0:
192,192,221658,128,0,221739:0:0:0:0:
448,192,221658,128,0,221820:0:0:0:0:
320,192,221820,128,0,221901:0:0:0:0:
64,192,221820,1,0,0:0:0:0:
192,192,221820,128,0,221983:0:0:0:0:
64,192,221983,128,0,222145:0:0:0:0:
320,192,221983,128,0,222064:0:0:0:0:
320,192,222145,128,0,222307:0:0:0:0:
192,192,222145,128,0,222226:0:0:0:0:
448,192,222145,1,0,0:0:0:0:
192,192,222307,128,0,222388:0:0:0:0:
448,192,222307,128,0,222469:0:0:0:0:
64,192,222469,1,0,0:0:0:0:
320,192,222469,128,0,222550:0:0:0:0:
192,192,222469,128,0,222631:0:0:0:0:
64,192,222631,128,0,222793:0:0:0:0:
320,192,222631,128,0,222712:0:0:0:0:
320,192,222793,128,0,222956:0:0:0:0:
192,192,222793,128,0,222874:0:0:0:0:
448,192,222793,1,0,0:0:0:0:
192,192,222956,128,0,223037:0:0:0:0:
448,192,222956,128,0,223118:0:0:0:0:
64,192,223118,1,0,0:0:0:0:
192,192,223118,128,0,223280:0:0:0:0:
320,192,223118,128,0,223199:0:0:0:0:
64,192,223280,128,0,223442:0:0:0:0:
320,192,223280,128,0,223361:0:0:0:0:
320,192,223442,128,0,223604:0:0:0:0:
192,192,223442,128,0,223523:0:0:0:0:
448,192,223442,1,0,0:0:0:0:
192,192,223604,128,0,223685:0:0:0:0:
448,192,223604,128,0,223766:0:0:0:0:
64,192,223766,1,0,0:0:0:0:
320,192,223766,128,0,223847:0:0:0:0:
192,192,223766,128,0,223929:0:0:0:0:
64,192,223929,128,0,224091:0:0:0:0:
320,192,223929,128,0,224010:0:0:0:0:
320,192,224091,128,0,224253:0:0:0:0:
192,192,224091,128,0,224172:0:0:0:0:
448,192,224091,1,0,0:0:0:0:
192,192,224253,128,0,224334:0:0:0:0:
448,192,224253,128,0,224415:0:0:0:0:
64,192,224415,1,0,0:0:0:0:
320,192,224415,128,0,224496:0:0:0:0:
192,192,224415,128,0,224577:0:0:0:0:
64,192,224577,128,0,224739:0:0:0:0:
320,192,224577,128,0,224658:0:0:0:0:
320,192,224739,128,0,224901:0:0:0:0:
192,192,224739,128,0,224820:0:0:0:0:
448,192,224739,1,0,0:0:0:0:
192,192,224901,128,0,224983:0:0:0:0:
448,192,224901,128,0,225064:0:0:0:0:
64,192,225064,1,0,0:0:0:0:
320,192,225064,128,0,225145:0:0:0:0:
192,192,225064,128,0,225226:0:0:0:0:
64,192,225226,128,0,225388:0:0:0:0:
320,192,225226,128,0,225307:0:0:0:0:
320,192,225388,128,0,225550:0:0:0:0:
192,192,225388,128,0,225469:0:0:0:0:
448,192,225388,1,0,0:0:0:0:
192,192,225550,128,0,225631:0:0:0:0:
448,192,225550,128,0,225712:0:0:0:0:
64,192,225712,1,0,0:0:0:0:
320,192,225712,128,0,225793:0:0:0:0:
192,192,225712,128,0,225874:0:0:0:0:
64,192,225874,128,0,226037:0:0:0:0:
320,192,225874,128,0,225956:0:0:0:0:
320,192,226037,128,0,226199:0:0:0:0:
192,192,226037,128,0,226118:0:0:0:0:
448,192,226037,1,0,0:0:0:0:
448,192,226199,128,0,226361:0:0:0:0:
64,192,226199,128,0,226280:0:0:0:0:
64,192,226361,128,0,226523:0:0:0:0:
320,192,226361,1,0,0:0:0:0:
192,192,226361,128,0,226442:0:0:0:0:
320,192,226523,128,0,226604:0:0:0:0:
448,192,226523,1,0,0:0:0:0:
192,192,226523,128,0,226685:0:0:0:0:
320,192,226685,128,0,226847:0:0:0:0:
448,192,226685,128,0,226766:0:0:0:0:
64,192,226685,1,0,0:0:0:0:
192,192,226847,1,0,0:0:0:0:
64,192,226847,128,0,226929:0:0:0:0:
448,192,226847,128,0,227010:0:0:0:0:
320,192,227010,1,0,0:0:0:0:
192,192,227010,128,0,227091:0:0:0:0:
64,192,227010,128,0,227172:0:0:0:0:
448,192,227172,1,0,0:0:0:0:
192,192,227172,128,0,227334:0:0:0:0:
320,192,227172,128,0,227253:0:0:0:0:
64,192,227334,1,0,0:0:0:0:
448,192,227334,128,0,227415:0:0:0:0:
320,192,227334,128,0,227496:0:0:0:0:
192,192,227496,1,0,0:0:0:0:
448,192,227496,128,0,227658:0:0:0:0:
64,192,227496,128,0,227577:0:0:0:0:
64,192,227658,128,0,227820:0:0:0:0:
320,192,227658,1,0,0:0:0:0:
192,192,227658,128,0,227739:0:0:0:0:
448,192,227820,1,0,0:0:0:0:
320,192,227820,128,0,227901:0:0:0:0:
192,192,227820,128,0,227983:0:0:0:0:
320,192,227983,128,0,228145:0:0:0:0:
448,192,227983,128,0,228064:0:0:0:0:
64,192,227983,1,0,0:0:0:0:
192,192,228145,1,0,0:0:0:0:
64,192,228145,128,0,228226:0:0:0:0:
448,192,228145,128,0,228307:0:0:0:0:
320,192,228307,1,0,0:0:0:0:
192,192,228307,128,0,228388:0:0:0:0:
64,192,228307,128,0,228469:0:0:0:0:
448,192,228469,1,0,0:0:0:0:
192,192,228469,128,0,228631:0:0:0:0:
320,192,228469,128,0,228550:0:0:0:0:
64,192,228631,1,0,0:0:0:0:
448,192,228631,128,0,228712:0:0:0:0:
320,192,228631,128,0,228793:0:0:0:0:
192,192,228793,1,0,0:0:0:0:
448,192,228793,128,0,228874:0:0:0:0:
64,192,228793,128,0,228956:0:0:0:0:
448,192,228956,1,0,0:0:0:0:
320,192,228956,128,0,229037:0:0:0:0:
64,192,229037,1,0,0:0:0:0:
192,192,229037,128,0,229118:0:0:0:0:
448,192,229118,1,0,0:0:0:0:
320,192,229118,128,0,229199:0:0:0:0:
64,192,229199,1,0,0:0:0:0:
192,192,229199,128,0,229280:0:0:0:0:
320,192,229280,128,0,229361:0:0:0:0:
448,192,229280,1,0,0:0:0:0:
192,192,229361,128,0,229442:0:0:0:0:
64,192,229361,1,0,0:0:0:0:
320,192,229442,128,0,229523:0:0:0:0:
448,192,229442,1,0,0:0:0:0:
192,192,229523,128,0,229604:0:0:0:0:
64,192,229523,1,0,0:0:0:0:
448,192,229604,1,0,0:0:0:0:
320,192,229604,128,0,229685:0:0:0:0:
64,192,229685,1,0,0:0:0:0:
192,192,229685,128,0,229766:0:0:0:0:
448,192,229766,1,0,0:0:0:0:
320,192,229766,128,0,229847:0:0:0:0:
64,192,229847,1,0,0:0:0:0:
192,192,229847,128,0,229929:0:0:0:0:
320,192,229929,128,0,230010:0:0:0:0:
448,192,229929,1,0,0:0:0:0:
192,192,230010,128,0,230091:0:0:0:0:
64,192,230010,1,0,0:0:0:0:
320,192,230091,128,0,230172:0:0:0:0:
448,192,230091,1,0,0:0:0:0:
192,192,230172,128,0,230253:0:0:0:0:
64,192,230172,1,0,0:0:0:0:
320,192,230253,1,0,0:0:0:0:
448,192,230293,1,0,0:0:0:0:
192,192,230334,1,0,0:0:0:0:
64,192,230374,1,0,0:0:0:0:
448,192,230415,1,0,0:0:0:0:
320,192,230456,1,0,0:0:0:0:
64,192,230496,1,0,0:0:0:0:
192,192,230537,1,0,0:0:0:0:
320,192,230577,1,0,0:0:0:0:
448,192,230618,1,0,0:0:0:0:
192,192,230658,1,0,0:0:0:0:
64,192,230699,1,0,0:0:0:0:
448,192,230739,1,0,0:0:0:0:
320,192,230780,1,0,0:0:0:0:
64,192,230820,1,0,0:0:0:0:
192,192,230861,1,0,0:0:0:0:
320,192,230901,1,0,0:0:0:0:
448,192,230942,1,0,0:0:0:0:
192,192,230983,1,0,0:0:0:0:
64,192,231023,1,0,0:0:0:0:
448,192,231064,1,0,0:0:0:0:
320,192,231104,1,0,0:0:0:0:
64,192,231145,1,0,0:0:0:0:
192,192,231185,1,0,0:0:0:0:
320,192,231226,1,0,0:0:0:0:
448,192,231266,1,0,0:0:0:0:
192,192,231307,1,0,0:0:0:0:
64,192,231347,1,0,0:0:0:0:
448,192,231388,1,0,0:0:0:0:
320,192,231429,1,0,0:0:0:0:
64,192,231469,1,0,0:0:0:0:
192,192,231510,1,0,0:0:0:0:
320,192,231550,1,0,0:0:0:0:
448,192,231591,1,0,0:0:0:0:
192,192,231631,1,0,0:0:0:0:
64,192,231672,1,0,0:0:0:0:
448,192,231712,1,0,0:0:0:0:
320,192,231753,1,0,0:0:0:0:
64,192,231793,1,0,0:0:0:0:
192,192,231834,1,0,0:0:0:0:
320,192,231874,1,0,0:0:0:0:
448,192,231915,1,0,0:0:0:0:
192,192,231956,1,0,0:0:0:0:
64,192,231996,1,0,0:0:0:0:
448,192,232037,1,0,0:0:0:0:
320,192,232077,1,0,0:0:0:0:
64,192,232118,1,0,0:0:0:0:
192,192,232158,1,0,0:0:0:0:
320,192,232199,1,0,0:0:0:0:
448,192,232239,1,0,0:0:0:0:
192,192,232280,1,0,0:0:0:0:
64,192,232320,1,0,0:0:0:0:
448,192,232361,1,0,0:0:0:0:
320,192,232401,1,0,0:0:0:0:
64,192,232442,1,0,0:0:0:0:
192,192,232483,1,0,0:0:0:0:
320,192,232523,1,0,0:0:0:0:
448,192,232564,1,0,0:0:0:0:
192,192,232604,1,0,0:0:0:0:
64,192,232645,1,0,0:0:0:0:
448,192,232685,1,0,0:0:0:0:
320,192,232726,1,0,0:0:0:0:
64,192,232766,1,0,0:0:0:0:
192,192,232807,1,0,0:0:0:0:
448,192,232847,1,0,0:0:0:0:
448,192,232949,1,0,0:0:0:0:
448,192,233212,1,0,0:0:0:0:
448,192,233334,1,0,0:0:0:0:
