osu file format v14

[General]
AudioFilename: audio.ogg
AudioLeadIn: 0
PreviewTime: 179648
Countdown: 0
SampleSet: Soft
StackLeniency: 0.7
Mode: 3
LetterboxInBreaks: 0
EpilepsyWarning: 1
SpecialStyle: 0
WidescreenStoryboard: 1

[Editor]
Bookmarks: 14892,25270,35649,46027,82351,92730,123865,134243,190027
DistanceSpacing: 1.8
BeatDivisor: 4
GridSize: 4
TimelineZoom: 2.200001

[Metadata]
Title:INTERNET YAMERO
TitleUnicode:INTERNET YAMERO
Artist:Aiobahn feat. KOTOKO
ArtistUnicode:Aiobahn feat. KOTOKO
Creator:FLeVI
Version:SZH's Hard
Source:NEEDY GIRL OVERDOSE
Tags:streamer ame KAngel OMGkawaiiAngel p-chan tenshi overload video game japanese electronic female vocal muse dash にゃるら nyalra nyarura angel WSS playground xemono visual novel cute Carpihat hidden is fun shizehao Nicknem_ ExNeko lovely_hyahya Catasmic Hynova まろん maron IOSYS TOHRU MiTSUHASHi 前田地生 Maeda Chisei as_chisei
BeatmapID:4073568
BeatmapSetID:1962727

[Difficulty]
HPDrainRate:7.5
CircleSize:4
OverallDifficulty:7.5
ApproachRate:5
SliderMultiplier:1.4
SliderTickRate:1

[Events]
//Background and Video events
0,0,"bg.jpg",0,0
Video,-191,"video.mp4"
//Break Periods
//Storyboard Layer 0 (Background)
//Storyboard Layer 1 (Fail)
//Storyboard Layer 2 (Pass)
//Storyboard Layer 3 (Foreground)
//Storyboard Layer 4 (Overlay)
//Storyboard Sound Samples

[TimingPoints]
1930,324.324324324324,4,2,1,50,1,0
4524,324.324324324324,4,2,1,50,1,0
158902,324.324324324324,4,2,1,50,1,0
179658,-100,4,2,1,50,0,1
200415,-100,4,2,1,50,0,0

[HitObjects]
192,192,1930,5,0,0:0:0:0:
448,192,1930,1,0,0:0:0:0:
64,192,2254,1,0,0:0:0:0:
320,192,2254,1,0,0:0:0:0:
64,192,2578,1,0,0:0:0:0:
192,192,2578,1,0,0:0:0:0:
448,192,2740,1,0,0:0:0:0:
320,192,2740,1,0,0:0:0:0:
320,192,2902,1,0,0:0:0:0:
64,192,2902,1,0,0:0:0:0:
192,192,3065,1,0,0:0:0:0:
448,192,3065,1,0,0:0:0:0:
192,192,3227,1,0,0:0:0:0:
64,192,3227,1,0,0:0:0:0:
448,192,3389,1,0,0:0:0:0:
320,192,3389,1,0,0:0:0:0:
64,192,3713,1,0,0:0:0:0:
192,192,3713,1,0,0:0:0:0:
448,192,3875,1,0,0:0:0:0:
320,192,3875,1,0,0:0:0:0:
448,192,4200,1,0,0:0:0:0:
64,192,4200,1,0,0:0:0:0:
448,192,4362,1,0,0:0:0:0:
64,192,4362,1,0,0:0:0:0:
64,192,4524,128,0,4848:0:0:0:0:
448,192,4524,128,0,4848:0:0:0:0:
192,192,4524,128,0,4848:0:0:0:0:
64,192,7118,128,0,7442:0:0:0:0:
448,192,7118,128,0,7442:0:0:0:0:
192,192,7118,128,0,7442:0:0:0:0:
64,192,9713,128,0,10037:0:0:0:0:
448,192,9713,128,0,10037:0:0:0:0:
192,192,9713,128,0,10037:0:0:0:0:
320,192,11983,128,0,12307:0:0:0:0:
64,192,12307,128,0,12632:0:0:0:0:
448,192,12307,128,0,12632:0:0:0:0:
192,192,12307,128,0,12632:0:0:0:0:
64,192,13605,128,0,13929:0:0:0:0:
448,192,13605,128,0,13929:0:0:0:0:
192,192,13605,128,0,13929:0:0:0:0:
64,192,14253,1,0,0:0:0:0:
192,192,14253,1,0,0:0:0:0:
320,192,14496,1,0,0:0:0:0:
448,192,14496,1,0,0:0:0:0:
192,192,14578,1,0,0:0:0:0:
64,192,14578,1,0,0:0:0:0:
448,192,14740,1,0,0:0:0:0:
320,192,14740,1,0,0:0:0:0:
448,192,14902,1,0,0:0:0:0:
64,192,14902,128,0,15064:0:0:0:0:
192,192,15064,128,0,15226:0:0:0:0:
448,192,15226,1,0,0:0:0:0:
320,192,15307,1,0,0:0:0:0:
192,192,15388,1,0,0:0:0:0:
64,192,15469,1,0,0:0:0:0:
448,192,15551,128,0,15713:0:0:0:0:
320,192,15713,128,0,15875:0:0:0:0:
64,192,15875,1,0,0:0:0:0:
192,192,15956,1,0,0:0:0:0:
320,192,16037,1,0,0:0:0:0:
448,192,16118,1,0,0:0:0:0:
192,192,16199,128,0,16361:0:0:0:0:
320,192,16361,128,0,16523:0:0:0:0:
448,192,16523,1,0,0:0:0:0:
320,192,16605,1,0,0:0:0:0:
192,192,16686,1,0,0:0:0:0:
64,192,16767,1,0,0:0:0:0:
320,192,16848,128,0,17010:0:0:0:0:
192,192,17010,128,0,17172:0:0:0:0:
64,192,17172,1,0,0:0:0:0:
320,192,17253,1,0,0:0:0:0:
448,192,17334,1,0,0:0:0:0:
320,192,17415,1,0,0:0:0:0:
192,192,17496,1,0,0:0:0:0:
64,192,17496,128,0,17659:0:0:0:0:
320,192,17659,128,0,17821:0:0:0:0:
448,192,17821,1,0,0:0:0:0:
192,192,17902,1,0,0:0:0:0:
320,192,17983,1,0,0:0:0:0:
64,192,18064,1,0,0:0:0:0:
448,192,18145,128,0,18307:0:0:0:0:
192,192,18307,128,0,18469:0:0:0:0:
64,192,18469,1,0,0:0:0:0:
320,192,18551,1,0,0:0:0:0:
192,192,18632,1,0,0:0:0:0:
448,192,18713,1,0,0:0:0:0:
320,192,18794,128,0,18956:0:0:0:0:
64,192,18956,128,0,19118:0:0:0:0:
192,192,19118,1,0,0:0:0:0:
320,192,19199,1,0,0:0:0:0:
64,192,19280,1,0,0:0:0:0:
448,192,19361,1,0,0:0:0:0:
192,192,19442,128,0,19605:0:0:0:0:
448,192,19605,128,0,19767:0:0:0:0:
320,192,19767,1,0,0:0:0:0:
192,192,19848,1,0,0:0:0:0:
448,192,19929,1,0,0:0:0:0:
64,192,20010,1,0,0:0:0:0:
448,192,20091,1,0,0:0:0:0:
192,192,20091,128,0,20253:0:0:0:0:
320,192,20253,128,0,20415:0:0:0:0:
448,192,20415,1,0,0:0:0:0:
192,192,20496,1,0,0:0:0:0:
448,192,20578,1,0,0:0:0:0:
64,192,20659,1,0,0:0:0:0:
320,192,20740,128,0,20902:0:0:0:0:
192,192,20902,128,0,21064:0:0:0:0:
64,192,21064,1,0,0:0:0:0:
320,192,21145,1,0,0:0:0:0:
64,192,21226,1,0,0:0:0:0:
448,192,21307,1,0,0:0:0:0:
320,192,21388,1,0,0:0:0:0:
192,192,21388,128,0,21551:0:0:0:0:
448,192,21551,128,0,21713:0:0:0:0:
192,192,21713,1,0,0:0:0:0:
320,192,21794,1,0,0:0:0:0:
192,192,21875,1,0,0:0:0:0:
64,192,21956,1,0,0:0:0:0:
320,192,22037,128,0,22199:0:0:0:0:
64,192,22199,128,0,22361:0:0:0:0:
320,192,22361,1,0,0:0:0:0:
192,192,22442,1,0,0:0:0:0:
320,192,22523,1,0,0:0:0:0:
448,192,22605,1,0,0:0:0:0:
64,192,22686,1,0,0:0:0:0:
192,192,22686,1,0,0:0:0:0:
320,192,22767,1,0,0:0:0:0:
64,192,22848,1,0,0:0:0:0:
448,192,22929,1,0,0:0:0:0:
320,192,23010,1,0,0:0:0:0:
192,192,23091,1,0,0:0:0:0:
448,192,23172,1,0,0:0:0:0:
192,192,23253,1,0,0:0:0:0:
448,192,23334,1,0,0:0:0:0:
64,192,23334,1,0,0:0:0:0:
320,192,23415,1,0,0:0:0:0:
192,192,23496,1,0,0:0:0:0:
320,192,23578,1,0,0:0:0:0:
448,192,23659,1,0,0:0:0:0:
64,192,23740,1,0,0:0:0:0:
448,192,23821,1,0,0:0:0:0:
192,192,23902,1,0,0:0:0:0:
64,192,23983,1,0,0:0:0:0:
320,192,23983,1,0,0:0:0:0:
64,192,24307,1,0,0:0:0:0:
320,192,24307,1,0,0:0:0:0:
64,192,24632,1,0,0:0:0:0:
320,192,24632,1,0,0:0:0:0:
448,192,24956,1,0,0:0:0:0:
320,192,24956,1,0,0:0:0:0:
192,192,25037,1,0,0:0:0:0:
320,192,25118,1,0,0:0:0:0:
192,192,25199,1,0,0:0:0:0:
64,192,25280,1,0,0:0:0:0:
448,192,25280,1,0,0:0:0:0:
448,192,25442,1,0,0:0:0:0:
320,192,25605,1,0,0:0:0:0:
64,192,25605,1,0,0:0:0:0:
64,192,25767,1,0,0:0:0:0:
320,192,25929,1,0,0:0:0:0:
448,192,25929,1,0,0:0:0:0:
320,192,26091,1,0,0:0:0:0:
64,192,26172,1,0,0:0:0:0:
448,192,26253,1,0,0:0:0:0:
192,192,26253,1,0,0:0:0:0:
192,192,26415,1,0,0:0:0:0:
320,192,26578,1,0,0:0:0:0:
448,192,26578,1,0,0:0:0:0:
320,192,26740,1,0,0:0:0:0:
64,192,26902,1,0,0:0:0:0:
192,192,26902,1,0,0:0:0:0:
64,192,27064,1,0,0:0:0:0:
192,192,27226,1,0,0:0:0:0:
320,192,27226,1,0,0:0:0:0:
320,192,27551,1,0,0:0:0:0:
64,192,27551,1,0,0:0:0:0:
320,192,27713,1,0,0:0:0:0:
64,192,27875,1,0,0:0:0:0:
448,192,27875,1,0,0:0:0:0:
448,192,28037,1,0,0:0:0:0:
320,192,28199,1,0,0:0:0:0:
64,192,28199,1,0,0:0:0:0:
64,192,28361,1,0,0:0:0:0:
320,192,28523,1,0,0:0:0:0:
448,192,28523,1,0,0:0:0:0:
320,192,28686,1,0,0:0:0:0:
192,192,28767,1,0,0:0:0:0:
448,192,28848,1,0,0:0:0:0:
64,192,28848,1,0,0:0:0:0:
64,192,29010,1,0,0:0:0:0:
320,192,29172,1,0,0:0:0:0:
448,192,29172,1,0,0:0:0:0:
448,192,29334,1,0,0:0:0:0:
320,192,29496,1,0,0:0:0:0:
192,192,29496,1,0,0:0:0:0:
320,192,29659,1,0,0:0:0:0:
448,192,29821,1,0,0:0:0:0:
64,192,29821,1,0,0:0:0:0:
64,192,29983,1,0,0:0:0:0:
448,192,30145,1,0,0:0:0:0:
320,192,30145,1,0,0:0:0:0:
192,192,30226,1,0,0:0:0:0:
320,192,30307,1,0,0:0:0:0:
192,192,30388,1,0,0:0:0:0:
64,192,30469,1,0,0:0:0:0:
448,192,30469,1,0,0:0:0:0:
448,192,30632,1,0,0:0:0:0:
320,192,30794,1,0,0:0:0:0:
64,192,30794,1,0,0:0:0:0:
64,192,30956,1,0,0:0:0:0:
192,192,30956,1,0,0:0:0:0:
320,192,31118,1,0,0:0:0:0:
448,192,31118,1,0,0:0:0:0:
320,192,31280,1,0,0:0:0:0:
192,192,31361,1,0,0:0:0:0:
448,192,31442,1,0,0:0:0:0:
64,192,31442,1,0,0:0:0:0:
64,192,31605,1,0,0:0:0:0:
192,192,31767,1,0,0:0:0:0:
320,192,31767,1,0,0:0:0:0:
320,192,31929,1,0,0:0:0:0:
448,192,32091,1,0,0:0:0:0:
192,192,32091,1,0,0:0:0:0:
192,192,32253,1,0,0:0:0:0:
64,192,32415,1,0,0:0:0:0:
320,192,32415,1,0,0:0:0:0:
320,192,32578,1,0,0:0:0:0:
192,192,32740,1,0,0:0:0:0:
64,192,32740,1,0,0:0:0:0:
448,192,32902,1,0,0:0:0:0:
320,192,32902,1,0,0:0:0:0:
320,192,33064,1,0,0:0:0:0:
192,192,33064,1,0,0:0:0:0:
192,192,33226,1,0,0:0:0:0:
320,192,33388,1,0,0:0:0:0:
64,192,33388,1,0,0:0:0:0:
320,192,33551,1,0,0:0:0:0:
64,192,33713,1,0,0:0:0:0:
448,192,33713,1,0,0:0:0:0:
320,192,33875,1,0,0:0:0:0:
192,192,33956,1,0,0:0:0:0:
64,192,34037,1,0,0:0:0:0:
448,192,34037,1,0,0:0:0:0:
320,192,34118,1,0,0:0:0:0:
64,192,34199,1,0,0:0:0:0:
192,192,34280,1,0,0:0:0:0:
320,192,34361,1,0,0:0:0:0:
448,192,34361,1,0,0:0:0:0:
448,192,34523,1,0,0:0:0:0:
192,192,34686,1,0,0:0:0:0:
64,192,34686,1,0,0:0:0:0:
64,192,34848,1,0,0:0:0:0:
448,192,35010,1,0,0:0:0:0:
320,192,35010,1,0,0:0:0:0:
448,192,35334,128,0,35659:0:0:0:0:
320,192,35334,128,0,35659:0:0:0:0:
192,192,35659,1,0,0:0:0:0:
64,192,35659,128,0,35821:0:0:0:0:
320,192,35983,1,0,0:0:0:0:
448,192,35983,128,0,36145:0:0:0:0:
64,192,36145,128,0,36307:0:0:0:0:
320,192,36307,128,0,36469:0:0:0:0:
192,192,36307,1,0,0:0:0:0:
448,192,36469,128,0,36794:0:0:0:0:
192,192,36632,1,0,0:0:0:0:
64,192,36632,1,0,0:0:0:0:
64,192,36794,128,0,36956:0:0:0:0:
320,192,36956,1,0,0:0:0:0:
192,192,36956,1,0,0:0:0:0:
320,192,37118,128,0,37280:0:0:0:0:
448,192,37280,1,0,0:0:0:0:
192,192,37280,1,0,0:0:0:0:
192,192,37442,128,0,37605:0:0:0:0:
448,192,37605,1,0,0:0:0:0:
64,192,37605,1,0,0:0:0:0:
64,192,37767,128,0,37929:0:0:0:0:
448,192,37767,1,0,0:0:0:0:
192,192,37929,1,0,0:0:0:0:
320,192,37929,1,0,0:0:0:0:
320,192,38091,128,0,38415:0:0:0:0:
64,192,38253,1,0,0:0:0:0:
192,192,38253,1,0,0:0:0:0:
320,192,38578,1,0,0:0:0:0:
448,192,38578,1,0,0:0:0:0:
64,192,38740,128,0,38902:0:0:0:0:
192,192,38902,1,0,0:0:0:0:
448,192,38902,128,0,39064:0:0:0:0:
320,192,39064,128,0,39388:0:0:0:0:
192,192,39226,1,0,0:0:0:0:
64,192,39226,1,0,0:0:0:0:
192,192,39388,128,0,39551:0:0:0:0:
320,192,39551,1,0,0:0:0:0:
448,192,39551,1,0,0:0:0:0:
448,192,39713,128,0,39875:0:0:0:0:
320,192,39875,1,0,0:0:0:0:
64,192,39875,1,0,0:0:0:0:
320,192,40037,128,0,40199:0:0:0:0:
192,192,40199,1,0,0:0:0:0:
448,192,40199,1,0,0:0:0:0:
192,192,40361,128,0,40523:0:0:0:0:
448,192,40361,1,0,0:0:0:0:
320,192,40523,1,0,0:0:0:0:
64,192,40523,1,0,0:0:0:0:
64,192,40686,128,0,41010:0:0:0:0:
320,192,40848,1,0,0:0:0:0:
448,192,40848,1,0,0:0:0:0:
64,192,41172,1,0,0:0:0:0:
448,192,41172,1,0,0:0:0:0:
192,192,41496,1,0,0:0:0:0:
64,192,41496,1,0,0:0:0:0:
448,192,41821,1,0,0:0:0:0:
192,192,41821,1,0,0:0:0:0:
320,192,42145,1,0,0:0:0:0:
448,192,42145,1,0,0:0:0:0:
320,192,42469,1,0,0:0:0:0:
64,192,42469,1,0,0:0:0:0:
448,192,42794,1,0,0:0:0:0:
192,192,42794,1,0,0:0:0:0:
192,192,42956,1,0,0:0:0:0:
448,192,42956,128,0,43118:0:0:0:0:
64,192,43118,1,0,0:0:0:0:
320,192,43118,128,0,43280:0:0:0:0:
192,192,43280,128,0,43605:0:0:0:0:
448,192,43442,1,0,0:0:0:0:
64,192,43442,1,0,0:0:0:0:
448,192,43767,1,0,0:0:0:0:
192,192,43767,1,0,0:0:0:0:
64,192,44091,1,0,0:0:0:0:
192,192,44091,1,0,0:0:0:0:
64,192,44415,1,0,0:0:0:0:
320,192,44415,1,0,0:0:0:0:
320,192,44740,1,0,0:0:0:0:
448,192,44740,1,0,0:0:0:0:
192,192,45064,1,0,0:0:0:0:
448,192,45064,1,0,0:0:0:0:
64,192,45388,1,0,0:0:0:0:
320,192,45388,1,0,0:0:0:0:
192,192,45551,1,0,0:0:0:0:
64,192,45551,1,0,0:0:0:0:
320,192,45713,1,0,0:0:0:0:
448,192,45713,1,0,0:0:0:0:
320,192,46037,1,0,0:0:0:0:
448,192,46037,1,0,0:0:0:0:
192,192,46199,1,0,0:0:0:0:
64,192,46361,1,0,0:0:0:0:
448,192,46361,1,0,0:0:0:0:
320,192,46523,128,0,46686:0:0:0:0:
192,192,46686,1,0,0:0:0:0:
64,192,46686,128,0,46848:0:0:0:0:
448,192,46848,128,0,47172:0:0:0:0:
320,192,47010,1,0,0:0:0:0:
192,192,47010,1,0,0:0:0:0:
192,192,47172,128,0,47334:0:0:0:0:
64,192,47334,1,0,0:0:0:0:
448,192,47334,1,0,0:0:0:0:
448,192,47496,128,0,47659:0:0:0:0:
320,192,47659,1,0,0:0:0:0:
192,192,47659,1,0,0:0:0:0:
192,192,47821,128,0,47983:0:0:0:0:
64,192,47983,1,0,0:0:0:0:
448,192,47983,1,0,0:0:0:0:
64,192,48145,128,0,48307:0:0:0:0:
320,192,48145,1,0,0:0:0:0:
192,192,48307,1,0,0:0:0:0:
448,192,48307,1,0,0:0:0:0:
192,192,48469,128,0,48794:0:0:0:0:
320,192,48632,1,0,0:0:0:0:
64,192,48632,1,0,0:0:0:0:
448,192,48794,1,0,0:0:0:0:
320,192,48956,1,0,0:0:0:0:
64,192,48956,1,0,0:0:0:0:
192,192,49118,128,0,49280:0:0:0:0:
448,192,49280,1,0,0:0:0:0:
320,192,49280,128,0,49442:0:0:0:0:
64,192,49442,128,0,49767:0:0:0:0:
192,192,49605,1,0,0:0:0:0:
448,192,49605,1,0,0:0:0:0:
448,192,49767,128,0,49929:0:0:0:0:
320,192,49929,1,0,0:0:0:0:
192,192,49929,1,0,0:0:0:0:
320,192,50091,128,0,50253:0:0:0:0:
64,192,50253,1,0,0:0:0:0:
448,192,50253,1,0,0:0:0:0:
64,192,50415,128,0,50578:0:0:0:0:
192,192,50578,1,0,0:0:0:0:
448,192,50578,1,0,0:0:0:0:
192,192,50740,128,0,50902:0:0:0:0:
320,192,50740,1,0,0:0:0:0:
64,192,50902,1,0,0:0:0:0:
448,192,50902,1,0,0:0:0:0:
448,192,51064,128,0,51388:0:0:0:0:
64,192,51226,1,0,0:0:0:0:
320,192,51226,1,0,0:0:0:0:
192,192,51388,1,0,0:0:0:0:
320,192,51551,1,0,0:0:0:0:
64,192,51551,1,0,0:0:0:0:
448,192,51713,1,0,0:0:0:0:
320,192,51875,1,0,0:0:0:0:
64,192,51875,1,0,0:0:0:0:
192,192,52037,1,0,0:0:0:0:
320,192,52199,1,0,0:0:0:0:
448,192,52199,1,0,0:0:0:0:
64,192,52361,1,0,0:0:0:0:
192,192,52523,1,0,0:0:0:0:
448,192,52523,1,0,0:0:0:0:
320,192,52686,1,0,0:0:0:0:
64,192,52848,1,0,0:0:0:0:
192,192,52848,1,0,0:0:0:0:
448,192,53010,1,0,0:0:0:0:
64,192,53172,1,0,0:0:0:0:
320,192,53172,1,0,0:0:0:0:
448,192,53334,1,0,0:0:0:0:
64,192,53334,128,0,53496:0:0:0:0:
320,192,53496,1,0,0:0:0:0:
192,192,53496,128,0,53659:0:0:0:0:
448,192,53659,128,0,53821:0:0:0:0:
320,192,53821,1,0,0:0:0:0:
64,192,53821,1,0,0:0:0:0:
320,192,53983,128,0,54145:0:0:0:0:
192,192,54145,1,0,0:0:0:0:
448,192,54145,1,0,0:0:0:0:
64,192,54307,128,0,54632:0:0:0:0:
192,192,54469,1,0,0:0:0:0:
448,192,54469,1,0,0:0:0:0:
320,192,54632,1,0,0:0:0:0:
64,192,54794,1,0,0:0:0:0:
192,192,54794,1,0,0:0:0:0:
448,192,54956,1,0,0:0:0:0:
64,192,55118,1,0,0:0:0:0:
320,192,55118,1,0,0:0:0:0:
192,192,55280,1,0,0:0:0:0:
320,192,55442,1,0,0:0:0:0:
448,192,55442,1,0,0:0:0:0:
64,192,55605,1,0,0:0:0:0:
448,192,55767,1,0,0:0:0:0:
192,192,55767,1,0,0:0:0:0:
320,192,55929,1,0,0:0:0:0:
192,192,56010,1,0,0:0:0:0:
320,192,56091,1,0,0:0:0:0:
448,192,56091,1,0,0:0:0:0:
448,192,56253,1,0,0:0:0:0:
320,192,56253,1,0,0:0:0:0:
64,192,56415,1,0,0:0:0:0:
192,192,56415,1,0,0:0:0:0:
448,192,56415,128,0,56740:0:0:0:0:
320,192,56740,1,0,0:0:0:0:
64,192,56740,128,0,56902:0:0:0:0:
448,192,56902,128,0,57064:0:0:0:0:
64,192,57064,1,0,0:0:0:0:
192,192,57064,128,0,57226:0:0:0:0:
320,192,57226,128,0,57551:0:0:0:0:
448,192,57388,1,0,0:0:0:0:
64,192,57388,1,0,0:0:0:0:
64,192,57551,128,0,57713:0:0:0:0:
192,192,57713,1,0,0:0:0:0:
448,192,57713,1,0,0:0:0:0:
192,192,57875,128,0,58037:0:0:0:0:
320,192,58037,1,0,0:0:0:0:
448,192,58037,1,0,0:0:0:0:
448,192,58199,128,0,58361:0:0:0:0:
192,192,58361,1,0,0:0:0:0:
64,192,58361,1,0,0:0:0:0:
64,192,58523,128,0,58686:0:0:0:0:
448,192,58523,1,0,0:0:0:0:
320,192,58686,1,0,0:0:0:0:
192,192,58686,1,0,0:0:0:0:
448,192,58848,128,0,59172:0:0:0:0:
320,192,59010,1,0,0:0:0:0:
192,192,59010,128,0,59334:0:0:0:0:
64,192,59334,1,0,0:0:0:0:
320,192,59334,128,0,59496:0:0:0:0:
448,192,59496,128,0,59659:0:0:0:0:
320,192,59659,1,0,0:0:0:0:
64,192,59659,128,0,59821:0:0:0:0:
192,192,59821,128,0,60145:0:0:0:0:
448,192,59983,1,0,0:0:0:0:
320,192,59983,1,0,0:0:0:0:
448,192,60145,128,0,60307:0:0:0:0:
320,192,60307,1,0,0:0:0:0:
64,192,60307,1,0,0:0:0:0:
320,192,60469,128,0,60632:0:0:0:0:
448,192,60632,1,0,0:0:0:0:
192,192,60632,1,0,0:0:0:0:
192,192,60794,128,0,60956:0:0:0:0:
448,192,60956,1,0,0:0:0:0:
64,192,60956,1,0,0:0:0:0:
448,192,61118,128,0,61280:0:0:0:0:
320,192,61118,1,0,0:0:0:0:
64,192,61280,1,0,0:0:0:0:
192,192,61280,1,0,0:0:0:0:
320,192,61442,128,0,61767:0:0:0:0:
64,192,61605,1,0,0:0:0:0:
192,192,61605,128,0,61929:0:0:0:0:
64,192,61929,128,0,62091:0:0:0:0:
448,192,61929,1,0,0:0:0:0:
320,192,62091,128,0,62253:0:0:0:0:
192,192,62253,128,0,62415:0:0:0:0:
64,192,62253,1,0,0:0:0:0:
448,192,62415,128,0,62740:0:0:0:0:
320,192,62578,1,0,0:0:0:0:
64,192,62578,1,0,0:0:0:0:
192,192,62740,128,0,62902:0:0:0:0:
64,192,62902,1,0,0:0:0:0:
448,192,62902,1,0,0:0:0:0:
320,192,63064,1,0,0:0:0:0:
192,192,63226,1,0,0:0:0:0:
64,192,63226,1,0,0:0:0:0:
448,192,63388,1,0,0:0:0:0:
64,192,63551,1,0,0:0:0:0:
320,192,63551,1,0,0:0:0:0:
192,192,63713,128,0,63875:0:0:0:0:
64,192,63713,1,0,0:0:0:0:
320,192,63875,128,0,64037:0:0:0:0:
448,192,63875,1,0,0:0:0:0:
64,192,64037,128,0,64361:0:0:0:0:
448,192,64199,128,0,64523:0:0:0:0:
192,192,64199,1,0,0:0:0:0:
64,192,64523,128,0,64686:0:0:0:0:
320,192,64523,1,0,0:0:0:0:
320,192,64686,128,0,64848:0:0:0:0:
64,192,64848,1,0,0:0:0:0:
192,192,64848,128,0,65010:0:0:0:0:
448,192,65010,128,0,65334:0:0:0:0:
64,192,65172,1,0,0:0:0:0:
320,192,65172,1,0,0:0:0:0:
192,192,65334,128,0,65496:0:0:0:0:
448,192,65496,1,0,0:0:0:0:
64,192,65496,1,0,0:0:0:0:
192,192,65659,1,0,0:0:0:0:
448,192,65821,1,0,0:0:0:0:
320,192,65821,1,0,0:0:0:0:
64,192,65983,1,0,0:0:0:0:
192,192,66145,1,0,0:0:0:0:
448,192,66145,1,0,0:0:0:0:
192,192,66307,1,0,0:0:0:0:
320,192,66307,1,0,0:0:0:0:
64,192,66469,1,0,0:0:0:0:
320,192,66469,1,0,0:0:0:0:
192,192,66632,1,0,0:0:0:0:
64,192,66794,1,0,0:0:0:0:
448,192,66794,128,0,67118:0:0:0:0:
320,192,66794,1,0,0:0:0:0:
64,192,67118,128,0,67280:0:0:0:0:
192,192,67118,1,0,0:0:0:0:
320,192,67280,128,0,67442:0:0:0:0:
448,192,67442,128,0,67605:0:0:0:0:
192,192,67605,128,0,67929:0:0:0:0:
64,192,67767,1,0,0:0:0:0:
448,192,67767,1,0,0:0:0:0:
320,192,67929,128,0,68091:0:0:0:0:
448,192,68253,128,0,68415:0:0:0:0:
320,192,68415,1,0,0:0:0:0:
192,192,68415,1,0,0:0:0:0:
64,192,68578,128,0,68740:0:0:0:0:
192,192,68902,128,0,69064:0:0:0:0:
448,192,69064,1,0,0:0:0:0:
320,192,69064,1,0,0:0:0:0:
64,192,69226,128,0,69551:0:0:0:0:
320,192,69388,128,0,69713:0:0:0:0:
192,192,69551,1,0,0:0:0:0:
64,192,69713,1,0,0:0:0:0:
448,192,69713,128,0,69875:0:0:0:0:
192,192,69875,128,0,70037:0:0:0:0:
320,192,70037,128,0,70199:0:0:0:0:
64,192,70199,128,0,70523:0:0:0:0:
192,192,70361,1,0,0:0:0:0:
448,192,70361,1,0,0:0:0:0:
320,192,70523,128,0,70686:0:0:0:0:
192,192,70848,128,0,71010:0:0:0:0:
320,192,71010,1,0,0:0:0:0:
448,192,71010,1,0,0:0:0:0:
64,192,71172,128,0,71334:0:0:0:0:
448,192,71496,128,0,71659:0:0:0:0:
192,192,71659,1,0,0:0:0:0:
64,192,71659,1,0,0:0:0:0:
320,192,71821,128,0,72145:0:0:0:0:
64,192,71983,128,0,72307:0:0:0:0:
192,192,72145,1,0,0:0:0:0:
320,192,72307,1,0,0:0:0:0:
448,192,72307,128,0,72469:0:0:0:0:
192,192,72469,128,0,72632:0:0:0:0:
320,192,72632,128,0,72794:0:0:0:0:
64,192,72794,128,0,73118:0:0:0:0:
192,192,72956,1,0,0:0:0:0:
448,192,72956,1,0,0:0:0:0:
320,192,73118,128,0,73280:0:0:0:0:
192,192,73442,1,0,0:0:0:0:
64,192,73605,1,0,0:0:0:0:
448,192,73605,1,0,0:0:0:0:
320,192,73767,1,0,0:0:0:0:
192,192,73929,1,0,0:0:0:0:
64,192,74091,128,0,74253:0:0:0:0:
192,192,74253,128,0,74415:0:0:0:0:
448,192,74253,1,0,0:0:0:0:
320,192,74415,128,0,74578:0:0:0:0:
448,192,74578,128,0,74902:0:0:0:0:
192,192,74740,128,0,74902:0:0:0:0:
64,192,74902,128,0,75064:0:0:0:0:
320,192,74902,1,0,0:0:0:0:
320,192,75064,128,0,75226:0:0:0:0:
192,192,75226,128,0,75388:0:0:0:0:
448,192,75388,128,0,75713:0:0:0:0:
320,192,75551,1,0,0:0:0:0:
192,192,75551,1,0,0:0:0:0:
64,192,75713,128,0,75875:0:0:0:0:
192,192,75875,1,0,0:0:0:0:
320,192,76037,1,0,0:0:0:0:
448,192,76199,1,0,0:0:0:0:
64,192,76199,1,0,0:0:0:0:
192,192,76361,1,0,0:0:0:0:
448,192,76523,1,0,0:0:0:0:
192,192,76686,1,0,0:0:0:0:
320,192,76767,1,0,0:0:0:0:
192,192,76848,1,0,0:0:0:0:
64,192,76848,1,0,0:0:0:0:
192,192,77010,1,0,0:0:0:0:
64,192,77010,1,0,0:0:0:0:
320,192,77172,128,0,77496:0:0:0:0:
64,192,77496,128,0,77659:0:0:0:0:
320,192,77659,128,0,77821:0:0:0:0:
192,192,77821,128,0,77983:0:0:0:0:
448,192,77983,128,0,78307:0:0:0:0:
192,192,78307,128,0,78469:0:0:0:0:
320,192,79767,128,0,80091:0:0:0:0:
64,192,80091,128,0,80253:0:0:0:0:
320,192,80253,128,0,80415:0:0:0:0:
192,192,80415,128,0,80578:0:0:0:0:
448,192,80578,128,0,80902:0:0:0:0:
192,192,80902,128,0,81064:0:0:0:0:
64,192,82361,5,0,0:0:0:0:
192,192,82361,1,0,0:0:0:0:
64,192,82523,1,0,0:0:0:0:
320,192,82686,1,0,0:0:0:0:
448,192,82686,1,0,0:0:0:0:
448,192,82848,1,0,0:0:0:0:
64,192,83010,1,0,0:0:0:0:
192,192,83010,1,0,0:0:0:0:
64,192,83172,1,0,0:0:0:0:
320,192,83334,1,0,0:0:0:0:
448,192,83334,1,0,0:0:0:0:
448,192,83496,1,0,0:0:0:0:
64,192,83659,1,0,0:0:0:0:
192,192,83659,1,0,0:0:0:0:
64,192,83821,1,0,0:0:0:0:
320,192,83983,1,0,0:0:0:0:
448,192,83983,1,0,0:0:0:0:
448,192,84145,1,0,0:0:0:0:
64,192,84307,1,0,0:0:0:0:
192,192,84307,1,0,0:0:0:0:
64,192,84469,1,0,0:0:0:0:
320,192,84632,1,0,0:0:0:0:
448,192,84632,1,0,0:0:0:0:
448,192,84794,1,0,0:0:0:0:
64,192,84956,1,0,0:0:0:0:
192,192,84956,1,0,0:0:0:0:
64,192,85118,1,0,0:0:0:0:
320,192,85280,1,0,0:0:0:0:
448,192,85280,1,0,0:0:0:0:
448,192,85442,1,0,0:0:0:0:
192,192,85605,1,0,0:0:0:0:
64,192,85605,1,0,0:0:0:0:
64,192,85767,1,0,0:0:0:0:
320,192,85929,1,0,0:0:0:0:
448,192,85929,1,0,0:0:0:0:
448,192,86091,1,0,0:0:0:0:
192,192,86253,1,0,0:0:0:0:
64,192,86253,1,0,0:0:0:0:
64,192,86415,1,0,0:0:0:0:
320,192,86578,1,0,0:0:0:0:
448,192,86578,1,0,0:0:0:0:
448,192,86740,1,0,0:0:0:0:
64,192,86902,1,0,0:0:0:0:
192,192,86902,1,0,0:0:0:0:
64,192,87064,1,0,0:0:0:0:
448,192,87226,1,0,0:0:0:0:
320,192,87226,1,0,0:0:0:0:
448,192,87388,1,0,0:0:0:0:
64,192,87388,1,0,0:0:0:0:
64,192,87551,1,0,0:0:0:0:
192,192,87551,1,0,0:0:0:0:
192,192,87713,1,0,0:0:0:0:
320,192,87875,1,0,0:0:0:0:
448,192,87875,128,0,90145:0:0:0:0:
320,192,88037,1,0,0:0:0:0:
64,192,88199,1,0,0:0:0:0:
192,192,88199,1,0,0:0:0:0:
64,192,88361,1,0,0:0:0:0:
320,192,88523,1,0,0:0:0:0:
192,192,88523,1,0,0:0:0:0:
320,192,88686,1,0,0:0:0:0:
192,192,88848,1,0,0:0:0:0:
64,192,88848,1,0,0:0:0:0:
64,192,89010,1,0,0:0:0:0:
192,192,89172,1,0,0:0:0:0:
320,192,89172,1,0,0:0:0:0:
320,192,89334,1,0,0:0:0:0:
64,192,89496,1,0,0:0:0:0:
192,192,89496,1,0,0:0:0:0:
64,192,89659,1,0,0:0:0:0:
192,192,89821,1,0,0:0:0:0:
320,192,89821,1,0,0:0:0:0:
320,192,89983,1,0,0:0:0:0:
192,192,90145,128,0,90469:0:0:0:0:
64,192,90145,1,0,0:0:0:0:
448,192,90307,1,0,0:0:0:0:
64,192,90469,128,0,90794:0:0:0:0:
320,192,90469,1,0,0:0:0:0:
320,192,90632,1,0,0:0:0:0:
448,192,90794,128,0,91118:0:0:0:0:
192,192,90794,1,0,0:0:0:0:
192,192,90956,1,0,0:0:0:0:
320,192,91118,128,0,91442:0:0:0:0:
64,192,91118,1,0,0:0:0:0:
64,192,91280,1,0,0:0:0:0:
192,192,91442,128,0,91767:0:0:0:0:
448,192,91442,1,0,0:0:0:0:
448,192,91605,1,0,0:0:0:0:
64,192,91767,128,0,92091:0:0:0:0:
320,192,91767,1,0,0:0:0:0:
320,192,91929,1,0,0:0:0:0:
448,192,92091,128,0,92415:0:0:0:0:
192,192,92091,1,0,0:0:0:0:
192,192,92253,1,0,0:0:0:0:
320,192,92415,128,0,92740:0:0:0:0:
64,192,92415,1,0,0:0:0:0:
64,192,92578,1,0,0:0:0:0:
192,192,92740,1,0,0:0:0:0:
448,192,92740,1,0,0:0:0:0:
320,192,92902,1,0,0:0:0:0:
64,192,93064,1,0,0:0:0:0:
192,192,93064,1,0,0:0:0:0:
448,192,93145,1,0,0:0:0:0:
320,192,93226,1,0,0:0:0:0:
64,192,93388,1,0,0:0:0:0:
448,192,93388,1,0,0:0:0:0:
192,192,93551,1,0,0:0:0:0:
320,192,93713,1,0,0:0:0:0:
448,192,93713,1,0,0:0:0:0:
64,192,93794,1,0,0:0:0:0:
192,192,93875,1,0,0:0:0:0:
64,192,94037,1,0,0:0:0:0:
320,192,94037,1,0,0:0:0:0:
448,192,94199,1,0,0:0:0:0:
64,192,94361,1,0,0:0:0:0:
192,192,94361,1,0,0:0:0:0:
320,192,94442,1,0,0:0:0:0:
192,192,94523,1,0,0:0:0:0:
64,192,94686,1,0,0:0:0:0:
448,192,94686,1,0,0:0:0:0:
320,192,94767,1,0,0:0:0:0:
192,192,94848,1,0,0:0:0:0:
448,192,94929,1,0,0:0:0:0:
64,192,95010,1,0,0:0:0:0:
192,192,95010,1,0,0:0:0:0:
192,192,95334,1,0,0:0:0:0:
448,192,95334,1,0,0:0:0:0:
64,192,95496,1,0,0:0:0:0:
192,192,95659,1,0,0:0:0:0:
448,192,95659,1,0,0:0:0:0:
320,192,95740,1,0,0:0:0:0:
192,192,95821,1,0,0:0:0:0:
448,192,95983,1,0,0:0:0:0:
64,192,95983,1,0,0:0:0:0:
192,192,96064,1,0,0:0:0:0:
320,192,96145,1,0,0:0:0:0:
448,192,96307,1,0,0:0:0:0:
192,192,96307,1,0,0:0:0:0:
64,192,96632,1,0,0:0:0:0:
192,192,96632,1,0,0:0:0:0:
448,192,96713,1,0,0:0:0:0:
320,192,96794,1,0,0:0:0:0:
192,192,96956,1,0,0:0:0:0:
448,192,96956,1,0,0:0:0:0:
64,192,97037,1,0,0:0:0:0:
320,192,97118,1,0,0:0:0:0:
448,192,97280,1,0,0:0:0:0:
64,192,97280,1,0,0:0:0:0:
192,192,97442,1,0,0:0:0:0:
448,192,97523,1,0,0:0:0:0:
64,192,97605,1,0,0:0:0:0:
192,192,97605,1,0,0:0:0:0:
192,192,97929,1,0,0:0:0:0:
64,192,97929,1,0,0:0:0:0:
448,192,98091,1,0,0:0:0:0:
320,192,98253,1,0,0:0:0:0:
64,192,98253,1,0,0:0:0:0:
192,192,98334,1,0,0:0:0:0:
320,192,98415,1,0,0:0:0:0:
64,192,98578,1,0,0:0:0:0:
448,192,98578,1,0,0:0:0:0:
192,192,98740,1,0,0:0:0:0:
320,192,98821,1,0,0:0:0:0:
192,192,98902,1,0,0:0:0:0:
448,192,98902,1,0,0:0:0:0:
448,192,99226,1,0,0:0:0:0:
192,192,99226,1,0,0:0:0:0:
64,192,99307,1,0,0:0:0:0:
320,192,99388,1,0,0:0:0:0:
448,192,99551,1,0,0:0:0:0:
192,192,99551,1,0,0:0:0:0:
320,192,99632,1,0,0:0:0:0:
192,192,99713,1,0,0:0:0:0:
64,192,99875,1,0,0:0:0:0:
448,192,99875,1,0,0:0:0:0:
320,192,100037,1,0,0:0:0:0:
64,192,100118,1,0,0:0:0:0:
192,192,100199,1,0,0:0:0:0:
448,192,100199,1,0,0:0:0:0:
192,192,100523,1,0,0:0:0:0:
320,192,100523,1,0,0:0:0:0:
448,192,100686,1,0,0:0:0:0:
320,192,100767,1,0,0:0:0:0:
64,192,100848,1,0,0:0:0:0:
192,192,100848,1,0,0:0:0:0:
448,192,100929,1,0,0:0:0:0:
192,192,101010,1,0,0:0:0:0:
64,192,101172,1,0,0:0:0:0:
448,192,101172,1,0,0:0:0:0:
320,192,101334,1,0,0:0:0:0:
448,192,101415,1,0,0:0:0:0:
192,192,101496,1,0,0:0:0:0:
64,192,101496,1,0,0:0:0:0:
192,192,101821,1,0,0:0:0:0:
448,192,101821,1,0,0:0:0:0:
64,192,101983,1,0,0:0:0:0:
320,192,102145,1,0,0:0:0:0:
448,192,102145,1,0,0:0:0:0:
192,192,102307,1,0,0:0:0:0:
64,192,102469,1,0,0:0:0:0:
448,192,102469,1,0,0:0:0:0:
320,192,102551,1,0,0:0:0:0:
64,192,102632,1,0,0:0:0:0:
192,192,102713,1,0,0:0:0:0:
320,192,102794,1,0,0:0:0:0:
448,192,102794,1,0,0:0:0:0:
64,192,102956,1,0,0:0:0:0:
64,192,103118,1,0,0:0:0:0:
320,192,103118,1,0,0:0:0:0:
320,192,103280,1,0,0:0:0:0:
448,192,103442,1,0,0:0:0:0:
192,192,103442,1,0,0:0:0:0:
192,192,103605,1,0,0:0:0:0:
64,192,103767,1,0,0:0:0:0:
448,192,103767,1,0,0:0:0:0:
448,192,103929,1,0,0:0:0:0:
64,192,104091,1,0,0:0:0:0:
320,192,104091,1,0,0:0:0:0:
64,192,104253,1,0,0:0:0:0:
192,192,104415,1,0,0:0:0:0:
448,192,104415,1,0,0:0:0:0:
448,192,104578,1,0,0:0:0:0:
64,192,104740,1,0,0:0:0:0:
320,192,104740,1,0,0:0:0:0:
320,192,104902,1,0,0:0:0:0:
64,192,105064,1,0,0:0:0:0:
448,192,105064,1,0,0:0:0:0:
64,192,105226,1,0,0:0:0:0:
320,192,105388,1,0,0:0:0:0:
448,192,105388,1,0,0:0:0:0:
320,192,105551,1,0,0:0:0:0:
64,192,105713,1,0,0:0:0:0:
192,192,105713,1,0,0:0:0:0:
192,192,105875,1,0,0:0:0:0:
320,192,106037,1,0,0:0:0:0:
448,192,106037,1,0,0:0:0:0:
320,192,106199,1,0,0:0:0:0:
64,192,106361,1,0,0:0:0:0:
448,192,106361,1,0,0:0:0:0:
64,192,106523,1,0,0:0:0:0:
192,192,106686,1,0,0:0:0:0:
448,192,106686,1,0,0:0:0:0:
192,192,106848,1,0,0:0:0:0:
320,192,107010,1,0,0:0:0:0:
64,192,107010,1,0,0:0:0:0:
320,192,107172,1,0,0:0:0:0:
192,192,107334,1,0,0:0:0:0:
448,192,107334,1,0,0:0:0:0:
192,192,107496,1,0,0:0:0:0:
64,192,107659,1,0,0:0:0:0:
448,192,107659,1,0,0:0:0:0:
320,192,107740,1,0,0:0:0:0:
192,192,107821,128,0,107983:0:0:0:0:
448,192,107983,1,0,0:0:0:0:
320,192,107983,128,0,108145:0:0:0:0:
192,192,108145,1,0,0:0:0:0:
64,192,108307,1,0,0:0:0:0:
448,192,108307,128,0,109605:0:0:0:0:
64,192,108469,1,0,0:0:0:0:
192,192,108632,1,0,0:0:0:0:
320,192,108632,1,0,0:0:0:0:
320,192,108794,1,0,0:0:0:0:
64,192,108956,1,0,0:0:0:0:
192,192,108956,1,0,0:0:0:0:
64,192,109118,1,0,0:0:0:0:
192,192,109280,1,0,0:0:0:0:
320,192,109280,1,0,0:0:0:0:
320,192,109442,1,0,0:0:0:0:
64,192,109605,1,0,0:0:0:0:
192,192,109605,1,0,0:0:0:0:
192,192,109767,1,0,0:0:0:0:
320,192,109929,1,0,0:0:0:0:
448,192,109929,1,0,0:0:0:0:
320,192,110091,1,0,0:0:0:0:
64,192,110253,1,0,0:0:0:0:
448,192,110253,1,0,0:0:0:0:
64,192,110415,1,0,0:0:0:0:
192,192,110578,1,0,0:0:0:0:
448,192,110578,1,0,0:0:0:0:
192,192,110740,1,0,0:0:0:0:
320,192,110902,1,0,0:0:0:0:
64,192,110902,1,0,0:0:0:0:
320,192,111064,1,0,0:0:0:0:
192,192,111226,1,0,0:0:0:0:
448,192,111226,1,0,0:0:0:0:
192,192,111388,1,0,0:0:0:0:
448,192,111551,1,0,0:0:0:0:
64,192,111551,1,0,0:0:0:0:
448,192,111713,1,0,0:0:0:0:
320,192,111875,1,0,0:0:0:0:
64,192,111875,1,0,0:0:0:0:
64,192,112037,1,0,0:0:0:0:
448,192,112199,1,0,0:0:0:0:
192,192,112199,1,0,0:0:0:0:
448,192,112361,1,0,0:0:0:0:
320,192,112523,1,0,0:0:0:0:
64,192,112523,1,0,0:0:0:0:
64,192,112686,1,0,0:0:0:0:
192,192,112848,1,0,0:0:0:0:
448,192,112848,128,0,113010:0:0:0:0:
320,192,113010,128,0,113172:0:0:0:0:
192,192,113172,128,0,113334:0:0:0:0:
64,192,113334,128,0,113496:0:0:0:0:
192,192,113496,1,0,0:0:0:0:
448,192,113496,128,0,113659:0:0:0:0:
320,192,113659,1,0,0:0:0:0:
64,192,113659,128,0,113983:0:0:0:0:
192,192,113983,1,0,0:0:0:0:
448,192,113983,128,0,114307:0:0:0:0:
320,192,114307,1,0,0:0:0:0:
192,192,114307,128,0,114632:0:0:0:0:
64,192,114632,128,0,115442:0:0:0:0:
448,192,114632,1,0,0:0:0:0:
192,192,114794,1,0,0:0:0:0:
448,192,114956,1,0,0:0:0:0:
320,192,115118,1,0,0:0:0:0:
192,192,115280,1,0,0:0:0:0:
448,192,115442,1,0,0:0:0:0:
192,192,115605,128,0,115767:0:0:0:0:
320,192,115767,128,0,115929:0:0:0:0:
64,192,115929,128,0,116091:0:0:0:0:
320,192,116091,128,0,116253:0:0:0:0:
192,192,116091,1,0,0:0:0:0:
448,192,116253,128,0,116578:0:0:0:0:
64,192,116253,1,0,0:0:0:0:
64,192,116578,128,0,116902:0:0:0:0:
192,192,116578,1,0,0:0:0:0:
320,192,116902,128,0,117226:0:0:0:0:
448,192,116902,1,0,0:0:0:0:
448,192,117226,128,0,118037:0:0:0:0:
64,192,117226,1,0,0:0:0:0:
320,192,117388,1,0,0:0:0:0:
64,192,117551,1,0,0:0:0:0:
192,192,117713,1,0,0:0:0:0:
320,192,117875,1,0,0:0:0:0:
64,192,118037,1,0,0:0:0:0:
320,192,118199,128,0,118361:0:0:0:0:
64,192,118361,128,0,118523:0:0:0:0:
448,192,118361,1,0,0:0:0:0:
192,192,118523,128,0,118686:0:0:0:0:
320,192,118523,1,0,0:0:0:0:
448,192,118686,128,0,118848:0:0:0:0:
64,192,118686,1,0,0:0:0:0:
320,192,118848,128,0,119172:0:0:0:0:
192,192,118848,1,0,0:0:0:0:
192,192,119172,128,0,119496:0:0:0:0:
64,192,119172,1,0,0:0:0:0:
448,192,119496,128,0,119821:0:0:0:0:
320,192,119496,1,0,0:0:0:0:
64,192,119821,128,0,120632:0:0:0:0:
320,192,119821,1,0,0:0:0:0:
192,192,119983,1,0,0:0:0:0:
448,192,120145,1,0,0:0:0:0:
320,192,120307,1,0,0:0:0:0:
192,192,120469,1,0,0:0:0:0:
448,192,120632,1,0,0:0:0:0:
192,192,120794,128,0,120956:0:0:0:0:
448,192,120956,1,0,0:0:0:0:
320,192,120956,128,0,121118:0:0:0:0:
192,192,121118,1,0,0:0:0:0:
64,192,121118,128,0,121280:0:0:0:0:
448,192,121280,128,0,121442:0:0:0:0:
320,192,121280,1,0,0:0:0:0:
192,192,121442,128,0,121767:0:0:0:0:
64,192,121442,1,0,0:0:0:0:
320,192,121767,1,0,0:0:0:0:
448,192,121767,128,0,122091:0:0:0:0:
192,192,122091,128,0,122415:0:0:0:0:
320,192,122091,1,0,0:0:0:0:
448,192,122415,128,0,123226:0:0:0:0:
64,192,122415,1,0,0:0:0:0:
320,192,122578,1,0,0:0:0:0:
64,192,122740,1,0,0:0:0:0:
192,192,122902,1,0,0:0:0:0:
320,192,123064,1,0,0:0:0:0:
64,192,123226,1,0,0:0:0:0:
320,192,123388,128,0,123551:0:0:0:0:
192,192,123551,1,0,0:0:0:0:
448,192,123551,1,0,0:0:0:0:
320,192,123713,1,0,0:0:0:0:
448,192,123713,1,0,0:0:0:0:
192,192,123875,1,0,0:0:0:0:
64,192,123875,128,0,124199:0:0:0:0:
192,192,124037,128,0,124199:0:0:0:0:
320,192,124199,1,0,0:0:0:0:
448,192,124199,1,0,0:0:0:0:
448,192,124361,128,0,124686:0:0:0:0:
64,192,124523,1,0,0:0:0:0:
192,192,124523,1,0,0:0:0:0:
192,192,124686,128,0,124848:0:0:0:0:
320,192,124848,1,0,0:0:0:0:
448,192,124848,1,0,0:0:0:0:
64,192,125010,128,0,125496:0:0:0:0:
448,192,125172,1,0,0:0:0:0:
320,192,125172,1,0,0:0:0:0:
192,192,125334,1,0,0:0:0:0:
448,192,125496,1,0,0:0:0:0:
320,192,125496,1,0,0:0:0:0:
192,192,125659,1,0,0:0:0:0:
64,192,125821,1,0,0:0:0:0:
448,192,125821,1,0,0:0:0:0:
320,192,125983,128,0,126145:0:0:0:0:
64,192,126145,128,0,126307:0:0:0:0:
192,192,126145,1,0,0:0:0:0:
192,192,126307,128,0,126469:0:0:0:0:
448,192,126469,128,0,126794:0:0:0:0:
320,192,126469,1,0,0:0:0:0:
320,192,126632,128,0,126794:0:0:0:0:
192,192,126794,1,0,0:0:0:0:
64,192,126794,1,0,0:0:0:0:
320,192,126956,128,0,127280:0:0:0:0:
448,192,127118,1,0,0:0:0:0:
192,192,127118,1,0,0:0:0:0:
192,192,127280,128,0,127605:0:0:0:0:
448,192,127442,1,0,0:0:0:0:
64,192,127442,1,0,0:0:0:0:
448,192,127605,128,0,128091:0:0:0:0:
64,192,127767,1,0,0:0:0:0:
320,192,127767,1,0,0:0:0:0:
192,192,127929,1,0,0:0:0:0:
320,192,128091,1,0,0:0:0:0:
64,192,128091,1,0,0:0:0:0:
448,192,128253,1,0,0:0:0:0:
64,192,128415,1,0,0:0:0:0:
192,192,128415,1,0,0:0:0:0:
320,192,128578,128,0,128740:0:0:0:0:
192,192,128740,128,0,128902:0:0:0:0:
448,192,128740,1,0,0:0:0:0:
448,192,128902,128,0,129064:0:0:0:0:
64,192,129064,128,0,129388:0:0:0:0:
192,192,129064,1,0,0:0:0:0:
192,192,129226,128,0,129388:0:0:0:0:
320,192,129388,1,0,0:0:0:0:
448,192,129388,1,0,0:0:0:0:
192,192,129551,128,0,129875:0:0:0:0:
320,192,129713,1,0,0:0:0:0:
64,192,129713,1,0,0:0:0:0:
320,192,129875,128,0,130199:0:0:0:0:
448,192,130037,1,0,0:0:0:0:
64,192,130037,1,0,0:0:0:0:
64,192,130199,128,0,130686:0:0:0:0:
320,192,130361,1,0,0:0:0:0:
448,192,130361,1,0,0:0:0:0:
192,192,130523,1,0,0:0:0:0:
320,192,130686,1,0,0:0:0:0:
448,192,130686,1,0,0:0:0:0:
192,192,130848,1,0,0:0:0:0:
448,192,131010,1,0,0:0:0:0:
64,192,131010,1,0,0:0:0:0:
320,192,131172,128,0,131334:0:0:0:0:
64,192,131334,128,0,131496:0:0:0:0:
192,192,131334,1,0,0:0:0:0:
192,192,131496,128,0,131659:0:0:0:0:
320,192,131659,1,0,0:0:0:0:
448,192,131659,128,0,131902:0:0:0:0:
64,192,132307,128,0,132632:0:0:0:0:
320,192,132307,1,0,0:0:0:0:
320,192,132956,1,0,0:0:0:0:
448,192,132956,128,0,133118:0:0:0:0:
64,192,133118,1,0,0:0:0:0:
320,192,133118,128,0,133280:0:0:0:0:
64,192,133280,128,0,133442:0:0:0:0:
192,192,133280,1,0,0:0:0:0:
192,192,133442,128,0,133605:0:0:0:0:
448,192,133442,1,0,0:0:0:0:
448,192,133605,1,0,0:0:0:0:
64,192,133605,1,0,0:0:0:0:
320,192,133686,1,0,0:0:0:0:
64,192,133767,1,0,0:0:0:0:
192,192,133848,1,0,0:0:0:0:
320,192,133929,128,0,134091:0:0:0:0:
448,192,133929,1,0,0:0:0:0:
192,192,134091,128,0,134253:0:0:0:0:
64,192,134091,1,0,0:0:0:0:
320,192,134253,1,0,0:0:0:0:
448,192,134253,128,0,134415:0:0:0:0:
64,192,134334,1,0,0:0:0:0:
192,192,134415,1,0,0:0:0:0:
320,192,134578,1,0,0:0:0:0:
448,192,134578,128,0,134740:0:0:0:0:
64,192,134659,1,0,0:0:0:0:
192,192,134740,1,0,0:0:0:0:
320,192,134902,1,0,0:0:0:0:
448,192,134902,128,0,135064:0:0:0:0:
64,192,134983,1,0,0:0:0:0:
192,192,135064,1,0,0:0:0:0:
320,192,135226,1,0,0:0:0:0:
448,192,135226,128,0,135388:0:0:0:0:
64,192,135307,1,0,0:0:0:0:
192,192,135388,1,0,0:0:0:0:
64,192,135551,1,0,0:0:0:0:
320,192,135551,128,0,135713:0:0:0:0:
192,192,135632,1,0,0:0:0:0:
448,192,135713,1,0,0:0:0:0:
64,192,135875,1,0,0:0:0:0:
320,192,135875,128,0,136037:0:0:0:0:
192,192,135956,1,0,0:0:0:0:
448,192,136037,1,0,0:0:0:0:
64,192,136199,1,0,0:0:0:0:
320,192,136199,128,0,136361:0:0:0:0:
192,192,136280,1,0,0:0:0:0:
448,192,136361,1,0,0:0:0:0:
64,192,136523,1,0,0:0:0:0:
320,192,136523,128,0,136686:0:0:0:0:
192,192,136605,1,0,0:0:0:0:
448,192,136686,1,0,0:0:0:0:
192,192,136848,128,0,137010:0:0:0:0:
448,192,136848,1,0,0:0:0:0:
320,192,136929,1,0,0:0:0:0:
64,192,137010,1,0,0:0:0:0:
448,192,137172,1,0,0:0:0:0:
192,192,137172,128,0,137334:0:0:0:0:
320,192,137253,1,0,0:0:0:0:
64,192,137334,1,0,0:0:0:0:
448,192,137496,1,0,0:0:0:0:
192,192,137496,128,0,137659:0:0:0:0:
320,192,137578,1,0,0:0:0:0:
64,192,137659,1,0,0:0:0:0:
448,192,137821,1,0,0:0:0:0:
192,192,137821,128,0,137983:0:0:0:0:
320,192,137902,1,0,0:0:0:0:
64,192,137983,1,0,0:0:0:0:
64,192,138145,128,0,138307:0:0:0:0:
192,192,138145,1,0,0:0:0:0:
448,192,138226,1,0,0:0:0:0:
320,192,138307,1,0,0:0:0:0:
64,192,138469,128,0,138632:0:0:0:0:
192,192,138469,1,0,0:0:0:0:
448,192,138551,1,0,0:0:0:0:
320,192,138632,1,0,0:0:0:0:
64,192,138794,128,0,138956:0:0:0:0:
192,192,138794,1,0,0:0:0:0:
448,192,138875,1,0,0:0:0:0:
320,192,138956,1,0,0:0:0:0:
64,192,139118,1,0,0:0:0:0:
448,192,139118,1,0,0:0:0:0:
192,192,139199,1,0,0:0:0:0:
448,192,139280,1,0,0:0:0:0:
320,192,139361,1,0,0:0:0:0:
192,192,139442,1,0,0:0:0:0:
64,192,139442,128,0,139605:0:0:0:0:
320,192,139523,1,0,0:0:0:0:
448,192,139605,1,0,0:0:0:0:
320,192,139767,1,0,0:0:0:0:
448,192,139767,128,0,139929:0:0:0:0:
192,192,139848,1,0,0:0:0:0:
64,192,139929,1,0,0:0:0:0:
64,192,140091,128,0,140253:0:0:0:0:
192,192,140091,1,0,0:0:0:0:
320,192,140172,1,0,0:0:0:0:
448,192,140253,1,0,0:0:0:0:
320,192,140415,1,0,0:0:0:0:
448,192,140415,128,0,140578:0:0:0:0:
192,192,140496,1,0,0:0:0:0:
64,192,140578,1,0,0:0:0:0:
64,192,140740,128,0,140902:0:0:0:0:
192,192,140740,1,0,0:0:0:0:
320,192,140821,1,0,0:0:0:0:
448,192,140902,1,0,0:0:0:0:
448,192,141064,128,0,141226:0:0:0:0:
320,192,141064,1,0,0:0:0:0:
192,192,141145,1,0,0:0:0:0:
64,192,141226,1,0,0:0:0:0:
64,192,141388,128,0,141551:0:0:0:0:
192,192,141388,1,0,0:0:0:0:
320,192,141469,1,0,0:0:0:0:
448,192,141551,1,0,0:0:0:0:
448,192,141713,128,0,141875:0:0:0:0:
320,192,141713,1,0,0:0:0:0:
192,192,141794,1,0,0:0:0:0:
64,192,141875,1,0,0:0:0:0:
192,192,142037,128,0,142199:0:0:0:0:
448,192,142037,1,0,0:0:0:0:
320,192,142118,1,0,0:0:0:0:
64,192,142199,1,0,0:0:0:0:
64,192,142361,1,0,0:0:0:0:
320,192,142361,128,0,142523:0:0:0:0:
192,192,142442,1,0,0:0:0:0:
448,192,142523,1,0,0:0:0:0:
192,192,142686,128,0,142848:0:0:0:0:
448,192,142686,1,0,0:0:0:0:
320,192,142767,1,0,0:0:0:0:
64,192,142848,1,0,0:0:0:0:
64,192,143010,1,0,0:0:0:0:
320,192,143010,128,0,143172:0:0:0:0:
192,192,143091,1,0,0:0:0:0:
448,192,143172,1,0,0:0:0:0:
448,192,143334,1,0,0:0:0:0:
192,192,143334,128,0,143496:0:0:0:0:
320,192,143415,1,0,0:0:0:0:
64,192,143496,1,0,0:0:0:0:
320,192,143659,128,0,143821:0:0:0:0:
64,192,143659,1,0,0:0:0:0:
192,192,143740,1,0,0:0:0:0:
448,192,143821,1,0,0:0:0:0:
192,192,143983,128,0,144145:0:0:0:0:
448,192,143983,1,0,0:0:0:0:
320,192,144064,1,0,0:0:0:0:
64,192,144145,1,0,0:0:0:0:
192,192,144307,1,0,0:0:0:0:
448,192,144307,1,0,0:0:0:0:
320,192,144388,1,0,0:0:0:0:
64,192,144469,1,0,0:0:0:0:
192,192,144551,1,0,0:0:0:0:
320,192,144632,1,0,0:0:0:0:
448,192,144632,1,0,0:0:0:0:
64,192,144794,1,0,0:0:0:0:
192,192,144956,1,0,0:0:0:0:
320,192,145118,1,0,0:0:0:0:
448,192,145280,1,0,0:0:0:0:
64,192,145280,1,0,0:0:0:0:
320,192,145442,1,0,0:0:0:0:
192,192,145523,1,0,0:0:0:0:
64,192,145605,1,0,0:0:0:0:
320,192,145767,1,0,0:0:0:0:
64,192,145929,1,0,0:0:0:0:
448,192,145929,1,0,0:0:0:0:
192,192,146091,1,0,0:0:0:0:
320,192,146253,1,0,0:0:0:0:
64,192,146415,1,0,0:0:0:0:
448,192,146578,1,0,0:0:0:0:
320,192,146740,1,0,0:0:0:0:
192,192,146902,1,0,0:0:0:0:
64,192,147064,1,0,0:0:0:0:
448,192,147226,1,0,0:0:0:0:
320,192,147226,1,0,0:0:0:0:
64,192,147388,1,0,0:0:0:0:
192,192,147551,1,0,0:0:0:0:
320,192,147713,1,0,0:0:0:0:
64,192,147875,1,0,0:0:0:0:
448,192,147875,1,0,0:0:0:0:
320,192,148037,1,0,0:0:0:0:
64,192,148118,1,0,0:0:0:0:
192,192,148199,1,0,0:0:0:0:
320,192,148361,1,0,0:0:0:0:
192,192,148523,1,0,0:0:0:0:
64,192,148523,1,0,0:0:0:0:
448,192,148686,1,0,0:0:0:0:
320,192,148848,1,0,0:0:0:0:
64,192,148848,1,0,0:0:0:0:
192,192,149010,1,0,0:0:0:0:
320,192,149172,1,0,0:0:0:0:
448,192,149172,1,0,0:0:0:0:
192,192,149496,128,0,149821:0:0:0:0:
64,192,149496,128,0,149821:0:0:0:0:
320,192,149821,1,0,0:0:0:0:
448,192,149821,1,0,0:0:0:0:
64,192,149983,1,0,0:0:0:0:
192,192,150145,1,0,0:0:0:0:
320,192,150307,1,0,0:0:0:0:
448,192,150469,1,0,0:0:0:0:
64,192,150469,1,0,0:0:0:0:
320,192,150632,1,0,0:0:0:0:
192,192,150713,1,0,0:0:0:0:
64,192,150794,1,0,0:0:0:0:
320,192,150956,1,0,0:0:0:0:
64,192,151118,1,0,0:0:0:0:
448,192,151118,1,0,0:0:0:0:
192,192,151280,1,0,0:0:0:0:
320,192,151442,1,0,0:0:0:0:
448,192,151605,1,0,0:0:0:0:
320,192,151767,1,0,0:0:0:0:
64,192,151767,1,0,0:0:0:0:
192,192,151929,1,0,0:0:0:0:
64,192,152091,1,0,0:0:0:0:
448,192,152091,1,0,0:0:0:0:
320,192,152253,1,0,0:0:0:0:
192,192,152415,1,0,0:0:0:0:
64,192,152415,1,0,0:0:0:0:
320,192,152578,1,0,0:0:0:0:
448,192,152740,1,0,0:0:0:0:
192,192,152902,1,0,0:0:0:0:
320,192,153064,1,0,0:0:0:0:
448,192,153226,1,0,0:0:0:0:
64,192,153388,1,0,0:0:0:0:
320,192,153551,1,0,0:0:0:0:
192,192,153713,1,0,0:0:0:0:
448,192,153713,1,0,0:0:0:0:
320,192,153875,1,0,0:0:0:0:
64,192,154037,1,0,0:0:0:0:
192,192,154199,1,0,0:0:0:0:
448,192,154361,1,0,0:0:0:0:
320,192,154523,1,0,0:0:0:0:
192,192,154686,1,0,0:0:0:0:
64,192,154848,1,0,0:0:0:0:
448,192,155010,1,0,0:0:0:0:
320,192,155010,1,0,0:0:0:0:
192,192,155172,1,0,0:0:0:0:
64,192,155334,1,0,0:0:0:0:
320,192,155334,1,0,0:0:0:0:
192,192,155659,1,0,0:0:0:0:
448,192,155659,1,0,0:0:0:0:
320,192,155821,1,0,0:0:0:0:
64,192,155983,1,0,0:0:0:0:
192,192,155983,1,0,0:0:0:0:
192,192,156307,1,0,0:0:0:0:
448,192,156348,1,0,0:0:0:0:
192,192,157118,1,0,0:0:0:0:
320,192,157280,1,0,0:0:0:0:
192,192,157442,1,0,0:0:0:0:
64,192,157605,1,0,0:0:0:0:
64,192,158415,128,0,158902:0:0:0:0:
192,192,158902,128,0,159226:0:0:0:0:
320,192,158902,128,0,159226:0:0:0:0:
448,192,158902,128,0,159226:0:0:0:0:
192,192,161496,128,0,161820:0:0:0:0:
320,192,161496,128,0,161820:0:0:0:0:
448,192,161496,128,0,161820:0:0:0:0:
320,192,164091,128,0,164415:0:0:0:0:
448,192,164091,128,0,164415:0:0:0:0:
192,192,164091,128,0,164415:0:0:0:0:
64,192,166361,128,0,166685:0:0:0:0:
192,192,166685,128,0,167010:0:0:0:0:
448,192,166685,128,0,167010:0:0:0:0:
320,192,166685,128,0,167010:0:0:0:0:
320,192,167983,128,0,168307:0:0:0:0:
448,192,167983,128,0,168307:0:0:0:0:
192,192,167983,128,0,168307:0:0:0:0:
448,192,168631,1,0,0:0:0:0:
320,192,168631,1,0,0:0:0:0:
192,192,168874,1,0,0:0:0:0:
64,192,168874,1,0,0:0:0:0:
320,192,168956,1,0,0:0:0:0:
448,192,168956,1,0,0:0:0:0:
64,192,169118,1,0,0:0:0:0:
192,192,169118,1,0,0:0:0:0:
64,192,169280,1,0,0:0:0:0:
448,192,169280,128,0,169442:0:0:0:0:
320,192,169442,128,0,169604:0:0:0:0:
64,192,169604,1,0,0:0:0:0:
192,192,169685,1,0,0:0:0:0:
320,192,169766,1,0,0:0:0:0:
448,192,169847,1,0,0:0:0:0:
64,192,169929,128,0,170091:0:0:0:0:
192,192,170091,128,0,170253:0:0:0:0:
448,192,170253,1,0,0:0:0:0:
320,192,170334,1,0,0:0:0:0:
192,192,170415,1,0,0:0:0:0:
64,192,170496,1,0,0:0:0:0:
320,192,170577,128,0,170739:0:0:0:0:
192,192,170739,128,0,170902:0:0:0:0:
64,192,170902,1,0,0:0:0:0:
192,192,170983,1,0,0:0:0:0:
320,192,171064,1,0,0:0:0:0:
448,192,171145,1,0,0:0:0:0:
192,192,171226,128,0,171388:0:0:0:0:
320,192,171388,128,0,171550:0:0:0:0:
448,192,171550,1,0,0:0:0:0:
320,192,171631,1,0,0:0:0:0:
192,192,171712,1,0,0:0:0:0:
64,192,171793,1,0,0:0:0:0:
320,192,171874,1,0,0:0:0:0:
448,192,171874,128,0,172037:0:0:0:0:
192,192,172037,128,0,172199:0:0:0:0:
64,192,172199,1,0,0:0:0:0:
320,192,172280,1,0,0:0:0:0:
192,192,172361,1,0,0:0:0:0:
448,192,172442,1,0,0:0:0:0:
64,192,172523,128,0,172685:0:0:0:0:
320,192,172685,128,0,172847:0:0:0:0:
448,192,172847,1,0,0:0:0:0:
192,192,172929,1,0,0:0:0:0:
320,192,173010,1,0,0:0:0:0:
64,192,173091,1,0,0:0:0:0:
192,192,173172,128,0,173334:0:0:0:0:
448,192,173334,128,0,173496:0:0:0:0:
320,192,173496,1,0,0:0:0:0:
192,192,173577,1,0,0:0:0:0:
448,192,173658,1,0,0:0:0:0:
64,192,173739,1,0,0:0:0:0:
320,192,173820,128,0,173983:0:0:0:0:
64,192,173983,128,0,174145:0:0:0:0:
192,192,174145,1,0,0:0:0:0:
320,192,174226,1,0,0:0:0:0:
64,192,174307,1,0,0:0:0:0:
448,192,174388,1,0,0:0:0:0:
64,192,174469,1,0,0:0:0:0:
320,192,174469,128,0,174631:0:0:0:0:
192,192,174631,128,0,174793:0:0:0:0:
64,192,174793,1,0,0:0:0:0:
320,192,174874,1,0,0:0:0:0:
64,192,174956,1,0,0:0:0:0:
448,192,175037,1,0,0:0:0:0:
192,192,175118,128,0,175280:0:0:0:0:
320,192,175280,128,0,175442:0:0:0:0:
448,192,175442,1,0,0:0:0:0:
192,192,175523,1,0,0:0:0:0:
448,192,175604,1,0,0:0:0:0:
64,192,175685,1,0,0:0:0:0:
192,192,175766,1,0,0:0:0:0:
320,192,175766,128,0,175929:0:0:0:0:
64,192,175929,128,0,176091:0:0:0:0:
320,192,176091,1,0,0:0:0:0:
192,192,176172,1,0,0:0:0:0:
320,192,176253,1,0,0:0:0:0:
448,192,176334,1,0,0:0:0:0:
192,192,176415,128,0,176577:0:0:0:0:
448,192,176577,128,0,176739:0:0:0:0:
192,192,176739,1,0,0:0:0:0:
320,192,176820,1,0,0:0:0:0:
192,192,176901,1,0,0:0:0:0:
64,192,176983,1,0,0:0:0:0:
448,192,177064,1,0,0:0:0:0:
320,192,177064,1,0,0:0:0:0:
192,192,177145,1,0,0:0:0:0:
448,192,177226,1,0,0:0:0:0:
64,192,177307,1,0,0:0:0:0:
192,192,177388,1,0,0:0:0:0:
320,192,177469,1,0,0:0:0:0:
64,192,177550,1,0,0:0:0:0:
320,192,177631,1,0,0:0:0:0:
64,192,177712,1,0,0:0:0:0:
448,192,177712,1,0,0:0:0:0:
192,192,177793,1,0,0:0:0:0:
320,192,177874,1,0,0:0:0:0:
192,192,177956,1,0,0:0:0:0:
64,192,178037,1,0,0:0:0:0:
448,192,178118,1,0,0:0:0:0:
64,192,178199,1,0,0:0:0:0:
320,192,178280,1,0,0:0:0:0:
448,192,178361,1,0,0:0:0:0:
192,192,178361,1,0,0:0:0:0:
448,192,178685,1,0,0:0:0:0:
192,192,178685,1,0,0:0:0:0:
448,192,179010,1,0,0:0:0:0:
192,192,179010,1,0,0:0:0:0:
64,192,179334,1,0,0:0:0:0:
448,192,179334,1,0,0:0:0:0:
192,192,179415,1,0,0:0:0:0:
448,192,179496,1,0,0:0:0:0:
320,192,179577,1,0,0:0:0:0:
192,192,179658,1,0,0:0:0:0:
64,192,179658,128,0,179983:0:0:0:0:
320,192,179820,1,0,0:0:0:0:
320,192,179983,1,0,0:0:0:0:
448,192,179983,128,0,180307:0:0:0:0:
192,192,180145,1,0,0:0:0:0:
64,192,180307,1,0,0:0:0:0:
192,192,180307,1,0,0:0:0:0:
64,192,180469,1,0,0:0:0:0:
448,192,180469,1,0,0:0:0:0:
192,192,180631,1,0,0:0:0:0:
320,192,180631,1,0,0:0:0:0:
64,192,180793,1,0,0:0:0:0:
192,192,180793,128,0,181118:0:0:0:0:
320,192,180956,1,0,0:0:0:0:
448,192,180956,1,0,0:0:0:0:
320,192,181118,1,0,0:0:0:0:
64,192,181118,1,0,0:0:0:0:
192,192,181280,1,0,0:0:0:0:
448,192,181280,1,0,0:0:0:0:
64,192,181442,1,0,0:0:0:0:
320,192,181442,1,0,0:0:0:0:
448,192,181604,1,0,0:0:0:0:
320,192,181604,128,0,181929:0:0:0:0:
64,192,181766,1,0,0:0:0:0:
64,192,181929,1,0,0:0:0:0:
192,192,181929,1,0,0:0:0:0:
192,192,182091,1,0,0:0:0:0:
448,192,182091,1,0,0:0:0:0:
320,192,182253,1,0,0:0:0:0:
448,192,182253,1,0,0:0:0:0:
64,192,182415,1,0,0:0:0:0:
192,192,182415,1,0,0:0:0:0:
320,192,182577,1,0,0:0:0:0:
64,192,182577,1,0,0:0:0:0:
320,192,182739,1,0,0:0:0:0:
448,192,182739,1,0,0:0:0:0:
64,192,182901,1,0,0:0:0:0:
192,192,182901,1,0,0:0:0:0:
448,192,183064,1,0,0:0:0:0:
64,192,183064,1,0,0:0:0:0:
192,192,183226,1,0,0:0:0:0:
320,192,183226,1,0,0:0:0:0:
448,192,183388,128,0,183712:0:0:0:0:
320,192,183388,1,0,0:0:0:0:
64,192,183550,1,0,0:0:0:0:
192,192,183550,1,0,0:0:0:0:
64,192,183712,1,0,0:0:0:0:
320,192,183712,1,0,0:0:0:0:
320,192,183874,128,0,184199:0:0:0:0:
448,192,183874,1,0,0:0:0:0:
192,192,184037,1,0,0:0:0:0:
64,192,184199,128,0,184523:0:0:0:0:
192,192,184199,1,0,0:0:0:0:
320,192,184361,1,0,0:0:0:0:
448,192,184523,1,0,0:0:0:0:
320,192,184604,1,0,0:0:0:0:
64,192,184685,1,0,0:0:0:0:
192,192,184766,1,0,0:0:0:0:
448,192,184847,1,0,0:0:0:0:
320,192,184847,128,0,185172:0:0:0:0:
192,192,185010,1,0,0:0:0:0:
448,192,185172,1,0,0:0:0:0:
64,192,185172,128,0,185496:0:0:0:0:
192,192,185334,1,0,0:0:0:0:
320,192,185496,1,0,0:0:0:0:
448,192,185496,128,0,185820:0:0:0:0:
64,192,185658,1,0,0:0:0:0:
64,192,185820,1,0,0:0:0:0:
192,192,185820,1,0,0:0:0:0:
320,192,185983,128,0,186307:0:0:0:0:
448,192,185983,1,0,0:0:0:0:
64,192,186145,1,0,0:0:0:0:
192,192,186145,1,0,0:0:0:0:
192,192,186307,1,0,0:0:0:0:
448,192,186307,1,0,0:0:0:0:
64,192,186469,128,0,186793:0:0:0:0:
320,192,186469,1,0,0:0:0:0:
192,192,186631,1,0,0:0:0:0:
448,192,186793,1,0,0:0:0:0:
320,192,186793,128,0,186956:0:0:0:0:
64,192,186956,1,0,0:0:0:0:
192,192,187118,1,0,0:0:0:0:
448,192,187118,1,0,0:0:0:0:
320,192,187280,1,0,0:0:0:0:
448,192,187280,1,0,0:0:0:0:
64,192,187442,1,0,0:0:0:0:
192,192,187442,1,0,0:0:0:0:
320,192,187604,1,0,0:0:0:0:
64,192,187604,1,0,0:0:0:0:
320,192,187766,1,0,0:0:0:0:
448,192,187766,1,0,0:0:0:0:
64,192,187929,1,0,0:0:0:0:
192,192,187929,1,0,0:0:0:0:
448,192,188091,1,0,0:0:0:0:
192,192,188091,1,0,0:0:0:0:
320,192,188253,1,0,0:0:0:0:
448,192,188253,1,0,0:0:0:0:
64,192,188415,1,0,0:0:0:0:
192,192,188415,1,0,0:0:0:0:
64,192,188577,128,0,188901:0:0:0:0:
320,192,188577,1,0,0:0:0:0:
192,192,188739,1,0,0:0:0:0:
448,192,188739,1,0,0:0:0:0:
192,192,188901,1,0,0:0:0:0:
320,192,188901,1,0,0:0:0:0:
448,192,189064,1,0,0:0:0:0:
320,192,189145,1,0,0:0:0:0:
64,192,189226,1,0,0:0:0:0:
192,192,189307,1,0,0:0:0:0:
320,192,189388,1,0,0:0:0:0:
448,192,189388,128,0,189712:0:0:0:0:
192,192,189550,1,0,0:0:0:0:
64,192,189550,1,0,0:0:0:0:
192,192,189712,1,0,0:0:0:0:
320,192,189712,1,0,0:0:0:0:
64,192,189874,1,0,0:0:0:0:
448,192,189874,1,0,0:0:0:0:
192,192,190037,1,0,0:0:0:0:
320,192,190037,128,0,190361:0:0:0:0:
448,192,190199,1,0,0:0:0:0:
64,192,190361,128,0,190685:0:0:0:0:
192,192,190361,1,0,0:0:0:0:
320,192,190523,1,0,0:0:0:0:
448,192,190685,128,0,191010:0:0:0:0:
192,192,190685,1,0,0:0:0:0:
192,192,190847,1,0,0:0:0:0:
320,192,191010,1,0,0:0:0:0:
64,192,191010,1,0,0:0:0:0:
64,192,191172,128,0,191496:0:0:0:0:
192,192,191172,1,0,0:0:0:0:
448,192,191334,1,0,0:0:0:0:
320,192,191334,1,0,0:0:0:0:
448,192,191496,1,0,0:0:0:0:
192,192,191496,1,0,0:0:0:0:
320,192,191658,128,0,191983:0:0:0:0:
64,192,191658,1,0,0:0:0:0:
192,192,191820,1,0,0:0:0:0:
448,192,191983,1,0,0:0:0:0:
64,192,191983,128,0,192307:0:0:0:0:
320,192,192145,1,0,0:0:0:0:
192,192,192307,1,0,0:0:0:0:
448,192,192307,1,0,0:0:0:0:
192,192,192469,1,0,0:0:0:0:
64,192,192469,1,0,0:0:0:0:
320,192,192631,1,0,0:0:0:0:
448,192,192631,1,0,0:0:0:0:
64,192,192793,1,0,0:0:0:0:
320,192,192793,1,0,0:0:0:0:
448,192,192956,1,0,0:0:0:0:
192,192,192956,1,0,0:0:0:0:
64,192,193118,1,0,0:0:0:0:
192,192,193118,1,0,0:0:0:0:
64,192,193280,128,0,193604:0:0:0:0:
448,192,193280,1,0,0:0:0:0:
320,192,193442,1,0,0:0:0:0:
448,192,193604,1,0,0:0:0:0:
192,192,193604,1,0,0:0:0:0:
320,192,193766,128,0,194091:0:0:0:0:
192,192,193766,1,0,0:0:0:0:
448,192,193929,1,0,0:0:0:0:
64,192,193929,1,0,0:0:0:0:
192,192,194091,1,0,0:0:0:0:
64,192,194091,1,0,0:0:0:0:
448,192,194253,128,0,194577:0:0:0:0:
320,192,194253,1,0,0:0:0:0:
64,192,194415,1,0,0:0:0:0:
192,192,194577,1,0,0:0:0:0:
64,192,194577,128,0,194901:0:0:0:0:
320,192,194739,1,0,0:0:0:0:
448,192,194901,1,0,0:0:0:0:
320,192,194983,1,0,0:0:0:0:
64,192,195064,1,0,0:0:0:0:
192,192,195145,1,0,0:0:0:0:
320,192,195226,1,0,0:0:0:0:
448,192,195226,128,0,195550:0:0:0:0:
64,192,195388,1,0,0:0:0:0:
320,192,195550,1,0,0:0:0:0:
192,192,195550,128,0,195874:0:0:0:0:
64,192,195712,1,0,0:0:0:0:
320,192,195712,1,0,0:0:0:0:
448,192,195874,1,0,0:0:0:0:
64,192,195874,1,0,0:0:0:0:
448,192,196037,1,0,0:0:0:0:
320,192,196118,1,0,0:0:0:0:
64,192,196199,1,0,0:0:0:0:
192,192,196199,1,0,0:0:0:0:
64,192,196361,1,0,0:0:0:0:
448,192,196523,1,0,0:0:0:0:
320,192,196523,1,0,0:0:0:0:
320,192,196685,1,0,0:0:0:0:
192,192,196685,1,0,0:0:0:0:
64,192,196847,128,0,197172:0:0:0:0:
448,192,196847,1,0,0:0:0:0:
192,192,197010,1,0,0:0:0:0:
192,192,197172,1,0,0:0:0:0:
320,192,197172,128,0,197334:0:0:0:0:
448,192,197334,1,0,0:0:0:0:
64,192,197496,1,0,0:0:0:0:
192,192,197496,1,0,0:0:0:0:
448,192,197658,1,0,0:0:0:0:
64,192,197658,1,0,0:0:0:0:
192,192,197820,1,0,0:0:0:0:
320,192,197820,1,0,0:0:0:0:
64,192,197983,1,0,0:0:0:0:
192,192,197983,1,0,0:0:0:0:
320,192,198145,1,0,0:0:0:0:
448,192,198145,1,0,0:0:0:0:
192,192,198307,1,0,0:0:0:0:
448,192,198307,1,0,0:0:0:0:
64,192,198469,1,0,0:0:0:0:
192,192,198469,1,0,0:0:0:0:
64,192,198631,1,0,0:0:0:0:
448,192,198631,1,0,0:0:0:0:
320,192,198793,1,0,0:0:0:0:
448,192,198793,1,0,0:0:0:0:
192,192,198956,128,0,199280:0:0:0:0:
320,192,198956,1,0,0:0:0:0:
64,192,199118,1,0,0:0:0:0:
448,192,199118,1,0,0:0:0:0:
64,192,199280,1,0,0:0:0:0:
320,192,199280,1,0,0:0:0:0:
448,192,199442,1,0,0:0:0:0:
320,192,199523,1,0,0:0:0:0:
64,192,199604,1,0,0:0:0:0:
192,192,199685,1,0,0:0:0:0:
320,192,199766,1,0,0:0:0:0:
448,192,199766,128,0,200091:0:0:0:0:
64,192,199929,1,0,0:0:0:0:
192,192,199929,1,0,0:0:0:0:
320,192,200091,1,0,0:0:0:0:
64,192,200091,1,0,0:0:0:0:
192,192,200253,1,0,0:0:0:0:
320,192,200253,1,0,0:0:0:0:
448,192,200415,1,0,0:0:0:0:
64,192,200415,1,0,0:0:0:0:
448,192,200577,1,0,0:0:0:0:
320,192,200739,1,0,0:0:0:0:
64,192,200739,1,0,0:0:0:0:
64,192,200901,1,0,0:0:0:0:
320,192,201064,1,0,0:0:0:0:
448,192,201064,1,0,0:0:0:0:
320,192,201226,1,0,0:0:0:0:
64,192,201307,1,0,0:0:0:0:
448,192,201388,1,0,0:0:0:0:
192,192,201388,1,0,0:0:0:0:
192,192,201550,1,0,0:0:0:0:
320,192,201712,1,0,0:0:0:0:
448,192,201712,1,0,0:0:0:0:
320,192,201874,1,0,0:0:0:0:
64,192,202037,1,0,0:0:0:0:
192,192,202037,1,0,0:0:0:0:
64,192,202199,1,0,0:0:0:0:
192,192,202361,1,0,0:0:0:0:
320,192,202361,1,0,0:0:0:0:
320,192,202685,1,0,0:0:0:0:
64,192,202685,1,0,0:0:0:0:
320,192,202847,1,0,0:0:0:0:
64,192,203010,1,0,0:0:0:0:
448,192,203010,1,0,0:0:0:0:
64,192,203172,1,0,0:0:0:0:
320,192,203334,1,0,0:0:0:0:
192,192,203334,1,0,0:0:0:0:
192,192,203496,1,0,0:0:0:0:
320,192,203658,1,0,0:0:0:0:
448,192,203658,1,0,0:0:0:0:
320,192,203820,1,0,0:0:0:0:
192,192,203901,1,0,0:0:0:0:
448,192,203983,1,0,0:0:0:0:
64,192,203983,1,0,0:0:0:0:
64,192,204145,1,0,0:0:0:0:
320,192,204307,1,0,0:0:0:0:
448,192,204307,1,0,0:0:0:0:
448,192,204469,1,0,0:0:0:0:
320,192,204631,1,0,0:0:0:0:
192,192,204631,1,0,0:0:0:0:
320,192,204793,1,0,0:0:0:0:
448,192,204956,1,0,0:0:0:0:
64,192,204956,1,0,0:0:0:0:
64,192,205118,1,0,0:0:0:0:
448,192,205280,1,0,0:0:0:0:
320,192,205280,1,0,0:0:0:0:
192,192,205361,1,0,0:0:0:0:
320,192,205442,1,0,0:0:0:0:
192,192,205523,1,0,0:0:0:0:
64,192,205604,1,0,0:0:0:0:
448,192,205604,1,0,0:0:0:0:
448,192,205766,1,0,0:0:0:0:
320,192,205929,1,0,0:0:0:0:
192,192,205929,1,0,0:0:0:0:
192,192,206091,1,0,0:0:0:0:
320,192,206253,1,0,0:0:0:0:
448,192,206253,1,0,0:0:0:0:
320,192,206415,1,0,0:0:0:0:
192,192,206496,1,0,0:0:0:0:
448,192,206577,1,0,0:0:0:0:
64,192,206577,1,0,0:0:0:0:
64,192,206739,1,0,0:0:0:0:
192,192,206901,1,0,0:0:0:0:
320,192,206901,1,0,0:0:0:0:
320,192,207064,1,0,0:0:0:0:
448,192,207226,1,0,0:0:0:0:
192,192,207226,1,0,0:0:0:0:
192,192,207388,1,0,0:0:0:0:
64,192,207550,1,0,0:0:0:0:
320,192,207550,1,0,0:0:0:0:
192,192,207874,1,0,0:0:0:0:
64,192,207874,1,0,0:0:0:0:
448,192,208037,1,0,0:0:0:0:
320,192,208037,1,0,0:0:0:0:
320,192,208199,1,0,0:0:0:0:
192,192,208199,1,0,0:0:0:0:
192,192,208361,1,0,0:0:0:0:
320,192,208523,1,0,0:0:0:0:
64,192,208523,1,0,0:0:0:0:
320,192,208685,1,0,0:0:0:0:
192,192,208847,1,0,0:0:0:0:
448,192,208847,1,0,0:0:0:0:
448,192,209010,1,0,0:0:0:0:
320,192,209091,1,0,0:0:0:0:
64,192,209172,1,0,0:0:0:0:
192,192,209172,1,0,0:0:0:0:
64,192,209334,1,0,0:0:0:0:
320,192,209496,1,0,0:0:0:0:
448,192,209496,1,0,0:0:0:0:
448,192,209658,1,0,0:0:0:0:
64,192,209820,1,0,0:0:0:0:
192,192,209901,1,0,0:0:0:0:
448,192,209983,1,0,0:0:0:0:
320,192,210064,1,0,0:0:0:0:
192,192,210145,1,0,0:0:0:0:
64,192,210145,1,0,0:0:0:0:
448,192,210307,1,0,0:0:0:0:
320,192,210307,1,0,0:0:0:0:
192,192,210469,1,0,0:0:0:0:
448,192,210469,1,0,0:0:0:0:
192,192,210631,1,0,0:0:0:0:
64,192,210793,1,0,0:0:0:0:
448,192,210793,1,0,0:0:0:0:
64,192,210956,1,0,0:0:0:0:
448,192,211118,1,0,0:0:0:0:
192,192,211118,1,0,0:0:0:0:
448,192,211280,1,0,0:0:0:0:
64,192,211442,1,0,0:0:0:0:
192,192,211442,1,0,0:0:0:0:
192,192,211604,1,0,0:0:0:0:
448,192,211685,1,0,0:0:0:0:
320,192,211766,1,0,0:0:0:0:
64,192,211766,1,0,0:0:0:0:
320,192,211929,1,0,0:0:0:0:
64,192,212091,1,0,0:0:0:0:
192,192,212091,1,0,0:0:0:0:
192,192,212253,1,0,0:0:0:0:
320,192,212415,1,0,0:0:0:0:
448,192,212415,1,0,0:0:0:0:
448,192,212577,1,0,0:0:0:0:
192,192,212739,1,0,0:0:0:0:
320,192,212739,1,0,0:0:0:0:
448,192,213064,1,0,0:0:0:0:
192,192,213064,1,0,0:0:0:0:
192,192,213226,1,0,0:0:0:0:
64,192,213388,1,0,0:0:0:0:
448,192,213388,1,0,0:0:0:0:
64,192,213550,1,0,0:0:0:0:
320,192,213712,1,0,0:0:0:0:
192,192,213712,1,0,0:0:0:0:
320,192,213874,1,0,0:0:0:0:
64,192,214037,1,0,0:0:0:0:
192,192,214037,1,0,0:0:0:0:
192,192,214199,1,0,0:0:0:0:
320,192,214280,1,0,0:0:0:0:
448,192,214361,1,0,0:0:0:0:
64,192,214361,1,0,0:0:0:0:
448,192,214523,1,0,0:0:0:0:
64,192,214685,1,0,0:0:0:0:
192,192,214685,1,0,0:0:0:0:
64,192,214847,1,0,0:0:0:0:
320,192,215010,1,0,0:0:0:0:
192,192,215010,1,0,0:0:0:0:
192,192,215172,1,0,0:0:0:0:
448,192,215334,1,0,0:0:0:0:
64,192,215334,1,0,0:0:0:0:
448,192,215496,1,0,0:0:0:0:
192,192,215658,1,0,0:0:0:0:
64,192,215658,1,0,0:0:0:0:
320,192,215739,1,0,0:0:0:0:
192,192,215820,1,0,0:0:0:0:
320,192,215901,1,0,0:0:0:0:
64,192,215983,1,0,0:0:0:0:
448,192,215983,1,0,0:0:0:0:
64,192,216145,1,0,0:0:0:0:
448,192,216307,1,0,0:0:0:0:
192,192,216307,1,0,0:0:0:0:
320,192,216469,1,0,0:0:0:0:
448,192,216469,1,0,0:0:0:0:
64,192,216631,1,0,0:0:0:0:
192,192,216631,1,0,0:0:0:0:
192,192,216793,1,0,0:0:0:0:
320,192,216874,1,0,0:0:0:0:
448,192,216956,1,0,0:0:0:0:
64,192,216956,1,0,0:0:0:0:
448,192,217118,1,0,0:0:0:0:
192,192,217280,1,0,0:0:0:0:
320,192,217280,1,0,0:0:0:0:
192,192,217442,1,0,0:0:0:0:
320,192,217604,1,0,0:0:0:0:
64,192,217604,1,0,0:0:0:0:
320,192,217766,1,0,0:0:0:0:
64,192,217929,1,0,0:0:0:0:
448,192,217929,1,0,0:0:0:0:
64,192,218091,1,0,0:0:0:0:
448,192,218253,1,0,0:0:0:0:
320,192,218253,1,0,0:0:0:0:
192,192,218415,1,0,0:0:0:0:
64,192,218415,1,0,0:0:0:0:
320,192,218577,1,0,0:0:0:0:
192,192,218577,1,0,0:0:0:0:
320,192,218739,1,0,0:0:0:0:
448,192,218901,1,0,0:0:0:0:
192,192,218901,1,0,0:0:0:0:
192,192,219064,1,0,0:0:0:0:
64,192,219226,1,0,0:0:0:0:
448,192,219226,1,0,0:0:0:0:
192,192,219388,1,0,0:0:0:0:
320,192,219469,1,0,0:0:0:0:
64,192,219550,1,0,0:0:0:0:
448,192,219550,1,0,0:0:0:0:
192,192,219631,1,0,0:0:0:0:
448,192,219712,1,0,0:0:0:0:
320,192,219793,1,0,0:0:0:0:
64,192,219874,1,0,0:0:0:0:
192,192,219874,1,0,0:0:0:0:
64,192,220037,1,0,0:0:0:0:
448,192,220199,1,0,0:0:0:0:
320,192,220199,1,0,0:0:0:0:
448,192,220361,1,0,0:0:0:0:
192,192,220523,1,0,0:0:0:0:
64,192,220523,1,0,0:0:0:0:
448,192,220847,128,0,221172:0:0:0:0:
320,192,220847,128,0,221172:0:0:0:0:
192,192,221172,1,0,0:0:0:0:
64,192,221172,128,0,221334:0:0:0:0:
448,192,221334,1,0,0:0:0:0:
320,192,221496,1,0,0:0:0:0:
448,192,221496,128,0,221658:0:0:0:0:
64,192,221658,1,0,0:0:0:0:
192,192,221820,1,0,0:0:0:0:
64,192,221820,128,0,221983:0:0:0:0:
448,192,221983,1,0,0:0:0:0:
320,192,222145,1,0,0:0:0:0:
448,192,222145,128,0,222307:0:0:0:0:
64,192,222307,1,0,0:0:0:0:
64,192,222469,128,0,222631:0:0:0:0:
192,192,222469,1,0,0:0:0:0:
448,192,222631,1,0,0:0:0:0:
448,192,222793,128,0,222956:0:0:0:0:
320,192,222793,1,0,0:0:0:0:
64,192,222956,1,0,0:0:0:0:
192,192,223118,1,0,0:0:0:0:
64,192,223118,128,0,223280:0:0:0:0:
448,192,223280,1,0,0:0:0:0:
320,192,223442,1,0,0:0:0:0:
448,192,223442,128,0,223604:0:0:0:0:
64,192,223604,1,0,0:0:0:0:
64,192,223766,128,0,223929:0:0:0:0:
192,192,223766,1,0,0:0:0:0:
448,192,223929,1,0,0:0:0:0:
448,192,224091,128,0,224253:0:0:0:0:
320,192,224091,1,0,0:0:0:0:
64,192,224253,1,0,0:0:0:0:
192,192,224415,1,0,0:0:0:0:
64,192,224415,128,0,224577:0:0:0:0:
448,192,224577,1,0,0:0:0:0:
320,192,224739,1,0,0:0:0:0:
448,192,224739,128,0,224901:0:0:0:0:
64,192,224901,1,0,0:0:0:0:
64,192,225064,128,0,225226:0:0:0:0:
192,192,225064,1,0,0:0:0:0:
448,192,225226,1,0,0:0:0:0:
448,192,225388,128,0,225550:0:0:0:0:
320,192,225388,1,0,0:0:0:0:
64,192,225550,1,0,0:0:0:0:
192,192,225712,1,0,0:0:0:0:
64,192,225712,128,0,225874:0:0:0:0:
448,192,225874,1,0,0:0:0:0:
320,192,226037,1,0,0:0:0:0:
448,192,226037,128,0,226199:0:0:0:0:
64,192,226199,1,0,0:0:0:0:
192,192,226361,1,0,0:0:0:0:
320,192,226361,1,0,0:0:0:0:
64,192,226523,1,0,0:0:0:0:
192,192,226523,1,0,0:0:0:0:
448,192,226685,1,0,0:0:0:0:
320,192,226685,1,0,0:0:0:0:
320,192,226847,1,0,0:0:0:0:
192,192,226847,1,0,0:0:0:0:
192,192,227010,1,0,0:0:0:0:
64,192,227010,1,0,0:0:0:0:
320,192,227172,1,0,0:0:0:0:
448,192,227172,1,0,0:0:0:0:
192,192,227334,1,0,0:0:0:0:
320,192,227334,1,0,0:0:0:0:
64,192,227496,1,0,0:0:0:0:
192,192,227496,1,0,0:0:0:0:
320,192,227658,1,0,0:0:0:0:
448,192,227658,1,0,0:0:0:0:
192,192,227820,1,0,0:0:0:0:
320,192,227820,1,0,0:0:0:0:
64,192,227983,1,0,0:0:0:0:
192,192,227983,1,0,0:0:0:0:
320,192,228145,1,0,0:0:0:0:
448,192,228145,1,0,0:0:0:0:
192,192,228307,1,0,0:0:0:0:
320,192,228307,1,0,0:0:0:0:
64,192,228469,1,0,0:0:0:0:
192,192,228469,1,0,0:0:0:0:
320,192,228631,1,0,0:0:0:0:
448,192,228631,1,0,0:0:0:0:
192,192,228793,1,0,0:0:0:0:
320,192,228793,1,0,0:0:0:0:
64,192,228956,1,0,0:0:0:0:
320,192,229037,1,0,0:0:0:0:
64,192,229118,1,0,0:0:0:0:
320,192,229199,1,0,0:0:0:0:
192,192,229280,1,0,0:0:0:0:
448,192,229361,1,0,0:0:0:0:
192,192,229442,1,0,0:0:0:0:
448,192,229523,1,0,0:0:0:0:
64,192,229604,1,0,0:0:0:0:
320,192,229685,1,0,0:0:0:0:
64,192,229766,1,0,0:0:0:0:
320,192,229847,1,0,0:0:0:0:
192,192,229929,1,0,0:0:0:0:
448,192,230010,1,0,0:0:0:0:
192,192,230091,1,0,0:0:0:0:
448,192,230172,1,0,0:0:0:0:
64,192,230253,128,0,232847:0:0:0:0:
192,192,230253,128,0,232847:0:0:0:0:
448,192,232847,1,0,0:0:0:0:
