osu file format v14

[General]
AudioFilename: audio.ogg
AudioLeadIn: 0
PreviewTime: 179648
Countdown: 0
SampleSet: Soft
StackLeniency: 0.7
Mode: 3
LetterboxInBreaks: 0
EpilepsyWarning: 1
SpecialStyle: 0
WidescreenStoryboard: 1

[Editor]
Bookmarks: 190027
DistanceSpacing: 1.8
BeatDivisor: 4
GridSize: 4
TimelineZoom: 2.7

[Metadata]
Title:INTERNET YAMERO
TitleUnicode:INTERNET YAMERO
Artist:Aiobahn feat. KOTOKO
ArtistUnicode:Aiobahn feat. KOTOKO
Creator:FLeVI
Version:ExNeko's Expert
Source:NEEDY GIRL OVERDOSE
Tags:streamer ame KAngel OMGkawaiiAngel p-chan tenshi overload video game japanese electronic female vocal muse dash にゃるら nyalra nyarura angel WSS playground xemono visual novel cute Carpihat hidden is fun shizehao Nicknem_ ExNeko lovely_hyahya Catasmic Hynova まろん maron IOSYS TOHRU MiTSUHASHi 前田地生 Maeda Chisei as_chisei
BeatmapID:4073580
BeatmapSetID:1962727

[Difficulty]
HPDrainRate:8.2
CircleSize:4
OverallDifficulty:8
ApproachRate:5
SliderMultiplier:1.4
SliderTickRate:1

[Events]
//Background and Video events
0,0,"bg.jpg",0,0
Video,-191,"video.mp4"
//Break Periods
//Storyboard Layer 0 (Background)
//Storyboard Layer 1 (Fail)
//Storyboard Layer 2 (Pass)
//Storyboard Layer 3 (Foreground)
//Storyboard Layer 4 (Overlay)
//Storyboard Sound Samples

[TimingPoints]
1930,324.324324324324,4,2,1,50,1,0
4524,324.324324324324,4,2,1,50,1,0
158902,324.324324324324,4,2,1,50,1,0
179658,-100,4,2,1,50,0,1
200415,-100,4,2,1,50,0,0

[HitObjects]
448,192,1930,128,0,2173:0:0:0:0:
320,192,1930,128,0,2011:0:0:0:0:
64,192,2254,128,0,2497:0:0:0:0:
192,192,2254,128,0,2335:0:0:0:0:
448,192,2578,128,0,2821:0:0:0:0:
192,192,2578,128,0,2659:0:0:0:0:
320,192,2740,128,0,2984:0:0:0:0:
64,192,2740,128,0,2821:0:0:0:0:
192,192,2902,128,0,3146:0:0:0:0:
448,192,2902,128,0,2984:0:0:0:0:
64,192,3065,128,0,3308:0:0:0:0:
320,192,3065,128,0,3146:0:0:0:0:
320,192,3227,128,0,3470:0:0:0:0:
192,192,3227,128,0,3308:0:0:0:0:
448,192,3389,128,0,3632:0:0:0:0:
64,192,3389,128,0,3470:0:0:0:0:
320,192,3713,128,0,3957:0:0:0:0:
192,192,3713,128,0,3794:0:0:0:0:
448,192,3875,128,0,4119:0:0:0:0:
64,192,3875,128,0,3957:0:0:0:0:
64,192,4200,1,0,0:0:0:0:
320,192,4200,128,0,4686:0:0:0:0:
192,192,4200,128,0,4281:0:0:0:0:
448,192,4362,1,0,0:0:0:0:
192,192,4362,1,0,0:0:0:0:
64,192,4362,128,0,4443:0:0:0:0:
448,192,4524,128,0,4605:0:0:0:0:
192,192,4524,128,0,4767:0:0:0:0:
64,192,4524,128,0,4848:0:0:0:0:
64,192,7118,128,0,7199:0:0:0:0:
192,192,7118,128,0,7280:0:0:0:0:
320,192,7118,128,0,7361:0:0:0:0:
448,192,7118,128,0,7442:0:0:0:0:
320,192,9713,128,0,9794:0:0:0:0:
448,192,9713,128,0,9875:0:0:0:0:
192,192,9713,128,0,9956:0:0:0:0:
64,192,9713,128,0,10037:0:0:0:0:
320,192,11983,128,0,12226:0:0:0:0:
192,192,12307,128,0,12388:0:0:0:0:
64,192,12307,128,0,12469:0:0:0:0:
320,192,12307,128,0,12551:0:0:0:0:
448,192,12307,128,0,12632:0:0:0:0:
64,192,13605,128,0,13686:0:0:0:0:
192,192,13605,128,0,13767:0:0:0:0:
320,192,13605,128,0,13848:0:0:0:0:
448,192,13605,128,0,13929:0:0:0:0:
448,192,14253,128,0,14334:0:0:0:0:
320,192,14253,128,0,14415:0:0:0:0:
192,192,14253,128,0,14496:0:0:0:0:
64,192,14253,128,0,14578:0:0:0:0:
448,192,14496,1,0,0:0:0:0:
320,192,14496,1,0,0:0:0:0:
448,192,14578,128,0,14821:0:0:0:0:
192,192,14578,128,0,14659:0:0:0:0:
64,192,14740,128,0,14902:0:0:0:0:
192,192,14740,128,0,14821:0:0:0:0:
448,192,14902,1,0,0:0:0:0:
320,192,14902,1,0,0:0:0:0:
192,192,14902,128,0,14983:0:0:0:0:
64,192,14983,128,0,15064:0:0:0:0:
320,192,15064,128,0,15145:0:0:0:0:
192,192,15145,128,0,15226:0:0:0:0:
448,192,15226,128,0,15388:0:0:0:0:
64,192,15226,128,0,15307:0:0:0:0:
320,192,15307,128,0,15469:0:0:0:0:
192,192,15388,128,0,15551:0:0:0:0:
64,192,15469,128,0,15551:0:0:0:0:
320,192,15551,128,0,15632:0:0:0:0:
448,192,15632,128,0,15713:0:0:0:0:
192,192,15713,128,0,15794:0:0:0:0:
320,192,15794,128,0,15875:0:0:0:0:
64,192,15875,128,0,16037:0:0:0:0:
448,192,15875,128,0,15956:0:0:0:0:
192,192,15956,128,0,16118:0:0:0:0:
320,192,16037,128,0,16199:0:0:0:0:
448,192,16118,128,0,16199:0:0:0:0:
192,192,16199,128,0,16280:0:0:0:0:
64,192,16280,128,0,16361:0:0:0:0:
320,192,16361,128,0,16442:0:0:0:0:
192,192,16442,128,0,16523:0:0:0:0:
448,192,16523,128,0,16686:0:0:0:0:
64,192,16523,128,0,16605:0:0:0:0:
320,192,16605,128,0,16767:0:0:0:0:
192,192,16686,128,0,16848:0:0:0:0:
64,192,16767,128,0,16848:0:0:0:0:
448,192,16848,128,0,16929:0:0:0:0:
192,192,16929,128,0,17010:0:0:0:0:
320,192,17010,128,0,17091:0:0:0:0:
64,192,17091,128,0,17172:0:0:0:0:
448,192,17172,128,0,17253:0:0:0:0:
320,192,17172,128,0,17334:0:0:0:0:
192,192,17253,128,0,17415:0:0:0:0:
64,192,17334,128,0,17415:0:0:0:0:
448,192,17334,1,0,0:0:0:0:
320,192,17415,1,0,0:0:0:0:
64,192,17496,1,0,0:0:0:0:
192,192,17496,128,0,17578:0:0:0:0:
320,192,17578,128,0,17659:0:0:0:0:
448,192,17659,128,0,17740:0:0:0:0:
192,192,17740,128,0,17821:0:0:0:0:
448,192,17821,128,0,17902:0:0:0:0:
320,192,17821,128,0,17983:0:0:0:0:
192,192,17902,128,0,18064:0:0:0:0:
64,192,17983,128,0,18145:0:0:0:0:
448,192,18064,128,0,18145:0:0:0:0:
320,192,18145,128,0,18226:0:0:0:0:
192,192,18226,128,0,18307:0:0:0:0:
64,192,18307,128,0,18388:0:0:0:0:
320,192,18388,128,0,18469:0:0:0:0:
64,192,18469,128,0,18551:0:0:0:0:
192,192,18469,128,0,18632:0:0:0:0:
320,192,18551,128,0,18713:0:0:0:0:
448,192,18632,128,0,18794:0:0:0:0:
64,192,18713,128,0,18794:0:0:0:0:
192,192,18794,128,0,18875:0:0:0:0:
320,192,18875,128,0,18956:0:0:0:0:
448,192,18956,128,0,19037:0:0:0:0:
192,192,19037,128,0,19118:0:0:0:0:
448,192,19118,128,0,19199:0:0:0:0:
320,192,19118,128,0,19280:0:0:0:0:
192,192,19199,128,0,19361:0:0:0:0:
64,192,19280,128,0,19442:0:0:0:0:
448,192,19361,128,0,19442:0:0:0:0:
320,192,19442,128,0,19523:0:0:0:0:
192,192,19523,128,0,19605:0:0:0:0:
64,192,19605,128,0,19686:0:0:0:0:
320,192,19686,1,0,0:0:0:0:
448,192,19686,128,0,19848:0:0:0:0:
192,192,19767,128,0,19929:0:0:0:0:
64,192,19767,128,0,19848:0:0:0:0:
320,192,19848,128,0,20010:0:0:0:0:
448,192,19929,128,0,20010:0:0:0:0:
64,192,19929,1,0,0:0:0:0:
192,192,20010,1,0,0:0:0:0:
448,192,20091,1,0,0:0:0:0:
320,192,20091,128,0,20172:0:0:0:0:
64,192,20172,128,0,20253:0:0:0:0:
320,192,20253,128,0,20334:0:0:0:0:
64,192,20334,128,0,20415:0:0:0:0:
320,192,20415,128,0,20578:0:0:0:0:
448,192,20415,128,0,20496:0:0:0:0:
192,192,20496,128,0,20659:0:0:0:0:
64,192,20578,128,0,20740:0:0:0:0:
448,192,20659,128,0,20740:0:0:0:0:
192,192,20740,128,0,20821:0:0:0:0:
448,192,20821,128,0,20902:0:0:0:0:
192,192,20902,128,0,20983:0:0:0:0:
448,192,20983,128,0,21064:0:0:0:0:
64,192,21064,128,0,21145:0:0:0:0:
192,192,21064,128,0,21226:0:0:0:0:
320,192,21145,128,0,21307:0:0:0:0:
448,192,21226,128,0,21388:0:0:0:0:
64,192,21307,128,0,21388:0:0:0:0:
320,192,21388,128,0,21469:0:0:0:0:
192,192,21388,1,0,0:0:0:0:
64,192,21469,128,0,21551:0:0:0:0:
320,192,21551,128,0,21632:0:0:0:0:
64,192,21632,128,0,21713:0:0:0:0:
320,192,21713,128,0,21875:0:0:0:0:
448,192,21713,128,0,21794:0:0:0:0:
192,192,21794,128,0,21956:0:0:0:0:
64,192,21875,128,0,22037:0:0:0:0:
448,192,21956,128,0,22037:0:0:0:0:
192,192,22037,128,0,22118:0:0:0:0:
448,192,22118,128,0,22199:0:0:0:0:
192,192,22199,128,0,22280:0:0:0:0:
448,192,22280,128,0,22361:0:0:0:0:
64,192,22361,128,0,22442:0:0:0:0:
192,192,22361,128,0,22523:0:0:0:0:
320,192,22442,128,0,22605:0:0:0:0:
448,192,22523,128,0,22686:0:0:0:0:
64,192,22605,128,0,22686:0:0:0:0:
320,192,22686,128,0,23010:0:0:0:0:
192,192,22686,128,0,22767:0:0:0:0:
448,192,22767,128,0,22848:0:0:0:0:
64,192,22848,128,0,22929:0:0:0:0:
448,192,22929,128,0,23010:0:0:0:0:
192,192,23010,128,0,23334:0:0:0:0:
64,192,23010,128,0,23091:0:0:0:0:
320,192,23091,128,0,23172:0:0:0:0:
64,192,23172,128,0,23253:0:0:0:0:
448,192,23253,128,0,23334:0:0:0:0:
320,192,23334,128,0,23659:0:0:0:0:
64,192,23334,128,0,23415:0:0:0:0:
448,192,23415,128,0,23496:0:0:0:0:
192,192,23496,128,0,23578:0:0:0:0:
448,192,23578,128,0,23659:0:0:0:0:
192,192,23659,128,0,23983:0:0:0:0:
64,192,23659,128,0,23740:0:0:0:0:
448,192,23740,128,0,23821:0:0:0:0:
64,192,23821,128,0,23902:0:0:0:0:
320,192,23902,128,0,23983:0:0:0:0:
64,192,23983,128,0,24145:0:0:0:0:
448,192,23983,128,0,24145:0:0:0:0:
448,192,24307,128,0,24469:0:0:0:0:
64,192,24307,128,0,24469:0:0:0:0:
64,192,24632,128,0,24794:0:0:0:0:
448,192,24632,128,0,24794:0:0:0:0:
64,192,24956,1,0,0:0:0:0:
448,192,24956,1,0,0:0:0:0:
320,192,24956,1,0,0:0:0:0:
320,192,25037,1,0,0:0:0:0:
192,192,25118,1,0,0:0:0:0:
192,192,25199,1,0,0:0:0:0:
64,192,25280,128,0,25361:0:0:0:0:
320,192,25280,128,0,25523:0:0:0:0:
448,192,25280,128,0,25686:0:0:0:0:
192,192,25442,1,0,0:0:0:0:
64,192,25442,128,0,25848:0:0:0:0:
192,192,25605,1,0,0:0:0:0:
320,192,25605,128,0,25686:0:0:0:0:
320,192,25767,128,0,25848:0:0:0:0:
448,192,25767,128,0,25848:0:0:0:0:
64,192,25929,128,0,26091:0:0:0:0:
192,192,25929,128,0,26010:0:0:0:0:
448,192,25929,128,0,26172:0:0:0:0:
320,192,26091,1,0,0:0:0:0:
192,192,26091,128,0,26334:0:0:0:0:
64,192,26172,128,0,26496:0:0:0:0:
320,192,26253,1,0,0:0:0:0:
448,192,26253,128,0,26334:0:0:0:0:
192,192,26415,128,0,26496:0:0:0:0:
448,192,26415,128,0,26496:0:0:0:0:
64,192,26578,128,0,26821:0:0:0:0:
192,192,26578,128,0,26983:0:0:0:0:
320,192,26578,128,0,26659:0:0:0:0:
448,192,26740,1,0,0:0:0:0:
320,192,26740,128,0,27145:0:0:0:0:
448,192,26902,1,0,0:0:0:0:
64,192,26902,128,0,26983:0:0:0:0:
64,192,27064,128,0,27145:0:0:0:0:
192,192,27064,128,0,27145:0:0:0:0:
192,192,27226,128,0,27469:0:0:0:0:
320,192,27226,128,0,27632:0:0:0:0:
448,192,27226,128,0,27794:0:0:0:0:
64,192,27551,1,0,0:0:0:0:
192,192,27551,128,0,27632:0:0:0:0:
192,192,27713,128,0,27794:0:0:0:0:
320,192,27713,128,0,27794:0:0:0:0:
64,192,27875,128,0,27956:0:0:0:0:
320,192,27875,128,0,28118:0:0:0:0:
448,192,27875,128,0,28280:0:0:0:0:
192,192,28037,1,0,0:0:0:0:
64,192,28037,128,0,28442:0:0:0:0:
192,192,28199,1,0,0:0:0:0:
320,192,28199,128,0,28280:0:0:0:0:
320,192,28361,128,0,28442:0:0:0:0:
448,192,28361,128,0,28442:0:0:0:0:
192,192,28523,128,0,28605:0:0:0:0:
64,192,28523,128,0,28686:0:0:0:0:
448,192,28523,128,0,28767:0:0:0:0:
320,192,28686,1,0,0:0:0:0:
192,192,28686,128,0,28929:0:0:0:0:
64,192,28767,128,0,29091:0:0:0:0:
320,192,28848,1,0,0:0:0:0:
448,192,28848,128,0,28929:0:0:0:0:
192,192,29010,128,0,29091:0:0:0:0:
448,192,29010,128,0,29091:0:0:0:0:
320,192,29172,128,0,29253:0:0:0:0:
64,192,29172,128,0,29415:0:0:0:0:
192,192,29172,128,0,29578:0:0:0:0:
448,192,29334,1,0,0:0:0:0:
320,192,29334,128,0,29740:0:0:0:0:
448,192,29496,1,0,0:0:0:0:
64,192,29496,128,0,29578:0:0:0:0:
192,192,29659,128,0,29740:0:0:0:0:
64,192,29659,128,0,29740:0:0:0:0:
192,192,29821,128,0,30064:0:0:0:0:
320,192,29821,128,0,29902:0:0:0:0:
448,192,29821,128,0,30226:0:0:0:0:
64,192,29983,1,0,0:0:0:0:
320,192,29983,128,0,30145:0:0:0:0:
64,192,30145,1,0,0:0:0:0:
192,192,30145,128,0,30307:0:0:0:0:
320,192,30226,128,0,30388:0:0:0:0:
64,192,30307,1,0,0:0:0:0:
448,192,30307,128,0,30388:0:0:0:0:
192,192,30388,1,0,0:0:0:0:
64,192,30469,128,0,30713:0:0:0:0:
320,192,30469,128,0,30551:0:0:0:0:
448,192,30469,128,0,30875:0:0:0:0:
192,192,30632,1,0,0:0:0:0:
320,192,30632,128,0,31037:0:0:0:0:
192,192,30794,1,0,0:0:0:0:
64,192,30794,128,0,30875:0:0:0:0:
448,192,30956,128,0,31037:0:0:0:0:
64,192,30956,128,0,31037:0:0:0:0:
192,192,31118,128,0,31199:0:0:0:0:
320,192,31118,128,0,31280:0:0:0:0:
448,192,31118,128,0,31280:0:0:0:0:
64,192,31280,1,0,0:0:0:0:
192,192,31280,128,0,31361:0:0:0:0:
320,192,31361,128,0,31523:0:0:0:0:
448,192,31361,128,0,31523:0:0:0:0:
64,192,31442,1,0,0:0:0:0:
192,192,31442,128,0,31686:0:0:0:0:
320,192,31605,128,0,31686:0:0:0:0:
448,192,31605,128,0,31686:0:0:0:0:
64,192,31767,128,0,31848:0:0:0:0:
192,192,31767,128,0,32172:0:0:0:0:
320,192,31767,128,0,32010:0:0:0:0:
448,192,31929,1,0,0:0:0:0:
64,192,31929,128,0,32334:0:0:0:0:
448,192,32091,1,0,0:0:0:0:
320,192,32091,128,0,32172:0:0:0:0:
192,192,32253,128,0,32334:0:0:0:0:
320,192,32253,128,0,32334:0:0:0:0:
64,192,32415,128,0,32821:0:0:0:0:
192,192,32415,128,0,32659:0:0:0:0:
448,192,32415,128,0,32496:0:0:0:0:
320,192,32578,1,0,0:0:0:0:
448,192,32578,128,0,32983:0:0:0:0:
320,192,32740,1,0,0:0:0:0:
192,192,32740,128,0,32821:0:0:0:0:
192,192,32902,128,0,32983:0:0:0:0:
64,192,32902,128,0,32983:0:0:0:0:
64,192,33064,128,0,33307:0:0:0:0:
320,192,33064,128,0,33145:0:0:0:0:
448,192,33064,128,0,33469:0:0:0:0:
192,192,33226,1,0,0:0:0:0:
320,192,33226,128,0,33632:0:0:0:0:
192,192,33388,1,0,0:0:0:0:
64,192,33388,128,0,33469:0:0:0:0:
448,192,33551,128,0,33632:0:0:0:0:
64,192,33551,128,0,33632:0:0:0:0:
192,192,33713,128,0,33794:0:0:0:0:
320,192,33713,128,0,33794:0:0:0:0:
448,192,33713,128,0,33956:0:0:0:0:
192,192,33875,128,0,34037:0:0:0:0:
320,192,33875,128,0,33956:0:0:0:0:
64,192,33956,1,0,0:0:0:0:
320,192,34037,128,0,34118:0:0:0:0:
448,192,34037,128,0,34199:0:0:0:0:
192,192,34118,128,0,34280:0:0:0:0:
320,192,34199,128,0,34280:0:0:0:0:
64,192,34199,1,0,0:0:0:0:
448,192,34280,1,0,0:0:0:0:
192,192,34361,128,0,34605:0:0:0:0:
64,192,34361,1,0,0:0:0:0:
320,192,34361,128,0,34442:0:0:0:0:
320,192,34523,128,0,34767:0:0:0:0:
448,192,34523,128,0,34605:0:0:0:0:
448,192,34686,128,0,34929:0:0:0:0:
64,192,34686,128,0,34767:0:0:0:0:
64,192,34848,128,0,35091:0:0:0:0:
192,192,34848,128,0,34929:0:0:0:0:
448,192,35010,128,0,35253:0:0:0:0:
320,192,35010,128,0,35091:0:0:0:0:
64,192,35334,1,0,0:0:0:0:
320,192,35334,1,0,0:0:0:0:
448,192,35334,1,0,0:0:0:0:
192,192,35659,1,0,0:0:0:0:
320,192,35659,1,0,0:0:0:0:
64,192,35821,1,0,0:0:0:0:
320,192,35983,1,0,0:0:0:0:
448,192,35983,1,0,0:0:0:0:
64,192,36145,128,0,36551:0:0:0:0:
192,192,36307,128,0,36551:0:0:0:0:
320,192,36307,1,0,0:0:0:0:
320,192,36469,128,0,37361:0:0:0:0:
64,192,36632,1,0,0:0:0:0:
192,192,36632,1,0,0:0:0:0:
64,192,36794,128,0,37037:0:0:0:0:
192,192,36956,1,0,0:0:0:0:
448,192,36956,1,0,0:0:0:0:
64,192,37118,128,0,38010:0:0:0:0:
448,192,37280,1,0,0:0:0:0:
192,192,37280,1,0,0:0:0:0:
448,192,37442,128,0,37686:0:0:0:0:
192,192,37605,1,0,0:0:0:0:
320,192,37605,1,0,0:0:0:0:
448,192,37767,128,0,38496:0:0:0:0:
320,192,37767,1,0,0:0:0:0:
320,192,37929,1,0,0:0:0:0:
192,192,37929,1,0,0:0:0:0:
192,192,38091,128,0,38496:0:0:0:0:
320,192,38253,1,0,0:0:0:0:
64,192,38253,1,0,0:0:0:0:
192,192,38578,1,0,0:0:0:0:
448,192,38578,1,0,0:0:0:0:
192,192,38740,128,0,39145:0:0:0:0:
320,192,38902,128,0,39145:0:0:0:0:
64,192,38902,1,0,0:0:0:0:
448,192,39064,128,0,39956:0:0:0:0:
192,192,39226,1,0,0:0:0:0:
64,192,39226,1,0,0:0:0:0:
64,192,39388,128,0,39632:0:0:0:0:
192,192,39551,1,0,0:0:0:0:
320,192,39551,1,0,0:0:0:0:
64,192,39713,128,0,40605:0:0:0:0:
320,192,39875,1,0,0:0:0:0:
192,192,39875,1,0,0:0:0:0:
320,192,40037,128,0,40280:0:0:0:0:
448,192,40199,1,0,0:0:0:0:
192,192,40199,1,0,0:0:0:0:
320,192,40361,128,0,41091:0:0:0:0:
448,192,40361,1,0,0:0:0:0:
192,192,40523,1,0,0:0:0:0:
448,192,40523,1,0,0:0:0:0:
192,192,40686,128,0,41091:0:0:0:0:
448,192,40848,1,0,0:0:0:0:
64,192,40848,1,0,0:0:0:0:
320,192,41172,1,0,0:0:0:0:
448,192,41172,1,0,0:0:0:0:
192,192,41334,1,0,0:0:0:0:
64,192,41496,1,0,0:0:0:0:
448,192,41496,1,0,0:0:0:0:
64,192,41659,1,0,0:0:0:0:
320,192,41821,1,0,0:0:0:0:
448,192,41821,1,0,0:0:0:0:
192,192,42145,1,0,0:0:0:0:
64,192,42145,1,0,0:0:0:0:
320,192,42307,1,0,0:0:0:0:
64,192,42469,1,0,0:0:0:0:
448,192,42469,1,0,0:0:0:0:
192,192,42632,1,0,0:0:0:0:
320,192,42794,1,0,0:0:0:0:
448,192,42794,1,0,0:0:0:0:
320,192,42956,128,0,43361:0:0:0:0:
64,192,42956,1,0,0:0:0:0:
192,192,43118,128,0,43361:0:0:0:0:
448,192,43118,1,0,0:0:0:0:
64,192,43280,128,0,43686:0:0:0:0:
320,192,43442,1,0,0:0:0:0:
192,192,43442,1,0,0:0:0:0:
192,192,43767,1,0,0:0:0:0:
64,192,43767,1,0,0:0:0:0:
320,192,43929,1,0,0:0:0:0:
64,192,44091,1,0,0:0:0:0:
448,192,44091,1,0,0:0:0:0:
64,192,44253,1,0,0:0:0:0:
192,192,44415,1,0,0:0:0:0:
320,192,44415,1,0,0:0:0:0:
320,192,44740,1,0,0:0:0:0:
448,192,44740,1,0,0:0:0:0:
192,192,44902,1,0,0:0:0:0:
448,192,45064,1,0,0:0:0:0:
64,192,45064,1,0,0:0:0:0:
320,192,45226,1,0,0:0:0:0:
192,192,45388,1,0,0:0:0:0:
64,192,45388,1,0,0:0:0:0:
64,192,45551,1,0,0:0:0:0:
192,192,45551,1,0,0:0:0:0:
320,192,45713,1,0,0:0:0:0:
448,192,45713,1,0,0:0:0:0:
64,192,46037,1,0,0:0:0:0:
192,192,46037,1,0,0:0:0:0:
320,192,46199,1,0,0:0:0:0:
448,192,46361,1,0,0:0:0:0:
192,192,46361,1,0,0:0:0:0:
192,192,46523,128,0,46929:0:0:0:0:
320,192,46686,128,0,46929:0:0:0:0:
448,192,46686,1,0,0:0:0:0:
448,192,46848,128,0,47740:0:0:0:0:
192,192,47010,1,0,0:0:0:0:
320,192,47010,1,0,0:0:0:0:
320,192,47172,128,0,47415:0:0:0:0:
192,192,47334,1,0,0:0:0:0:
64,192,47334,1,0,0:0:0:0:
320,192,47496,128,0,48388:0:0:0:0:
192,192,47659,1,0,0:0:0:0:
64,192,47659,1,0,0:0:0:0:
192,192,47821,128,0,48064:0:0:0:0:
64,192,47983,1,0,0:0:0:0:
448,192,47983,1,0,0:0:0:0:
192,192,48145,128,0,48875:0:0:0:0:
448,192,48145,1,0,0:0:0:0:
448,192,48307,1,0,0:0:0:0:
64,192,48307,1,0,0:0:0:0:
64,192,48469,128,0,48875:0:0:0:0:
320,192,48632,1,0,0:0:0:0:
448,192,48632,1,0,0:0:0:0:
448,192,48794,1,0,0:0:0:0:
320,192,48956,1,0,0:0:0:0:
192,192,48956,1,0,0:0:0:0:
320,192,49118,128,0,49523:0:0:0:0:
192,192,49280,128,0,49523:0:0:0:0:
64,192,49280,1,0,0:0:0:0:
64,192,49442,128,0,50334:0:0:0:0:
192,192,49605,1,0,0:0:0:0:
320,192,49605,1,0,0:0:0:0:
192,192,49767,128,0,50010:0:0:0:0:
320,192,49929,1,0,0:0:0:0:
448,192,49929,1,0,0:0:0:0:
192,192,50091,128,0,50983:0:0:0:0:
320,192,50253,1,0,0:0:0:0:
448,192,50253,1,0,0:0:0:0:
320,192,50415,128,0,50659:0:0:0:0:
64,192,50578,1,0,0:0:0:0:
448,192,50578,1,0,0:0:0:0:
320,192,50740,128,0,51469:0:0:0:0:
64,192,50740,1,0,0:0:0:0:
64,192,50902,1,0,0:0:0:0:
448,192,50902,1,0,0:0:0:0:
448,192,51064,128,0,51469:0:0:0:0:
192,192,51226,1,0,0:0:0:0:
64,192,51226,1,0,0:0:0:0:
64,192,51388,1,0,0:0:0:0:
192,192,51551,1,0,0:0:0:0:
320,192,51551,1,0,0:0:0:0:
448,192,51713,1,0,0:0:0:0:
64,192,51875,1,0,0:0:0:0:
192,192,51875,1,0,0:0:0:0:
192,192,52037,1,0,0:0:0:0:
320,192,52199,1,0,0:0:0:0:
448,192,52199,1,0,0:0:0:0:
64,192,52361,1,0,0:0:0:0:
192,192,52523,1,0,0:0:0:0:
320,192,52523,1,0,0:0:0:0:
320,192,52686,1,0,0:0:0:0:
64,192,52848,1,0,0:0:0:0:
192,192,52848,1,0,0:0:0:0:
448,192,53010,1,0,0:0:0:0:
192,192,53172,1,0,0:0:0:0:
320,192,53172,1,0,0:0:0:0:
192,192,53334,128,0,53740:0:0:0:0:
64,192,53334,1,0,0:0:0:0:
320,192,53496,128,0,53740:0:0:0:0:
448,192,53496,1,0,0:0:0:0:
448,192,53659,128,0,55037:0:0:0:0:
192,192,53821,1,0,0:0:0:0:
64,192,53821,1,0,0:0:0:0:
64,192,53983,128,0,54226:0:0:0:0:
192,192,54145,1,0,0:0:0:0:
320,192,54145,1,0,0:0:0:0:
64,192,54307,128,0,55037:0:0:0:0:
320,192,54469,1,0,0:0:0:0:
192,192,54469,1,0,0:0:0:0:
320,192,54632,1,0,0:0:0:0:
192,192,54794,1,0,0:0:0:0:
320,192,54794,1,0,0:0:0:0:
192,192,54956,1,0,0:0:0:0:
448,192,55118,1,0,0:0:0:0:
64,192,55118,1,0,0:0:0:0:
448,192,55280,1,0,0:0:0:0:
192,192,55442,1,0,0:0:0:0:
64,192,55442,1,0,0:0:0:0:
64,192,55605,1,0,0:0:0:0:
192,192,55767,1,0,0:0:0:0:
320,192,55767,1,0,0:0:0:0:
320,192,55929,1,0,0:0:0:0:
448,192,55929,1,0,0:0:0:0:
320,192,56010,1,0,0:0:0:0:
448,192,56010,1,0,0:0:0:0:
64,192,56091,1,0,0:0:0:0:
192,192,56091,1,0,0:0:0:0:
192,192,56253,1,0,0:0:0:0:
64,192,56253,1,0,0:0:0:0:
448,192,56415,128,0,56983:0:0:0:0:
64,192,56415,128,0,56659:0:0:0:0:
320,192,56415,128,0,56821:0:0:0:0:
192,192,56740,128,0,56821:0:0:0:0:
64,192,56740,1,0,0:0:0:0:
320,192,56902,128,0,56983:0:0:0:0:
64,192,56902,128,0,57145:0:0:0:0:
448,192,57064,128,0,57145:0:0:0:0:
192,192,57064,128,0,57469:0:0:0:0:
64,192,57226,128,0,57307:0:0:0:0:
320,192,57226,128,0,58118:0:0:0:0:
64,192,57388,1,0,0:0:0:0:
448,192,57388,128,0,57632:0:0:0:0:
64,192,57551,128,0,57794:0:0:0:0:
192,192,57713,1,0,0:0:0:0:
448,192,57713,128,0,57956:0:0:0:0:
64,192,57875,128,0,58767:0:0:0:0:
448,192,58037,1,0,0:0:0:0:
192,192,58037,128,0,58280:0:0:0:0:
448,192,58199,128,0,58442:0:0:0:0:
320,192,58361,1,0,0:0:0:0:
192,192,58361,128,0,58605:0:0:0:0:
448,192,58523,128,0,58929:0:0:0:0:
320,192,58523,1,0,0:0:0:0:
192,192,58686,1,0,0:0:0:0:
320,192,58686,128,0,58929:0:0:0:0:
192,192,58848,128,0,59415:0:0:0:0:
64,192,59010,128,0,59578:0:0:0:0:
320,192,59010,128,0,59253:0:0:0:0:
448,192,59334,1,0,0:0:0:0:
320,192,59334,128,0,59415:0:0:0:0:
192,192,59496,128,0,59578:0:0:0:0:
448,192,59496,128,0,59740:0:0:0:0:
64,192,59659,128,0,59740:0:0:0:0:
320,192,59659,128,0,60064:0:0:0:0:
448,192,59821,128,0,59902:0:0:0:0:
192,192,59821,128,0,60713:0:0:0:0:
448,192,59983,1,0,0:0:0:0:
64,192,59983,128,0,60226:0:0:0:0:
448,192,60145,128,0,60388:0:0:0:0:
320,192,60307,1,0,0:0:0:0:
64,192,60307,128,0,60551:0:0:0:0:
448,192,60469,128,0,61361:0:0:0:0:
64,192,60632,1,0,0:0:0:0:
320,192,60632,128,0,60875:0:0:0:0:
64,192,60794,128,0,61037:0:0:0:0:
192,192,60956,1,0,0:0:0:0:
320,192,60956,128,0,61199:0:0:0:0:
64,192,61118,128,0,61523:0:0:0:0:
192,192,61118,1,0,0:0:0:0:
320,192,61280,1,0,0:0:0:0:
192,192,61280,128,0,61523:0:0:0:0:
320,192,61442,128,0,62010:0:0:0:0:
448,192,61605,128,0,62172:0:0:0:0:
192,192,61605,128,0,61848:0:0:0:0:
192,192,61929,128,0,62010:0:0:0:0:
64,192,61929,128,0,62172:0:0:0:0:
320,192,62091,128,0,62172:0:0:0:0:
448,192,62253,128,0,62821:0:0:0:0:
192,192,62253,128,0,62334:0:0:0:0:
64,192,62415,128,0,62496:0:0:0:0:
320,192,62415,128,0,62659:0:0:0:0:
192,192,62578,1,0,0:0:0:0:
64,192,62578,128,0,63145:0:0:0:0:
320,192,62740,128,0,62821:0:0:0:0:
320,192,62902,1,0,0:0:0:0:
448,192,62902,1,0,0:0:0:0:
448,192,63064,1,0,0:0:0:0:
64,192,63226,1,0,0:0:0:0:
192,192,63226,1,0,0:0:0:0:
192,192,63388,1,0,0:0:0:0:
320,192,63551,1,0,0:0:0:0:
448,192,63551,1,0,0:0:0:0:
448,192,63713,128,0,64118:0:0:0:0:
64,192,63713,1,0,0:0:0:0:
320,192,63875,128,0,64118:0:0:0:0:
64,192,63875,1,0,0:0:0:0:
192,192,64037,128,0,64605:0:0:0:0:
64,192,64199,128,0,64767:0:0:0:0:
320,192,64199,128,0,64442:0:0:0:0:
320,192,64523,128,0,64605:0:0:0:0:
448,192,64523,128,0,64767:0:0:0:0:
192,192,64686,128,0,64767:0:0:0:0:
64,192,64848,128,0,65415:0:0:0:0:
320,192,64848,128,0,64929:0:0:0:0:
448,192,65010,128,0,65091:0:0:0:0:
192,192,65010,128,0,65253:0:0:0:0:
320,192,65172,1,0,0:0:0:0:
448,192,65172,128,0,65740:0:0:0:0:
192,192,65334,128,0,65415:0:0:0:0:
192,192,65496,1,0,0:0:0:0:
64,192,65496,1,0,0:0:0:0:
64,192,65659,1,0,0:0:0:0:
320,192,65821,1,0,0:0:0:0:
448,192,65821,1,0,0:0:0:0:
448,192,65983,1,0,0:0:0:0:
192,192,66145,1,0,0:0:0:0:
64,192,66145,1,0,0:0:0:0:
192,192,66307,1,0,0:0:0:0:
64,192,66307,1,0,0:0:0:0:
320,192,66469,1,0,0:0:0:0:
448,192,66469,1,0,0:0:0:0:
192,192,66632,1,0,0:0:0:0:
320,192,66794,128,0,67199:0:0:0:0:
64,192,66794,128,0,67037:0:0:0:0:
448,192,66794,128,0,67361:0:0:0:0:
64,192,67118,1,0,0:0:0:0:
192,192,67118,128,0,67199:0:0:0:0:
64,192,67280,128,0,67523:0:0:0:0:
320,192,67280,128,0,67361:0:0:0:0:
192,192,67442,128,0,67848:0:0:0:0:
448,192,67442,128,0,67523:0:0:0:0:
320,192,67605,128,0,68496:0:0:0:0:
64,192,67605,128,0,67686:0:0:0:0:
448,192,67767,128,0,68334:0:0:0:0:
64,192,67767,1,0,0:0:0:0:
64,192,67929,128,0,68172:0:0:0:0:
64,192,68253,128,0,69145:0:0:0:0:
192,192,68415,128,0,68983:0:0:0:0:
448,192,68415,1,0,0:0:0:0:
448,192,68578,128,0,68821:0:0:0:0:
320,192,68902,1,0,0:0:0:0:
448,192,68902,128,0,69307:0:0:0:0:
320,192,69064,128,0,69307:0:0:0:0:
192,192,69064,1,0,0:0:0:0:
192,192,69226,128,0,69794:0:0:0:0:
320,192,69388,128,0,69632:0:0:0:0:
64,192,69388,128,0,69956:0:0:0:0:
320,192,69713,128,0,69794:0:0:0:0:
448,192,69713,1,0,0:0:0:0:
448,192,69875,128,0,70118:0:0:0:0:
192,192,69875,128,0,69956:0:0:0:0:
320,192,70037,128,0,70442:0:0:0:0:
64,192,70037,128,0,70118:0:0:0:0:
192,192,70199,128,0,71091:0:0:0:0:
448,192,70199,128,0,70280:0:0:0:0:
64,192,70361,128,0,70929:0:0:0:0:
448,192,70361,1,0,0:0:0:0:
448,192,70523,128,0,70767:0:0:0:0:
448,192,70848,128,0,71740:0:0:0:0:
320,192,71010,128,0,71578:0:0:0:0:
64,192,71010,1,0,0:0:0:0:
64,192,71172,128,0,71415:0:0:0:0:
192,192,71496,1,0,0:0:0:0:
64,192,71496,128,0,71902:0:0:0:0:
320,192,71659,1,0,0:0:0:0:
192,192,71659,128,0,71902:0:0:0:0:
320,192,71821,128,0,72388:0:0:0:0:
192,192,71983,128,0,72226:0:0:0:0:
448,192,71983,128,0,72551:0:0:0:0:
64,192,72307,1,0,0:0:0:0:
192,192,72307,128,0,72388:0:0:0:0:
64,192,72469,128,0,72713:0:0:0:0:
320,192,72469,128,0,72551:0:0:0:0:
192,192,72632,128,0,73037:0:0:0:0:
448,192,72632,128,0,72713:0:0:0:0:
320,192,72794,128,0,73686:0:0:0:0:
64,192,72794,128,0,72875:0:0:0:0:
448,192,72956,128,0,73523:0:0:0:0:
64,192,72956,1,0,0:0:0:0:
64,192,73118,128,0,73361:0:0:0:0:
64,192,73442,128,0,74334:0:0:0:0:
192,192,73605,128,0,74172:0:0:0:0:
448,192,73605,1,0,0:0:0:0:
448,192,73767,128,0,74010:0:0:0:0:
320,192,74091,1,0,0:0:0:0:
448,192,74091,128,0,74496:0:0:0:0:
320,192,74253,128,0,74496:0:0:0:0:
192,192,74253,1,0,0:0:0:0:
192,192,74415,128,0,74983:0:0:0:0:
320,192,74578,128,0,74821:0:0:0:0:
64,192,74578,128,0,75145:0:0:0:0:
320,192,74902,128,0,74983:0:0:0:0:
448,192,74902,1,0,0:0:0:0:
448,192,75064,128,0,75307:0:0:0:0:
192,192,75064,128,0,75145:0:0:0:0:
320,192,75226,128,0,75632:0:0:0:0:
64,192,75226,128,0,75307:0:0:0:0:
192,192,75388,128,0,76280:0:0:0:0:
448,192,75388,128,0,75469:0:0:0:0:
64,192,75551,128,0,76118:0:0:0:0:
448,192,75551,1,0,0:0:0:0:
448,192,75713,128,0,75956:0:0:0:0:
448,192,76037,128,0,76767:0:0:0:0:
320,192,76199,128,0,76605:0:0:0:0:
64,192,76199,1,0,0:0:0:0:
64,192,76361,128,0,76605:0:0:0:0:
192,192,76686,1,0,0:0:0:0:
64,192,76686,1,0,0:0:0:0:
64,192,76767,1,0,0:0:0:0:
192,192,76767,1,0,0:0:0:0:
320,192,76848,1,0,0:0:0:0:
448,192,76848,1,0,0:0:0:0:
320,192,77010,1,0,0:0:0:0:
448,192,77010,1,0,0:0:0:0:
64,192,77172,128,0,77496:0:0:0:0:
320,192,77172,128,0,77496:0:0:0:0:
192,192,77496,128,0,77821:0:0:0:0:
448,192,77659,128,0,77983:0:0:0:0:
64,192,77821,128,0,78145:0:0:0:0:
320,192,77983,128,0,78226:0:0:0:0:
320,192,78307,128,0,78388:0:0:0:0:
192,192,79767,128,0,80091:0:0:0:0:
320,192,80091,128,0,80415:0:0:0:0:
64,192,80253,128,0,80578:0:0:0:0:
448,192,80415,128,0,80740:0:0:0:0:
192,192,80578,128,0,80821:0:0:0:0:
192,192,80902,128,0,80983:0:0:0:0:
64,192,82361,128,0,82605:0:0:0:0:
192,192,82361,128,0,82523:0:0:0:0:
320,192,82361,128,0,82442:0:0:0:0:
448,192,82523,1,0,0:0:0:0:
320,192,82605,128,0,82848:0:0:0:0:
192,192,82686,128,0,82767:0:0:0:0:
448,192,82686,128,0,82929:0:0:0:0:
64,192,82848,1,0,0:0:0:0:
192,192,82929,128,0,83172:0:0:0:0:
64,192,83010,128,0,83253:0:0:0:0:
320,192,83010,128,0,83091:0:0:0:0:
448,192,83172,1,0,0:0:0:0:
320,192,83253,128,0,83496:0:0:0:0:
448,192,83334,128,0,83578:0:0:0:0:
192,192,83334,128,0,83415:0:0:0:0:
64,192,83496,1,0,0:0:0:0:
192,192,83578,128,0,83821:0:0:0:0:
320,192,83659,128,0,83740:0:0:0:0:
64,192,83659,128,0,83902:0:0:0:0:
448,192,83821,1,0,0:0:0:0:
320,192,83902,128,0,84145:0:0:0:0:
192,192,83983,128,0,84064:0:0:0:0:
448,192,83983,128,0,84226:0:0:0:0:
64,192,84145,1,0,0:0:0:0:
192,192,84226,128,0,84469:0:0:0:0:
64,192,84307,128,0,84551:0:0:0:0:
320,192,84307,128,0,84388:0:0:0:0:
448,192,84469,1,0,0:0:0:0:
320,192,84551,128,0,84794:0:0:0:0:
448,192,84632,128,0,84875:0:0:0:0:
192,192,84632,128,0,84713:0:0:0:0:
64,192,84794,1,0,0:0:0:0:
192,192,84875,128,0,85118:0:0:0:0:
320,192,84956,128,0,85037:0:0:0:0:
64,192,84956,128,0,85199:0:0:0:0:
448,192,85118,1,0,0:0:0:0:
320,192,85199,128,0,85442:0:0:0:0:
192,192,85280,128,0,85361:0:0:0:0:
448,192,85280,128,0,85523:0:0:0:0:
64,192,85442,1,0,0:0:0:0:
192,192,85523,128,0,85767:0:0:0:0:
64,192,85605,128,0,85848:0:0:0:0:
320,192,85605,128,0,85686:0:0:0:0:
448,192,85767,1,0,0:0:0:0:
320,192,85848,128,0,86091:0:0:0:0:
448,192,85929,128,0,86172:0:0:0:0:
192,192,85929,128,0,86010:0:0:0:0:
64,192,86091,1,0,0:0:0:0:
192,192,86172,128,0,86415:0:0:0:0:
320,192,86253,128,0,86334:0:0:0:0:
64,192,86253,128,0,86496:0:0:0:0:
448,192,86415,1,0,0:0:0:0:
320,192,86496,128,0,86740:0:0:0:0:
192,192,86578,128,0,86659:0:0:0:0:
448,192,86578,128,0,86821:0:0:0:0:
64,192,86740,1,0,0:0:0:0:
192,192,86821,128,0,87064:0:0:0:0:
64,192,86902,128,0,87145:0:0:0:0:
320,192,86902,128,0,86983:0:0:0:0:
448,192,87064,1,0,0:0:0:0:
320,192,87145,128,0,87388:0:0:0:0:
192,192,87226,128,0,87307:0:0:0:0:
448,192,87226,128,0,87469:0:0:0:0:
64,192,87388,128,0,87551:0:0:0:0:
192,192,87388,128,0,87469:0:0:0:0:
448,192,87551,1,0,0:0:0:0:
320,192,87551,128,0,87875:0:0:0:0:
192,192,87632,128,0,87794:0:0:0:0:
64,192,87713,1,0,0:0:0:0:
448,192,87794,1,0,0:0:0:0:
192,192,87875,128,0,88199:0:0:0:0:
64,192,87875,1,0,0:0:0:0:
320,192,87956,128,0,88118:0:0:0:0:
448,192,88037,1,0,0:0:0:0:
64,192,88118,1,0,0:0:0:0:
448,192,88199,1,0,0:0:0:0:
320,192,88199,128,0,88523:0:0:0:0:
192,192,88280,128,0,88442:0:0:0:0:
64,192,88361,1,0,0:0:0:0:
448,192,88442,1,0,0:0:0:0:
192,192,88523,128,0,88848:0:0:0:0:
64,192,88523,1,0,0:0:0:0:
320,192,88605,128,0,88767:0:0:0:0:
448,192,88686,1,0,0:0:0:0:
64,192,88767,1,0,0:0:0:0:
448,192,88848,1,0,0:0:0:0:
320,192,88848,128,0,89172:0:0:0:0:
192,192,88929,128,0,89091:0:0:0:0:
64,192,89010,1,0,0:0:0:0:
448,192,89091,1,0,0:0:0:0:
64,192,89172,1,0,0:0:0:0:
192,192,89172,128,0,89496:0:0:0:0:
320,192,89253,128,0,89415:0:0:0:0:
448,192,89334,1,0,0:0:0:0:
64,192,89415,1,0,0:0:0:0:
448,192,89496,1,0,0:0:0:0:
320,192,89496,128,0,89821:0:0:0:0:
192,192,89578,128,0,89740:0:0:0:0:
64,192,89659,1,0,0:0:0:0:
448,192,89740,1,0,0:0:0:0:
64,192,89821,1,0,0:0:0:0:
192,192,89821,128,0,90064:0:0:0:0:
320,192,89902,128,0,90064:0:0:0:0:
448,192,89983,1,0,0:0:0:0:
64,192,90064,1,0,0:0:0:0:
320,192,90145,128,0,90307:0:0:0:0:
192,192,90145,128,0,90388:0:0:0:0:
64,192,90226,1,0,0:0:0:0:
448,192,90307,1,0,0:0:0:0:
320,192,90388,128,0,90713:0:0:0:0:
64,192,90469,1,0,0:0:0:0:
192,192,90469,128,0,90632:0:0:0:0:
448,192,90551,1,0,0:0:0:0:
64,192,90632,1,0,0:0:0:0:
192,192,90713,128,0,91037:0:0:0:0:
448,192,90794,1,0,0:0:0:0:
320,192,90794,128,0,90956:0:0:0:0:
64,192,90875,1,0,0:0:0:0:
448,192,90956,1,0,0:0:0:0:
320,192,91037,128,0,91361:0:0:0:0:
64,192,91118,1,0,0:0:0:0:
192,192,91118,128,0,91280:0:0:0:0:
448,192,91199,1,0,0:0:0:0:
64,192,91280,1,0,0:0:0:0:
192,192,91361,128,0,91686:0:0:0:0:
448,192,91442,1,0,0:0:0:0:
320,192,91442,128,0,91605:0:0:0:0:
64,192,91523,1,0,0:0:0:0:
448,192,91605,1,0,0:0:0:0:
320,192,91686,128,0,92010:0:0:0:0:
64,192,91767,1,0,0:0:0:0:
192,192,91767,128,0,91929:0:0:0:0:
448,192,91848,1,0,0:0:0:0:
64,192,91929,1,0,0:0:0:0:
192,192,92010,128,0,92334:0:0:0:0:
448,192,92091,1,0,0:0:0:0:
320,192,92091,128,0,92253:0:0:0:0:
64,192,92172,1,0,0:0:0:0:
448,192,92253,1,0,0:0:0:0:
320,192,92334,128,0,92659:0:0:0:0:
64,192,92415,1,0,0:0:0:0:
192,192,92415,128,0,92578:0:0:0:0:
448,192,92496,1,0,0:0:0:0:
64,192,92578,1,0,0:0:0:0:
192,192,92659,1,0,0:0:0:0:
320,192,92740,1,0,0:0:0:0:
448,192,92740,128,0,93064:0:0:0:0:
192,192,92821,128,0,92902:0:0:0:0:
320,192,92902,1,0,0:0:0:0:
64,192,92983,128,0,93064:0:0:0:0:
320,192,93064,128,0,93388:0:0:0:0:
192,192,93064,1,0,0:0:0:0:
64,192,93145,128,0,93226:0:0:0:0:
192,192,93226,1,0,0:0:0:0:
448,192,93307,128,0,93388:0:0:0:0:
192,192,93388,128,0,93713:0:0:0:0:
64,192,93388,1,0,0:0:0:0:
448,192,93469,128,0,93551:0:0:0:0:
64,192,93551,1,0,0:0:0:0:
320,192,93632,128,0,93713:0:0:0:0:
64,192,93713,128,0,94037:0:0:0:0:
448,192,93713,1,0,0:0:0:0:
320,192,93794,128,0,93875:0:0:0:0:
448,192,93875,1,0,0:0:0:0:
192,192,93956,128,0,94037:0:0:0:0:
320,192,94037,1,0,0:0:0:0:
448,192,94037,128,0,94361:0:0:0:0:
192,192,94118,128,0,94199:0:0:0:0:
320,192,94199,1,0,0:0:0:0:
64,192,94280,128,0,94361:0:0:0:0:
320,192,94361,128,0,94686:0:0:0:0:
192,192,94361,1,0,0:0:0:0:
64,192,94442,128,0,94523:0:0:0:0:
192,192,94523,1,0,0:0:0:0:
448,192,94605,128,0,94686:0:0:0:0:
192,192,94686,128,0,95010:0:0:0:0:
64,192,94686,1,0,0:0:0:0:
448,192,94767,128,0,94848:0:0:0:0:
64,192,94848,1,0,0:0:0:0:
320,192,94929,128,0,95010:0:0:0:0:
64,192,95010,128,0,95253:0:0:0:0:
448,192,95010,1,0,0:0:0:0:
192,192,95091,128,0,95172:0:0:0:0:
448,192,95172,1,0,0:0:0:0:
320,192,95253,128,0,95334:0:0:0:0:
192,192,95334,1,0,0:0:0:0:
64,192,95334,128,0,95659:0:0:0:0:
320,192,95415,128,0,95496:0:0:0:0:
192,192,95496,1,0,0:0:0:0:
448,192,95578,128,0,95659:0:0:0:0:
192,192,95659,128,0,95983:0:0:0:0:
320,192,95659,1,0,0:0:0:0:
448,192,95740,128,0,95821:0:0:0:0:
320,192,95821,1,0,0:0:0:0:
64,192,95902,128,0,95983:0:0:0:0:
320,192,95983,128,0,96307:0:0:0:0:
448,192,95983,1,0,0:0:0:0:
64,192,96064,128,0,96145:0:0:0:0:
448,192,96145,1,0,0:0:0:0:
192,192,96226,128,0,96307:0:0:0:0:
448,192,96307,128,0,96632:0:0:0:0:
64,192,96307,1,0,0:0:0:0:
192,192,96388,128,0,96469:0:0:0:0:
64,192,96469,1,0,0:0:0:0:
320,192,96551,128,0,96632:0:0:0:0:
192,192,96632,1,0,0:0:0:0:
64,192,96632,128,0,96956:0:0:0:0:
320,192,96713,128,0,96794:0:0:0:0:
192,192,96794,1,0,0:0:0:0:
448,192,96875,128,0,96956:0:0:0:0:
192,192,96956,128,0,97280:0:0:0:0:
320,192,96956,1,0,0:0:0:0:
448,192,97037,128,0,97118:0:0:0:0:
320,192,97118,1,0,0:0:0:0:
64,192,97199,128,0,97280:0:0:0:0:
320,192,97280,128,0,97605:0:0:0:0:
448,192,97280,1,0,0:0:0:0:
64,192,97361,128,0,97442:0:0:0:0:
448,192,97442,1,0,0:0:0:0:
192,192,97523,128,0,97605:0:0:0:0:
448,192,97605,128,0,97848:0:0:0:0:
64,192,97605,1,0,0:0:0:0:
320,192,97686,128,0,97767:0:0:0:0:
64,192,97767,1,0,0:0:0:0:
192,192,97848,128,0,97929:0:0:0:0:
448,192,97929,128,0,98253:0:0:0:0:
320,192,97929,1,0,0:0:0:0:
192,192,98010,128,0,98091:0:0:0:0:
320,192,98091,1,0,0:0:0:0:
64,192,98172,128,0,98253:0:0:0:0:
192,192,98253,1,0,0:0:0:0:
320,192,98253,128,0,98578:0:0:0:0:
64,192,98334,128,0,98415:0:0:0:0:
192,192,98415,1,0,0:0:0:0:
448,192,98496,128,0,98578:0:0:0:0:
64,192,98578,1,0,0:0:0:0:
192,192,98578,128,0,98902:0:0:0:0:
448,192,98659,128,0,98740:0:0:0:0:
64,192,98740,1,0,0:0:0:0:
320,192,98821,128,0,98902:0:0:0:0:
448,192,98902,1,0,0:0:0:0:
64,192,98902,128,0,99226:0:0:0:0:
320,192,98983,128,0,99064:0:0:0:0:
448,192,99064,1,0,0:0:0:0:
192,192,99145,128,0,99226:0:0:0:0:
448,192,99226,128,0,99551:0:0:0:0:
320,192,99226,1,0,0:0:0:0:
192,192,99307,128,0,99388:0:0:0:0:
320,192,99388,1,0,0:0:0:0:
64,192,99469,128,0,99551:0:0:0:0:
192,192,99551,1,0,0:0:0:0:
320,192,99551,128,0,99875:0:0:0:0:
64,192,99632,128,0,99713:0:0:0:0:
192,192,99713,1,0,0:0:0:0:
448,192,99794,128,0,99875:0:0:0:0:
64,192,99875,1,0,0:0:0:0:
192,192,99875,128,0,100199:0:0:0:0:
448,192,99956,128,0,100037:0:0:0:0:
64,192,100037,1,0,0:0:0:0:
320,192,100118,128,0,100199:0:0:0:0:
448,192,100199,1,0,0:0:0:0:
64,192,100199,128,0,100442:0:0:0:0:
192,192,100280,128,0,100361:0:0:0:0:
448,192,100361,1,0,0:0:0:0:
320,192,100442,128,0,100523:0:0:0:0:
192,192,100523,1,0,0:0:0:0:
64,192,100523,128,0,100848:0:0:0:0:
320,192,100605,128,0,100686:0:0:0:0:
192,192,100686,1,0,0:0:0:0:
448,192,100767,128,0,100848:0:0:0:0:
192,192,100848,128,0,101172:0:0:0:0:
320,192,100848,1,0,0:0:0:0:
448,192,100929,128,0,101010:0:0:0:0:
320,192,101010,1,0,0:0:0:0:
64,192,101091,128,0,101172:0:0:0:0:
320,192,101172,128,0,101496:0:0:0:0:
448,192,101172,1,0,0:0:0:0:
64,192,101253,128,0,101334:0:0:0:0:
448,192,101334,1,0,0:0:0:0:
192,192,101415,128,0,101496:0:0:0:0:
448,192,101496,128,0,101821:0:0:0:0:
64,192,101496,1,0,0:0:0:0:
192,192,101578,128,0,101659:0:0:0:0:
64,192,101659,1,0,0:0:0:0:
320,192,101740,128,0,101821:0:0:0:0:
192,192,101821,1,0,0:0:0:0:
64,192,101821,128,0,102145:0:0:0:0:
320,192,101902,128,0,101983:0:0:0:0:
192,192,101983,1,0,0:0:0:0:
448,192,102064,128,0,102145:0:0:0:0:
192,192,102145,128,0,102469:0:0:0:0:
320,192,102145,1,0,0:0:0:0:
448,192,102226,128,0,102307:0:0:0:0:
320,192,102307,1,0,0:0:0:0:
64,192,102388,128,0,102469:0:0:0:0:
320,192,102469,128,0,102794:0:0:0:0:
448,192,102469,1,0,0:0:0:0:
64,192,102551,128,0,102632:0:0:0:0:
448,192,102632,1,0,0:0:0:0:
192,192,102713,128,0,102794:0:0:0:0:
448,192,102794,128,0,103037:0:0:0:0:
64,192,102794,1,0,0:0:0:0:
320,192,102875,128,0,102956:0:0:0:0:
64,192,102956,1,0,0:0:0:0:
192,192,103037,128,0,103199:0:0:0:0:
320,192,103118,128,0,103280:0:0:0:0:
64,192,103118,1,0,0:0:0:0:
448,192,103199,128,0,103280:0:0:0:0:
64,192,103280,128,0,103605:0:0:0:0:
320,192,103361,128,0,103523:0:0:0:0:
192,192,103442,128,0,103523:0:0:0:0:
448,192,103523,128,0,103848:0:0:0:0:
192,192,103605,128,0,103767:0:0:0:0:
320,192,103686,128,0,103767:0:0:0:0:
64,192,103767,128,0,104091:0:0:0:0:
320,192,103848,128,0,104010:0:0:0:0:
192,192,103929,128,0,104010:0:0:0:0:
448,192,104010,128,0,104334:0:0:0:0:
192,192,104091,128,0,104253:0:0:0:0:
320,192,104172,128,0,104253:0:0:0:0:
64,192,104253,128,0,104578:0:0:0:0:
320,192,104334,128,0,104496:0:0:0:0:
192,192,104415,128,0,104496:0:0:0:0:
448,192,104496,128,0,104821:0:0:0:0:
192,192,104578,128,0,104740:0:0:0:0:
320,192,104659,128,0,104740:0:0:0:0:
64,192,104740,128,0,105064:0:0:0:0:
320,192,104821,128,0,104983:0:0:0:0:
192,192,104902,128,0,104983:0:0:0:0:
448,192,104983,128,0,105307:0:0:0:0:
192,192,105064,128,0,105226:0:0:0:0:
320,192,105145,128,0,105226:0:0:0:0:
64,192,105226,128,0,105551:0:0:0:0:
320,192,105307,128,0,105469:0:0:0:0:
192,192,105388,128,0,105469:0:0:0:0:
448,192,105469,128,0,105632:0:0:0:0:
192,192,105551,128,0,105713:0:0:0:0:
320,192,105632,128,0,105713:0:0:0:0:
448,192,105713,1,0,0:0:0:0:
64,192,105713,128,0,105956:0:0:0:0:
192,192,105794,128,0,105875:0:0:0:0:
320,192,105875,128,0,106037:0:0:0:0:
192,192,105956,128,0,106037:0:0:0:0:
448,192,106037,128,0,106280:0:0:0:0:
64,192,106037,1,0,0:0:0:0:
320,192,106118,128,0,106199:0:0:0:0:
192,192,106199,128,0,106361:0:0:0:0:
320,192,106280,128,0,106361:0:0:0:0:
64,192,106361,128,0,106605:0:0:0:0:
448,192,106361,1,0,0:0:0:0:
192,192,106442,128,0,106523:0:0:0:0:
320,192,106523,128,0,106686:0:0:0:0:
192,192,106605,128,0,106686:0:0:0:0:
448,192,106686,128,0,106929:0:0:0:0:
64,192,106686,1,0,0:0:0:0:
320,192,106767,128,0,106848:0:0:0:0:
192,192,106848,128,0,107010:0:0:0:0:
320,192,106929,128,0,107010:0:0:0:0:
448,192,107010,1,0,0:0:0:0:
64,192,107010,128,0,107253:0:0:0:0:
192,192,107091,128,0,107172:0:0:0:0:
320,192,107172,128,0,107334:0:0:0:0:
192,192,107253,128,0,107334:0:0:0:0:
64,192,107334,1,0,0:0:0:0:
448,192,107334,128,0,107578:0:0:0:0:
320,192,107415,128,0,107496:0:0:0:0:
192,192,107496,128,0,107659:0:0:0:0:
320,192,107578,128,0,107659:0:0:0:0:
448,192,107659,1,0,0:0:0:0:
64,192,107659,1,0,0:0:0:0:
192,192,107713,1,0,0:0:0:0:
320,192,107767,1,0,0:0:0:0:
64,192,107821,1,0,0:0:0:0:
448,192,107875,1,0,0:0:0:0:
192,192,107929,1,0,0:0:0:0:
320,192,107983,1,0,0:0:0:0:
64,192,108037,1,0,0:0:0:0:
448,192,108091,1,0,0:0:0:0:
192,192,108145,1,0,0:0:0:0:
320,192,108226,1,0,0:0:0:0:
64,192,108307,1,0,0:0:0:0:
192,192,108307,1,0,0:0:0:0:
448,192,108361,1,0,0:0:0:0:
192,192,108415,1,0,0:0:0:0:
320,192,108469,1,0,0:0:0:0:
64,192,108523,1,0,0:0:0:0:
448,192,108578,1,0,0:0:0:0:
192,192,108632,1,0,0:0:0:0:
320,192,108686,1,0,0:0:0:0:
64,192,108740,1,0,0:0:0:0:
448,192,108794,1,0,0:0:0:0:
192,192,108848,1,0,0:0:0:0:
320,192,108902,1,0,0:0:0:0:
64,192,108956,1,0,0:0:0:0:
448,192,109010,1,0,0:0:0:0:
192,192,109064,1,0,0:0:0:0:
320,192,109118,1,0,0:0:0:0:
64,192,109172,1,0,0:0:0:0:
448,192,109226,1,0,0:0:0:0:
192,192,109280,1,0,0:0:0:0:
320,192,109334,1,0,0:0:0:0:
64,192,109388,1,0,0:0:0:0:
448,192,109442,1,0,0:0:0:0:
192,192,109496,1,0,0:0:0:0:
320,192,109551,1,0,0:0:0:0:
448,192,109605,1,0,0:0:0:0:
64,192,109605,128,0,109848:0:0:0:0:
192,192,109686,128,0,109767:0:0:0:0:
320,192,109767,128,0,109929:0:0:0:0:
192,192,109848,128,0,109929:0:0:0:0:
448,192,109929,128,0,110172:0:0:0:0:
64,192,109929,1,0,0:0:0:0:
320,192,110010,128,0,110091:0:0:0:0:
192,192,110091,128,0,110253:0:0:0:0:
320,192,110172,128,0,110253:0:0:0:0:
64,192,110253,128,0,110496:0:0:0:0:
448,192,110253,1,0,0:0:0:0:
192,192,110334,128,0,110415:0:0:0:0:
320,192,110415,128,0,110578:0:0:0:0:
192,192,110496,128,0,110578:0:0:0:0:
448,192,110578,128,0,110821:0:0:0:0:
64,192,110578,1,0,0:0:0:0:
320,192,110659,128,0,110740:0:0:0:0:
192,192,110740,128,0,110902:0:0:0:0:
320,192,110821,128,0,110902:0:0:0:0:
64,192,110902,128,0,111145:0:0:0:0:
448,192,110902,1,0,0:0:0:0:
192,192,110983,128,0,111064:0:0:0:0:
320,192,111064,128,0,111226:0:0:0:0:
192,192,111145,128,0,111226:0:0:0:0:
64,192,111226,1,0,0:0:0:0:
448,192,111226,128,0,111469:0:0:0:0:
320,192,111307,128,0,111388:0:0:0:0:
192,192,111388,128,0,111551:0:0:0:0:
320,192,111469,128,0,111551:0:0:0:0:
448,192,111551,1,0,0:0:0:0:
64,192,111551,128,0,111794:0:0:0:0:
192,192,111632,128,0,111713:0:0:0:0:
320,192,111713,128,0,111875:0:0:0:0:
192,192,111794,128,0,111875:0:0:0:0:
64,192,111875,1,0,0:0:0:0:
448,192,111875,128,0,112118:0:0:0:0:
320,192,111956,128,0,112037:0:0:0:0:
192,192,112037,128,0,112199:0:0:0:0:
320,192,112118,128,0,112199:0:0:0:0:
448,192,112199,1,0,0:0:0:0:
64,192,112199,128,0,112442:0:0:0:0:
192,192,112280,128,0,112361:0:0:0:0:
320,192,112361,128,0,112523:0:0:0:0:
192,192,112442,128,0,112523:0:0:0:0:
448,192,112523,128,0,112767:0:0:0:0:
64,192,112523,1,0,0:0:0:0:
320,192,112605,128,0,112686:0:0:0:0:
192,192,112686,128,0,112848:0:0:0:0:
320,192,112767,128,0,112848:0:0:0:0:
64,192,112848,128,0,113091:0:0:0:0:
448,192,112848,1,0,0:0:0:0:
192,192,112929,128,0,113091:0:0:0:0:
320,192,113010,128,0,113091:0:0:0:0:
448,192,113091,1,0,0:0:0:0:
192,192,113172,128,0,113280:0:0:0:0:
64,192,113172,128,0,113226:0:0:0:0:
320,192,113226,128,0,113334:0:0:0:0:
448,192,113280,128,0,113388:0:0:0:0:
64,192,113334,1,0,0:0:0:0:
192,192,113388,1,0,0:0:0:0:
320,192,113442,1,0,0:0:0:0:
192,192,113496,128,0,113902:0:0:0:0:
448,192,113496,1,0,0:0:0:0:
64,192,113496,128,0,113578:0:0:0:0:
448,192,113659,128,0,113740:0:0:0:0:
320,192,113659,128,0,113821:0:0:0:0:
64,192,113659,128,0,113983:0:0:0:0:
192,192,113983,128,0,114145:0:0:0:0:
320,192,113983,128,0,114226:0:0:0:0:
448,192,113983,128,0,114307:0:0:0:0:
64,192,114307,128,0,114632:0:0:0:0:
192,192,114307,128,0,114551:0:0:0:0:
320,192,114307,128,0,114469:0:0:0:0:
192,192,114632,128,0,114794:0:0:0:0:
320,192,114632,128,0,114875:0:0:0:0:
448,192,114632,128,0,115442:0:0:0:0:
64,192,114794,128,0,114875:0:0:0:0:
192,192,114875,128,0,114956:0:0:0:0:
320,192,114956,128,0,115037:0:0:0:0:
64,192,115037,128,0,115118:0:0:0:0:
320,192,115118,128,0,115199:0:0:0:0:
192,192,115199,128,0,115280:0:0:0:0:
64,192,115280,128,0,115361:0:0:0:0:
320,192,115361,128,0,115442:0:0:0:0:
64,192,115442,128,0,115523:0:0:0:0:
192,192,115523,128,0,115605:0:0:0:0:
320,192,115605,128,0,115848:0:0:0:0:
448,192,115605,128,0,115686:0:0:0:0:
448,192,115767,128,0,116010:0:0:0:0:
64,192,115767,128,0,115848:0:0:0:0:
64,192,115929,128,0,116091:0:0:0:0:
192,192,115929,128,0,116010:0:0:0:0:
448,192,116091,1,0,0:0:0:0:
192,192,116091,128,0,116415:0:0:0:0:
320,192,116091,128,0,116172:0:0:0:0:
64,192,116253,128,0,116334:0:0:0:0:
320,192,116253,128,0,116496:0:0:0:0:
448,192,116253,128,0,116578:0:0:0:0:
64,192,116578,128,0,116740:0:0:0:0:
192,192,116578,128,0,116821:0:0:0:0:
320,192,116578,128,0,116902:0:0:0:0:
192,192,116902,128,0,117226:0:0:0:0:
64,192,116902,128,0,117145:0:0:0:0:
448,192,116902,128,0,117064:0:0:0:0:
64,192,117226,128,0,118037:0:0:0:0:
320,192,117226,128,0,117388:0:0:0:0:
448,192,117226,128,0,117469:0:0:0:0:
192,192,117388,128,0,117469:0:0:0:0:
320,192,117469,128,0,117551:0:0:0:0:
448,192,117551,128,0,117632:0:0:0:0:
192,192,117632,128,0,117713:0:0:0:0:
448,192,117713,128,0,117794:0:0:0:0:
320,192,117794,128,0,117875:0:0:0:0:
192,192,117875,128,0,117956:0:0:0:0:
448,192,117956,128,0,118037:0:0:0:0:
192,192,118037,128,0,118118:0:0:0:0:
320,192,118118,128,0,118199:0:0:0:0:
64,192,118199,128,0,118280:0:0:0:0:
448,192,118199,128,0,118442:0:0:0:0:
64,192,118361,128,0,118605:0:0:0:0:
192,192,118361,128,0,118442:0:0:0:0:
320,192,118361,1,0,0:0:0:0:
192,192,118523,128,0,118686:0:0:0:0:
320,192,118523,128,0,118605:0:0:0:0:
448,192,118523,1,0,0:0:0:0:
320,192,118686,128,0,119010:0:0:0:0:
448,192,118686,1,0,0:0:0:0:
64,192,118686,128,0,118767:0:0:0:0:
448,192,118848,128,0,118929:0:0:0:0:
192,192,118848,128,0,119091:0:0:0:0:
64,192,118848,128,0,119172:0:0:0:0:
192,192,119172,128,0,119496:0:0:0:0:
320,192,119172,128,0,119415:0:0:0:0:
448,192,119172,128,0,119334:0:0:0:0:
320,192,119496,128,0,119821:0:0:0:0:
448,192,119496,128,0,119740:0:0:0:0:
64,192,119496,128,0,119659:0:0:0:0:
448,192,119821,128,0,120632:0:0:0:0:
192,192,119821,128,0,120064:0:0:0:0:
64,192,119821,128,0,119983:0:0:0:0:
320,192,119983,128,0,120064:0:0:0:0:
64,192,120064,128,0,120145:0:0:0:0:
192,192,120145,128,0,120226:0:0:0:0:
320,192,120226,128,0,120307:0:0:0:0:
64,192,120307,128,0,120388:0:0:0:0:
320,192,120388,128,0,120469:0:0:0:0:
192,192,120469,128,0,120551:0:0:0:0:
64,192,120551,128,0,120632:0:0:0:0:
320,192,120632,128,0,120713:0:0:0:0:
64,192,120713,128,0,120794:0:0:0:0:
192,192,120794,128,0,121037:0:0:0:0:
448,192,120794,128,0,120875:0:0:0:0:
64,192,120956,128,0,121199:0:0:0:0:
320,192,120956,128,0,121037:0:0:0:0:
448,192,120956,1,0,0:0:0:0:
448,192,121118,128,0,121280:0:0:0:0:
192,192,121118,128,0,121199:0:0:0:0:
320,192,121118,1,0,0:0:0:0:
64,192,121280,1,0,0:0:0:0:
192,192,121280,128,0,121605:0:0:0:0:
320,192,121280,128,0,121361:0:0:0:0:
64,192,121442,128,0,121523:0:0:0:0:
320,192,121442,128,0,121686:0:0:0:0:
448,192,121442,128,0,121767:0:0:0:0:
320,192,121767,128,0,122091:0:0:0:0:
192,192,121767,128,0,122010:0:0:0:0:
64,192,121767,128,0,121929:0:0:0:0:
192,192,122091,128,0,122415:0:0:0:0:
64,192,122091,128,0,122334:0:0:0:0:
448,192,122091,128,0,122253:0:0:0:0:
64,192,122415,128,0,123226:0:0:0:0:
320,192,122415,128,0,122578:0:0:0:0:
448,192,122415,128,0,122659:0:0:0:0:
192,192,122578,128,0,122659:0:0:0:0:
320,192,122659,128,0,122740:0:0:0:0:
448,192,122740,128,0,122821:0:0:0:0:
192,192,122821,128,0,122902:0:0:0:0:
448,192,122902,128,0,122983:0:0:0:0:
320,192,122983,128,0,123064:0:0:0:0:
192,192,123064,128,0,123145:0:0:0:0:
448,192,123145,128,0,123226:0:0:0:0:
192,192,123226,128,0,123307:0:0:0:0:
320,192,123307,128,0,123388:0:0:0:0:
448,192,123388,128,0,123632:0:0:0:0:
64,192,123388,128,0,123469:0:0:0:0:
64,192,123551,128,0,123794:0:0:0:0:
192,192,123551,128,0,123632:0:0:0:0:
320,192,123551,1,0,0:0:0:0:
192,192,123713,128,0,123875:0:0:0:0:
320,192,123713,128,0,123794:0:0:0:0:
448,192,123713,1,0,0:0:0:0:
448,192,123875,128,0,123956:0:0:0:0:
320,192,123875,128,0,124280:0:0:0:0:
64,192,123875,128,0,124118:0:0:0:0:
192,192,124037,128,0,124605:0:0:0:0:
448,192,124037,1,0,0:0:0:0:
64,192,124199,1,0,0:0:0:0:
448,192,124199,128,0,124442:0:0:0:0:
64,192,124361,128,0,124929:0:0:0:0:
320,192,124361,1,0,0:0:0:0:
448,192,124523,1,0,0:0:0:0:
320,192,124523,128,0,124767:0:0:0:0:
448,192,124686,128,0,125740:0:0:0:0:
192,192,124686,1,0,0:0:0:0:
320,192,124848,1,0,0:0:0:0:
192,192,124848,128,0,125091:0:0:0:0:
320,192,125010,128,0,125740:0:0:0:0:
64,192,125010,1,0,0:0:0:0:
192,192,125172,1,0,0:0:0:0:
64,192,125172,128,0,125415:0:0:0:0:
192,192,125334,1,0,0:0:0:0:
64,192,125496,1,0,0:0:0:0:
192,192,125496,128,0,125740:0:0:0:0:
64,192,125659,1,0,0:0:0:0:
448,192,125821,128,0,126064:0:0:0:0:
320,192,125821,1,0,0:0:0:0:
320,192,125983,128,0,126226:0:0:0:0:
64,192,125983,128,0,126064:0:0:0:0:
192,192,126145,128,0,126388:0:0:0:0:
448,192,126145,128,0,126226:0:0:0:0:
64,192,126145,1,0,0:0:0:0:
448,192,126307,128,0,126469:0:0:0:0:
320,192,126307,128,0,126388:0:0:0:0:
320,192,126469,128,0,126875:0:0:0:0:
192,192,126469,128,0,126551:0:0:0:0:
64,192,126469,128,0,126713:0:0:0:0:
448,192,126632,128,0,127199:0:0:0:0:
192,192,126632,1,0,0:0:0:0:
64,192,126794,1,0,0:0:0:0:
192,192,126794,128,0,127037:0:0:0:0:
64,192,126956,128,0,127523:0:0:0:0:
320,192,126956,1,0,0:0:0:0:
192,192,127118,1,0,0:0:0:0:
320,192,127118,128,0,127361:0:0:0:0:
192,192,127280,128,0,128334:0:0:0:0:
448,192,127280,1,0,0:0:0:0:
320,192,127442,1,0,0:0:0:0:
448,192,127442,128,0,127686:0:0:0:0:
320,192,127605,128,0,128334:0:0:0:0:
64,192,127605,1,0,0:0:0:0:
448,192,127767,1,0,0:0:0:0:
64,192,127767,128,0,128010:0:0:0:0:
448,192,127929,1,0,0:0:0:0:
64,192,128091,1,0,0:0:0:0:
448,192,128091,128,0,128334:0:0:0:0:
64,192,128253,1,0,0:0:0:0:
448,192,128415,1,0,0:0:0:0:
320,192,128415,128,0,128659:0:0:0:0:
64,192,128578,128,0,128821:0:0:0:0:
192,192,128578,128,0,128659:0:0:0:0:
192,192,128740,128,0,128983:0:0:0:0:
320,192,128740,128,0,128821:0:0:0:0:
448,192,128740,1,0,0:0:0:0:
320,192,128902,128,0,129064:0:0:0:0:
448,192,128902,128,0,128983:0:0:0:0:
64,192,129064,128,0,129145:0:0:0:0:
192,192,129064,128,0,129469:0:0:0:0:
448,192,129064,128,0,129307:0:0:0:0:
320,192,129226,128,0,129794:0:0:0:0:
64,192,129226,1,0,0:0:0:0:
448,192,129388,1,0,0:0:0:0:
64,192,129388,128,0,129632:0:0:0:0:
448,192,129551,128,0,130118:0:0:0:0:
192,192,129551,1,0,0:0:0:0:
64,192,129713,1,0,0:0:0:0:
192,192,129713,128,0,129956:0:0:0:0:
64,192,129875,128,0,130929:0:0:0:0:
320,192,129875,1,0,0:0:0:0:
192,192,130037,1,0,0:0:0:0:
320,192,130037,128,0,130280:0:0:0:0:
192,192,130199,128,0,130929:0:0:0:0:
448,192,130199,1,0,0:0:0:0:
320,192,130361,1,0,0:0:0:0:
448,192,130361,128,0,130605:0:0:0:0:
320,192,130523,1,0,0:0:0:0:
448,192,130686,1,0,0:0:0:0:
320,192,130686,128,0,130929:0:0:0:0:
448,192,130848,1,0,0:0:0:0:
64,192,131010,1,0,0:0:0:0:
192,192,131010,128,0,131253:0:0:0:0:
320,192,131172,128,0,131415:0:0:0:0:
64,192,131172,128,0,131253:0:0:0:0:
192,192,131334,128,0,131578:0:0:0:0:
448,192,131334,128,0,131415:0:0:0:0:
64,192,131334,1,0,0:0:0:0:
64,192,131496,128,0,131659:0:0:0:0:
320,192,131496,128,0,131578:0:0:0:0:
192,192,131659,128,0,131740:0:0:0:0:
320,192,131659,128,0,131821:0:0:0:0:
448,192,131659,128,0,131902:0:0:0:0:
64,192,132307,128,0,132551:0:0:0:0:
192,192,132307,128,0,132469:0:0:0:0:
320,192,132307,128,0,132388:0:0:0:0:
448,192,132956,128,0,133037:0:0:0:0:
64,192,132956,128,0,133199:0:0:0:0:
320,192,132956,1,0,0:0:0:0:
448,192,133118,128,0,133280:0:0:0:0:
192,192,133118,128,0,133361:0:0:0:0:
64,192,133280,128,0,133361:0:0:0:0:
320,192,133280,128,0,133523:0:0:0:0:
64,192,133442,128,0,133605:0:0:0:0:
448,192,133442,128,0,133523:0:0:0:0:
192,192,133605,1,0,0:0:0:0:
320,192,133605,1,0,0:0:0:0:
448,192,133605,128,0,133686:0:0:0:0:
192,192,133686,1,0,0:0:0:0:
320,192,133767,128,0,133848:0:0:0:0:
64,192,133767,1,0,0:0:0:0:
192,192,133848,1,0,0:0:0:0:
320,192,133929,1,0,0:0:0:0:
448,192,133929,1,0,0:0:0:0:
64,192,133929,128,0,134010:0:0:0:0:
320,192,134010,1,0,0:0:0:0:
192,192,134091,128,0,134172:0:0:0:0:
448,192,134091,1,0,0:0:0:0:
320,192,134172,1,0,0:0:0:0:
192,192,134253,1,0,0:0:0:0:
64,192,134253,1,0,0:0:0:0:
448,192,134253,1,0,0:0:0:0:
64,192,134578,1,0,0:0:0:0:
320,192,134578,1,0,0:0:0:0:
448,192,134578,1,0,0:0:0:0:
192,192,134659,1,0,0:0:0:0:
320,192,134740,1,0,0:0:0:0:
448,192,134821,1,0,0:0:0:0:
192,192,134902,1,0,0:0:0:0:
64,192,134902,1,0,0:0:0:0:
320,192,134956,1,0,0:0:0:0:
64,192,135010,1,0,0:0:0:0:
448,192,135064,1,0,0:0:0:0:
192,192,135118,1,0,0:0:0:0:
320,192,135172,1,0,0:0:0:0:
64,192,135226,1,0,0:0:0:0:
448,192,135226,1,0,0:0:0:0:
192,192,135280,1,0,0:0:0:0:
320,192,135334,1,0,0:0:0:0:
64,192,135388,1,0,0:0:0:0:
448,192,135442,1,0,0:0:0:0:
192,192,135496,1,0,0:0:0:0:
320,192,135551,1,0,0:0:0:0:
448,192,135551,1,0,0:0:0:0:
64,192,135632,1,0,0:0:0:0:
320,192,135713,1,0,0:0:0:0:
192,192,135794,1,0,0:0:0:0:
64,192,135875,1,0,0:0:0:0:
448,192,135875,1,0,0:0:0:0:
320,192,135956,1,0,0:0:0:0:
192,192,136037,1,0,0:0:0:0:
448,192,136091,1,0,0:0:0:0:
64,192,136145,1,0,0:0:0:0:
320,192,136199,1,0,0:0:0:0:
448,192,136199,1,0,0:0:0:0:
192,192,136253,1,0,0:0:0:0:
64,192,136307,1,0,0:0:0:0:
320,192,136361,1,0,0:0:0:0:
192,192,136415,1,0,0:0:0:0:
448,192,136469,1,0,0:0:0:0:
320,192,136523,1,0,0:0:0:0:
64,192,136578,1,0,0:0:0:0:
192,192,136632,1,0,0:0:0:0:
320,192,136686,1,0,0:0:0:0:
192,192,136767,1,0,0:0:0:0:
64,192,136848,1,0,0:0:0:0:
448,192,136848,1,0,0:0:0:0:
320,192,136929,1,0,0:0:0:0:
192,192,137010,1,0,0:0:0:0:
64,192,137091,1,0,0:0:0:0:
320,192,137172,1,0,0:0:0:0:
448,192,137172,1,0,0:0:0:0:
192,192,137226,1,0,0:0:0:0:
448,192,137280,1,0,0:0:0:0:
64,192,137334,1,0,0:0:0:0:
320,192,137388,1,0,0:0:0:0:
192,192,137442,1,0,0:0:0:0:
448,192,137496,1,0,0:0:0:0:
64,192,137496,1,0,0:0:0:0:
320,192,137551,1,0,0:0:0:0:
192,192,137605,1,0,0:0:0:0:
448,192,137659,1,0,0:0:0:0:
64,192,137713,1,0,0:0:0:0:
320,192,137767,1,0,0:0:0:0:
192,192,137821,1,0,0:0:0:0:
64,192,137821,1,0,0:0:0:0:
320,192,137902,1,0,0:0:0:0:
448,192,137983,1,0,0:0:0:0:
192,192,138037,1,0,0:0:0:0:
320,192,138091,1,0,0:0:0:0:
64,192,138145,1,0,0:0:0:0:
448,192,138145,1,0,0:0:0:0:
192,192,138199,1,0,0:0:0:0:
320,192,138253,1,0,0:0:0:0:
64,192,138307,1,0,0:0:0:0:
448,192,138361,1,0,0:0:0:0:
192,192,138415,1,0,0:0:0:0:
320,192,138469,1,0,0:0:0:0:
448,192,138469,1,0,0:0:0:0:
64,192,138523,1,0,0:0:0:0:
320,192,138578,1,0,0:0:0:0:
192,192,138632,1,0,0:0:0:0:
448,192,138713,1,0,0:0:0:0:
192,192,138794,1,0,0:0:0:0:
64,192,138794,1,0,0:0:0:0:
320,192,138875,1,0,0:0:0:0:
192,192,138956,1,0,0:0:0:0:
64,192,139010,1,0,0:0:0:0:
448,192,139064,1,0,0:0:0:0:
320,192,139118,1,0,0:0:0:0:
192,192,139118,1,0,0:0:0:0:
320,192,139199,1,0,0:0:0:0:
192,192,139280,1,0,0:0:0:0:
192,192,139361,1,0,0:0:0:0:
320,192,139442,1,0,0:0:0:0:
448,192,139442,1,0,0:0:0:0:
64,192,139442,1,0,0:0:0:0:
320,192,139767,1,0,0:0:0:0:
192,192,139767,1,0,0:0:0:0:
64,192,139821,1,0,0:0:0:0:
448,192,139875,1,0,0:0:0:0:
192,192,139929,1,0,0:0:0:0:
320,192,139983,1,0,0:0:0:0:
64,192,140037,1,0,0:0:0:0:
448,192,140091,1,0,0:0:0:0:
320,192,140091,1,0,0:0:0:0:
192,192,140145,1,0,0:0:0:0:
448,192,140199,1,0,0:0:0:0:
64,192,140253,1,0,0:0:0:0:
320,192,140307,1,0,0:0:0:0:
192,192,140361,1,0,0:0:0:0:
64,192,140415,1,0,0:0:0:0:
448,192,140415,1,0,0:0:0:0:
320,192,140496,1,0,0:0:0:0:
192,192,140578,1,0,0:0:0:0:
320,192,140632,1,0,0:0:0:0:
448,192,140686,1,0,0:0:0:0:
64,192,140740,1,0,0:0:0:0:
192,192,140740,1,0,0:0:0:0:
320,192,140821,1,0,0:0:0:0:
192,192,140902,1,0,0:0:0:0:
448,192,140956,1,0,0:0:0:0:
64,192,141010,1,0,0:0:0:0:
320,192,141064,1,0,0:0:0:0:
192,192,141064,1,0,0:0:0:0:
448,192,141118,1,0,0:0:0:0:
192,192,141172,1,0,0:0:0:0:
320,192,141226,1,0,0:0:0:0:
64,192,141280,1,0,0:0:0:0:
448,192,141334,1,0,0:0:0:0:
192,192,141388,1,0,0:0:0:0:
320,192,141388,1,0,0:0:0:0:
64,192,141442,1,0,0:0:0:0:
320,192,141496,1,0,0:0:0:0:
192,192,141551,1,0,0:0:0:0:
448,192,141605,1,0,0:0:0:0:
320,192,141659,1,0,0:0:0:0:
64,192,141713,1,0,0:0:0:0:
192,192,141713,1,0,0:0:0:0:
448,192,141767,1,0,0:0:0:0:
64,192,141821,1,0,0:0:0:0:
320,192,141875,1,0,0:0:0:0:
192,192,141956,1,0,0:0:0:0:
448,192,142037,1,0,0:0:0:0:
64,192,142037,1,0,0:0:0:0:
192,192,142091,1,0,0:0:0:0:
320,192,142145,1,0,0:0:0:0:
64,192,142199,1,0,0:0:0:0:
448,192,142253,1,0,0:0:0:0:
192,192,142307,1,0,0:0:0:0:
320,192,142361,1,0,0:0:0:0:
448,192,142361,1,0,0:0:0:0:
64,192,142415,1,0,0:0:0:0:
320,192,142469,1,0,0:0:0:0:
192,192,142523,1,0,0:0:0:0:
448,192,142578,1,0,0:0:0:0:
64,192,142632,1,0,0:0:0:0:
320,192,142686,1,0,0:0:0:0:
448,192,142686,1,0,0:0:0:0:
192,192,142740,1,0,0:0:0:0:
64,192,142794,1,0,0:0:0:0:
448,192,142848,1,0,0:0:0:0:
192,192,142902,1,0,0:0:0:0:
320,192,142956,1,0,0:0:0:0:
64,192,143010,1,0,0:0:0:0:
448,192,143010,1,0,0:0:0:0:
192,192,143091,1,0,0:0:0:0:
320,192,143172,1,0,0:0:0:0:
192,192,143253,1,0,0:0:0:0:
64,192,143334,1,0,0:0:0:0:
448,192,143334,1,0,0:0:0:0:
320,192,143388,1,0,0:0:0:0:
192,192,143442,1,0,0:0:0:0:
448,192,143496,1,0,0:0:0:0:
192,192,143551,1,0,0:0:0:0:
320,192,143605,1,0,0:0:0:0:
448,192,143659,1,0,0:0:0:0:
64,192,143659,1,0,0:0:0:0:
192,192,143713,1,0,0:0:0:0:
320,192,143767,1,0,0:0:0:0:
64,192,143821,1,0,0:0:0:0:
320,192,143875,1,0,0:0:0:0:
192,192,143929,1,0,0:0:0:0:
64,192,143983,1,0,0:0:0:0:
448,192,143983,1,0,0:0:0:0:
320,192,144037,1,0,0:0:0:0:
192,192,144091,1,0,0:0:0:0:
448,192,144145,1,0,0:0:0:0:
192,192,144199,1,0,0:0:0:0:
320,192,144253,1,0,0:0:0:0:
448,192,144307,1,0,0:0:0:0:
64,192,144307,1,0,0:0:0:0:
192,192,144348,1,0,0:0:0:0:
320,192,144388,1,0,0:0:0:0:
448,192,144429,1,0,0:0:0:0:
64,192,144469,1,0,0:0:0:0:
192,192,144510,1,0,0:0:0:0:
320,192,144551,1,0,0:0:0:0:
448,192,144591,1,0,0:0:0:0:
64,192,144632,128,0,144875:0:0:0:0:
192,192,144632,128,0,145037:0:0:0:0:
320,192,144794,128,0,145199:0:0:0:0:
64,192,144956,128,0,145523:0:0:0:0:
192,192,145118,128,0,145361:0:0:0:0:
320,192,145280,128,0,145686:0:0:0:0:
448,192,145280,128,0,145442:0:0:0:0:
192,192,145442,128,0,145848:0:0:0:0:
448,192,145523,128,0,146010:0:0:0:0:
64,192,145605,128,0,145848:0:0:0:0:
320,192,145767,128,0,146334:0:0:0:0:
64,192,145929,128,0,146659:0:0:0:0:
192,192,145929,128,0,146172:0:0:0:0:
448,192,146091,128,0,146496:0:0:0:0:
192,192,146253,128,0,146983:0:0:0:0:
320,192,146415,128,0,146821:0:0:0:0:
448,192,146578,128,0,146821:0:0:0:0:
64,192,146740,128,0,147145:0:0:0:0:
448,192,146902,128,0,147145:0:0:0:0:
320,192,146902,128,0,147469:0:0:0:0:
192,192,147064,128,0,147307:0:0:0:0:
448,192,147226,128,0,147632:0:0:0:0:
64,192,147226,128,0,147794:0:0:0:0:
192,192,147388,128,0,147794:0:0:0:0:
320,192,147551,128,0,147956:0:0:0:0:
448,192,147713,128,0,148118:0:0:0:0:
64,192,147875,128,0,148037:0:0:0:0:
192,192,147875,128,0,148280:0:0:0:0:
320,192,148037,128,0,148442:0:0:0:0:
64,192,148118,128,0,148767:0:0:0:0:
448,192,148199,128,0,148442:0:0:0:0:
192,192,148361,128,0,148767:0:0:0:0:
320,192,148523,128,0,149091:0:0:0:0:
448,192,148523,128,0,148605:0:0:0:0:
448,192,148686,128,0,149091:0:0:0:0:
64,192,148848,128,0,149415:0:0:0:0:
192,192,148848,128,0,148929:0:0:0:0:
192,192,149010,128,0,149415:0:0:0:0:
320,192,149172,128,0,149253:0:0:0:0:
448,192,149172,128,0,149740:0:0:0:0:
320,192,149334,128,0,149740:0:0:0:0:
192,192,149496,128,0,149902:0:0:0:0:
64,192,149496,128,0,150064:0:0:0:0:
320,192,149821,128,0,150226:0:0:0:0:
448,192,149821,128,0,150388:0:0:0:0:
192,192,149983,128,0,150388:0:0:0:0:
64,192,150145,128,0,150551:0:0:0:0:
320,192,150307,128,0,150875:0:0:0:0:
448,192,150469,128,0,150632:0:0:0:0:
192,192,150469,128,0,150713:0:0:0:0:
64,192,150632,128,0,151037:0:0:0:0:
448,192,150713,128,0,151037:0:0:0:0:
192,192,150794,128,0,151199:0:0:0:0:
320,192,150956,128,0,151361:0:0:0:0:
448,192,151118,128,0,151686:0:0:0:0:
64,192,151118,128,0,151523:0:0:0:0:
192,192,151280,128,0,151848:0:0:0:0:
320,192,151442,128,0,151686:0:0:0:0:
64,192,151605,128,0,152010:0:0:0:0:
448,192,151767,128,0,152010:0:0:0:0:
320,192,151767,128,0,152172:0:0:0:0:
192,192,151929,128,0,152334:0:0:0:0:
64,192,152091,128,0,152334:0:0:0:0:
448,192,152091,128,0,152496:0:0:0:0:
320,192,152253,128,0,152821:0:0:0:0:
192,192,152415,128,0,152659:0:0:0:0:
64,192,152415,128,0,153145:0:0:0:0:
448,192,152578,128,0,152983:0:0:0:0:
192,192,152740,128,0,153469:0:0:0:0:
320,192,152902,128,0,153307:0:0:0:0:
448,192,153064,128,0,153632:0:0:0:0:
64,192,153226,128,0,153632:0:0:0:0:
320,192,153388,128,0,153794:0:0:0:0:
192,192,153551,128,0,153956:0:0:0:0:
64,192,153713,128,0,154280:0:0:0:0:
448,192,153713,128,0,154118:0:0:0:0:
320,192,153875,128,0,154442:0:0:0:0:
192,192,154037,128,0,154280:0:0:0:0:
448,192,154199,128,0,154929:0:0:0:0:
192,192,154361,128,0,154767:0:0:0:0:
64,192,154361,128,0,154605:0:0:0:0:
320,192,154523,128,0,154929:0:0:0:0:
64,192,154686,128,0,155253:0:0:0:0:
192,192,154848,128,0,155253:0:0:0:0:
320,192,155010,128,0,155578:0:0:0:0:
448,192,155010,128,0,155091:0:0:0:0:
448,192,155172,128,0,155578:0:0:0:0:
192,192,155334,128,0,155902:0:0:0:0:
64,192,155334,128,0,155415:0:0:0:0:
64,192,155496,128,0,155902:0:0:0:0:
320,192,155659,128,0,155740:0:0:0:0:
448,192,155659,128,0,156267:0:0:0:0:
320,192,155821,128,0,156226:0:0:0:0:
192,192,155983,128,0,156186:0:0:0:0:
64,192,155983,128,0,157523:0:0:0:0:
192,192,156267,128,0,157037:0:0:0:0:
320,192,156307,128,0,157361:0:0:0:0:
448,192,156348,128,0,157199:0:0:0:0:
192,192,157118,128,0,157199:0:0:0:0:
448,192,157280,128,0,157361:0:0:0:0:
320,192,157442,128,0,157523:0:0:0:0:
64,192,157605,128,0,158821:0:0:0:0:
320,192,158415,128,0,158821:0:0:0:0:
64,192,158902,128,0,158983:0:0:0:0:
192,192,158902,128,0,159064:0:0:0:0:
320,192,158902,128,0,159145:0:0:0:0:
448,192,158902,128,0,159226:0:0:0:0:
448,192,161496,128,0,161577:0:0:0:0:
320,192,161496,128,0,161658:0:0:0:0:
192,192,161496,128,0,161739:0:0:0:0:
64,192,161496,128,0,161820:0:0:0:0:
192,192,164091,128,0,164172:0:0:0:0:
64,192,164091,128,0,164253:0:0:0:0:
320,192,164091,128,0,164334:0:0:0:0:
448,192,164091,128,0,164415:0:0:0:0:
192,192,166361,128,0,166604:0:0:0:0:
320,192,166685,128,0,166766:0:0:0:0:
448,192,166685,128,0,166847:0:0:0:0:
192,192,166685,128,0,166929:0:0:0:0:
64,192,166685,128,0,167010:0:0:0:0:
448,192,167983,128,0,168064:0:0:0:0:
320,192,167983,128,0,168145:0:0:0:0:
192,192,167983,128,0,168226:0:0:0:0:
64,192,167983,128,0,168307:0:0:0:0:
64,192,168631,128,0,168712:0:0:0:0:
192,192,168631,128,0,168793:0:0:0:0:
320,192,168631,128,0,168874:0:0:0:0:
448,192,168631,128,0,168956:0:0:0:0:
64,192,168874,1,0,0:0:0:0:
192,192,168874,1,0,0:0:0:0:
64,192,168956,128,0,169199:0:0:0:0:
320,192,168956,128,0,169037:0:0:0:0:
448,192,169118,128,0,169280:0:0:0:0:
320,192,169118,128,0,169199:0:0:0:0:
64,192,169280,1,0,0:0:0:0:
192,192,169280,1,0,0:0:0:0:
320,192,169280,128,0,169361:0:0:0:0:
448,192,169361,128,0,169442:0:0:0:0:
192,192,169442,128,0,169523:0:0:0:0:
320,192,169523,128,0,169604:0:0:0:0:
64,192,169604,128,0,169766:0:0:0:0:
448,192,169604,128,0,169685:0:0:0:0:
192,192,169685,128,0,169847:0:0:0:0:
320,192,169766,128,0,169929:0:0:0:0:
448,192,169847,128,0,169929:0:0:0:0:
192,192,169929,128,0,170010:0:0:0:0:
64,192,170010,128,0,170091:0:0:0:0:
320,192,170091,128,0,170172:0:0:0:0:
192,192,170172,128,0,170253:0:0:0:0:
448,192,170253,128,0,170415:0:0:0:0:
64,192,170253,128,0,170334:0:0:0:0:
320,192,170334,128,0,170496:0:0:0:0:
192,192,170415,128,0,170577:0:0:0:0:
64,192,170496,128,0,170577:0:0:0:0:
320,192,170577,128,0,170658:0:0:0:0:
448,192,170658,128,0,170739:0:0:0:0:
192,192,170739,128,0,170820:0:0:0:0:
320,192,170820,128,0,170902:0:0:0:0:
64,192,170902,128,0,171064:0:0:0:0:
448,192,170902,128,0,170983:0:0:0:0:
192,192,170983,128,0,171145:0:0:0:0:
320,192,171064,128,0,171226:0:0:0:0:
448,192,171145,128,0,171226:0:0:0:0:
64,192,171226,128,0,171307:0:0:0:0:
320,192,171307,128,0,171388:0:0:0:0:
192,192,171388,128,0,171469:0:0:0:0:
448,192,171469,128,0,171550:0:0:0:0:
192,192,171550,128,0,171712:0:0:0:0:
64,192,171550,128,0,171631:0:0:0:0:
320,192,171631,128,0,171793:0:0:0:0:
448,192,171712,128,0,171793:0:0:0:0:
64,192,171712,1,0,0:0:0:0:
192,192,171793,1,0,0:0:0:0:
448,192,171874,1,0,0:0:0:0:
320,192,171874,128,0,171956:0:0:0:0:
192,192,171956,128,0,172037:0:0:0:0:
64,192,172037,128,0,172118:0:0:0:0:
320,192,172118,128,0,172199:0:0:0:0:
64,192,172199,128,0,172280:0:0:0:0:
192,192,172199,128,0,172361:0:0:0:0:
320,192,172280,128,0,172442:0:0:0:0:
448,192,172361,128,0,172523:0:0:0:0:
64,192,172442,128,0,172523:0:0:0:0:
192,192,172523,128,0,172604:0:0:0:0:
320,192,172604,128,0,172685:0:0:0:0:
448,192,172685,128,0,172766:0:0:0:0:
192,192,172766,128,0,172847:0:0:0:0:
448,192,172847,128,0,172929:0:0:0:0:
320,192,172847,128,0,173010:0:0:0:0:
192,192,172929,128,0,173091:0:0:0:0:
64,192,173010,128,0,173172:0:0:0:0:
448,192,173091,128,0,173172:0:0:0:0:
320,192,173172,128,0,173253:0:0:0:0:
192,192,173253,128,0,173334:0:0:0:0:
64,192,173334,128,0,173415:0:0:0:0:
320,192,173415,128,0,173496:0:0:0:0:
64,192,173496,128,0,173577:0:0:0:0:
192,192,173496,128,0,173658:0:0:0:0:
320,192,173577,128,0,173739:0:0:0:0:
448,192,173658,128,0,173820:0:0:0:0:
64,192,173739,128,0,173820:0:0:0:0:
192,192,173820,128,0,173901:0:0:0:0:
320,192,173901,128,0,173983:0:0:0:0:
448,192,173983,128,0,174064:0:0:0:0:
192,192,174064,1,0,0:0:0:0:
64,192,174064,128,0,174226:0:0:0:0:
320,192,174145,128,0,174307:0:0:0:0:
448,192,174145,128,0,174226:0:0:0:0:
192,192,174226,128,0,174388:0:0:0:0:
64,192,174307,128,0,174388:0:0:0:0:
448,192,174307,1,0,0:0:0:0:
320,192,174388,1,0,0:0:0:0:
64,192,174469,1,0,0:0:0:0:
192,192,174469,128,0,174550:0:0:0:0:
448,192,174550,128,0,174631:0:0:0:0:
192,192,174631,128,0,174712:0:0:0:0:
448,192,174712,128,0,174793:0:0:0:0:
192,192,174793,128,0,174956:0:0:0:0:
64,192,174793,128,0,174874:0:0:0:0:
320,192,174874,128,0,175037:0:0:0:0:
448,192,174956,128,0,175118:0:0:0:0:
64,192,175037,128,0,175118:0:0:0:0:
320,192,175118,128,0,175199:0:0:0:0:
64,192,175199,128,0,175280:0:0:0:0:
320,192,175280,128,0,175361:0:0:0:0:
64,192,175361,128,0,175442:0:0:0:0:
448,192,175442,128,0,175523:0:0:0:0:
320,192,175442,128,0,175604:0:0:0:0:
192,192,175523,128,0,175685:0:0:0:0:
64,192,175604,128,0,175766:0:0:0:0:
448,192,175685,128,0,175766:0:0:0:0:
192,192,175766,128,0,175847:0:0:0:0:
320,192,175766,1,0,0:0:0:0:
448,192,175847,128,0,175929:0:0:0:0:
192,192,175929,128,0,176010:0:0:0:0:
448,192,176010,128,0,176091:0:0:0:0:
192,192,176091,128,0,176253:0:0:0:0:
64,192,176091,128,0,176172:0:0:0:0:
320,192,176172,128,0,176334:0:0:0:0:
448,192,176253,128,0,176415:0:0:0:0:
64,192,176334,128,0,176415:0:0:0:0:
320,192,176415,128,0,176496:0:0:0:0:
64,192,176496,128,0,176577:0:0:0:0:
320,192,176577,128,0,176658:0:0:0:0:
64,192,176658,128,0,176739:0:0:0:0:
448,192,176739,128,0,176820:0:0:0:0:
320,192,176739,128,0,176901:0:0:0:0:
192,192,176820,128,0,176983:0:0:0:0:
64,192,176901,128,0,177064:0:0:0:0:
448,192,176983,128,0,177064:0:0:0:0:
192,192,177064,128,0,177388:0:0:0:0:
320,192,177064,128,0,177145:0:0:0:0:
64,192,177145,128,0,177226:0:0:0:0:
448,192,177226,128,0,177307:0:0:0:0:
64,192,177307,128,0,177388:0:0:0:0:
320,192,177388,128,0,177712:0:0:0:0:
448,192,177388,128,0,177469:0:0:0:0:
192,192,177469,128,0,177550:0:0:0:0:
448,192,177550,128,0,177631:0:0:0:0:
64,192,177631,128,0,177712:0:0:0:0:
192,192,177712,128,0,178037:0:0:0:0:
448,192,177712,128,0,177793:0:0:0:0:
64,192,177793,128,0,177874:0:0:0:0:
320,192,177874,128,0,177956:0:0:0:0:
64,192,177956,128,0,178037:0:0:0:0:
320,192,178037,128,0,178361:0:0:0:0:
448,192,178037,128,0,178118:0:0:0:0:
64,192,178118,128,0,178199:0:0:0:0:
448,192,178199,128,0,178280:0:0:0:0:
192,192,178280,128,0,178361:0:0:0:0:
448,192,178361,128,0,178523:0:0:0:0:
64,192,178361,128,0,178523:0:0:0:0:
64,192,178685,128,0,178847:0:0:0:0:
448,192,178685,128,0,178847:0:0:0:0:
448,192,179010,128,0,179172:0:0:0:0:
64,192,179010,128,0,179172:0:0:0:0:
64,192,179334,1,0,0:0:0:0:
192,192,179334,1,0,0:0:0:0:
448,192,179334,1,0,0:0:0:0:
192,192,179415,1,0,0:0:0:0:
320,192,179496,1,0,0:0:0:0:
320,192,179577,1,0,0:0:0:0:
192,192,179658,1,0,0:0:0:0:
64,192,179658,1,0,0:0:0:0:
448,192,179658,1,0,0:0:0:0:
192,192,179780,1,0,0:0:0:0:
320,192,179820,1,0,0:0:0:0:
448,192,179861,1,0,0:0:0:0:
448,192,179983,1,0,0:0:0:0:
64,192,179983,1,0,0:0:0:0:
192,192,179983,1,0,0:0:0:0:
64,192,180104,1,0,0:0:0:0:
192,192,180145,1,0,0:0:0:0:
320,192,180185,1,0,0:0:0:0:
320,192,180307,1,0,0:0:0:0:
448,192,180307,1,0,0:0:0:0:
64,192,180307,1,0,0:0:0:0:
448,192,180429,1,0,0:0:0:0:
320,192,180469,1,0,0:0:0:0:
192,192,180510,1,0,0:0:0:0:
192,192,180631,1,0,0:0:0:0:
320,192,180631,1,0,0:0:0:0:
64,192,180631,1,0,0:0:0:0:
320,192,180753,1,0,0:0:0:0:
192,192,180793,1,0,0:0:0:0:
64,192,180834,1,0,0:0:0:0:
64,192,180956,1,0,0:0:0:0:
192,192,180956,1,0,0:0:0:0:
448,192,180956,1,0,0:0:0:0:
192,192,181077,1,0,0:0:0:0:
320,192,181118,1,0,0:0:0:0:
448,192,181158,1,0,0:0:0:0:
448,192,181280,1,0,0:0:0:0:
320,192,181280,1,0,0:0:0:0:
192,192,181280,1,0,0:0:0:0:
320,192,181401,1,0,0:0:0:0:
192,192,181442,1,0,0:0:0:0:
64,192,181483,1,0,0:0:0:0:
64,192,181604,1,0,0:0:0:0:
192,192,181604,1,0,0:0:0:0:
448,192,181604,1,0,0:0:0:0:
192,192,181726,1,0,0:0:0:0:
320,192,181766,1,0,0:0:0:0:
448,192,181807,1,0,0:0:0:0:
320,192,181929,1,0,0:0:0:0:
448,192,181929,1,0,0:0:0:0:
64,192,181929,1,0,0:0:0:0:
320,192,182050,1,0,0:0:0:0:
192,192,182091,1,0,0:0:0:0:
64,192,182131,1,0,0:0:0:0:
192,192,182253,1,0,0:0:0:0:
64,192,182253,1,0,0:0:0:0:
448,192,182253,1,0,0:0:0:0:
192,192,182374,1,0,0:0:0:0:
320,192,182415,1,0,0:0:0:0:
448,192,182456,1,0,0:0:0:0:
448,192,182577,1,0,0:0:0:0:
64,192,182577,1,0,0:0:0:0:
192,192,182577,1,0,0:0:0:0:
64,192,182699,1,0,0:0:0:0:
192,192,182739,1,0,0:0:0:0:
320,192,182780,1,0,0:0:0:0:
320,192,182901,1,0,0:0:0:0:
448,192,182901,1,0,0:0:0:0:
192,192,182901,1,0,0:0:0:0:
448,192,183023,1,0,0:0:0:0:
320,192,183064,1,0,0:0:0:0:
192,192,183104,1,0,0:0:0:0:
320,192,183226,1,0,0:0:0:0:
192,192,183226,1,0,0:0:0:0:
64,192,183226,1,0,0:0:0:0:
320,192,183347,1,0,0:0:0:0:
192,192,183388,1,0,0:0:0:0:
64,192,183429,1,0,0:0:0:0:
192,192,183550,1,0,0:0:0:0:
64,192,183550,1,0,0:0:0:0:
448,192,183550,1,0,0:0:0:0:
192,192,183672,1,0,0:0:0:0:
320,192,183712,1,0,0:0:0:0:
448,192,183753,1,0,0:0:0:0:
320,192,183874,1,0,0:0:0:0:
448,192,183874,1,0,0:0:0:0:
64,192,183874,1,0,0:0:0:0:
320,192,183996,1,0,0:0:0:0:
192,192,184037,1,0,0:0:0:0:
64,192,184077,1,0,0:0:0:0:
192,192,184199,1,0,0:0:0:0:
64,192,184199,1,0,0:0:0:0:
448,192,184199,1,0,0:0:0:0:
192,192,184320,1,0,0:0:0:0:
320,192,184361,1,0,0:0:0:0:
448,192,184401,1,0,0:0:0:0:
448,192,184523,1,0,0:0:0:0:
320,192,184523,1,0,0:0:0:0:
64,192,184523,1,0,0:0:0:0:
320,192,184604,1,0,0:0:0:0:
192,192,184685,1,0,0:0:0:0:
192,192,184766,1,0,0:0:0:0:
64,192,184847,1,0,0:0:0:0:
320,192,184847,1,0,0:0:0:0:
448,192,184847,1,0,0:0:0:0:
64,192,184969,1,0,0:0:0:0:
448,192,185010,1,0,0:0:0:0:
192,192,185050,1,0,0:0:0:0:
64,192,185172,1,0,0:0:0:0:
192,192,185172,1,0,0:0:0:0:
320,192,185172,1,0,0:0:0:0:
320,192,185293,1,0,0:0:0:0:
64,192,185334,1,0,0:0:0:0:
448,192,185374,1,0,0:0:0:0:
320,192,185496,1,0,0:0:0:0:
448,192,185496,1,0,0:0:0:0:
192,192,185496,1,0,0:0:0:0:
192,192,185618,1,0,0:0:0:0:
448,192,185658,1,0,0:0:0:0:
64,192,185699,1,0,0:0:0:0:
64,192,185820,1,0,0:0:0:0:
448,192,185820,1,0,0:0:0:0:
192,192,185820,1,0,0:0:0:0:
448,192,185942,1,0,0:0:0:0:
64,192,185983,1,0,0:0:0:0:
320,192,186023,1,0,0:0:0:0:
448,192,186145,1,0,0:0:0:0:
192,192,186145,1,0,0:0:0:0:
320,192,186145,1,0,0:0:0:0:
192,192,186266,1,0,0:0:0:0:
448,192,186307,1,0,0:0:0:0:
64,192,186347,1,0,0:0:0:0:
64,192,186469,1,0,0:0:0:0:
320,192,186469,1,0,0:0:0:0:
192,192,186469,1,0,0:0:0:0:
320,192,186591,1,0,0:0:0:0:
64,192,186631,1,0,0:0:0:0:
448,192,186672,1,0,0:0:0:0:
448,192,186793,1,0,0:0:0:0:
64,192,186793,1,0,0:0:0:0:
192,192,186793,1,0,0:0:0:0:
64,192,186915,1,0,0:0:0:0:
448,192,186956,1,0,0:0:0:0:
192,192,186996,1,0,0:0:0:0:
192,192,187118,1,0,0:0:0:0:
320,192,187118,1,0,0:0:0:0:
448,192,187118,1,0,0:0:0:0:
192,192,187280,1,0,0:0:0:0:
320,192,187280,1,0,0:0:0:0:
448,192,187280,1,0,0:0:0:0:
64,192,187442,1,0,0:0:0:0:
192,192,187442,1,0,0:0:0:0:
448,192,187442,1,0,0:0:0:0:
448,192,187564,1,0,0:0:0:0:
64,192,187604,1,0,0:0:0:0:
320,192,187645,1,0,0:0:0:0:
320,192,187766,1,0,0:0:0:0:
64,192,187766,1,0,0:0:0:0:
192,192,187766,1,0,0:0:0:0:
64,192,187888,1,0,0:0:0:0:
448,192,187929,1,0,0:0:0:0:
192,192,187969,1,0,0:0:0:0:
192,192,188091,1,0,0:0:0:0:
320,192,188091,1,0,0:0:0:0:
448,192,188091,1,0,0:0:0:0:
320,192,188212,1,0,0:0:0:0:
64,192,188253,1,0,0:0:0:0:
448,192,188293,1,0,0:0:0:0:
192,192,188415,1,0,0:0:0:0:
448,192,188415,1,0,0:0:0:0:
64,192,188415,1,0,0:0:0:0:
192,192,188537,1,0,0:0:0:0:
448,192,188577,1,0,0:0:0:0:
64,192,188618,1,0,0:0:0:0:
448,192,188739,1,0,0:0:0:0:
64,192,188739,1,0,0:0:0:0:
320,192,188739,1,0,0:0:0:0:
448,192,188861,1,0,0:0:0:0:
64,192,188901,1,0,0:0:0:0:
320,192,188942,1,0,0:0:0:0:
192,192,189064,1,0,0:0:0:0:
64,192,189064,1,0,0:0:0:0:
320,192,189064,1,0,0:0:0:0:
192,192,189145,1,0,0:0:0:0:
320,192,189226,1,0,0:0:0:0:
320,192,189307,1,0,0:0:0:0:
192,192,189388,1,0,0:0:0:0:
64,192,189388,1,0,0:0:0:0:
448,192,189388,1,0,0:0:0:0:
192,192,189550,1,0,0:0:0:0:
64,192,189550,1,0,0:0:0:0:
448,192,189550,1,0,0:0:0:0:
64,192,189712,1,0,0:0:0:0:
192,192,189712,1,0,0:0:0:0:
320,192,189712,1,0,0:0:0:0:
448,192,189712,1,0,0:0:0:0:
64,192,189874,1,0,0:0:0:0:
320,192,189874,1,0,0:0:0:0:
448,192,189874,1,0,0:0:0:0:
320,192,190037,1,0,0:0:0:0:
64,192,190037,1,0,0:0:0:0:
448,192,190037,128,0,190280:0:0:0:0:
320,192,190158,1,0,0:0:0:0:
192,192,190199,1,0,0:0:0:0:
64,192,190239,1,0,0:0:0:0:
320,192,190361,128,0,190604:0:0:0:0:
64,192,190361,1,0,0:0:0:0:
448,192,190361,1,0,0:0:0:0:
448,192,190483,1,0,0:0:0:0:
192,192,190523,1,0,0:0:0:0:
64,192,190564,1,0,0:0:0:0:
192,192,190685,128,0,190929:0:0:0:0:
64,192,190685,1,0,0:0:0:0:
320,192,190685,1,0,0:0:0:0:
64,192,190807,1,0,0:0:0:0:
320,192,190847,1,0,0:0:0:0:
448,192,190888,1,0,0:0:0:0:
64,192,191010,128,0,191253:0:0:0:0:
448,192,191010,1,0,0:0:0:0:
192,192,191010,1,0,0:0:0:0:
192,192,191131,1,0,0:0:0:0:
320,192,191172,1,0,0:0:0:0:
448,192,191212,1,0,0:0:0:0:
192,192,191334,128,0,191577:0:0:0:0:
448,192,191334,1,0,0:0:0:0:
64,192,191334,1,0,0:0:0:0:
448,192,191456,1,0,0:0:0:0:
320,192,191496,1,0,0:0:0:0:
64,192,191537,1,0,0:0:0:0:
320,192,191658,128,0,191901:0:0:0:0:
64,192,191658,1,0,0:0:0:0:
192,192,191658,1,0,0:0:0:0:
64,192,191780,1,0,0:0:0:0:
192,192,191820,1,0,0:0:0:0:
448,192,191861,1,0,0:0:0:0:
448,192,191983,128,0,192226:0:0:0:0:
320,192,191983,1,0,0:0:0:0:
192,192,191983,1,0,0:0:0:0:
320,192,192104,1,0,0:0:0:0:
192,192,192145,1,0,0:0:0:0:
64,192,192185,1,0,0:0:0:0:
64,192,192307,128,0,192550:0:0:0:0:
192,192,192307,1,0,0:0:0:0:
448,192,192307,1,0,0:0:0:0:
192,192,192429,1,0,0:0:0:0:
320,192,192469,1,0,0:0:0:0:
448,192,192510,1,0,0:0:0:0:
320,192,192631,128,0,192874:0:0:0:0:
448,192,192631,1,0,0:0:0:0:
64,192,192631,1,0,0:0:0:0:
448,192,192753,1,0,0:0:0:0:
192,192,192793,1,0,0:0:0:0:
64,192,192834,1,0,0:0:0:0:
192,192,192956,128,0,193199:0:0:0:0:
64,192,192956,1,0,0:0:0:0:
448,192,192956,1,0,0:0:0:0:
448,192,193077,1,0,0:0:0:0:
320,192,193118,1,0,0:0:0:0:
64,192,193158,1,0,0:0:0:0:
64,192,193280,128,0,193523:0:0:0:0:
192,192,193280,1,0,0:0:0:0:
320,192,193280,1,0,0:0:0:0:
192,192,193401,1,0,0:0:0:0:
320,192,193442,1,0,0:0:0:0:
448,192,193483,1,0,0:0:0:0:
448,192,193604,128,0,193847:0:0:0:0:
64,192,193604,1,0,0:0:0:0:
192,192,193604,1,0,0:0:0:0:
64,192,193726,1,0,0:0:0:0:
192,192,193766,1,0,0:0:0:0:
320,192,193807,1,0,0:0:0:0:
192,192,193929,128,0,194172:0:0:0:0:
448,192,193929,1,0,0:0:0:0:
320,192,193929,1,0,0:0:0:0:
448,192,194050,1,0,0:0:0:0:
320,192,194091,1,0,0:0:0:0:
64,192,194131,1,0,0:0:0:0:
320,192,194253,128,0,194496:0:0:0:0:
64,192,194253,1,0,0:0:0:0:
192,192,194253,1,0,0:0:0:0:
64,192,194374,1,0,0:0:0:0:
192,192,194415,1,0,0:0:0:0:
448,192,194456,1,0,0:0:0:0:
448,192,194577,128,0,194820:0:0:0:0:
320,192,194577,1,0,0:0:0:0:
192,192,194577,1,0,0:0:0:0:
320,192,194699,1,0,0:0:0:0:
192,192,194739,1,0,0:0:0:0:
64,192,194780,1,0,0:0:0:0:
64,192,194901,1,0,0:0:0:0:
448,192,194901,1,0,0:0:0:0:
320,192,194901,1,0,0:0:0:0:
320,192,194983,1,0,0:0:0:0:
192,192,195064,1,0,0:0:0:0:
192,192,195145,1,0,0:0:0:0:
320,192,195226,1,0,0:0:0:0:
64,192,195226,1,0,0:0:0:0:
448,192,195226,128,0,195469:0:0:0:0:
64,192,195347,1,0,0:0:0:0:
320,192,195388,1,0,0:0:0:0:
192,192,195429,1,0,0:0:0:0:
320,192,195550,128,0,195793:0:0:0:0:
192,192,195550,1,0,0:0:0:0:
448,192,195550,1,0,0:0:0:0:
192,192,195672,1,0,0:0:0:0:
448,192,195712,1,0,0:0:0:0:
64,192,195753,1,0,0:0:0:0:
192,192,195874,128,0,196118:0:0:0:0:
64,192,195874,1,0,0:0:0:0:
320,192,195874,1,0,0:0:0:0:
320,192,196037,1,0,0:0:0:0:
448,192,196037,1,0,0:0:0:0:
320,192,196118,128,0,196280:0:0:0:0:
448,192,196118,128,0,196199:0:0:0:0:
64,192,196199,128,0,196442:0:0:0:0:
192,192,196199,128,0,196361:0:0:0:0:
448,192,196361,128,0,196523:0:0:0:0:
192,192,196523,128,0,196766:0:0:0:0:
64,192,196523,1,0,0:0:0:0:
320,192,196523,1,0,0:0:0:0:
320,192,196645,1,0,0:0:0:0:
64,192,196685,1,0,0:0:0:0:
448,192,196726,1,0,0:0:0:0:
320,192,196847,128,0,197091:0:0:0:0:
448,192,196847,1,0,0:0:0:0:
192,192,196847,1,0,0:0:0:0:
192,192,196969,1,0,0:0:0:0:
448,192,197010,1,0,0:0:0:0:
64,192,197050,1,0,0:0:0:0:
448,192,197172,128,0,197415:0:0:0:0:
64,192,197172,1,0,0:0:0:0:
320,192,197172,1,0,0:0:0:0:
64,192,197293,1,0,0:0:0:0:
320,192,197334,1,0,0:0:0:0:
192,192,197374,1,0,0:0:0:0:
64,192,197496,128,0,197739:0:0:0:0:
192,192,197496,1,0,0:0:0:0:
448,192,197496,1,0,0:0:0:0:
192,192,197658,1,0,0:0:0:0:
320,192,197658,1,0,0:0:0:0:
448,192,197658,1,0,0:0:0:0:
320,192,197820,128,0,198064:0:0:0:0:
64,192,197820,1,0,0:0:0:0:
448,192,197820,1,0,0:0:0:0:
64,192,197942,1,0,0:0:0:0:
448,192,197983,1,0,0:0:0:0:
192,192,198023,1,0,0:0:0:0:
192,192,198145,128,0,198388:0:0:0:0:
448,192,198145,1,0,0:0:0:0:
320,192,198145,1,0,0:0:0:0:
448,192,198266,1,0,0:0:0:0:
64,192,198307,1,0,0:0:0:0:
320,192,198347,1,0,0:0:0:0:
64,192,198469,128,0,198712:0:0:0:0:
320,192,198469,1,0,0:0:0:0:
192,192,198469,1,0,0:0:0:0:
320,192,198591,1,0,0:0:0:0:
192,192,198631,1,0,0:0:0:0:
448,192,198672,1,0,0:0:0:0:
448,192,198793,128,0,199037:0:0:0:0:
192,192,198793,1,0,0:0:0:0:
64,192,198793,1,0,0:0:0:0:
192,192,198915,1,0,0:0:0:0:
320,192,198956,1,0,0:0:0:0:
64,192,198996,1,0,0:0:0:0:
192,192,199118,128,0,199361:0:0:0:0:
448,192,199118,1,0,0:0:0:0:
64,192,199118,1,0,0:0:0:0:
448,192,199239,1,0,0:0:0:0:
64,192,199280,1,0,0:0:0:0:
320,192,199320,1,0,0:0:0:0:
320,192,199442,1,0,0:0:0:0:
192,192,199442,1,0,0:0:0:0:
64,192,199442,1,0,0:0:0:0:
192,192,199523,1,0,0:0:0:0:
320,192,199604,1,0,0:0:0:0:
320,192,199685,1,0,0:0:0:0:
448,192,199766,128,0,200010:0:0:0:0:
64,192,199766,1,0,0:0:0:0:
192,192,199766,1,0,0:0:0:0:
64,192,199929,1,0,0:0:0:0:
192,192,199929,128,0,200091:0:0:0:0:
64,192,200091,128,0,200334:0:0:0:0:
320,192,200091,1,0,0:0:0:0:
448,192,200091,1,0,0:0:0:0:
448,192,200253,1,0,0:0:0:0:
320,192,200253,128,0,200415:0:0:0:0:
448,192,200415,128,0,200496:0:0:0:0:
192,192,200415,128,0,200658:0:0:0:0:
64,192,200415,128,0,200820:0:0:0:0:
320,192,200577,1,0,0:0:0:0:
448,192,200577,128,0,200983:0:0:0:0:
320,192,200739,1,0,0:0:0:0:
192,192,200739,128,0,200820:0:0:0:0:
192,192,200901,128,0,200983:0:0:0:0:
64,192,200901,128,0,200983:0:0:0:0:
448,192,201064,128,0,201226:0:0:0:0:
320,192,201064,128,0,201145:0:0:0:0:
64,192,201064,128,0,201307:0:0:0:0:
192,192,201226,1,0,0:0:0:0:
320,192,201226,128,0,201469:0:0:0:0:
448,192,201307,128,0,201631:0:0:0:0:
192,192,201388,1,0,0:0:0:0:
64,192,201388,128,0,201469:0:0:0:0:
320,192,201550,128,0,201631:0:0:0:0:
64,192,201550,128,0,201631:0:0:0:0:
448,192,201712,128,0,201956:0:0:0:0:
320,192,201712,128,0,202118:0:0:0:0:
192,192,201712,128,0,201793:0:0:0:0:
64,192,201874,1,0,0:0:0:0:
192,192,201874,128,0,202280:0:0:0:0:
64,192,202037,1,0,0:0:0:0:
448,192,202037,128,0,202118:0:0:0:0:
448,192,202199,128,0,202280:0:0:0:0:
320,192,202199,128,0,202280:0:0:0:0:
320,192,202361,128,0,202604:0:0:0:0:
192,192,202361,128,0,202766:0:0:0:0:
64,192,202361,128,0,202929:0:0:0:0:
448,192,202685,1,0,0:0:0:0:
320,192,202685,128,0,202766:0:0:0:0:
320,192,202847,128,0,202929:0:0:0:0:
192,192,202847,128,0,202929:0:0:0:0:
448,192,203010,128,0,203091:0:0:0:0:
192,192,203010,128,0,203253:0:0:0:0:
64,192,203010,128,0,203415:0:0:0:0:
320,192,203172,1,0,0:0:0:0:
448,192,203172,128,0,203577:0:0:0:0:
320,192,203334,1,0,0:0:0:0:
192,192,203334,128,0,203415:0:0:0:0:
192,192,203496,128,0,203577:0:0:0:0:
64,192,203496,128,0,203577:0:0:0:0:
320,192,203658,128,0,203739:0:0:0:0:
448,192,203658,128,0,203820:0:0:0:0:
64,192,203658,128,0,203901:0:0:0:0:
192,192,203820,1,0,0:0:0:0:
320,192,203820,128,0,204064:0:0:0:0:
448,192,203901,128,0,204226:0:0:0:0:
192,192,203983,1,0,0:0:0:0:
64,192,203983,128,0,204064:0:0:0:0:
320,192,204145,128,0,204226:0:0:0:0:
64,192,204145,128,0,204226:0:0:0:0:
192,192,204307,128,0,204388:0:0:0:0:
448,192,204307,128,0,204550:0:0:0:0:
320,192,204307,128,0,204712:0:0:0:0:
64,192,204469,1,0,0:0:0:0:
192,192,204469,128,0,204874:0:0:0:0:
64,192,204631,1,0,0:0:0:0:
448,192,204631,128,0,204712:0:0:0:0:
320,192,204793,128,0,204874:0:0:0:0:
448,192,204793,128,0,204874:0:0:0:0:
320,192,204956,128,0,205199:0:0:0:0:
192,192,204956,128,0,205037:0:0:0:0:
64,192,204956,128,0,205361:0:0:0:0:
448,192,205118,1,0,0:0:0:0:
192,192,205118,128,0,205280:0:0:0:0:
448,192,205280,1,0,0:0:0:0:
320,192,205280,128,0,205442:0:0:0:0:
192,192,205361,128,0,205523:0:0:0:0:
448,192,205442,1,0,0:0:0:0:
64,192,205442,128,0,205523:0:0:0:0:
320,192,205523,1,0,0:0:0:0:
448,192,205604,128,0,205847:0:0:0:0:
192,192,205604,128,0,205685:0:0:0:0:
64,192,205604,128,0,206010:0:0:0:0:
320,192,205766,1,0,0:0:0:0:
192,192,205766,128,0,206172:0:0:0:0:
320,192,205929,1,0,0:0:0:0:
448,192,205929,128,0,206010:0:0:0:0:
64,192,206091,128,0,206172:0:0:0:0:
448,192,206091,128,0,206172:0:0:0:0:
320,192,206253,128,0,206334:0:0:0:0:
192,192,206253,128,0,206415:0:0:0:0:
64,192,206253,128,0,206415:0:0:0:0:
448,192,206415,1,0,0:0:0:0:
320,192,206415,128,0,206496:0:0:0:0:
192,192,206496,128,0,206658:0:0:0:0:
64,192,206496,128,0,206658:0:0:0:0:
448,192,206577,1,0,0:0:0:0:
320,192,206577,128,0,206820:0:0:0:0:
192,192,206739,128,0,206820:0:0:0:0:
64,192,206739,128,0,206820:0:0:0:0:
448,192,206901,128,0,206983:0:0:0:0:
320,192,206901,128,0,207307:0:0:0:0:
192,192,206901,128,0,207145:0:0:0:0:
64,192,207064,1,0,0:0:0:0:
448,192,207064,128,0,207469:0:0:0:0:
64,192,207226,1,0,0:0:0:0:
192,192,207226,128,0,207307:0:0:0:0:
320,192,207388,128,0,207469:0:0:0:0:
192,192,207388,128,0,207469:0:0:0:0:
448,192,207550,128,0,207956:0:0:0:0:
320,192,207550,128,0,207793:0:0:0:0:
64,192,207550,128,0,208118:0:0:0:0:
192,192,207874,1,0,0:0:0:0:
320,192,207874,128,0,207956:0:0:0:0:
320,192,208037,128,0,208118:0:0:0:0:
448,192,208037,128,0,208118:0:0:0:0:
448,192,208199,128,0,208442:0:0:0:0:
192,192,208199,128,0,208280:0:0:0:0:
64,192,208199,128,0,208604:0:0:0:0:
320,192,208361,1,0,0:0:0:0:
192,192,208361,128,0,208766:0:0:0:0:
320,192,208523,1,0,0:0:0:0:
448,192,208523,128,0,208604:0:0:0:0:
64,192,208685,128,0,208766:0:0:0:0:
448,192,208685,128,0,208766:0:0:0:0:
320,192,208847,128,0,208929:0:0:0:0:
192,192,208847,128,0,208929:0:0:0:0:
64,192,208847,128,0,209091:0:0:0:0:
320,192,209010,128,0,209172:0:0:0:0:
192,192,209010,128,0,209091:0:0:0:0:
448,192,209091,1,0,0:0:0:0:
192,192,209172,128,0,209253:0:0:0:0:
64,192,209172,128,0,209334:0:0:0:0:
320,192,209253,128,0,209415:0:0:0:0:
192,192,209334,128,0,209415:0:0:0:0:
448,192,209334,1,0,0:0:0:0:
64,192,209415,1,0,0:0:0:0:
192,192,209496,128,0,209739:0:0:0:0:
320,192,209496,128,0,209577:0:0:0:0:
448,192,209496,128,0,209901:0:0:0:0:
64,192,209658,1,0,0:0:0:0:
320,192,209658,128,0,209820:0:0:0:0:
64,192,209820,1,0,0:0:0:0:
192,192,209820,128,0,209983:0:0:0:0:
320,192,209901,128,0,210064:0:0:0:0:
448,192,209983,128,0,210064:0:0:0:0:
64,192,209983,1,0,0:0:0:0:
192,192,210064,1,0,0:0:0:0:
64,192,210145,128,0,210388:0:0:0:0:
320,192,210145,128,0,210226:0:0:0:0:
448,192,210145,128,0,210388:0:0:0:0:
192,192,210307,1,0,0:0:0:0:
320,192,210307,128,0,210550:0:0:0:0:
192,192,210469,1,0,0:0:0:0:
64,192,210469,128,0,210712:0:0:0:0:
448,192,210469,128,0,210550:0:0:0:0:
320,192,210631,128,0,210712:0:0:0:0:
448,192,210631,128,0,210712:0:0:0:0:
64,192,210793,128,0,211199:0:0:0:0:
192,192,210793,128,0,211037:0:0:0:0:
448,192,210793,128,0,210874:0:0:0:0:
448,192,210956,128,0,211361:0:0:0:0:
320,192,210956,1,0,0:0:0:0:
192,192,211118,128,0,211199:0:0:0:0:
320,192,211118,1,0,0:0:0:0:
64,192,211280,128,0,211361:0:0:0:0:
192,192,211280,128,0,211361:0:0:0:0:
64,192,211442,128,0,211685:0:0:0:0:
320,192,211442,128,0,211523:0:0:0:0:
448,192,211442,128,0,211604:0:0:0:0:
320,192,211604,128,0,211847:0:0:0:0:
192,192,211604,1,0,0:0:0:0:
448,192,211685,128,0,212010:0:0:0:0:
64,192,211766,128,0,211847:0:0:0:0:
192,192,211766,1,0,0:0:0:0:
64,192,211929,128,0,212010:0:0:0:0:
320,192,211929,128,0,212010:0:0:0:0:
192,192,212091,128,0,212172:0:0:0:0:
320,192,212091,128,0,212496:0:0:0:0:
448,192,212091,128,0,212334:0:0:0:0:
192,192,212253,128,0,212658:0:0:0:0:
64,192,212253,1,0,0:0:0:0:
448,192,212415,128,0,212496:0:0:0:0:
64,192,212415,1,0,0:0:0:0:
320,192,212577,128,0,212658:0:0:0:0:
448,192,212577,128,0,212658:0:0:0:0:
64,192,212739,128,0,213307:0:0:0:0:
192,192,212739,128,0,213145:0:0:0:0:
320,192,212739,128,0,212983:0:0:0:0:
320,192,213064,128,0,213145:0:0:0:0:
448,192,213064,1,0,0:0:0:0:
192,192,213226,128,0,213307:0:0:0:0:
320,192,213226,128,0,213307:0:0:0:0:
64,192,213388,128,0,213793:0:0:0:0:
192,192,213388,128,0,213631:0:0:0:0:
448,192,213388,128,0,213469:0:0:0:0:
448,192,213550,128,0,213956:0:0:0:0:
320,192,213550,1,0,0:0:0:0:
192,192,213712,128,0,213793:0:0:0:0:
320,192,213712,1,0,0:0:0:0:
64,192,213874,128,0,213956:0:0:0:0:
192,192,213874,128,0,213956:0:0:0:0:
64,192,214037,128,0,214280:0:0:0:0:
448,192,214037,128,0,214199:0:0:0:0:
320,192,214037,128,0,214118:0:0:0:0:
320,192,214199,128,0,214442:0:0:0:0:
192,192,214199,1,0,0:0:0:0:
448,192,214280,128,0,214604:0:0:0:0:
64,192,214361,128,0,214442:0:0:0:0:
192,192,214361,1,0,0:0:0:0:
64,192,214523,128,0,214604:0:0:0:0:
320,192,214523,128,0,214604:0:0:0:0:
320,192,214685,128,0,215091:0:0:0:0:
448,192,214685,128,0,214929:0:0:0:0:
192,192,214685,128,0,214766:0:0:0:0:
192,192,214847,128,0,215253:0:0:0:0:
64,192,214847,1,0,0:0:0:0:
448,192,215010,128,0,215091:0:0:0:0:
64,192,215010,1,0,0:0:0:0:
448,192,215172,128,0,215253:0:0:0:0:
320,192,215172,128,0,215253:0:0:0:0:
64,192,215334,128,0,215739:0:0:0:0:
192,192,215334,128,0,215415:0:0:0:0:
320,192,215334,128,0,215577:0:0:0:0:
192,192,215496,128,0,215658:0:0:0:0:
448,192,215496,1,0,0:0:0:0:
320,192,215658,128,0,215820:0:0:0:0:
448,192,215658,1,0,0:0:0:0:
192,192,215739,128,0,215901:0:0:0:0:
64,192,215820,128,0,215901:0:0:0:0:
448,192,215820,1,0,0:0:0:0:
320,192,215901,1,0,0:0:0:0:
64,192,215983,128,0,216388:0:0:0:0:
192,192,215983,128,0,216064:0:0:0:0:
448,192,215983,128,0,216226:0:0:0:0:
192,192,216145,128,0,216550:0:0:0:0:
320,192,216145,1,0,0:0:0:0:
448,192,216307,128,0,216388:0:0:0:0:
320,192,216307,1,0,0:0:0:0:
448,192,216469,128,0,216550:0:0:0:0:
64,192,216469,128,0,216550:0:0:0:0:
64,192,216631,128,0,216793:0:0:0:0:
192,192,216631,128,0,216793:0:0:0:0:
320,192,216631,128,0,216712:0:0:0:0:
320,192,216793,128,0,216874:0:0:0:0:
448,192,216793,1,0,0:0:0:0:
64,192,216874,128,0,217037:0:0:0:0:
192,192,216874,128,0,217037:0:0:0:0:
320,192,216956,128,0,217199:0:0:0:0:
448,192,216956,1,0,0:0:0:0:
64,192,217118,128,0,217199:0:0:0:0:
192,192,217118,128,0,217199:0:0:0:0:
192,192,217280,128,0,217523:0:0:0:0:
320,192,217280,128,0,217685:0:0:0:0:
448,192,217280,128,0,217361:0:0:0:0:
448,192,217442,128,0,217847:0:0:0:0:
64,192,217442,1,0,0:0:0:0:
192,192,217604,128,0,217685:0:0:0:0:
64,192,217604,1,0,0:0:0:0:
192,192,217766,128,0,217847:0:0:0:0:
320,192,217766,128,0,217847:0:0:0:0:
64,192,217929,128,0,218010:0:0:0:0:
320,192,217929,128,0,218172:0:0:0:0:
448,192,217929,128,0,218334:0:0:0:0:
64,192,218091,128,0,218496:0:0:0:0:
192,192,218091,1,0,0:0:0:0:
320,192,218253,128,0,218334:0:0:0:0:
192,192,218253,1,0,0:0:0:0:
448,192,218415,128,0,218496:0:0:0:0:
320,192,218415,128,0,218496:0:0:0:0:
64,192,218577,128,0,218983:0:0:0:0:
192,192,218577,128,0,218658:0:0:0:0:
448,192,218577,128,0,218820:0:0:0:0:
192,192,218739,128,0,219145:0:0:0:0:
320,192,218739,1,0,0:0:0:0:
448,192,218901,128,0,218983:0:0:0:0:
320,192,218901,1,0,0:0:0:0:
448,192,219064,128,0,219145:0:0:0:0:
64,192,219064,128,0,219145:0:0:0:0:
64,192,219226,128,0,219469:0:0:0:0:
192,192,219226,128,0,219307:0:0:0:0:
320,192,219226,128,0,219307:0:0:0:0:
192,192,219388,128,0,219469:0:0:0:0:
320,192,219388,128,0,219550:0:0:0:0:
448,192,219469,1,0,0:0:0:0:
64,192,219550,128,0,219712:0:0:0:0:
192,192,219550,128,0,219631:0:0:0:0:
320,192,219631,128,0,219793:0:0:0:0:
448,192,219712,1,0,0:0:0:0:
192,192,219712,128,0,219793:0:0:0:0:
64,192,219793,1,0,0:0:0:0:
192,192,219874,128,0,219956:0:0:0:0:
448,192,219874,1,0,0:0:0:0:
320,192,219874,128,0,220118:0:0:0:0:
64,192,220037,128,0,220118:0:0:0:0:
192,192,220037,128,0,220280:0:0:0:0:
448,192,220199,128,0,220280:0:0:0:0:
64,192,220199,128,0,220442:0:0:0:0:
320,192,220361,128,0,220442:0:0:0:0:
448,192,220361,128,0,220604:0:0:0:0:
192,192,220523,128,0,220604:0:0:0:0:
64,192,220523,128,0,220766:0:0:0:0:
448,192,220847,1,0,0:0:0:0:
320,192,220847,1,0,0:0:0:0:
64,192,220847,1,0,0:0:0:0:
64,192,221172,1,0,0:0:0:0:
192,192,221172,128,0,221658:0:0:0:0:
448,192,221172,128,0,221415:0:0:0:0:
320,192,221172,128,0,221334:0:0:0:0:
64,192,221334,128,0,221415:0:0:0:0:
320,192,221496,1,0,0:0:0:0:
448,192,221496,128,0,221983:0:0:0:0:
64,192,221496,128,0,221739:0:0:0:0:
320,192,221658,128,0,221739:0:0:0:0:
192,192,221820,1,0,0:0:0:0:
64,192,221820,128,0,222307:0:0:0:0:
320,192,221820,128,0,222064:0:0:0:0:
192,192,221983,128,0,222064:0:0:0:0:
448,192,222145,1,0,0:0:0:0:
320,192,222145,128,0,222631:0:0:0:0:
192,192,222145,128,0,222388:0:0:0:0:
448,192,222307,128,0,222388:0:0:0:0:
64,192,222469,1,0,0:0:0:0:
192,192,222469,128,0,222956:0:0:0:0:
448,192,222469,128,0,222712:0:0:0:0:
64,192,222631,128,0,222712:0:0:0:0:
320,192,222793,1,0,0:0:0:0:
448,192,222793,128,0,223280:0:0:0:0:
64,192,222793,128,0,223037:0:0:0:0:
320,192,222956,128,0,223037:0:0:0:0:
192,192,223118,1,0,0:0:0:0:
320,192,223118,128,0,223604:0:0:0:0:
64,192,223118,128,0,223361:0:0:0:0:
192,192,223280,128,0,223361:0:0:0:0:
448,192,223442,1,0,0:0:0:0:
64,192,223442,128,0,223929:0:0:0:0:
192,192,223442,128,0,223685:0:0:0:0:
448,192,223604,128,0,223685:0:0:0:0:
320,192,223766,1,0,0:0:0:0:
448,192,223766,128,0,224253:0:0:0:0:
192,192,223766,128,0,224010:0:0:0:0:
320,192,223929,128,0,224010:0:0:0:0:
64,192,224091,1,0,0:0:0:0:
192,192,224091,128,0,224577:0:0:0:0:
320,192,224091,128,0,224334:0:0:0:0:
64,192,224253,128,0,224334:0:0:0:0:
448,192,224415,1,0,0:0:0:0:
320,192,224415,128,0,224901:0:0:0:0:
64,192,224415,128,0,224658:0:0:0:0:
448,192,224577,128,0,224658:0:0:0:0:
192,192,224739,1,0,0:0:0:0:
64,192,224739,128,0,225226:0:0:0:0:
448,192,224739,128,0,224983:0:0:0:0:
192,192,224901,128,0,224983:0:0:0:0:
320,192,225064,1,0,0:0:0:0:
448,192,225064,128,0,225550:0:0:0:0:
192,192,225064,128,0,225307:0:0:0:0:
320,192,225226,128,0,225307:0:0:0:0:
64,192,225388,1,0,0:0:0:0:
192,192,225388,128,0,225874:0:0:0:0:
320,192,225388,128,0,225631:0:0:0:0:
64,192,225550,128,0,225631:0:0:0:0:
448,192,225712,1,0,0:0:0:0:
320,192,225712,128,0,226199:0:0:0:0:
64,192,225712,128,0,225956:0:0:0:0:
448,192,225874,128,0,225956:0:0:0:0:
192,192,226037,1,0,0:0:0:0:
64,192,226037,128,0,226361:0:0:0:0:
448,192,226037,128,0,226280:0:0:0:0:
192,192,226199,128,0,226280:0:0:0:0:
448,192,226361,128,0,226685:0:0:0:0:
320,192,226361,128,0,226442:0:0:0:0:
320,192,226523,128,0,226847:0:0:0:0:
192,192,226523,128,0,226604:0:0:0:0:
192,192,226685,128,0,227010:0:0:0:0:
64,192,226685,128,0,226766:0:0:0:0:
64,192,226847,128,0,227172:0:0:0:0:
448,192,226847,128,0,226929:0:0:0:0:
448,192,227010,128,0,227334:0:0:0:0:
320,192,227010,128,0,227091:0:0:0:0:
320,192,227172,128,0,227496:0:0:0:0:
192,192,227172,128,0,227253:0:0:0:0:
192,192,227334,128,0,227658:0:0:0:0:
64,192,227334,128,0,227415:0:0:0:0:
64,192,227496,128,0,227820:0:0:0:0:
448,192,227496,128,0,227577:0:0:0:0:
448,192,227658,128,0,227983:0:0:0:0:
320,192,227658,128,0,227739:0:0:0:0:
320,192,227820,128,0,228145:0:0:0:0:
192,192,227820,128,0,227901:0:0:0:0:
192,192,227983,128,0,228307:0:0:0:0:
64,192,227983,128,0,228064:0:0:0:0:
64,192,228145,128,0,228469:0:0:0:0:
448,192,228145,128,0,228226:0:0:0:0:
448,192,228307,128,0,228631:0:0:0:0:
320,192,228307,128,0,228388:0:0:0:0:
320,192,228469,128,0,228793:0:0:0:0:
192,192,228469,128,0,228550:0:0:0:0:
192,192,228631,128,0,228956:0:0:0:0:
64,192,228631,128,0,228712:0:0:0:0:
448,192,228793,128,0,228874:0:0:0:0:
64,192,228793,128,0,228956:0:0:0:0:
320,192,228956,1,0,0:0:0:0:
448,192,228956,1,0,0:0:0:0:
192,192,229037,1,0,0:0:0:0:
320,192,229118,1,0,0:0:0:0:
192,192,229199,1,0,0:0:0:0:
320,192,229280,1,0,0:0:0:0:
192,192,229361,1,0,0:0:0:0:
320,192,229442,1,0,0:0:0:0:
192,192,229523,1,0,0:0:0:0:
320,192,229604,1,0,0:0:0:0:
192,192,229685,1,0,0:0:0:0:
320,192,229766,1,0,0:0:0:0:
192,192,229847,1,0,0:0:0:0:
320,192,229929,1,0,0:0:0:0:
192,192,230010,1,0,0:0:0:0:
320,192,230091,1,0,0:0:0:0:
192,192,230172,1,0,0:0:0:0:
320,192,230253,1,0,0:0:0:0:
64,192,230253,128,0,233172:0:0:0:0:
448,192,230253,128,0,233172:0:0:0:0:
192,192,230334,1,0,0:0:0:0:
320,192,230415,1,0,0:0:0:0:
192,192,230496,1,0,0:0:0:0:
320,192,230577,1,0,0:0:0:0:
192,192,230658,1,0,0:0:0:0:
320,192,230739,1,0,0:0:0:0:
192,192,230820,1,0,0:0:0:0:
320,192,230901,1,0,0:0:0:0:
192,192,230983,1,0,0:0:0:0:
320,192,231064,1,0,0:0:0:0:
192,192,231145,1,0,0:0:0:0:
320,192,231226,1,0,0:0:0:0:
192,192,231307,1,0,0:0:0:0:
320,192,231388,1,0,0:0:0:0:
192,192,231469,1,0,0:0:0:0:
320,192,231550,1,0,0:0:0:0:
192,192,231631,1,0,0:0:0:0:
320,192,231712,1,0,0:0:0:0:
192,192,231793,1,0,0:0:0:0:
320,192,231874,1,0,0:0:0:0:
192,192,231956,1,0,0:0:0:0:
320,192,232037,1,0,0:0:0:0:
192,192,232118,1,0,0:0:0:0:
320,192,232199,1,0,0:0:0:0:
192,192,232280,1,0,0:0:0:0:
320,192,232361,1,0,0:0:0:0:
192,192,232442,1,0,0:0:0:0:
320,192,232523,1,0,0:0:0:0:
192,192,232604,1,0,0:0:0:0:
320,192,232685,1,0,0:0:0:0:
192,192,232766,1,0,0:0:0:0:
320,192,232847,128,0,233172:0:0:0:0:
