osu file format v14

[General]
AudioFilename: audio.ogg
AudioLeadIn: 0
PreviewTime:20915
Countdown: 0
SampleSet: Soft
StackLeniency: 0.3
Mode: 0
LetterboxInBreaks: 0
WidescreenStoryboard: 1
EpilepsyWarning: 1

[Editor]
DistanceSpacing: 0.9
BeatDivisor: 8
GridSize: 32
TimelineZoom: 2.5

[Metadata]
Title:INTERNET YAMERO
TitleUnicode:INTERNET YAMERO
Artist:Aiobahn feat. KOTOKO
ArtistUnicode:Aiobahn feat. KOTOKO
Creator:Ducky-
Version:NORMAL LIFE
Source:NEEDY GIRL OVERDOSE
Tags:big data iljaaz anxient gorou wanpachi tohru mitsuhashi 前田地生 まろん maron iosys eurobeat rawstyle speedcore extratone ame-chan amechan wss playground overdose synthpop arcaea にゃるら nyalra nyarura xemono maeda chisei as_chisei インターネットやめろ electronic japanese pop jpop j-pop female vocal vocalist ft. featuring videogame video game music vgm denpa hardstyle techno hardcore synthwave streamer overload ame kangel omgkawaiiangel angel p-chan pchan tenshi muse dash fa featured artist
BeatmapID:4346977
BeatmapSetID:2074198

[Difficulty]
HPDrainRate:3
CircleSize:2.7
OverallDifficulty:4
ApproachRate:6
SliderMultiplier:1.09999990463257
SliderTickRate:1

[Events]
//Background and Video events
Video,-1880,"video.mp4"
0,0,"default.jpg",0,0
//Break Periods
2,75723,79663
2,143182,156203
//Storyboard Layer 0 (Background)
//Storyboard Layer 1 (Fail)
//Storyboard Layer 2 (Pass)
//Storyboard Layer 3 (Foreground)
//Storyboard Layer 4 (Overlay)
//Storyboard Sound Samples

[TimingPoints]
-2314,324.324324324324,4,2,1,60,1,0
23631,-100,4,2,1,80,0,0
34010,-100,4,2,2,70,0,0
80713,-100,4,2,1,80,0,0
122226,-100,4,2,1,80,0,1
132604,-100,4,2,1,90,0,0
133253,-100,4,2,1,90,0,1
142983,-100,4,2,1,90,0,0
157253,-100,4,2,1,60,0,0
177685,-100,4,2,1,90,0,0
178010,-100,4,2,1,80,0,1
198767,-100,4,2,1,80,0,0
219523,-100,4,2,1,90,0,0

[Colours]
Combo1 : 250,120,175
Combo2 : 147,200,253

[HitObjects]
0,30,280,6,0,P|88:38|117:45,1,109.999990463257,2|2,1:0|1:0,2:0:0:0:
172,104,929,2,0,P|179:149|182:182,2,54.9999952316285,2|2|2,1:0|1:0|1:0,2:0:0:0:
197,68,1415,1,2,1:0:0:0:
234,44,1577,2,0,L|298:29,1,54.9999952316285,2|2,1:0|1:0,2:0:0:0:
359,82,2064,2,0,L|431:100,1,54.9999952316285,2|2,1:0|1:0,2:0:0:0:
479,152,2550,2,0,L|491:218,1,54.9999952316285,8|8,2:0|2:0,2:0:0:0:
485,250,2875,1,6,1:0:0:0:
0,384,5469,5,6,1:0:0:0:
512,0,8064,5,6,1:0:0:0:
0,384,10658,5,6,1:0:0:0:
512,0,11956,5,4,1:0:0:0:
401,136,12604,1,12,1:0:0:0:
327,72,12929,2,0,L|255:53,1,54.9999952316285,8|10,1:0|1:0,2:0:0:0:
245,91,13253,6,0,L|8:138,1,219.999980926514,8|2,1:0|1:0,2:0:0:0:
24,221,14226,1,0,1:0:0:0:
20,309,14550,2,0,L|243:251,1,219.999980926514,2|2,1:0|1:0,2:0:0:0:
265,171,15523,1,0,1:0:0:0:
299,89,15848,6,0,L|526:147,1,219.999980926514,8|2,1:0|1:0,2:0:0:0:
496,230,16821,1,0,1:0:0:0:
476,315,17145,2,0,L|238:251,1,219.999980926514,2|2,1:0|1:0,2:0:0:0:
238,173,18118,1,8,1:3:0:0:
214,88,18442,6,0,L|99:112,1,109.999990463257,4|2,1:0|1:0,2:0:0:0:
67,189,19091,1,8,1:2:0:0:
76,276,19415,1,8,1:0:0:0:
143,334,19739,2,0,L|258:310,1,109.999990463257,4|2,1:0|1:0,2:0:0:0:
308,245,20388,1,8,1:2:0:0:
270,164,20713,1,8,1:0:0:0:
318,88,21037,6,0,L|445:67,2,109.999990463257,12|10|10,1:0|1:0|1:0,2:0:0:0:
247,35,22010,1,2,1:0:0:0:
192,104,22334,2,0,L|81:86,1,109.999990463257,2|2,2:1|2:1,2:0:0:0:
14,141,22983,1,2,2:1:0:0:
66,211,23307,2,0,L|79:290,1,54.9999952316285,12|8,1:0|1:0,2:0:0:0:
110,291,23631,6,0,L|228:309,1,109.999990463257,4|8,1:0|1:0,2:0:0:0:
306,298,24280,1,8,1:0:0:0:
333,332,24442,2,0,L|401:343,1,54.9999952316285,2|8,2:1|1:0,2:0:0:0:
424,317,24767,1,2,1:0:0:0:
439,268,24929,6,0,L|417:134,1,109.999990463257,4|10,1:0|1:0,1:0:0:0:
452,77,25577,1,4,1:0:0:0:
376,31,25902,2,0,L|304:43,1,54.9999952316285,12|2,1:0|1:0,2:0:0:0:
282,59,26226,6,0,L|166:38,1,109.999990463257,14|10,1:0|1:0,2:0:0:0:
149,77,26713,1,2,1:0:0:0:
105,75,26875,1,12,1:0:0:0:
70,102,27037,2,0,L|2:117,2,54.9999952316285,2|10|2,1:0|1:0|1:0,2:0:0:0:
85,143,27523,6,0,L|107:266,1,109.999990463257,12|10,1:0|1:0,2:0:0:0:
92,338,28172,1,4,1:0:0:0:
171,376,28496,2,0,L|231:359,1,54.9999952316285,10|8,1:0|1:0,2:0:0:0:
261,336,28821,6,0,L|280:208,1,109.999990463257,14|8,1:0|1:0,2:0:0:0:
298,141,29469,1,14,1:0:0:0:
317,101,29631,2,0,L|327:42,1,54.9999952316285,8|14,1:0|1:0,2:0:0:0:
363,23,29956,1,2,2:1:0:0:
407,30,30118,6,0,P|454:52|473:115,1,109.999990463257,14|10,1:0|1:0,2:0:0:0:
425,177,30767,1,12,1:0:0:0:
486,239,31091,2,0,L|475:304,1,54.9999952316285,12|8,1:0|1:0,2:0:0:0:
458,333,31415,6,0,L|347:348,1,109.999990463257,10|8,1:0|1:0,2:0:0:0:
311,326,31902,1,2,1:0:0:0:
269,339,32064,1,8,1:0:0:0:
230,317,32226,2,0,L|124:347,1,109.999990463257,2|0,2:0|1:0,2:0:0:0:
88,373,32713,2,0,L|22:356,1,54.9999952316285,4|2,1:0|2:0,2:0:0:0:
23,316,33037,1,2,1:0:0:0:
74,244,33361,1,2,2:1:0:0:
148,290,33685,1,14,1:0:0:0:
182,209,34010,6,0,P|161:141|150:80,1,109.999990463257,4|10,3:2|2:0,2:0:0:0:
200,29,34658,2,0,P|268:8|329:-3,1,109.999990463257,2|10,3:2|2:0,2:0:0:0:
370,60,35307,1,0,3:0:0:0:
455,38,35631,1,8,2:0:0:0:
464,125,35956,2,0,P|492:142|516:154,2,54.9999952316285,0|0|10,3:0|3:0|2:0,2:0:0:0:
403,188,36604,6,0,P|352:214|279:218,1,109.999990463257,2|8,3:2|2:0,2:0:0:0:
221,259,37253,2,0,P|195:208|191:135,1,109.999990463257,2|8,3:2|2:0,2:0:0:0:
228,77,37902,1,2,3:2:0:0:
157,24,38226,1,8,2:0:0:0:
80,66,38550,2,0,P|42:59|11:56,2,54.9999952316285,0|0|10,3:0|3:0|2:0,2:0:0:0:
58,151,39199,6,0,P|64:208|85:283,1,109.999990463257,4|8,3:2|2:0,2:0:0:0:
150,306,39848,2,0,P|196:272|250:216,1,109.999990463257,0|10,3:2|2:0,2:0:0:0:
238,148,40496,2,0,P|185:124|110:105,1,109.999990463257,0|10,3:2|2:0,2:0:0:0:
96,30,41145,2,0,L|38:45,1,54.9999952316285,0|2,3:2|3:2,2:0:0:0:
20,81,41469,1,10,2:0:0:0:
33,168,41794,6,0,P|48:230|59:293,1,109.999990463257,2|8,3:2|2:0,2:0:0:0:
113,342,42442,2,0,P|175:327|238:316,1,109.999990463257,0|10,3:0|2:0,2:0:0:0:
258,239,43091,2,0,P|243:177|232:114,1,109.999990463257,0|10,3:2|2:0,2:0:0:0:
284,58,43740,2,0,P|273:22|259:-7,2,54.9999952316285,2|0|10,3:2|3:0|2:0,2:0:0:0:
371,52,44388,6,0,P|424:65|445:134,1,109.999990463257,6|10,3:2|2:0,2:0:0:0:
436,154,44875,1,2,2:3:0:0:
402,182,45037,2,0,P|350:189|292:228,1,109.999990463257,2|8,3:0|2:0,2:0:0:0:
217,192,45685,6,0,P|199:249|245:302,1,109.999990463257,0|10,3:0|2:0,2:0:0:0:
300,331,46334,2,0,P|306:362|314:388,2,54.9999952316285,0|2|10,3:0|3:0|2:0,2:0:0:0:
383,303,46983,2,0,P|447:292|477:237,1,109.999990463257,4|8,3:2|2:0,2:0:0:0:
499,223,47469,1,2,2:3:0:0:
488,180,47631,2,0,L|467:60,1,109.999990463257,0|10,3:2|2:0,2:0:0:0:
395,23,48280,5,0,3:2:0:0:
330,82,48604,1,10,2:0:0:0:
242,72,48929,2,0,L|228:10,2,54.9999952316285,0|2|10,3:0|3:0|2:0,2:0:0:0:
183,138,49577,6,0,P|184:205|214:258,1,109.999990463257,6|8,3:2|2:0,2:0:0:0:
268,301,50226,2,0,P|330:278|383:277,1,109.999990463257,0|10,3:2|2:0,2:0:0:0:
413,197,50875,2,0,P|412:130|382:77,1,109.999990463257,0|10,3:2|2:0,2:0:0:0:
316,50,51523,2,0,P|333:12|336:-6,2,54.9999952316285,0|2|10,3:0|3:0|2:0,2:0:0:0:
283,131,52172,6,0,P|228:134|178:156,1,109.999990463257,0|8,3:2|2:0,2:0:0:0:
92,178,52821,2,0,P|107:243|147:281,1,109.999990463257,0|8,3:0|2:0,2:0:0:0:
192,340,53469,2,0,P|246:336|296:314,1,109.999990463257,0|10,3:0|2:0,2:0:0:0:
340,238,54118,1,0,3:0:0:0:
356,197,54280,2,0,L|435:185,2,54.9999952316285,8|8|10,2:0|2:0|2:0,2:0:0:0:
334,158,54767,6,0,P|320:90|286:56,1,109.999990463257,6|10,3:2|2:0,2:0:0:0:
260,32,55253,1,2,2:3:0:0:
236,69,55415,2,0,P|182:80|129:95,1,109.999990463257,2|10,3:2|2:0,2:0:0:0:
73,163,56064,2,0,P|95:217|100:287,1,109.999990463257,0|8,3:0|2:0,2:0:0:0:
164,329,56713,2,0,L|156:385,2,54.9999952316285,0|2|8,3:2|3:0|2:0,2:0:0:0:
227,268,57361,6,0,P|281:272|333:290,1,109.999990463257,2|10,3:2|2:0,2:0:0:0:
365,321,57848,1,2,2:3:0:0:
408,315,58010,2,0,P|422:234|437:197,1,109.999990463257,2|8,3:2|2:0,2:0:0:0:
418,121,58658,2,0,P|370:124|293:111,1,109.999990463257,0|10,3:0|2:0,2:0:0:0:
245,54,59307,2,0,P|235:21|229:-19,2,54.9999952316285,2|2|10,3:2|3:0|2:0,2:0:0:0:
183,116,59956,6,0,P|183:190|147:238,1,109.999990463257,2|8,3:2|2:0,2:0:0:0:
128,242,60442,1,2,2:3:0:0:
104,278,60604,2,0,P|29:252|-14:249,1,109.999990463257,2|8,3:2|2:0,2:0:0:0:
4,161,61253,1,2,3:2:0:0:
61,94,61577,1,10,2:0:0:0:
148,103,61902,2,0,L|157:48,2,54.9999952316285,0|2|10,3:0|3:0|2:0,2:0:0:0:
214,160,62550,6,0,P|210:203|140:222,1,109.999990463257,2|8,3:2|2:0,2:0:0:0:
114,206,63037,1,2,2:0:0:0:
75,227,63199,2,0,L|56:351,1,109.999990463257,0|10,3:2|2:0,2:0:0:0:
140,368,63848,1,2,3:2:0:0:
222,338,64172,1,10,2:0:0:0:
264,261,64496,2,0,L|317:274,2,54.9999952316285,0|0|10,3:0|3:0|2:0,2:0:0:0:
186,218,65145,6,0,P|195:143|213:85,1,109.999990463257,6|8,3:2|2:0,2:0:0:0:
282,69,65794,1,2,2:0:0:0:
316,104,65956,2,0,L|443:81,1,109.999990463257,2|2,2:0|2:0,2:0:0:0:
449,168,66604,1,2,2:0:0:0:
389,233,66929,2,0,P|390:283|421:354,1,109.999990463257,2|2,2:0|2:0,2:0:0:0:
330,363,67577,1,2,2:0:0:0:
304,327,67740,6,0,P|215:288|189:293,1,109.999990463257,2|8,2:0|2:0,2:0:0:0:
166,308,68226,1,2,2:0:0:0:
125,291,68388,2,0,P|104:243|96:187,1,109.999990463257,2|8,2:0|2:0,2:0:0:0:
67,152,68875,1,0,2:0:0:0:
74,64,69199,1,2,2:0:0:0:
159,95,69523,2,0,P|214:75|278:62,1,109.999990463257,2|2,2:0|2:0,2:0:0:0:
286,26,70010,1,8,2:0:0:0:
367,57,70334,6,0,P|400:116|400:168,1,109.999990463257,2|8,2:0|2:0,2:0:0:0:
436,185,70821,1,2,2:0:0:0:
458,222,70983,2,0,P|431:303|411:331,1,109.999990463257,2|8,2:0|2:0,2:0:0:0:
373,325,71469,1,2,2:0:0:0:
245,359,71956,2,0,P|209:283|210:233,1,109.999990463257,10|2,2:0|2:0,2:0:0:0:
252,182,72604,1,8,2:0:0:0:
212,102,72929,6,0,P|129:91|110:64,1,109.999990463257,0|8,2:0|2:0,2:0:0:0:
82,46,73415,1,2,2:0:0:0:
38,53,73577,2,0,P|16:106|19:173,1,109.999990463257,2|10,2:0|2:0,2:0:0:0:
42,193,74064,1,2,2:0:0:0:
3,319,74550,2,0,P|70:329|110:360,1,109.999990463257,8|0,3:2|3:2,2:0:0:0:
144,370,75037,2,0,L|210:346,1,54.9999952316285,8|8,2:0|2:0,2:0:0:0:
237,363,75361,1,10,2:0:0:0:
276,344,75523,1,6,2:0:0:0:
369,39,80713,6,0,P|433:25|480:-12,2,109.999990463257,8|8|8,1:3|3:0|3:0,2:0:0:0:
326,116,81685,1,8,3:0:0:0:
239,99,82010,2,0,P|225:35|188:-12,2,109.999990463257,8|8|8,3:0|3:0|3:0,2:0:0:0:
206,180,82982,1,8,3:0:0:0:
165,258,83307,2,0,P|101:272|54:309,2,109.999990463257,8|8|8,3:0|3:0|3:0,2:0:0:0:
238,306,84279,1,8,3:0:0:0:
323,284,84604,2,0,P|337:348|374:395,2,109.999990463257,8|8|8,3:0|3:0|3:0,2:0:0:0:
363,204,85577,2,0,L|351:136,1,54.9999952316285,8|8,3:0|3:0,2:0:0:0:
352,105,85902,6,0,L|474:85,2,109.999990463257,8|8|8,3:0|3:0|3:0,2:0:0:0:
290,41,86875,1,8,3:0:0:0:
228,104,87199,2,0,L|106:84,2,109.999990463257,8|8|8,3:0|3:0|3:0,2:0:0:0:
260,186,88172,1,8,3:0:0:0:
323,247,88496,2,0,L|445:227,2,109.999990463257,8|8|8,3:0|3:0|3:0,2:0:0:0:
266,317,89469,1,8,3:0:0:0:
202,256,89794,2,0,L|80:236,2,109.999990463257,8|8|8,3:0|3:0|3:0,2:0:0:0:
256,186,90767,1,8,3:0:0:0:
181,121,91091,6,0,P|161:78|160:4,1,109.999990463257,12|8,3:0|3:0,2:0:0:0:
251,47,91740,1,10,3:2:0:0:
292,20,91902,2,0,L|359:-1,1,54.9999952316285,2|8,2:3|3:0,2:0:0:0:
385,31,92226,1,10,2:3:0:0:
432,17,92388,6,0,P|486:33|493:100,1,109.999990463257,14|8,3:0|3:0,2:0:0:0:
470,174,93037,2,0,P|482:213|490:238,2,54.9999952316285,10|2|8,3:2|2:3|3:0,2:0:0:0:
384,124,93685,2,0,L|266:143,1,109.999990463257,14|8,3:0|3:0,2:0:0:0:
192,196,94334,2,0,L|199:260,2,54.9999952316285,10|2|8,3:2|2:3|3:0,2:0:0:0:
127,122,94983,6,0,L|17:147,1,109.999990463257,8|8,3:0|3:0,2:0:0:0:
16,245,95631,2,0,L|37:318,1,54.9999952316285,10|2,3:2|2:3,2:0:0:0:
68,330,95956,1,8,3:0:0:0:
145,268,96280,6,0,L|272:287,1,109.999990463257,8|8,3:0|3:0,2:0:0:0:
341,329,96929,2,0,L|357:396,2,54.9999952316285,10|2|8,3:2|2:3|3:0,2:0:0:0:
427,280,97577,6,0,P|479:255|498:187,1,109.999990463257,8|8,3:0|3:0,2:0:0:0:
486,163,98064,1,2,2:3:0:0:
450,129,98226,2,0,L|431:67,1,54.9999952316285,10|2,3:2|2:3,2:0:0:0:
432,26,98550,1,8,3:0:0:0:
334,8,98875,6,0,L|210:32,1,109.999990463257,8|8,3:0|3:0,2:0:0:0:
130,53,99523,2,0,L|139:-11,2,54.9999952316285,10|2|8,3:2|2:3|3:0,2:0:0:0:
78,137,100172,6,0,L|97:213,1,54.9999952316285,10|2,3:0|2:3,2:0:0:0:
128,223,100496,2,0,L|114:288,1,54.9999952316285,8|2,3:0|2:3,2:0:0:0:
156,305,100821,2,0,L|164:362,2,54.9999952316285,10|2|8,3:2|2:3|3:0,2:0:0:0:
256,303,101469,6,0,L|374:288,1,109.999990463257,8|8,3:0|3:0,2:0:0:0:
389,193,102118,2,0,L|374:75,1,109.999990463257,14|8,2:0|3:0,2:0:0:0:
295,24,102767,2,0,L|177:39,1,109.999990463257,8|8,3:0|3:0,2:0:0:0:
162,134,103416,2,0,L|177:252,1,109.999990463257,8|8,3:2|3:0,2:0:0:0:
242,316,104064,6,0,L|359:332,2,109.999990463257,8|8|8,3:0|3:0|3:2,2:0:0:0:
175,243,105037,1,8,3:0:0:0:
249,177,105362,2,0,L|357:192,2,109.999990463257,8|8|14,3:0|3:0|2:0,2:0:0:0:
191,97,106334,1,8,3:0:0:0:
99,138,106658,6,0,L|53:247,1,109.999990463257,4|8,1:0|3:0,2:0:0:0:
128,308,107307,2,0,L|238:354,1,109.999990463257,12|8,2:0|3:0,2:0:0:0:
321,311,107956,2,0,L|368:201,1,109.999990463257,8|8,3:0|3:0,2:0:0:0:
293,141,108605,2,0,L|184:94,1,109.999990463257,14|8,3:2|3:0,2:0:0:0:
100,59,109253,6,0,L|28:153,2,109.999990463257,8|8|8,1:3|1:3|1:2,2:0:0:0:
184,7,110226,1,8,1:0:0:0:
260,70,110551,2,0,L|275:188,1,109.999990463257,8|8,1:0|1:0,3:0:0:0:
292,225,111037,1,0,1:0:0:0:
256,258,111199,2,0,P|187:249|164:196,1,109.999990463257,10|8,1:0|1:0,3:0:0:0:
163,169,111685,1,8,1:0:0:0:
129,140,111848,6,0,L|65:136,1,54.9999952316285,4|4,1:0|1:0,2:0:0:0:
20,206,112334,1,4,1:0:0:0:
36,292,112658,1,4,1:0:0:0:
110,342,112983,6,0,P|228:283|387:288,1,274.999976158142,6|2,1:2|2:0,2:0:0:0:
406,260,113956,2,0,L|463:276,2,54.9999952316285,2|4|4,2:1|1:0|1:3,2:0:0:0:
393,217,114442,2,0,L|402:144,1,54.9999952316285,4|4,1:0|1:0,2:0:0:0:
353,87,114929,1,4,1:0:0:0:
273,48,115253,1,4,1:0:0:0:
195,90,115577,6,0,P|113:113|107:296,1,274.999976158142,6|2,1:2|2:0,2:0:0:0:
131,300,116550,2,0,L|140:371,2,54.9999952316285,2|4|4,2:1|1:0|1:0,2:0:0:0:
171,283,117037,2,0,L|237:263,1,54.9999952316285,4|4,1:0|1:0,2:0:0:0:
292,322,117523,1,4,1:0:0:0:
371,284,117848,1,4,1:0:0:0:
312,218,118172,6,0,P|320:102|477:68,1,274.999976158142,6|2,1:0|2:0,2:0:0:0:
499,52,119145,2,0,L|515:-12,2,54.9999952316285,2|6|4,2:1|1:0|1:0,2:0:0:0:
505,95,119631,2,0,L|509:155,1,54.9999952316285,6|4,1:0|1:0,2:0:0:0:
501,237,120118,1,4,1:0:0:0:
413,235,120442,1,4,1:0:0:0:
400,322,120767,6,0,P|342:363|147:302,1,274.999976158142,4|2,1:0|2:0,2:0:0:0:
116,299,121740,2,0,L|55:318,2,54.9999952316285,2|12|10,2:1|2:0|2:0,2:0:0:0:
144,252,122226,6,0,P|154:192|133:148,1,109.999990463257,12|8,1:0|1:0,2:0:0:0:
92,112,122713,1,2,2:3:0:0:
123,6,123037,1,2,1:0:0:0:
215,66,123361,2,0,L|335:48,1,109.999990463257,2|0,1:0|2:0,2:0:0:0:
367,16,123848,1,8,1:0:0:0:
439,98,124172,1,8,1:0:0:0:
459,150,124334,2,0,L|528:163,2,54.9999952316285,2|8|8,1:0|1:3|1:3,2:0:0:0:
426,194,124821,6,0,L|295:220,1,109.999990463257,8|8,1:0|1:0,2:0:0:0:
287,260,125307,1,2,1:0:0:0:
211,339,125631,1,2,1:0:0:0:
102,320,125956,2,0,P|55:212|55:210,1,109.999990463257,2|0,1:0|2:0,2:0:0:0:
96,186,126442,1,2,1:0:0:0:
47,86,126767,1,8,1:0:0:0:
90,53,126929,2,0,L|77:0,2,54.9999952316285,0|8|8,1:0|1:3|1:3,2:0:0:0:
143,66,127415,5,8,1:0:0:0:
195,50,127577,1,2,1:0:0:0:
280,119,127902,1,0,1:0:0:0:
383,81,128226,2,0,P|414:132|400:202,1,109.999990463257,2|0,1:0|2:0,2:0:0:0:
387,230,128713,6,0,L|258:261,1,109.999990463257,10|10,1:0|1:0,2:0:0:0:
195,185,129361,1,8,1:0:0:0:
140,185,129523,1,0,1:0:0:0:
91,210,129685,2,0,L|81:264,1,54.9999952316285,8|8,1:3|1:3,2:0:0:0:
107,312,130010,5,4,1:0:0:0:
316,377,130658,1,4,1:0:0:0:
470,220,131307,2,0,L|458:166,1,54.9999952316285,4|4,1:0|1:0,2:0:0:0:
420,126,131631,2,0,L|432:72,1,54.9999952316285,4|4,1:0|1:0,2:0:0:0:
400,26,131956,1,12,2:0:0:0:
319,100,132280,1,14,2:0:0:0:
229,36,132604,6,0,L|123:10,1,109.999990463257,12|10,1:0|1:0,2:0:0:0:
84,113,133253,2,0,P|18:133|-3:182,2,109.999990463257,14|8|8,1:0|1:0|1:0,2:0:0:0:
120,154,134064,1,2,1:0:0:0:
174,153,134226,1,8,1:0:0:0:
283,148,134550,2,0,P|361:139|417:134,1,109.999990463257,14|8,1:0|1:0,2:0:0:0:
482,201,135199,5,12,1:0:0:0:
395,271,135523,2,0,L|403:343,1,54.9999952316285,8|2,1:0|2:3,2:0:0:0:
362,365,135848,2,0,P|308:342|251:338,1,109.999990463257,12|10,1:0|1:0,2:0:0:0:
204,351,136334,1,2,2:3:0:0:
149,341,136496,6,0,P|111:280|118:231,1,109.999990463257,10|12,1:0|1:0,2:0:0:0:
159,213,136983,1,2,1:0:0:0:
212,225,137145,1,12,1:0:0:0:
290,147,137469,2,0,L|300:85,1,54.9999952316285,8|8,1:0|1:0,2:0:0:0:
284,39,137794,6,0,P|246:16|165:22,1,109.999990463257,8|10,1:0|1:0,2:0:0:0:
81,60,138442,2,0,P|68:120|91:175,1,109.999990463257,12|8,1:0|1:0,2:0:0:0:
130,192,138929,1,2,1:0:0:0:
165,234,139091,2,0,P|222:244|276:288,1,109.999990463257,8|10,1:0|1:0,2:0:0:0:
374,272,139740,2,0,P|387:211|429:177,1,109.999990463257,12|10,1:0|1:0,2:0:0:0:
330,117,140388,6,0,P|323:56|306:-5,2,109.999990463257,12|8|8,1:0|1:0|1:0,2:0:0:0:
271,210,141361,1,8,1:0:0:0:
188,137,141685,2,0,P|191:61|206:4,2,109.999990463257,8|8|8,1:0|1:0|1:0,2:0:0:0:
85,178,142658,2,0,P|81:206|117:293,1,109.999990463257,8|0,1:0|2:0,2:0:0:0:
256,192,157253,5,12,1:0:0:0:
256,192,159848,5,4,1:0:0:0:
256,192,162442,5,4,1:0:0:0:
256,192,165037,5,4,1:0:0:0:
256,192,166334,5,4,1:0:0:0:
432,191,166983,1,12,1:0:0:0:
482,93,167307,2,0,L|474:30,1,54.9999952316285,8|10,1:0|1:0,2:0:0:0:
433,24,167631,6,0,P|365:28|332:73,1,109.999990463257,12|0,1:0|1:0,2:0:0:0:
281,123,168280,2,0,P|211:122|188:74,1,109.999990463257,2|0,1:0|1:0,2:0:0:0:
107,64,168929,2,0,P|49:94|53:156,1,109.999990463257,2|0,1:0|1:0,2:0:0:0:
105,195,169577,2,0,P|115:230|116:305,1,109.999990463257,2|2,1:0|1:0,2:0:0:0:
143,337,170064,1,2,1:0:0:0:
180,359,170226,6,0,P|267:345|311:344,1,109.999990463257,12|0,1:0|1:0,2:0:0:0:
363,297,170875,2,0,P|384:229|390:186,1,109.999990463257,2|0,1:0|1:0,2:0:0:0:
475,171,171523,2,0,P|456:114|447:48,1,109.999990463257,2|0,1:0|1:0,2:0:0:0:
378,11,172172,2,0,P|331:23|248:34,1,109.999990463257,2|8,1:0|2:0,2:0:0:0:
248,70,172658,1,0,1:0:0:0:
206,85,172821,6,0,P|153:69|86:62,1,109.999990463257,12|0,1:0|1:0,2:0:0:0:
34,122,173469,2,0,P|15:186|37:229,1,109.999990463257,2|0,1:0|1:0,2:0:0:0:
90,288,174118,2,0,P|160:309|189:278,1,109.999990463257,12|0,1:0|1:0,2:0:0:0:
262,326,174767,1,2,1:0:0:0:
348,309,175091,1,2,1:0:0:0:
401,225,175415,6,0,L|422:95,1,109.999990463257,12|0,1:0|1:0,2:0:0:0:
378,25,176064,2,0,L|248:4,1,109.999990463257,12|0,1:0|1:0,2:0:0:0:
212,88,176713,1,2,1:0:0:0:
125,39,177037,1,2,1:0:0:0:
52,121,177361,1,2,1:0:0:0:
99,220,177685,2,0,L|116:290,1,54.9999952316285,10|10,1:0|1:0,2:0:0:0:
104,328,178010,6,0,L|219:346,1,109.999990463257,12|10,1:0|1:0,2:0:0:0:
306,288,178658,2,0,L|377:279,1,54.9999952316285,10|2,1:0|1:2,2:0:0:0:
412,299,178983,1,8,1:0:0:0:
458,269,179145,2,0,L|436:141,1,109.999990463257,2|2,1:0|1:0,2:0:0:0:
469,114,179631,2,0,L|488:39,2,54.9999952316285,10|2|10,2:0|1:0|1:0,2:0:0:0:
374,57,180280,1,10,1:0:0:0:
320,42,180442,1,2,1:0:0:0:
272,69,180604,6,0,P|222:85|150:65,1,109.999990463257,10|10,1:0|1:0,2:0:0:0:
75,12,181253,2,0,L|7:30,1,54.9999952316285,8|2,1:0|1:0,2:0:0:0:
8,79,181577,1,10,1:0:0:0:
39,124,181740,1,2,2:3:0:0:
20,232,182064,1,2,1:0:0:0:
65,262,182226,2,0,L|174:247,1,109.999990463257,8|10,1:0|1:0,2:0:0:0:
281,224,182875,2,0,L|286:278,1,54.9999952316285,8|8,1:0|1:0,2:0:0:0:
273,332,183199,5,14,1:0:0:0:
375,371,183523,1,10,1:0:0:0:
456,297,183848,2,0,L|479:181,1,109.999990463257,10|10,1:0|1:0,2:0:0:0:
450,141,184334,1,2,1:0:0:0:
388,66,184658,1,2,1:0:0:0:
336,85,184821,2,0,L|212:57,1,109.999990463257,8|6,1:0|1:0,2:0:0:0:
131,9,185469,6,0,L|61:22,1,54.9999952316285,10|2,1:0|1:0,2:0:0:0:
37,58,185794,1,6,1:0:0:0:
46,112,185956,1,2,1:0:0:0:
89,152,186118,2,0,L|86:211,2,54.9999952316285,10|2|10,1:0|1:0|1:0,2:0:0:0:
197,170,186767,1,10,1:0:0:0:
228,124,186929,2,0,L|346:100,1,109.999990463257,2|2,1:0|2:0,2:0:0:0:
377,66,187415,2,0,P|434:77|456:131,1,109.999990463257,8|10,1:0|1:0,2:0:0:0:
484,222,188064,1,14,1:0:0:0:
401,294,188388,6,0,L|285:265,1,109.999990463257,12|10,1:0|1:0,2:0:0:0:
232,176,189037,1,10,1:0:0:0:
133,224,189361,1,8,1:0:0:0:
99,180,189523,2,0,L|115:62,1,109.999990463257,2|2,1:0|1:0,2:0:0:0:
151,30,190010,1,10,1:0:0:0:
250,77,190334,1,10,1:0:0:0:
346,25,190658,1,10,1:0:0:0:
379,68,190821,1,2,1:0:0:0:
414,109,190983,6,0,L|394:179,1,54.9999952316285,10|2,1:0|1:0,2:0:0:0:
418,213,191307,2,0,L|423:267,2,54.9999952316285,8|2|10,1:0|1:0|1:0,2:0:0:0:
318,260,191956,1,8,1:0:0:0:
271,230,192118,2,0,L|146:251,1,109.999990463257,2|2,1:0|2:0,2:0:0:0:
115,219,192604,1,10,1:0:0:0:
37,140,192929,1,6,1:0:0:0:
70,35,193253,1,8,1:0:0:0:
122,52,193415,1,8,1:0:0:0:
162,15,193577,6,0,L|289:-3,1,109.999990463257,10|10,1:0|1:0,2:0:0:0:
363,58,194226,2,0,L|427:64,2,54.9999952316285,12|8|10,1:0|1:0|1:0,2:0:0:0:
317,89,194713,2,0,L|312:218,1,109.999990463257,2|0,1:0|2:0,2:0:0:0:
357,231,195199,1,10,1:0:0:0:
459,190,195523,1,10,1:0:0:0:
479,298,195848,5,10,1:0:0:0:
458,349,196010,1,8,1:0:0:0:
403,344,196172,2,0,L|338:326,1,54.9999952316285,14|2,1:0|1:0,2:0:0:0:
296,317,196496,1,8,1:0:0:0:
257,277,196658,2,0,L|190:292,1,54.9999952316285,2|10,1:0|1:0,2:0:0:0:
166,330,196983,2,0,L|152:394,2,54.9999952316285,2|10|0,1:0|1:0|1:0,2:0:0:0:
56,335,197631,1,2,1:0:0:0:
23,290,197794,2,0,P|13:229|-8:167,1,109.999990463257,10|8,1:0|1:0,2:0:0:0:
108,186,198442,1,12,1:0:0:0:
89,78,198767,6,0,L|80:8,2,54.9999952316285,14|0|10,1:0|2:0|1:0,2:0:0:0:
143,71,199253,1,2,1:0:0:0:
181,109,199415,1,10,1:0:0:0:
235,103,199577,2,0,L|300:110,1,54.9999952316285,2|10,1:0|1:0,2:0:0:0:
344,105,199902,1,2,1:0:0:0:
367,154,200064,1,10,1:0:0:0:
476,166,200388,1,10,1:0:0:0:
505,272,200713,1,10,1:0:0:0:
400,305,201037,2,0,L|338:319,1,54.9999952316285,10|2,1:0|1:0,2:0:0:0:
293,330,201361,6,0,L|274:390,2,54.9999952316285,10|2|10,1:0|1:0|1:0,2:0:0:0:
262,284,201848,1,2,1:0:0:0:
209,267,202010,2,0,L|135:257,1,54.9999952316285,10|2,1:0|1:0,2:0:0:0:
115,220,202334,1,10,1:0:0:0:
190,140,202658,1,14,1:0:0:0:
160,33,202983,1,8,1:0:0:0:
52,56,203307,1,14,1:0:0:0:
5,155,203631,2,0,L|16:228,1,54.9999952316285,8|8,1:0|1:0,2:0:0:0:
54,246,203956,6,0,L|43:323,2,54.9999952316285,14|2|10,1:0|1:0|1:0,2:0:0:0:
101,218,204442,1,2,1:0:0:0:
155,209,204604,1,10,1:0:0:0:
199,245,204767,2,0,L|267:225,1,54.9999952316285,2|10,1:0|1:0,2:0:0:0:
293,265,205091,1,2,1:0:0:0:
347,258,205253,5,10,1:0:0:0:
457,264,205578,1,10,1:0:0:0:
504,164,205902,1,10,1:0:0:0:
429,83,206226,2,0,L|360:72,1,54.9999952316285,8|10,1:0|1:0,2:0:0:0:
335,110,206550,6,0,L|326:169,2,54.9999952316285,10|2|10,1:0|1:0|1:0,2:0:0:0:
276,81,207037,1,2,1:0:0:0:
225,58,207199,1,10,1:0:0:0:
182,93,207361,2,0,L|113:105,1,54.9999952316285,2|8,1:0|1:0,2:0:0:0:
76,83,207685,1,2,1:0:0:0:
36,121,207848,5,10,1:0:0:0:
17,229,208172,1,10,1:0:0:0:
56,331,208496,1,10,1:0:0:0:
165,337,208821,2,0,L|224:326,1,54.9999952316285,14|6,1:0|1:0,2:0:0:0:
273,319,209145,6,0,L|284:388,2,54.9999952316285,10|2|10,1:0|1:0|1:0,2:0:0:0:
296,269,209631,1,2,1:0:0:0:
344,243,209794,1,10,1:0:0:0:
342,188,209956,2,0,L|332:122,1,54.9999952316285,2|8,1:0|1:0,2:0:0:0:
304,87,210280,1,2,1:0:0:0:
340,45,210442,5,14,1:0:0:0:
448,64,210767,1,10,1:0:0:0:
499,161,211091,1,14,1:0:0:0:
485,270,211415,2,0,L|413:284,1,54.9999952316285,14|2,1:0|1:0,2:0:0:0:
393,320,211740,6,0,L|386:377,2,54.9999952316285,14|2|10,1:0|1:0|1:0,2:0:0:0:
357,278,212226,1,2,1:0:0:0:
311,247,212388,2,0,L|244:258,1,54.9999952316285,14|2,1:0|1:0,2:0:0:0:
210,286,212713,1,10,1:0:0:0:
120,349,213037,1,10,1:0:0:0:
21,300,213361,1,10,1:0:0:0:
25,190,213685,1,14,1:0:0:0:
102,112,214010,2,0,L|163:105,1,54.9999952316285,8|8,1:0|1:0,2:0:0:0:
205,131,214334,6,0,L|198:194,2,54.9999952316285,14|0|10,1:0|2:0|1:0,2:0:0:0:
250,99,214821,1,2,1:0:0:0:
241,44,214983,1,10,1:0:0:0:
283,9,215145,2,0,L|350:19,1,54.9999952316285,10|10,1:0|1:0,2:0:0:0:
373,58,215469,1,2,1:0:0:0:
427,69,215631,5,10,1:0:0:0:
469,170,215956,1,10,1:0:0:0:
405,259,216280,1,10,1:0:0:0:
312,200,216604,2,0,L|248:212,1,54.9999952316285,8|8,1:0|1:0,2:0:0:0:
215,246,216929,6,0,L|83:219,1,109.999990463257,10|10,1:0|1:0,2:0:0:0:
74,180,217415,1,2,1:0:0:0:
56,127,217577,1,10,1:0:0:0:
136,51,217902,2,0,L|210:45,1,54.9999952316285,10|8,1:0|1:0,2:0:0:0:
230,84,218226,6,0,L|361:68,2,109.999990463257,14|2|2,1:0|2:1|2:0,2:0:0:0:
203,191,219199,1,14,1:0:0:0:
278,270,219523,6,0,L|255:398,1,109.999990463257,4|8,1:0|1:0,2:0:0:0:
149,359,220172,2,0,L|40:339,1,109.999990463257,8|8,1:0|1:0,2:0:0:0:
59,230,220821,2,0,L|82:102,1,109.999990463257,10|10,1:0|1:0,2:0:0:0:
188,141,221470,2,0,L|296:160,1,109.999990463257,10|10,1:0|1:0,2:0:0:0:
278,270,222118,6,0,L|255:398,1,109.999990463257,10|10,1:0|1:0,2:0:0:0:
149,359,222767,2,0,L|40:339,1,109.999990463257,10|10,1:0|1:0,2:0:0:0:
59,230,223416,2,0,L|82:102,1,109.999990463257,10|10,1:0|1:0,2:0:0:0:
188,141,224065,2,0,L|296:160,1,109.999990463257,10|10,1:0|1:0,2:0:0:0:
392,107,224713,6,0,L|416:-15,2,109.999990463257,14|8|8,1:0|1:0|1:0,2:0:0:0:
460,193,225685,1,8,1:0:0:0:
363,247,226010,2,0,L|341:354,2,109.999990463257,8|8|8,1:0|1:0|1:0,2:0:0:0:
296,160,226983,1,8,1:0:0:0:
224,243,227307,6,0,P|149:275|82:53,1,384.999966621399,8|8,1:0|1:0,2:0:0:0:
123,59,228604,6,2,B|162:46|162:46|169:54|169:54|207:40|207:40|219:46|219:46|265:29|265:29|275:35|275:35|327:20|327:20|340:25|340:25|393:12|393:12|404:18|404:18|454:7|454:7|466:13|466:13|493:7|493:7|503:12|503:12|511:46|511:46|505:58|505:58|514:87|514:87|506:97|506:97|514:128|514:128|504:142|504:142|515:186|515:186|505:198|505:198|481:191|481:191|466:198|466:198|436:192|436:192|424:200|424:200|385:194|385:194|376:203|376:203|339:195|339:195|323:205|323:205|273:195|273:195|263:165,1,879.999923706056,2|0,2:3|2:0,2:3:0:0:
