osu file format v14

[General]
AudioFilename: audio.ogg
AudioLeadIn: 0
PreviewTime:20915
Countdown: 0
SampleSet: Soft
StackLeniency: 0.3
Mode: 0
LetterboxInBreaks: 0
WidescreenStoryboard: 1
EpilepsyWarning: 1

[Editor]
DistanceSpacing: 0.9
BeatDivisor: 8
GridSize: 32
TimelineZoom: 2.5

[Metadata]
Title:INTERNET YAMERO
TitleUnicode:INTERNET YAMERO
Artist:Aiobahn feat. KOTOKO
ArtistUnicode:Aiobahn feat. KOTOKO
Creator:Ducky-
Version:INSANE OVERDOSE
Source:NEEDY GIRL OVERDOSE
Tags:big data iljaaz anxient gorou wanpachi tohru mitsuhashi 前田地生 まろん maron iosys eurobeat rawstyle speedcore extratone ame-chan amechan wss playground overdose synthpop arcaea にゃるら nyalra nyarura xemono maeda chisei as_chisei インターネットやめろ electronic japanese pop jpop j-pop female vocal vocalist ft. featuring videogame video game music vgm denpa hardstyle techno hardcore synthwave streamer overload ame kangel omgkawaiiangel angel p-chan pchan tenshi muse dash fa featured artist
BeatmapID:4341641
BeatmapSetID:2074198

[Difficulty]
HPDrainRate:4
CircleSize:3.5
OverallDifficulty:8
ApproachRate:9
SliderMultiplier:1.99999990463257
SliderTickRate:1

[Events]
//Background and Video events
Video,-1880,"video.mp4"
0,0,"default.jpg",0,0
//Break Periods
2,75723,80112
2,143142,156652
2,157453,159248
2,160048,161842
2,162642,164437
//Storyboard Layer 0 (Background)
//Storyboard Layer 1 (Fail)
//Storyboard Layer 2 (Pass)
//Storyboard Layer 3 (Foreground)
//Storyboard Layer 4 (Overlay)
//Storyboard Sound Samples

[TimingPoints]
-2314,324.324324324324,4,2,1,60,1,0
13253,-50,4,2,1,60,0,0
13577,-100,4,2,1,60,0,0
15848,-50,4,2,1,60,0,0
16172,-100,4,2,1,60,0,0
18442,-50,4,2,1,60,0,0
18767,-100,4,2,1,60,0,0
19740,-50,4,2,1,60,0,0
20064,-100,4,2,1,60,0,0
21037,-66.6666666666667,4,2,1,60,0,0
23631,-83.3333333333333,4,2,1,80,0,0
34010,-125,4,2,2,70,0,0
54767,-100,4,2,2,70,0,0
80713,-100,4,2,1,80,0,0
91091,-100,4,2,1,80,0,1
101469,-100,4,2,1,80,0,0
107956,-100,4,2,1,80,0,0
111848,-100,4,2,1,80,0,1
112010,-83.3333333333333,4,2,1,80,0,1
112658,-83.3333333333333,4,2,1,80,0,0
112983,-111.111111111111,4,2,1,80,0,1
113956,-111.111111111111,4,2,1,80,0,0
114442,-111.111111111111,4,2,1,80,0,1
114604,-83.3333333333333,4,2,1,80,0,1
115253,-83.3333333333333,4,2,1,80,0,0
115577,-111.111111111111,4,2,1,80,0,1
116550,-111.111111111111,4,2,1,80,0,0
117037,-111.111111111111,4,2,1,80,0,1
117199,-83.3333333333333,4,2,1,80,0,1
117848,-83.3333333333333,4,2,1,80,0,0
118172,-111.111111111111,4,2,1,80,0,1
119145,-111.111111111111,4,2,1,80,0,0
119307,-133.333333333333,4,2,1,80,0,0
119631,-133.333333333333,4,2,1,80,0,1
119794,-83.3333333333333,4,2,1,80,0,1
120442,-83.3333333333333,4,2,1,80,0,0
120767,-111.111111111111,4,2,1,80,0,1
121740,-111.111111111111,4,2,1,80,0,0
121902,-133.333333333333,4,2,1,80,0,1
122226,-133.333333333333,4,2,1,80,0,0
122388,-83.3333333333333,4,2,1,80,0,0
131956,-66.6666666666667,4,2,1,80,0,0
132604,-50,4,2,1,90,0,0
132929,-100,4,2,1,90,0,0
133253,-50,4,2,1,90,0,1
134064,-83.3333333333333,4,2,1,90,0,1
134550,-50,4,2,1,90,0,1
134875,-66.6666666666667,4,2,1,90,0,1
135848,-50,4,2,1,90,0,1
136172,-66.6666666666667,4,2,1,90,0,1
136821,-50,4,2,1,90,0,1
138767,-66.6666666666667,4,2,1,90,0,1
139091,-133.333333333333,4,2,1,90,0,1
139740,-50,4,2,1,90,0,1
140388,-100,4,2,1,90,0,1
142658,-50,4,2,1,90,0,1
142983,-50,4,2,1,90,0,0
157253,-50,4,2,1,60,0,0
167631,-133.333333333333,4,2,1,60,0,0
177685,-133.333333333333,4,2,1,90,0,0
178010,-83.3333333333333,4,2,1,80,0,1
198767,-83.3333333333333,4,2,1,80,0,0
219523,-50,4,2,1,90,0,1
224388,-50,4,2,1,90,0,0
224713,-50,4,2,1,90,0,1
227307,-100,4,2,1,90,0,1
228604,-50,4,2,1,90,0,1
231199,-50,4,2,1,90,0,0

[Colours]
Combo1 : 250,120,175
Combo2 : 147,200,253

[HitObjects]
306,116,280,5,2,1:0:0:0:
296,273,604,5,2,1:0:0:0:
165,186,929,5,2,1:0:0:0:
215,110,1091,5,2,1:0:0:0:
306,116,1253,5,2,1:0:0:0:
346,197,1415,5,2,1:0:0:0:
296,274,1577,5,2,1:0:0:0:
204,267,1740,5,2,1:0:0:0:
165,186,2064,5,2,1:0:0:0:
215,110,2226,5,2,1:0:0:0:
306,116,2550,5,8,2:0:0:0:
306,116,2713,5,8,2:0:0:0:
306,116,2875,5,6,1:0:0:0:
306,116,5469,5,6,1:0:0:0:
306,116,8064,5,6,1:0:0:0:
306,116,10658,5,6,1:0:0:0:
306,116,11956,5,4,1:0:0:0:
306,116,12604,5,12,1:0:0:0:
207,93,12848,1,8,2:0:0:0:
207,93,12929,1,8,2:0:0:0:
235,186,13091,1,10,1:0:0:0:
69,212,13253,6,1,P|82:329|171:224,1,299.999985694886,8|0,1:0|1:0,2:0:0:0:
255,196,13577,6,1,L|279:253,3,49.9999976158143,0|0|0|0,1:0|1:0|1:0|1:0,2:0:0:0:
300,103,13902,6,1,L|350:140,3,49.9999976158143,2|0|0|0,1:0|1:0|1:0|1:0,2:0:0:0:
293,0,14226,6,1,L|355:7,3,49.9999976158143,0|0|0|0,1:0|1:0|1:0|1:0,2:0:0:0:
221,54,14550,6,1,L|171:48,3,49.9999976158143,2|0|0|0,1:0|1:0|1:0|1:0,2:0:0:0:
351,129,14875,6,1,L|413:136,3,49.9999976158143,0|0|0|0,1:0|1:0|1:0|1:0,2:0:0:0:
279,183,15199,6,0,L|229:177,3,49.9999976158143,2|0|0|0,1:0|1:0|1:0|1:0,2:0:0:0:
453,226,15523,6,1,L|515:233,2,49.9999976158143,0|0|2,1:0|2:0|1:3,2:0:0:0:
364,384,15848,6,1,P|364:271|259:348,1,299.999985694886,8|0,1:0|1:0,2:0:0:0:
175,293,16172,6,1,P|156:311|127:324,3,49.9999976158143,0|0|0|0,1:0|1:0|1:0|1:0,2:0:0:0:
117,223,16496,6,1,P|91:229|59:225,3,49.9999976158143,2|0|0|0,1:0|1:0|1:0|1:0,2:0:0:0:
101,133,16821,6,1,P|75:125|50:106,3,49.9999976158143,0|0|0|0,1:0|1:0|1:0|1:0,2:0:0:0:
132,47,17145,6,1,P|114:27|101:-1,3,49.9999976158143,2|0|0|0,1:0|1:0|1:0|1:0,2:0:0:0:
210,115,17469,6,1,P|202:140|183:165,3,49.9999976158143,0|0|0|0,1:0|1:0|1:0|1:0,2:0:0:0:
230,14,17794,6,0,P|255:7|287:11,3,49.9999976158143,2|0|0|8,1:0|1:0|1:0|2:3,2:0:0:0:
333,85,18118,1,8,1:3:0:0:
337,92,18199,1,0,2:0:0:0:
342,99,18280,2,0,P|378:104|398:97,1,49.9999976158143,2|0,1:2|2:0,2:0:0:0:
500,10,18442,6,1,P|443:7|439:196,1,299.999985694886,4|0,1:0|1:0,2:0:0:0:
488,254,18767,6,1,P|484:281|480:311,3,49.9999976158143,2|0|0|0,1:0|1:0|1:0|1:0,2:0:0:0:
376,224,19091,6,1,P|386:249|397:277,3,49.9999976158143,8|0|0|0,1:2|1:0|1:0|1:0,2:0:0:0:
264,254,19415,6,0,P|285:270|309:289,2,49.9999976158143,8|0|0,1:0|1:0|1:0,2:0:0:0:
94,365,19740,6,1,P|151:368|155:179,1,299.999985694886,4|0,1:0|1:0,2:0:0:0:
96,140,20064,6,1,P|100:113|104:83,3,49.9999976158143,2|0|0|0,1:0|1:0|1:0|1:0,2:0:0:0:
208,170,20388,6,1,P|197:144|186:116,3,49.9999976158143,8|0|0|0,1:2|1:0|1:0|1:0,2:0:0:0:
320,140,20713,6,0,P|298:123|274:104,2,49.9999976158143,8|0|0,1:0|1:0|1:0,2:0:0:0:
424,64,21037,6,1,L|386:297,1,224.999989271164,12|0,1:0|1:0,2:0:0:0:
458,347,21361,6,0,L|235:310,1,224.999989271164,10|0,1:0|2:0,2:0:0:0:
175,381,21685,6,1,L|211:158,1,224.999989271164,10|0,1:0|1:0,2:0:0:0:
141,98,22010,6,0,L|374:136,1,224.999989271164,2|0,1:0|2:0,2:0:0:0:
363,134,22334,5,2,2:1:0:0:
252,313,22658,5,2,2:1:0:0:
152,128,22983,5,2,2:1:0:0:
152,128,23307,5,12,1:0:0:0:
149,119,23388,1,8,1:0:0:0:
145,108,23469,1,8,1:0:0:0:
141,96,23550,1,8,1:0:0:0:
136,84,23631,6,0,P|31:107|-3:120,2,119.999994277954,4|2|8,1:0|2:0|1:0,2:0:0:0:
278,0,24118,1,0,1:0:0:0:
329,73,24280,2,0,P|314:122|301:203,1,119.999994277954,8|2,1:0|2:1,2:0:0:0:
291,196,24523,1,2,2:3:0:0:
293,210,24604,1,8,1:0:0:0:
198,222,24767,1,2,1:0:0:0:
270,342,24929,6,0,P|335:330|355:263,1,119.999994277954,4|2,1:0|1:0,1:0:0:0:
163,384,25253,2,0,P|139:321|56:313,1,119.999994277954,10|2,1:0|1:0,2:0:0:0:
10,340,25577,1,4,1:0:0:0:
10,340,25902,5,12,1:0:0:0:
98,292,26064,1,2,1:0:0:0:
32,211,26226,2,0,P|15:136|-14:65,2,119.999994277954,14|0|10,1:0|2:0|1:0,2:0:0:0:
159,118,26713,1,2,1:0:0:0:
197,195,26875,2,0,P|262:176|279:109,1,119.999994277954,12|2,1:0|1:0,2:0:0:0:
293,133,27118,1,2,2:3:0:0:
301,123,27199,1,10,1:0:0:0:
380,177,27361,1,2,1:0:0:0:
334,263,27523,6,0,P|344:332|345:398,1,119.999994277954,12|0,1:0|2:0,2:0:0:0:
476,329,27848,2,0,P|478:269|487:209,1,119.999994277954,10|2,1:0|1:0,2:0:0:0:
452,126,28172,1,4,1:0:0:0:
470,26,28334,1,2,2:0:0:0:
447,115,28496,1,10,1:0:0:0:
349,0,28658,1,8,1:0:0:0:
337,4,28740,1,8,1:0:0:0:
323,11,28821,6,0,P|342:92|351:150,2,119.999994277954,14|0|8,1:0|1:0|1:0,2:0:0:0:
206,93,29307,1,10,1:0:0:0:
151,20,29469,2,0,P|83:52|8:67,1,119.999994277954,14|8,1:0|1:0,2:0:0:0:
35,73,29713,1,8,1:0:0:0:
31,88,29794,1,14,1:0:0:0:
108,157,29956,1,2,2:1:0:0:
12,227,30118,6,0,P|26:275|109:284,1,119.999994277954,14|0,1:0|2:0,2:0:0:0:
166,365,30442,2,0,P|228:330|283:329,1,119.999994277954,10|2,1:0|1:0,2:0:0:0:
370,384,30767,2,0,P|437:346|423:233,1,179.999991416931,12|0,1:0|2:0,2:0:0:0:
426,250,31091,1,12,1:0:0:0:
456,155,31253,1,8,1:0:0:0:
356,114,31415,6,1,L|207:155,1,119.999994277954,10|0,1:0|1:0,2:0:0:0:
240,145,31740,1,8,1:0:0:0:
194,253,31902,1,2,1:0:0:0:
46,177,32064,2,1,L|79:29,1,119.999994277954,8|2,1:0|2:0,2:0:0:0:
68,51,32307,1,2,1:2:0:0:
62,42,32388,1,8,1:0:0:0:
75,17,32469,1,0,1:0:0:0:
119,3,32550,1,0,1:0:0:0:
171,16,32631,1,0,1:0:0:0:
205,47,32713,6,0,P|286:44|333:9,1,119.999994277954,4|2,1:0|2:0,2:0:0:0:
152,126,33037,2,1,P|191:172|286:175,1,119.999994277954,2|2,1:0|2:1,2:0:0:0:
116,227,33361,1,2,2:1:0:0:
505,148,33685,1,14,1:0:0:0:
366,384,34010,6,0,P|361:317|323:217,1,159.999992370606,4|10,3:2|2:0,2:0:0:0:
429,244,34496,1,0,2:0:0:0:
332,136,34658,1,2,3:2:0:0:
418,80,34821,2,1,P|426:41|428:1,1,79.9999961853028,2|10,2:0|2:0,2:0:0:0:
332,136,35145,2,0,P|269:84|173:102,1,159.999992370606,2|2,2:0|2:0,2:0:0:0:
112,39,35631,2,1,P|75:83|78:120,1,79.9999961853028,8|2,2:0|2:0,2:0:0:0:
146,217,35956,1,0,3:0:0:0:
40,196,36118,1,0,3:0:0:0:
159,208,36280,1,10,2:0:0:0:
75,306,36442,1,2,2:0:0:0:
164,355,36604,6,0,P|254:317|307:312,1,119.999994277954,2|0,3:2|2:0,2:0:0:0:
293,297,36929,2,1,P|343:316|370:350,1,79.9999961853028,8|0,2:0|2:0,2:0:0:0:
433,241,37253,1,2,3:2:0:0:
341,190,37415,2,0,P|327:128|330:87,1,79.9999961853028,2|8,2:0|2:0,2:0:0:0:
243,215,37740,6,1,P|187:189|143:191,1,79.9999961853028,2|2,2:0|3:2,2:0:0:0:
13,120,38064,2,1,P|69:107|101:77,1,79.9999961853028,0|8,2:0|2:0,2:0:0:0:
194,11,38388,2,1,P|182:78|176:114,1,79.9999961853028,2|0,2:0|3:0,2:0:0:0:
67,191,38713,1,0,3:0:0:0:
151,217,38875,2,1,P|161:283|165:328,1,79.9999961853028,10|2,2:0|2:0,2:0:0:0:
345,384,39199,6,0,P|407:352|409:254,1,159.999992370606,4|8,3:2|2:0,2:0:0:0:
67,191,39848,6,0,P|63:260|147:311,1,159.999992370606,0|10,3:2|2:0,2:0:0:0:
373,46,40496,6,0,P|314:8|228:55,1,159.999992370606,0|10,3:2|2:0,2:0:0:0:
257,193,41145,5,0,3:2:0:0:
266,182,41307,1,2,3:2:0:0:
245,185,41469,1,10,2:0:0:0:
262,207,41631,1,2,2:0:0:0:
410,146,41794,6,0,P|443:111|454:-21,1,159.999992370606,2|8,3:2|2:0,2:0:0:0:
180,263,42442,6,1,P|193:309|302:384,1,159.999992370606,0|10,3:0|2:0,2:0:0:0:
193,5,43091,6,0,P|146:-6|26:50,1,159.999992370606,0|10,3:2|2:0,2:0:0:0:
253,191,43740,5,2,3:2:0:0:
274,178,43902,1,0,3:0:0:0:
276,205,44064,1,10,2:0:0:0:
0,384,44388,5,6,3:2:0:0:
0,384,44550,1,2,2:3:0:0:
62,315,44713,2,1,P|68:266|73:211,1,79.9999961853028,10|2,2:0|2:3,2:0:0:0:
181,88,45037,1,2,3:0:0:0:
102,151,45199,2,0,P|41:134|9:125,1,79.9999961853028,2|8,2:0|2:0,2:0:0:0:
180,214,45523,1,2,2:3:0:0:
180,214,45685,2,1,P|234:196|277:188,2,79.9999961853028,0|2|10,3:0|2:3|2:0,2:0:0:0:
265,287,46172,2,1,P|309:300|352:320,1,79.9999961853028,2|0,2:3|3:0,2:0:0:0:
434,283,46496,1,2,3:0:0:0:
472,384,46658,1,10,2:0:0:0:
431,265,46821,1,2,2:3:0:0:
506,191,46983,6,0,P|510:119|514:75,1,79.9999961853028,4|0,3:2|2:0,2:0:0:0:
347,7,47307,2,1,P|343:79|339:123,1,79.9999961853028,8|2,2:0|2:3,2:0:0:0:
436,45,47631,1,0,3:2:0:0:
377,180,47794,2,1,P|325:192|294:213,1,79.9999961853028,2|10,2:3|2:0,2:0:0:0:
203,138,48118,1,2,2:3:0:0:
134,197,48280,6,1,P|128:263|128:298,1,79.9999961853028,0|2,3:2|2:3,2:0:0:0:
33,166,48604,2,1,P|21:99|42:40,1,119.999994277954,10|0,2:0|2:0,2:0:0:0:
51,47,48929,5,0,3:0:0:0:
183,101,49091,1,2,3:0:0:0:
133,13,49253,1,10,2:0:0:0:
94,148,49415,1,2,2:3:0:0:
192,94,49577,6,0,P|245:80|277:75,1,79.9999961853028,6|0,3:2|2:0,2:0:0:0:
423,0,49902,2,1,P|369:19|389:97,1,119.999994277954,8|0,2:0|2:0,2:0:0:0:
378,85,50226,2,1,P|388:141|395:171,2,79.9999961853028,0|2|10,3:2|2:3|2:0,2:0:0:0:
482,124,50713,1,2,2:3:0:0:
301,174,50875,2,0,P|295:217|289:258,1,79.9999961853028,0|2,3:2|2:3,2:0:0:0:
189,244,51199,2,1,P|204:318|204:352,1,79.9999961853028,10|0,2:0|2:0,2:0:0:0:
118,157,51523,1,0,3:0:0:0:
118,157,51685,1,2,3:0:0:0:
79,240,51848,2,1,P|6:225|-31:225,1,79.9999961853028,10|2,2:0|2:3,2:0:0:0:
64,374,52172,6,0,P|143:342|233:332,2,159.999992370606,0|8|0,3:2|2:0|3:0,2:0:0:0:
121,306,52983,1,2,2:3:0:0:
304,384,53145,2,0,P|327:313|329:281,1,79.9999961853028,8|2,2:0|2:3,2:0:0:0:
272,215,53469,5,0,3:0:0:0:
304,129,53631,1,2,2:3:0:0:
396,158,53794,2,1,P|448:148|512:138,1,79.9999961853028,10|2,2:0|2:3,2:0:0:0:
449,240,54118,1,0,3:0:0:0:
386,55,54280,1,8,2:0:0:0:
392,37,54361,1,8,2:0:0:0:
398,24,54442,1,8,2:0:0:0:
286,83,54604,1,10,2:0:0:0:
199,16,54767,6,0,P|106:26|35:35,1,149.999992847443,6|0,3:2|2:0,2:0:0:0:
33,37,55091,2,0,P|46:87|53:153,1,99.9999952316285,10|2,2:0|2:3,2:0:0:0:
185,149,55415,1,2,3:2:0:0:
236,226,55577,2,1,P|228:283|222:342,1,99.9999952316285,2|10,2:3|2:0,2:0:0:0:
321,166,55902,2,0,P|384:144|446:134,1,99.9999952316285,2|0,2:3|3:0,2:0:0:0:
259,68,56226,2,0,P|195:54|132:30,1,99.9999952316285,2|8,2:3|2:0,2:0:0:0:
364,14,56550,1,2,2:3:0:0:
364,14,56713,1,0,3:2:0:0:
411,122,56875,1,2,3:0:0:0:
491,42,57037,2,1,P|507:109|515:164,1,99.9999952316285,8|2,2:0|2:3,2:0:0:0:
411,267,57361,6,0,P|328:239|252:227,1,149.999992847443,2|0,3:2|2:0,2:0:0:0:
260,236,57685,1,10,2:0:0:0:
182,284,57848,1,2,2:3:0:0:
150,148,58010,1,2,3:2:0:0:
73,204,58172,2,0,P|32:167|36:106,1,99.9999952316285,2|8,2:3|2:0,2:0:0:0:
179,14,58496,6,1,P|232:23|297:30,1,99.9999952316285,2|0,2:3|3:0,2:0:0:0:
379,96,58821,2,1,P|428:101|477:110,1,99.9999952316285,2|10,2:3|2:0,2:0:0:0:
284,162,59145,1,2,2:3:0:0:
331,241,59307,1,2,3:2:0:0:
292,148,59469,1,2,3:0:0:0:
214,266,59631,2,1,P|128:282|79:288,1,99.9999952316285,10|2,2:0|2:3,2:0:0:0:
40,384,59956,6,0,P|-3:349|18:253,1,149.999992847443,2|0,3:2|2:0,2:0:0:0:
17,267,60280,1,8,2:0:0:0:
86,193,60442,1,2,2:3:0:0:
0,81,60604,1,2,3:2:0:0:
75,28,60767,2,0,P|164:11|207:0,1,99.9999952316285,2|8,2:3|2:0,2:0:0:0:
237,108,61091,1,2,2:3:0:0:
309,60,61253,6,0,P|392:73|414:160,1,149.999992847443,2|0,3:2|2:0,2:0:0:0:
434,134,61577,2,1,P|427:193|424:256,1,99.9999952316285,10|2,2:0|2:0,2:0:0:0:
313,200,61902,1,0,3:0:0:0:
256,271,62064,1,2,3:0:0:0:
349,362,62226,2,1,P|420:345|474:339,1,99.9999952316285,10|2,2:0|2:3,2:0:0:0:
251,295,62550,6,0,L|90:268,1,149.999992847443,2|0,3:2|2:0,2:0:0:0:
93,280,62875,1,8,2:0:0:0:
18,210,63037,1,2,2:0:0:0:
77,118,63199,1,0,3:2:0:0:
156,165,63361,2,1,P|224:145|290:133,1,99.9999952316285,2|10,2:3|2:0,2:0:0:0:
336,20,63685,1,2,2:3:0:0:
396,82,63848,6,0,P|454:111|446:186,1,149.999992847443,2|0,3:2|2:0,2:0:0:0:
442,197,64172,2,1,P|369:207|324:232,1,99.9999952316285,10|2,2:0|2:0,2:0:0:0:
306,297,64496,1,0,3:0:0:0:
234,187,64658,1,0,3:0:0:0:
289,294,64821,1,10,2:0:0:0:
191,356,64983,1,0,2:0:0:0:
126,297,65145,6,0,P|77:281|0:283,1,99.9999952316285,6|0,3:2|2:0,2:0:0:0:
92,197,65469,1,8,2:0:0:0:
20,82,65631,1,2,2:0:0:0:
77,19,65794,1,2,2:0:0:0:
184,94,65956,2,0,P|262:73|309:70,1,99.9999952316285,2|8,2:0|2:0,2:0:0:0:
408,5,66280,6,0,P|385:78|426:211,1,199.999990463257,2|2,2:0|2:0,2:0:0:0:
511,215,66767,1,8,2:0:0:0:
463,281,66929,2,1,P|453:342|454:394,1,99.9999952316285,2|0,2:0|2:0,2:0:0:0:
319,255,67253,2,0,P|317:205|308:155,1,99.9999952316285,2|8,2:0|2:0,2:0:0:0:
380,323,67577,1,2,2:0:0:0:
291,381,67740,6,0,P|221:353|83:350,1,199.999990463257,2|8,2:0|2:0,2:0:0:0:
174,232,68226,1,2,2:0:0:0:
93,184,68388,1,2,2:0:0:0:
154,112,68550,2,0,P|163:45|166:-2,1,99.9999952316285,2|8,2:0|2:0,2:0:0:0:
294,51,68875,6,0,P|304:103|326:175,1,99.9999952316285,2|0,0:3|0:0,0:0:0:0:
396,75,69199,1,2,0:3:0:0:
492,137,69361,1,10,0:2:0:0:
403,199,69523,2,0,P|416:266|420:338,1,99.9999952316285,2|0,0:3|0:0,0:0:0:0:
353,375,69848,2,1,P|297:308|199:306,1,149.999992847443,2|0,2:0|2:0,2:0:0:0:
226,308,70172,1,2,2:0:0:0:
97,266,70334,6,0,P|42:279|-14:288,1,99.9999952316285,2|0,2:0|2:0,2:0:0:0:
41,176,70658,1,8,2:0:0:0:
3,95,70821,1,2,2:0:0:0:
96,11,70983,1,2,2:0:0:0:
160,76,71145,2,0,P|215:61|269:55,1,99.9999952316285,2|8,2:0|2:0,2:0:0:0:
249,153,71469,6,0,P|362:170|459:208,1,199.999990463257,2|0,2:0|2:0,2:0:0:0:
342,267,71956,2,1,P|388:317|407:368,1,99.9999952316285,10|0,2:0|2:0,2:0:0:0:
484,292,72280,1,2,2:0:0:0:
441,206,72442,1,2,2:0:0:0:
508,137,72604,1,8,2:0:0:0:
445,67,72767,2,0,P|377:78|319:85,1,99.9999952316285,2|0,2:0|2:0,2:0:0:0:
274,143,73091,2,0,P|206:132|148:125,1,99.9999952316285,2|8,2:0|2:0,2:0:0:0:
119,53,73415,2,1,P|46:65|49:150,1,149.999992847443,2|0,2:0|2:0,2:0:0:0:
51,134,73740,1,0,2:0:0:0:
14,233,73902,1,10,2:0:0:0:
106,312,74064,6,1,P|152:293|201:286,1,99.9999952316285,2|0,2:0|3:2,2:0:0:0:
314,369,74388,1,0,3:2:0:0:
380,310,74550,2,1,P|389:252|407:99,1,199.999990463257,8|0,3:2|3:2,2:0:0:0:
268,162,75037,1,8,2:0:0:0:
262,150,75118,1,8,2:0:0:0:
256,137,75199,1,8,2:0:0:0:
317,75,75361,1,10,2:0:0:0:
237,7,75523,1,6,2:0:0:0:
192,234,80713,6,1,L|144:245,3,49.9999976158143,8|8|8|8,1:3|3:0|2:3|2:3,2:0:0:0:
213,128,81037,6,1,L|203:80,3,49.9999976158143,8|8|8|8,3:0|3:0|2:3|2:3,2:0:0:0:
319,149,81361,6,1,L|368:139,3,49.9999976158143,8|8|8|8,3:0|3:0|2:3|2:3,2:0:0:0:
298,255,81685,6,1,L|309:304,3,49.9999976158143,8|8|8|8,3:0|3:0|2:3|2:3,2:0:0:0:
247,257,82010,5,8,3:0:0:0:
222,263,82091,1,8,3:0:0:0:
195,271,82172,1,8,2:3:0:0:
168,278,82253,1,8,2:3:0:0:
118,260,82334,5,8,3:0:0:0:
97,262,82415,1,8,3:0:0:0:
75,269,82496,1,8,2:3:0:0:
51,275,82577,1,8,2:3:0:0:
9,256,82658,6,1,L|25:175,3,49.9999976158143,8|8|8|8,3:0|3:0|2:3|2:3,2:0:0:0:
103,147,82983,6,1,L|119:66,3,49.9999976158143,8|8|8|8,3:0|3:0|3:0|2:3,2:0:0:0:
199,208,83307,6,1,L|215:127,3,49.9999976158143,8|8|8|8,3:0|3:0|2:3|2:3,2:0:0:0:
290,99,83631,6,1,L|306:18,3,49.9999976158143,8|8|8|8,3:0|3:0|2:3|2:3,2:0:0:0:
383,177,83956,6,1,L|399:96,3,49.9999976158143,8|8|8|8,3:0|3:0|2:3|2:3,2:0:0:0:
477,67,84280,6,1,L|493:-14,3,49.9999976158143,8|8|8|8,3:0|3:0|2:3|2:3,2:0:0:0:
508,166,84604,5,8,3:0:0:0:
505,179,84685,1,8,3:0:0:0:
503,189,84767,1,8,2:3:0:0:
500,199,84848,1,8,2:3:0:0:
469,223,84929,5,8,3:0:0:0:
466,236,85010,1,8,3:0:0:0:
464,246,85091,1,8,2:3:0:0:
461,256,85172,1,8,2:3:0:0:
430,280,85253,5,8,3:0:0:0:
427,293,85334,1,8,3:0:0:0:
425,303,85415,1,8,2:3:0:0:
422,313,85496,1,8,2:3:0:0:
396,341,85577,6,1,L|468:351,1,49.9999976158143,8|0,3:0|2:0,2:0:0:0:
335,246,85740,2,1,L|285:239,1,49.9999976158143,8|0,3:0|2:0,2:0:0:0:
226,351,85902,6,1,L|298:361,3,49.9999976158143,8|8|8|8,3:0|3:0|2:3|2:3,2:0:0:0:
148,285,86226,6,1,L|215:257,3,49.9999976158143,8|8|8|8,3:0|3:0|2:3|2:3,2:0:0:0:
47,266,86550,6,1,L|91:208,3,49.9999976158143,8|8|8|8,3:0|3:0|2:3|2:3,2:0:0:0:
127,366,86875,5,8,3:0:0:0:
81,364,86956,1,8,3:0:0:0:
54,342,87037,1,8,3:0:0:0:
47,310,87118,1,8,3:0:0:0:
47,266,87199,6,1,L|77:226,3,49.9999976158143,8|8|8|8,3:0|3:0|2:3|2:3,2:0:0:0:
148,285,87523,6,1,L|194:266,3,49.9999976158143,8|8|8|8,3:0|3:0|2:3|2:3,2:0:0:0:
226,351,87848,6,1,L|275:357,3,49.9999976158143,8|8|8|8,3:0|3:0|2:3|2:3,2:0:0:0:
351,303,88172,6,1,L|400:309,3,49.9999976158143,8|8|8|9,3:0|3:0|3:0|3:0,2:0:0:0:
280,197,88496,6,1,L|329:203,3,49.9999976158143,8|8|8|8,3:0|3:0|2:3|2:3,2:0:0:0:
146,146,88821,6,1,L|185:175,3,49.9999976158143,8|8|8|8,3:0|3:0|2:3|2:3,2:0:0:0:
38,62,89145,6,1,L|57:107,3,49.9999976158143,8|8|8|8,3:0|3:0|2:3|2:3,2:0:0:0:
110,0,89469,5,8,3:0:0:0:
109,29,89550,1,8,3:0:0:0:
133,54,89631,1,8,3:0:0:0:
165,58,89713,1,8,3:0:0:0:
187,49,89794,6,1,P|228:35|259:22,3,49.9999976158143,8|8|8|8,3:0|3:0|2:3|2:3,2:0:0:0:
290,106,90118,6,1,P|318:73|338:46,3,49.9999976158143,8|8|8|8,3:0|3:0|2:3|2:3,2:0:0:0:
407,110,90442,6,1,P|415:67|419:34,3,49.9999976158143,8|8|8|8,3:0|3:0|2:3|2:3,2:0:0:0:
507,49,90767,6,1,P|493:8|480:-22,3,49.9999976158143,8|8|8|8,3:0|3:0|3:0|3:0,2:0:0:0:
491,169,91091,6,0,L|517:294,2,99.9999952316285,12|2|8,3:0|2:3|3:0,2:0:0:0:
419,62,91577,1,10,2:3:0:0:
419,62,91658,1,0,2:0:0:0:
419,62,91740,2,0,L|503:40,1,49.9999976158143,10|0,3:2|2:0,2:0:0:0:
391,152,91902,1,2,2:3:0:0:
391,152,91983,1,8,2:3:0:0:
391,152,92064,2,1,L|251:128,1,99.9999952316285,8|10,3:0|2:3,2:0:0:0:
323,230,92388,5,14,3:0:0:0:
293,319,92550,1,2,2:3:0:0:
506,237,92713,1,8,3:0:0:0:
506,237,92794,1,2,2:0:0:0:
506,237,92875,2,1,L|478:353,1,99.9999952316285,2|10,2:3|3:2,2:0:0:0:
401,335,93118,2,1,L|408:398,2,49.9999976158143,2|2|8,2:0|2:3|2:3,2:0:0:0:
374,251,93361,2,1,P|305:228|319:136,1,149.999992847443,8|8,3:0|2:3,2:0:0:0:
372,107,93685,6,0,P|415:93|477:74,2,99.9999952316285,14|2|8,3:0|2:3|3:0,2:0:0:0:
303,7,94172,1,2,2:3:0:0:
303,7,94253,1,8,2:3:0:0:
303,7,94334,2,1,L|180:38,1,99.9999952316285,10|2,3:2|2:3,2:0:0:0:
197,35,94577,1,8,2:3:0:0:
188,39,94658,2,1,L|219:156,1,99.9999952316285,8|0,3:0|2:0,2:0:0:0:
166,244,94983,5,8,3:0:0:0:
85,190,95145,1,2,2:3:0:0:
0,297,95307,1,8,3:0:0:0:
11,293,95388,1,2,2:0:0:0:
26,289,95469,1,2,2:3:0:0:
43,284,95550,1,8,2:3:0:0:
57,281,95631,2,1,L|39:385,1,99.9999952316285,10|2,3:2|2:3,2:0:0:0:
51,376,95875,1,8,2:3:0:0:
62,370,95956,2,1,L|173:338,1,99.9999952316285,8|0,3:0|2:0,2:0:0:0:
302,277,96280,5,8,3:0:0:0:
302,277,96361,1,2,2:1:0:0:
302,277,96442,2,1,L|313:175,1,99.9999952316285,2|8,2:3|3:0,2:0:0:0:
319,173,96685,1,2,2:0:0:0:
326,168,96767,2,1,L|339:57,1,99.9999952316285,2|10,2:3|3:2,2:0:0:0:
149,17,97091,1,2,2:3:0:0:
149,17,97172,1,8,2:3:0:0:
149,17,97253,2,1,P|218:22|212:117,1,149.999992847443,8|2,3:0|2:1,2:0:0:0:
230,103,97577,6,0,L|95:144,2,99.9999952316285,8|2|8,3:0|2:3|3:0,2:0:0:0:
316,46,97983,1,2,2:0:0:0:
326,40,98064,2,1,L|449:62,1,99.9999952316285,2|10,2:3|3:2,2:0:0:0:
474,164,98388,1,2,2:3:0:0:
467,158,98469,1,8,2:3:0:0:
460,152,98550,2,1,P|399:157|392:259,1,149.999992847443,8|2,3:0|2:1,2:0:0:0:
389,246,98875,6,0,L|406:361,2,99.9999952316285,8|2|8,3:0|2:3|3:0,2:0:0:0:
308,325,99361,1,2,2:3:0:0:
216,267,99523,2,1,L|112:285,1,99.9999952316285,10|2,3:2|2:3,2:0:0:0:
115,293,99767,1,8,2:3:0:0:
113,302,99848,2,1,L|-1:289,1,99.9999952316285,8|0,3:0|2:0,2:0:0:0:
135,40,100172,5,10,3:0:0:0:
180,120,100334,1,2,2:3:0:0:
81,125,100496,5,8,3:0:0:0:
52,211,100658,1,2,2:3:0:0:
60,220,100740,1,8,2:3:0:0:
67,227,100821,2,1,P|153:223|182:339,1,199.999990463257,10|8,3:2|3:0,2:0:0:0:
192,316,101307,1,8,2:3:0:0:
332,229,101469,6,1,L|439:251,1,99.9999952316285,8|2,3:0|2:0,2:0:0:0:
293,116,101794,6,1,L|315:9,1,99.9999952316285,8|2,3:0|2:0,2:0:0:0:
82,134,102118,6,1,L|180:155,1,99.9999952316285,14|2,2:0|2:0,2:0:0:0:
219,268,102442,6,1,L|197:375,1,99.9999952316285,8|2,3:0|2:0,2:0:0:0:
312,228,102767,6,1,L|331:275,3,49.9999976158143,8|0|8|8,3:0|2:0|2:3|2:3,2:0:0:0:
259,125,103091,6,1,L|289:85,3,49.9999976158143,8|0|8|0,3:0|2:0|2:3|2:0,2:0:0:0:
173,167,103415,5,8,3:2:0:0:
178,180,103496,1,0,2:0:0:0:
184,194,103577,1,8,2:3:0:0:
190,208,103658,1,0,2:0:0:0:
196,222,103740,6,1,L|146:215,3,49.9999976158143,8|0|8|8,3:0|2:0|2:3|2:3,2:0:0:0:
56,292,104064,6,1,L|72:224,3,49.9999976158143,8|0|8|0,3:0|2:0|2:3|2:0,2:0:0:0:
0,127,104388,6,1,L|12:175,3,49.9999976158143,8|0|8|0,3:0|2:0|2:3|2:0,2:0:0:0:
23,90,104713,5,8,3:2:0:0:
68,81,104794,1,0,2:0:0:0:
113,69,104875,1,8,2:3:0:0:
155,57,104956,1,8,2:3:0:0:
187,76,105037,6,1,L|199:124,3,49.9999976158143,8|0|8|0,3:0|2:0|2:3|2:0,2:0:0:0:
303,44,105361,6,1,L|289:92,3,49.9999976158143,8|0|8|0,3:0|2:0|2:3|2:0,2:0:0:0:
438,20,105685,6,1,L|402:54,3,49.9999976158143,8|0|8|8,3:0|2:0|2:3|2:3,2:0:0:0:
469,130,106010,5,14,2:0:0:0:
478,134,106091,1,0,2:0:0:0:
483,142,106172,1,2,2:0:0:0:
485,151,106253,1,0,2:0:0:0:
482,165,106334,1,8,3:0:0:0:
466,196,106415,1,0,2:0:0:0:
420,216,106496,1,8,2:3:0:0:
366,205,106577,1,8,2:3:0:0:
330,162,106658,6,0,L|338:99,3,49.9999976158143,4|0|0|0,1:0|2:0|2:0|2:0,2:0:0:0:
138,34,106983,6,1,L|144:83,3,49.9999976158143,8|0|0|0,3:0|2:0|2:0|2:0,2:0:0:0:
224,207,107307,6,1,L|232:144,3,49.9999976158143,12|0|0|0,2:0|2:0|2:0|2:0,2:0:0:0:
32,79,107631,6,1,L|38:128,3,49.9999976158143,8|0|0|0,3:0|2:0|2:0|2:0,2:0:0:0:
132,207,107956,5,8,3:0:0:0:
117,210,108037,1,0,2:0:0:0:
102,214,108118,1,0,2:0:0:0:
88,218,108199,1,0,2:0:0:0:
70,245,108280,5,8,3:0:0:0:
55,241,108361,1,0,2:0:0:0:
40,237,108442,1,0,2:0:0:0:
26,233,108523,1,0,2:0:0:0:
13,231,108604,6,1,L|27:303,3,49.9999976158143,14|0|0|0,3:2|2:0|2:0|2:0,2:0:0:0:
102,334,108929,6,1,L|116:406,3,49.9999976158143,8|0|0|0,3:0|2:0|2:0|2:0,2:0:0:0:
193,306,109253,5,8,1:3:0:0:
199,301,109334,1,0,1:3:0:0:
206,297,109415,2,1,L|221:232,1,49.9999976158143,0|0,1:0|1:0,2:0:0:0:
307,257,109577,5,8,1:3:0:0:
309,249,109658,1,0,1:0:0:0:
313,242,109740,2,1,L|293:178,1,49.9999976158143,0|0,1:0|1:0,2:0:0:0:
244,123,109902,5,8,1:2:0:0:
239,117,109983,1,0,1:0:0:0:
235,110,110064,2,1,L|170:95,1,49.9999976158143,0|0,1:0|1:0,2:0:0:0:
385,163,110226,5,8,1:0:0:0:
386,155,110307,1,0,1:0:0:0:
386,147,110388,2,1,L|337:101,1,49.9999976158143,0|0,1:0|1:0,2:0:0:0:
408,25,110550,6,0,L|329:21,3,49.9999976158143,8|0|0|0,1:0|1:0|1:0|1:0,2:0:0:0:
472,81,110875,1,8,1:0:0:0:
485,82,110956,1,0,1:0:0:0:
498,84,111037,2,1,L|492:147,1,49.9999976158143,0|0,1:0|1:0,2:0:0:0:
481,219,111199,5,10,1:0:0:0:
389,217,111361,1,2,2:0:0:0:
311,318,111523,1,8,1:0:0:0:
383,384,111685,1,8,1:0:0:0:
185,335,111848,5,4,1:0:0:0:
185,335,112010,2,1,L|133:60,2,239.999988555909,4|4|4,1:0|1:0|1:0,2:0:0:0:
0,201,112983,6,0,L|485:297,1,494.999976396562,6|0,1:2|2:0,2:0:0:0:
485,298,113956,1,2,2:1:0:0:
391,314,114118,1,4,1:0:0:0:
275,208,114280,1,4,1:3:0:0:
126,265,114442,1,4,1:0:0:0:
126,265,114604,6,1,L|81:-2,2,239.999988555909,4|4|4,1:0|1:0|1:0,2:0:0:0:
0,331,115577,6,0,L|514:227,1,494.999976396562,6|2,1:2|2:0,2:0:0:0:
485,232,116550,5,2,2:1:0:0:
383,214,116713,1,4,1:0:0:0:
301,72,116875,1,4,1:0:0:0:
166,106,117037,1,4,1:0:0:0:
166,106,117199,6,1,L|122:360,2,239.999988555909,4|4|4,1:0|1:0|1:0,2:0:0:0:
512,212,118172,6,0,L|37:-10,1,494.999976396562,6|2,1:0|2:0,2:0:0:0:
63,2,119145,5,2,2:1:0:0:
128,96,119307,2,1,L|136:155,1,37.4999982118608,6|0,1:0|2:0,2:0:0:0:
284,77,119469,1,4,1:0:0:0:
395,185,119631,5,6,1:0:0:0:
395,185,119794,2,1,L|136:242,2,239.999988555909,4|4|4,1:0|1:0|1:0,2:0:0:0:
76,372,120767,6,0,L|475:22,1,494.999976396562,4|2,1:0|2:0,2:0:0:0:
448,45,121740,5,2,2:1:0:0:
318,0,121902,6,1,L|252:11,1,37.4999982118608,12|0,2:0|2:0,2:0:0:0:
357,82,122064,2,1,L|305:124,1,37.4999982118608,10|0,2:0|2:0,2:0:0:0:
436,143,122226,5,12,1:0:0:0:
314,216,122388,2,0,P|329:296|332:350,1,119.999994277954,2|8,1:0|1:0,2:0:0:0:
212,190,122713,2,0,P|223:148|228:113,2,59.9999971389771,2|2|8,2:3|2:3|1:0,2:0:0:0:
79,162,123037,6,0,P|93:218|102:301,1,119.999994277954,2|8,1:0|2:0,2:0:0:0:
197,290,123361,5,2,1:0:0:0:
212,384,123523,2,0,P|312:354|358:349,1,119.999994277954,8|0,1:0|2:0,2:0:0:0:
512,296,123848,2,0,P|402:258|363:237,1,119.999994277954,8|2,1:0|2:3,2:0:0:0:
391,246,124091,1,2,2:3:0:0:
389,231,124172,1,8,1:0:0:0:
449,149,124334,1,2,1:0:0:0:
375,31,124496,1,8,1:3:0:0:
375,31,124658,1,8,1:3:0:0:
281,110,124821,5,8,1:0:0:0:
193,39,124983,2,0,P|130:76|59:91,1,119.999994277954,2|8,1:0|1:0,2:0:0:0:
162,190,125307,2,0,P|146:216|116:243,2,59.9999971389771,2|0|8,1:0|2:0|1:0,2:0:0:0:
307,196,125631,1,2,1:0:0:0:
378,253,125794,2,1,P|383:300|408:388,1,119.999994277954,8|2,1:0|1:0,2:0:0:0:
453,178,126118,6,0,P|469:96|486:39,2,119.999994277954,10|0|2,1:0|2:0|1:0,2:0:0:0:
378,81,126604,1,0,1:0:0:0:
370,68,126685,1,0,1:0:0:0:
356,61,126767,2,0,P|289:72|202:103,1,119.999994277954,8|0,1:0|1:0,2:0:0:0:
206,190,127091,1,8,1:3:0:0:
206,190,127253,1,8,1:3:0:0:
89,121,127415,5,8,1:0:0:0:
27,182,127577,2,0,P|11:277|23:356,1,119.999994277954,2|8,1:0|1:0,2:0:0:0:
143,384,127902,1,0,1:0:0:0:
147,374,127983,1,0,1:0:0:0:
156,364,128064,2,0,P|219:354|302:350,1,119.999994277954,8|2,1:0|1:0,2:0:0:0:
385,242,128388,1,8,1:0:0:0:
450,307,128550,1,0,2:0:0:0:
473,189,128713,6,0,P|471:123|417:3,1,179.999991416931,10|0,1:0|2:0,2:0:0:0:
423,28,129037,2,0,L|350:38,3,59.9999971389771,10|0|0|0,1:0|2:0|1:0|1:0,2:0:0:0:
318,117,129361,2,0,L|239:97,3,59.9999971389771,8|0|0|0,1:0|2:0|1:0|1:0,2:0:0:0:
213,15,129685,5,8,1:3:0:0:
190,19,129767,1,8,1:3:0:0:
131,7,129848,5,8,1:3:0:0:
120,26,129929,1,8,1:3:0:0:
74,54,130010,5,4,1:0:0:0:
508,189,130658,5,4,1:0:0:0:
0,346,131307,6,0,L|83:320,1,59.9999971389771,4|0,1:0|2:0,2:0:0:0:
61,348,131469,6,0,L|144:322,1,59.9999971389771,4|0,1:0|2:0,2:0:0:0:
142,273,131631,6,0,L|225:247,1,59.9999971389771,4|0,1:0|2:0,2:0:0:0:
264,327,131794,6,0,L|347:301,1,59.9999971389771,4|0,1:0|2:0,2:0:0:0:
358,214,131956,6,0,L|521:166,1,149.999992847443,12|0,2:0|1:0,2:0:0:0:
263,167,132280,2,0,L|279:125,6,37.4999982118607,14|0|0|0|0|0|0,2:0|2:0|2:0|2:0|1:0|2:0|2:0,2:0:0:0:
160,118,132604,6,0,P|298:173|314:324,1,299.999985694886,12|0,1:0|2:0,2:0:0:0:
388,363,132929,2,0,P|457:354|474:259,1,149.999992847443,10|0,1:0|2:0,2:0:0:0:
495,179,133253,6,0,P|351:204|110:310,2,399.999980926514,14|8|8,1:0|1:0|1:0,2:0:0:0:
359,169,134064,2,0,P|367:122|380:98,1,59.9999971389771,0|0,2:0|2:0,2:0:0:0:
285,260,134226,2,0,P|251:142|215:72,1,179.999991416931,8|0,1:0|2:0,2:0:0:0:
172,26,134550,6,0,P|55:51|93:220,1,299.999985694885,14|0,1:0|2:0,2:0:0:0:
119,304,134875,2,0,P|94:259|2:281,2,149.999998569489,8|0|12,1:0|2:0|1:0,2:0:0:0:
193,263,135361,1,0,2:0:0:0:
317,322,135523,2,0,P|356:265|364:84,1,224.999989271164,8|0,1:0|2:0,2:0:0:0:
393,3,135848,6,0,P|437:83|271:93,1,299.999985694885,12|0,1:0|2:0,2:0:0:0:
226,183,136172,2,0,P|166:122|185:51,2,149.999992847443,10|2|10,1:0|2:3|1:0,2:0:0:0:
328,60,136658,2,0,P|364:86|369:140,1,74.9999964237213,0|0,2:0|2:0,2:0:0:0:
393,3,136821,6,0,P|366:65|306:320,1,299.999985694886,12|0,1:0|2:0,2:0:0:0:
253,349,137145,2,0,P|123:337|79:174,1,299.999985694886,12|0,1:0|2:0,2:0:0:0:
0,96,137469,5,8,1:0:0:0:
37,111,137550,1,8,1:0:0:0:
77,76,137631,1,8,1:0:0:0:
130,108,137713,1,8,1:0:0:0:
167,75,137794,6,0,P|314:108|486:127,1,299.999985694886,8|0,1:0|2:0,2:0:0:0:
512,201,138118,6,0,P|529:299|363:326,1,299.999985694886,10|0,1:0|2:0,2:0:0:0:
292,384,138442,6,0,P|267:286|325:87,1,299.999985694886,12|0,1:0|2:0,2:0:0:0:
356,26,138767,2,0,P|393:53|380:103,1,74.9999964237213,8|0,1:0|2:0,2:0:0:0:
269,177,138929,2,0,P|229:138|239:100,1,74.9999964237213,2|0,1:0|2:0,2:0:0:0:
252,36,139091,6,1,P|257:16|262:-23,3,37.4999982118607,8|0|2|0,1:0|2:0|1:0|2:0,2:0:0:0:
155,73,139415,6,0,P|144:55|120:24,3,37.4999982118607,10|0|2|0,1:0|2:0|1:0|2:0,2:0:0:0:
146,172,139740,6,0,P|43:105|78:236,1,299.999985694886,12|0,1:0|2:0,2:0:0:0:
163,292,140064,2,0,P|60:359|95:228,1,299.999985694886,10|0,1:0|2:0,2:0:0:0:
219,217,140388,6,1,L|291:204,3,49.9999976158143,12|0|0|0,1:0|1:0|1:0|1:0,2:0:0:0:
322,139,140713,6,1,L|371:147,3,49.9999976158143,8|0|0|0,1:0|1:0|1:0|1:0,2:0:0:0:
360,247,141037,6,1,L|432:234,3,49.9999976158143,8|0|0|0,1:0|1:0|1:0|1:0,2:0:0:0:
463,169,141361,6,1,L|512:177,3,49.9999976158143,8|0|0|0,1:0|1:0|1:0|1:0,2:0:0:0:
289,290,141685,6,0,L|361:277,3,49.9999976158143,8|0|2|2,1:0|2:0|2:3|2:3,2:0:0:0:
397,131,142010,6,0,L|446:139,3,49.9999976158143,8|0|2|2,1:0|2:0|2:3|2:3,2:0:0:0:
274,29,142334,6,0,L|346:16,3,49.9999976158143,8|0|2|2,1:0|2:0|2:3|2:3,2:0:0:0:
156,108,142658,6,0,L|97:117,1,49.9999976158143,8|8,1:0|1:0,2:0:0:0:
175,123,142740,2,0,L|184:182,1,49.9999976158143,8|8,1:0|1:0,2:0:0:0:
205,119,142821,2,0,L|264:110,1,49.9999976158143,8|8,1:0|1:0,2:0:0:0:
185,100,142902,2,0,L|176:41,1,49.9999976158143,8|8,1:0|1:0,2:0:0:0:
256,192,157253,5,12,1:0:0:0:
256,192,159848,5,4,1:0:0:0:
256,192,162442,5,4,1:0:0:0:
256,192,165037,5,4,1:0:0:0:
256,192,166334,5,4,1:0:0:0:
256,192,166983,5,12,1:0:0:0:
220,109,167226,5,8,1:0:0:0:
220,109,167307,1,10,1:0:0:0:
345,162,167469,1,10,1:0:0:0:
165,227,167631,6,1,P|113:228|47:241,1,112.499994635582,12|0,1:0|1:0,2:0:0:0:
26,245,167956,2,1,P|28:296|52:378,1,112.499994635582,0|0,1:0|1:0,2:0:0:0:
44,384,168280,2,1,P|95:381|177:357,1,112.499994635582,2|0,1:0|2:0,2:0:0:0:
183,366,168604,2,1,P|180:314|156:232,1,112.499994635582,0|0,1:0|1:0,2:0:0:0:
165,227,168929,2,1,P|216:224|298:200,1,112.499994635582,2|0,1:0|1:0,2:0:0:0:
304,209,169253,2,1,P|301:157|277:75,1,112.499994635582,0|0,1:0|1:0,2:0:0:0:
286,70,169577,2,0,P|337:67|419:43,1,112.499994635582,2|0,1:0|2:0,2:0:0:0:
423,20,169902,6,0,P|441:17|460:16,1,37.4999982118608,2|0,1:0|2:0,2:0:0:0:
426,136,170064,2,0,P|444:133|463:132,1,37.4999982118608,2|0,1:0|2:0,2:0:0:0:
347,227,170226,6,1,P|398:228|464:241,1,112.499994635582,12|0,1:0|1:0,2:0:0:0:
486,245,170550,2,1,P|483:296|459:378,1,112.499994635582,0|0,1:0|1:0,2:0:0:0:
468,384,170875,2,1,P|416:381|334:357,1,112.499994635582,2|0,1:0|2:0,2:0:0:0:
329,366,171199,2,1,P|331:314|355:232,1,112.499994635582,0|0,1:0|1:0,2:0:0:0:
347,227,171523,2,1,P|295:224|213:200,1,112.499994635582,2|0,1:0|1:0,2:0:0:0:
208,209,171848,2,1,P|210:157|234:75,1,112.499994635582,0|0,1:0|1:0,2:0:0:0:
226,70,172172,2,0,P|174:67|92:43,1,112.499994635582,2|8,1:0|2:0,2:0:0:0:
89,20,172496,6,0,P|70:17|51:16,1,37.4999982118608,8|0,2:0|2:0,2:0:0:0:
37,101,172658,2,0,P|18:98|0:97,1,37.4999982118608,0|0,1:0|2:0,2:0:0:0:
163,213,172821,6,1,P|113:198|46:190,1,112.499994635582,12|0,1:0|1:0,2:0:0:0:
25,187,173145,2,1,P|11:236|8:322,1,112.499994635582,0|0,1:0|1:0,2:0:0:0:
0,324,173469,2,1,P|49:337|135:340,1,112.499994635582,2|0,1:0|2:0,2:0:0:0:
137,350,173794,2,1,P|150:300|153:214,1,112.499994635582,0|0,1:0|2:0,2:0:0:0:
163,213,174118,6,1,P|212:227|279:235,1,112.499994635582,12|0,1:0|1:0,2:0:0:0:
301,239,174442,2,1,P|314:189|317:103,1,112.499994635582,0|0,1:0|1:0,2:0:0:0:
349,109,174767,5,2,1:0:0:0:
349,109,175091,1,2,1:0:0:0:
347,22,175415,5,12,1:0:0:0:
86,101,175740,5,0,1:0:0:0:
165,362,176064,5,12,1:0:0:0:
426,283,176388,5,0,1:0:0:0:
256,192,176713,5,2,1:0:0:0:
256,192,177037,1,2,1:0:0:0:
256,192,177361,1,2,1:0:0:0:
256,192,177685,5,10,1:0:0:0:
256,176,177767,1,10,1:0:0:0:
256,160,177848,1,10,1:0:0:0:
256,144,177929,1,10,1:0:0:0:
256,128,178010,6,0,P|197:127|119:236,1,179.999991416931,12|0,1:0|2:0,2:0:0:0:
111,222,178334,2,0,P|129:287|139:356,1,119.999994277954,10|2,1:0|2:0,2:0:0:0:
242,296,178658,5,10,1:0:0:0:
330,374,178821,1,2,1:2:0:0:
411,322,178983,1,8,1:0:0:0:
406,231,179145,6,0,P|365:188|403:83,1,179.999991416931,2|2,1:0|2:0,2:0:0:0:
412,92,179469,1,2,1:0:0:0:
296,18,179631,6,0,P|200:55|134:59,1,119.999994277954,10|2,2:0|1:0,2:0:0:0:
181,49,179875,1,2,2:0:0:0:
179,42,179956,2,0,P|116:55|132:161,1,179.999991416931,10|0,1:0|2:0,2:0:0:0:
145,161,180280,1,10,1:0:0:0:
133,269,180442,1,2,1:0:0:0:
39,293,180604,5,10,1:0:0:0:
128,253,180767,1,2,2:0:0:0:
186,344,180929,1,10,1:0:0:0:
269,262,181091,1,2,1:0:0:0:
335,359,181253,2,0,P|400:345|414:253,1,119.999994277954,8|2,1:0|1:0,2:0:0:0:
437,299,181496,1,2,2:0:0:0:
446,290,181577,2,0,P|438:205|423:150,2,119.999994277954,10|2|4,1:0|2:3|1:0,2:0:0:0:
347,213,182064,1,0,2:0:0:0:
451,150,182226,6,0,P|363:117|362:18,1,179.999991416931,8|0,1:0|2:0,2:0:0:0:
332,27,182550,2,0,L|257:47,1,59.9999971389771,10|0,1:0|2:0,2:0:0:0:
184,0,182713,1,0,1:0:0:0:
178,8,182794,1,0,1:0:0:0:
168,16,182875,2,1,L|92:37,3,59.9999971389771,8|8|8|8,1:0|1:0|1:0|1:0,2:0:0:0:
17,13,183199,6,0,P|6:100|101:134,1,179.999991416931,14|2,1:0|2:0,2:0:0:0:
90,159,183523,2,0,P|151:139|222:128,1,119.999994277954,10|2,1:0|1:0,2:0:0:0:
193,234,183848,2,0,P|262:257|320:295,1,119.999994277954,10|0,1:0|2:0,2:0:0:0:
407,267,184172,1,10,1:0:0:0:
480,336,184334,1,2,1:0:0:0:
506,183,184496,6,0,P|475:101|414:99,1,119.999994277954,14|0,1:0|2:0,2:0:0:0:
345,0,184821,2,1,P|311:88|344:173,1,179.999991416931,8|0,1:0|2:0,2:0:0:0:
354,186,185145,2,0,L|418:168,2,59.9999953079226,6|0|0,1:0|2:0|2:0,2:0:0:0:
184,209,185469,5,10,1:0:0:0:
147,296,185631,1,2,1:0:0:0:
66,252,185794,2,0,P|7:236|1:170,1,119.999994277954,6|2,1:0|1:0,2:0:0:0:
11,182,186037,1,2,2:0:0:0:
24,177,186118,2,0,P|36:117|51:47,1,119.999994277954,10|2,1:0|1:0,2:0:0:0:
174,125,186442,2,1,P|161:69|151:-5,1,119.999994277954,10|2,1:0|1:0,2:0:0:0:
276,71,186767,2,0,P|284:34|291:2,2,59.9999971389771,10|0|2,1:0|2:0|1:0,2:0:0:0:
259,165,187091,6,0,P|271:239|297:304,1,119.999994277954,14|2,1:0|2:0,2:0:0:0:
342,381,187415,1,8,1:0:0:0:
350,368,187496,1,8,1:0:0:0:
365,352,187577,1,8,1:0:0:0:
396,346,187658,1,8,1:0:0:0:
415,343,187740,2,0,P|453:353|492:368,1,59.9999971389771,10|0,1:0|2:0,2:0:0:0:
453,264,187902,2,0,P|491:254|530:239,1,59.9999971389771,2|0,1:0|2:0,2:0:0:0:
469,170,188064,5,14,1:0:0:0:
469,170,188226,1,0,1:0:0:0:
353,115,188388,6,0,P|260:155|159:147,1,179.999991416931,12|2,1:0|2:3,2:0:0:0:
168,166,188713,2,0,P|89:121|90:58,1,119.999994277954,10|0,1:0|2:0,2:0:0:0:
0,239,189037,6,0,P|121:275|154:356,1,179.999991416931,10|0,1:0|2:0,2:0:0:0:
139,329,189361,1,8,1:0:0:0:
240,381,189523,1,2,1:0:0:0:
335,328,189685,6,1,P|360:247|360:199,1,119.999994277954,8|2,1:0|1:0,2:0:0:0:
466,182,190010,2,0,P|475:149|487:116,2,59.9999971389771,10|0|2,1:0|2:0|1:0,2:0:0:0:
382,80,190334,2,0,P|351:1|253:10,1,179.999991416931,10|0,1:0|2:0,2:0:0:0:
256,23,190658,1,10,1:0:0:0:
146,0,190821,1,2,1:0:0:0:
66,84,190983,5,10,1:0:0:0:
140,19,191145,1,2,1:0:0:0:
175,137,191307,1,8,1:0:0:0:
238,53,191469,1,2,1:0:0:0:
343,94,191631,2,0,P|381:143|308:240,1,179.999985923768,10|0,1:0|2:0,2:0:0:0:
319,228,191956,1,8,1:0:0:0:
407,309,192118,1,2,1:0:0:0:
340,384,192280,6,0,L|212:357,1,119.999994277954,8|2,1:0|2:0,2:0:0:0:
192,261,192604,2,0,P|71:251|68:172,1,179.999991416931,10|2,1:0|2:0,2:0:0:0:
45,205,192929,2,0,L|59:135,2,59.9999971389771,6|0|0,1:0|2:0|2:0,2:0:0:0:
140,107,193253,5,8,1:0:0:0:
139,93,193334,1,8,1:0:0:0:
139,81,193415,1,8,1:0:0:0:
139,70,193496,1,8,1:0:0:0:
138,59,193577,6,0,P|199:53|225:178,1,179.999991416931,10|2,1:0|2:0,2:0:0:0:
239,156,193902,1,10,1:0:0:0:
312,229,194064,2,0,L|254:244,1,59.9999971389771,10|0,1:0|2:0,2:0:0:0:
323,238,194226,6,0,P|381:215|370:131,1,119.999994277954,12|8,1:0|1:0,2:0:0:0:
400,160,194469,1,8,1:0:0:0:
407,158,194550,2,1,P|420:87|433:24,1,119.999994277954,10|2,1:0|2:1,2:0:0:0:
489,220,194875,6,0,L|515:353,1,119.999994277954,10|0,1:0|2:0,2:0:0:0:
414,302,195199,1,10,1:0:0:0:
337,384,195361,1,2,2:0:0:0:
265,320,195523,6,0,P|198:340|133:240,1,179.999991416931,10|2,1:0|2:0,2:0:0:0:
138,261,195848,1,10,1:0:0:0:
176,171,196010,1,8,1:0:0:0:
106,100,196172,6,0,P|19:126|38:235,1,179.999991416931,14|2,1:0|2:3,2:0:0:0:
26,226,196496,2,0,P|113:243|160:286,1,119.999994277954,8|2,1:0|1:0,2:0:0:0:
240,231,196821,2,0,P|300:213|321:154,1,119.999994277954,10|2,1:0|1:0,2:0:0:0:
422,202,197145,1,10,1:0:0:0:
422,202,197307,1,0,1:0:0:0:
508,151,197469,6,0,P|523:85|417:36,1,179.999991416931,8|0,1:0|2:0,2:0:0:0:
444,41,197794,2,0,L|374:58,3,59.9999971389771,10|8|8|8,1:0|1:0|1:0|1:0,2:0:0:0:
307,0,198118,2,0,L|287:69,3,59.9999971389771,8|8|8|0,1:0|1:0|1:0|2:0,2:0:0:0:
193,15,198442,2,0,L|219:153,1,119.999994277954,12|0,1:0|2:0,2:0:0:0:
335,199,198767,5,14,1:0:0:0:
335,199,198929,1,2,1:0:0:0:
242,246,199091,2,0,L|222:368,2,119.999994277954,10|2|10,1:0|1:0|1:0,2:0:0:0:
145,201,199577,1,2,1:0:0:0:
121,210,199658,1,2,2:3:0:0:
101,218,199740,1,10,1:0:0:0:
15,178,199902,1,2,1:0:0:0:
14,334,200064,6,0,L|137:301,2,119.999994277954,10|2|10,1:0|1:0|1:0,2:0:0:0:
149,335,200550,1,2,1:0:0:0:
248,270,200713,1,10,1:0:0:0:
248,270,201037,5,10,1:0:0:0:
330,325,201199,5,2,1:0:0:0:
431,285,201361,5,10,1:0:0:0:
431,285,201523,1,2,1:0:0:0:
456,192,201685,2,0,L|475:69,2,119.999994277954,10|2|10,1:0|1:0|1:0,2:0:0:0:
346,167,202172,1,2,1:0:0:0:
332,173,202253,1,2,2:3:0:0:
320,179,202334,1,10,1:0:0:0:
234,123,202496,1,2,1:0:0:0:
155,222,202658,6,0,L|146:358,2,119.999994277954,14|0|8,1:0|1:0|1:0,2:0:0:0:
63,264,203145,1,2,1:0:0:0:
110,131,203307,2,0,L|87:-13,1,119.999994277954,14|2,1:0|1:0,2:0:0:0:
258,15,203631,1,8,1:0:0:0:
256,26,203713,1,8,1:0:0:0:
254,35,203794,1,8,1:0:0:0:
252,44,203875,1,8,1:0:0:0:
251,54,203956,6,0,L|412:18,1,119.999994277954,14|2,1:0|1:0,2:0:0:0:
391,127,204280,2,0,L|521:155,2,119.999994277954,10|2|10,1:0|1:0|1:0,2:0:0:0:
296,170,204767,1,2,1:0:0:0:
294,181,204848,1,2,2:3:0:0:
292,191,204929,1,10,1:0:0:0:
378,248,205091,1,2,1:0:0:0:
298,353,205253,6,0,L|459:318,2,119.999994277954,10|2|10,1:0|1:0|1:0,2:0:0:0:
224,297,205740,1,2,1:0:0:0:
83,384,205902,1,10,1:0:0:0:
83,384,206226,5,8,1:0:0:0:
60,290,206388,5,10,1:0:0:0:
39,206,206550,5,10,1:0:0:0:
39,206,206713,1,2,1:0:0:0:
166,134,206875,2,0,L|140:268,2,119.999994277954,10|2|10,1:0|1:0|1:0,2:0:0:0:
33,25,207361,1,2,1:0:0:0:
27,15,207442,1,2,2:3:0:0:
20,4,207523,1,8,1:0:0:0:
122,56,207685,1,2,1:0:0:0:
206,8,207848,6,0,L|356:33,1,119.999994277954,10|2,1:0|1:0,2:0:0:0:
433,128,208172,2,0,L|512:141,3,59.9999971389771,10|0|10|8,1:0|1:0|1:0|1:0,1:0:0:0:
399,93,208496,1,10,1:0:0:0:
399,93,208658,1,2,1:0:0:0:
290,133,208821,1,14,1:0:0:0:
300,244,208983,1,6,1:0:0:0:
394,283,209145,6,0,L|537:258,2,119.999994277954,10|2|10,1:0|1:0|1:0,2:0:0:0:
367,367,209631,1,2,1:0:0:0:
200,338,209794,2,0,L|184:206,1,119.999994277954,10|2,1:0|1:0,2:0:0:0:
180,211,210037,1,2,2:3:0:0:
174,205,210118,2,0,L|157:64,1,119.999994277954,8|2,1:0|1:0,2:0:0:0:
60,125,210442,6,0,L|10:3,2,119.999994277954,14|2|10,1:0|1:0|1:0,2:0:0:0:
0,216,210929,1,2,1:0:0:0:
69,288,211091,1,14,1:0:0:0:
69,288,211415,5,14,1:0:0:0:
174,307,211577,1,2,1:0:0:0:
263,231,211740,5,14,1:0:0:0:
263,231,211902,1,2,1:0:0:0:
326,315,212064,2,0,L|456:339,2,119.999994277954,10|2|14,1:0|1:0|1:0,2:0:0:0:
430,234,212550,5,2,1:0:0:0:
427,221,212631,1,2,2:3:0:0:
423,209,212713,1,10,1:0:0:0:
505,166,212875,1,2,1:0:0:0:
429,99,213037,2,0,L|296:130,1,119.999994277954,10|2,1:0|1:0,2:0:0:0:
221,46,213361,2,0,L|196:210,1,119.999994277954,10|2,1:0|1:0,2:0:0:0:
108,94,213685,1,14,1:0:0:0:
108,94,214010,5,8,1:0:0:0:
29,191,214172,1,8,1:0:0:0:
33,203,214253,1,8,1:0:0:0:
37,213,214334,6,0,P|127:214|143:310,1,179.999991416931,14|2,1:0|2:3,2:0:0:0:
148,304,214658,2,0,P|83:325|20:355,2,119.999994277954,10|2|10,1:0|1:0|1:0,2:0:0:0:
251,360,215145,1,10,1:0:0:0:
261,352,215226,1,10,1:0:0:0:
270,343,215307,1,10,1:0:0:0:
361,370,215469,1,2,1:0:0:0:
448,324,215631,6,0,P|484:257|481:202,1,119.999994277954,10|2,1:0|1:0,2:0:0:0:
376,239,215956,2,0,P|361:170|318:125,1,119.999994277954,10|2,1:0|1:0,2:0:0:0:
269,213,216280,1,10,1:0:0:0:
269,213,216442,1,2,1:0:0:0:
189,146,216604,1,8,1:0:0:0:
196,37,216767,1,8,1:0:0:0:
296,15,216929,6,0,L|486:52,1,179.999991416931,10|0,1:0|2:0,2:0:0:0:
482,59,217253,1,10,1:0:0:0:
440,148,217415,1,2,1:0:0:0:
508,217,217577,2,0,L|477:338,1,119.999994277954,10|2,1:0|2:3,2:0:0:0:
466,328,217821,1,2,2:3:0:0:
455,326,217902,2,1,L|469:396,3,59.9999971389771,10|8|8|8,1:0|1:0|1:0|1:0,2:0:0:0:
384,267,218226,6,1,L|238:246,1,119.999994277954,14|2,1:0|2:1,2:0:0:0:
182,133,218550,6,1,L|36:112,1,119.999994277954,2|2,2:1|2:1,2:0:0:0:
501,32,218875,6,1,L|355:11,1,119.999994277954,2|0,2:0|2:0,2:0:0:0:
512,164,219199,5,14,1:0:0:0:
512,164,219523,6,0,P|271:223|68:293,15,399.999980926514,4|8|8|8|10|10|10|10|10|10|10|10|10|10|10|10,1:0|1:0|1:0|1:0|1:0|1:0|1:0|1:0|1:0|1:0|1:0|1:0|1:0|1:0|1:0|1:0,2:0:0:0:
126,270,224713,5,14,1:0:0:0:
126,270,224875,1,8,1:0:0:0:
126,270,225037,1,8,1:0:0:0:
126,270,225199,1,8,1:0:0:0:
126,270,225361,1,8,1:0:0:0:
126,270,225523,1,8,1:0:0:0:
126,270,225685,1,8,1:0:0:0:
126,270,225848,1,8,1:0:0:0:
126,270,226010,1,8,1:0:0:0:
126,270,226172,1,8,1:0:0:0:
126,270,226334,1,8,1:0:0:0:
126,270,226496,1,8,1:0:0:0:
126,270,226658,1,8,1:0:0:0:
126,270,226821,1,8,1:0:0:0:
126,270,226983,1,8,1:0:0:0:
126,270,227145,1,8,1:0:0:0:
126,270,227307,6,1,P|143:227|145:206,15,49.9999976158143,8|8|8|8|8|8|8|8|8|8|8|8|8|8|8|8,1:0|1:0|1:0|1:0|1:0|1:0|1:0|1:0|1:0|1:0|1:0|1:0|1:0|1:0|1:0|1:0,2:0:0:0:
227,227,228604,6,2,P|221:192|206:164,64,49.9999976158143,2|2|2|2|2|2|2|2|2|2|2|2|2|2|2|2|2|2|2|2|2|2|2|2|2|2|2|2|2|2|2|2|2|2|2|2|2|2|2|2|2|2|2|2|2|2|2|2|2|2|2|2|2|2|2|2|2|2|2|2|2|2|2|2|0,2:3|2:3|2:3|2:3|2:3|2:3|2:3|2:3|2:3|2:3|2:3|2:3|2:3|2:3|2:3|2:3|2:3|2:3|2:3|2:3|2:3|2:3|2:3|2:3|2:3|2:3|2:3|2:3|2:3|2:3|2:3|2:3|2:3|2:3|2:3|2:3|2:3|2:3|2:3|2:3|2:3|2:3|2:3|2:3|2:3|2:3|2:3|2:3|2:3|2:3|2:3|2:3|2:3|2:3|2:3|2:3|2:3|2:3|2:3|2:3|2:3|2:3|2:3|2:3|2:0,2:3:0:0:
