osu file format v14

[General]
AudioFilename: audio.ogg
AudioLeadIn: 0
PreviewTime:20915
Countdown: 0
SampleSet: Soft
StackLeniency: 0.3
Mode: 0
LetterboxInBreaks: 0
WidescreenStoryboard: 1
EpilepsyWarning: 1

[Editor]
Bookmarks: 177726
DistanceSpacing: 0.9
BeatDivisor: 8
GridSize: 32
TimelineZoom: 2.5

[Metadata]
Title:INTERNET YAMERO
TitleUnicode:INTERNET YAMERO
Artist:Aiobahn feat. KOTOKO
ArtistUnicode:Aiobahn feat. KOTOKO
Creator:Ducky-
Version:ILJAAZ'S INTERNET B****
Source:NEEDY GIRL OVERDOSE
Tags:big data iljaaz anxient gorou wanpachi tohru mitsuhashi 前田地生 まろん maron iosys eurobeat rawstyle speedcore extratone ame-chan amechan wss playground overdose synthpop arcaea にゃるら nyalra nyarura xemono maeda chisei as_chisei インターネットやめろ electronic japanese pop jpop j-pop female vocal vocalist ft. featuring videogame video game music vgm denpa hardstyle techno hardcore synthwave streamer overload ame kangel omgkawaiiangel angel p-chan pchan tenshi muse dash fa featured artist
BeatmapID:4341640
BeatmapSetID:2074198

[Difficulty]
HPDrainRate:6
CircleSize:4
OverallDifficulty:9
ApproachRate:9.5
SliderMultiplier:1.74
SliderTickRate:1

[Events]
//Background and Video events
Video,-1880,"video.mp4"
0,0,"iljaaz.jpg",0,0
//Break Periods
2,77375,80187
2,144834,156727
//Storyboard Layer 0 (Background)
//Storyboard Layer 1 (Fail)
//Storyboard Layer 2 (Pass)
//Storyboard Layer 3 (Foreground)
//Storyboard Layer 4 (Overlay)
//Storyboard Sound Samples

[TimingPoints]
-2314,324.324324324324,4,2,1,60,1,0
12604,-71.4285714285714,4,2,1,60,0,0
23631,-40,4,2,1,80,0,1
23956,-50,4,2,1,80,0,1
24280,-40,4,2,1,80,0,1
24604,-50,4,2,1,80,0,1
25577,-66.6666666666667,4,2,1,80,0,1
25902,-50,4,2,1,80,0,1
26226,-40,4,2,1,80,0,1
26550,-50,4,2,1,80,0,1
26875,-40,4,2,1,80,0,1
27199,-50,4,2,1,80,0,1
28821,-40,4,2,1,80,0,1
29145,-50,4,2,1,80,0,1
29469,-40,4,2,1,80,0,1
29794,-50,4,2,1,80,0,1
34010,-100,4,2,2,70,0,0
44388,-90.9090909090909,4,2,2,70,0,0
65145,-100,4,2,2,70,0,0
80713,-100,4,2,1,80,0,0
91091,-66.6666666666667,4,2,1,80,0,0
107956,-50,4,2,1,80,0,0
110550,-66.6666666666667,4,2,1,80,0,0
110875,-83.3333333333333,4,2,1,80,0,0
112334,-50,4,2,1,80,0,0
112983,-100,4,2,1,80,0,1
114442,-100,4,2,1,80,0,0
114929,-50,4,2,1,80,0,0
115577,-100,4,2,1,80,0,1
117037,-100,4,2,1,80,0,0
117523,-50,4,2,1,80,0,0
118172,-100,4,2,1,80,0,1
119631,-100,4,2,1,80,0,0
120118,-50,4,2,1,80,0,0
120767,-100,4,2,1,80,0,1
122226,-50,4,2,1,80,0,1
130010,-50,4,2,1,80,0,0
131307,-50,4,2,1,80,0,1
132604,-166.666666666667,4,2,1,90,0,0
132929,-50,4,2,1,90,0,0
133253,-40,4,2,1,90,0,1
135199,-166.666666666667,4,2,1,90,0,0
135523,-50,4,2,1,90,0,0
135848,-40,4,2,1,90,0,1
137794,-166.666666666667,4,2,1,90,0,0
138118,-50,4,2,1,90,0,0
138442,-40,4,2,1,90,0,1
142983,-40,4,2,1,90,0,0
157253,-40,4,2,1,60,0,0
169577,-83.3333333333333,4,2,1,60,0,0
177685,-58.8235294117647,4,2,1,90,0,0
178010,-50,4,2,1,80,0,1
182550,-66.6666666666667,4,2,1,80,0,1
183199,-50,4,2,1,80,0,1
188064,-33.3333333333333,4,2,1,80,0,1
188388,-50,4,2,1,80,0,1
198442,-40,4,2,1,80,0,1
199091,-50,4,2,1,80,0,1
199415,-40,4,2,1,80,0,1
199740,-50,4,2,1,80,0,1
200713,-66.6666666666667,4,2,1,80,0,1
201037,-50,4,2,1,80,0,1
201361,-40,4,2,1,80,0,1
201685,-50,4,2,1,80,0,1
202010,-40,4,2,1,80,0,1
202334,-50,4,2,1,80,0,1
203956,-40,4,2,1,80,0,1
204280,-50,4,2,1,80,0,1
204604,-40,4,2,1,80,0,1
204929,-50,4,2,1,80,0,1
208821,-33.3333333333333,4,2,1,80,0,1
209145,-40,4,2,1,80,0,1
209469,-50,4,2,1,80,0,1
209794,-40,4,2,1,80,0,1
210118,-50,4,2,1,80,0,1
211091,-66.6666666666667,4,2,1,80,0,1
211415,-50,4,2,1,80,0,1
211740,-40,4,2,1,80,0,1
212064,-50,4,2,1,80,0,1
212388,-40,4,2,1,80,0,1
212713,-50,4,2,1,80,0,1
214334,-40,4,2,1,80,0,1
214658,-50,4,2,1,80,0,1
219199,-40,4,2,1,80,0,1
219523,-33.3333333333333,4,2,1,90,0,1
219631,-33.3333333333333,4,2,1,5,0,1
219685,-66.6666666666667,4,2,1,90,0,1
219766,-66.6666666666667,4,2,1,5,0,1
219848,-33.3333333333333,4,2,1,90,0,1
219956,-33.3333333333333,4,2,1,5,0,1
220010,-66.6666666666667,4,2,1,90,0,1
220091,-66.6666666666667,4,2,1,5,0,1
220172,-33.3333333333333,4,2,1,90,0,1
220280,-33.3333333333333,4,2,1,5,0,1
220334,-66.6666666666667,4,2,1,90,0,1
220415,-66.6666666666667,4,2,1,5,0,1
220496,-33.3333333333333,4,2,1,90,0,1
220604,-33.3333333333333,4,2,1,5,0,1
220658,-66.6666666666667,4,2,1,90,0,1
220739,-66.6666666666667,4,2,1,5,0,1
220821,-33.3333333333333,4,2,1,90,0,1
220929,-33.3333333333333,4,2,1,5,0,1
220983,-66.6666666666667,4,2,1,90,0,1
221064,-66.6666666666667,4,2,1,5,0,1
221145,-33.3333333333333,4,2,1,90,0,1
221253,-33.3333333333333,4,2,1,5,0,1
221307,-66.6666666666667,4,2,1,90,0,1
221388,-66.6666666666667,4,2,1,5,0,1
221469,-33.3333333333333,4,2,1,90,0,1
221577,-33.3333333333333,4,2,1,5,0,1
221631,-66.6666666666667,4,2,1,90,0,1
221712,-66.6666666666667,4,2,1,5,0,1
221794,-33.3333333333333,4,2,1,90,0,1
221902,-33.3333333333333,4,2,1,5,0,1
221956,-66.6666666666667,4,2,1,90,0,1
222037,-66.6666666666667,4,2,1,5,0,1
222118,-33.3333333333333,4,2,1,90,0,1
222226,-33.3333333333333,4,2,1,5,0,1
222280,-66.6666666666667,4,2,1,90,0,1
222361,-66.6666666666667,4,2,1,5,0,1
222442,-33.3333333333333,4,2,1,90,0,1
222550,-33.3333333333333,4,2,1,5,0,1
222604,-66.6666666666667,4,2,1,90,0,1
222685,-66.6666666666667,4,2,1,5,0,1
222767,-33.3333333333333,4,2,1,90,0,1
222875,-33.3333333333333,4,2,1,5,0,1
222929,-66.6666666666667,4,2,1,90,0,1
223010,-66.6666666666667,4,2,1,5,0,1
223091,-33.3333333333333,4,2,1,90,0,1
223199,-33.3333333333333,4,2,1,5,0,1
223253,-66.6666666666667,4,2,1,90,0,1
223334,-66.6666666666667,4,2,1,5,0,1
223415,-33.3333333333333,4,2,1,90,0,1
223523,-33.3333333333333,4,2,1,5,0,1
223577,-66.6666666666667,4,2,1,90,0,1
223658,-66.6666666666667,4,2,1,5,0,1
223740,-33.3333333333333,4,2,1,90,0,1
223848,-33.3333333333333,4,2,1,5,0,1
223902,-66.6666666666667,4,2,1,90,0,1
223983,-66.6666666666667,4,2,1,5,0,1
224064,-33.3333333333333,4,2,1,90,0,1
224172,-33.3333333333333,4,2,1,5,0,1
224226,-66.6666666666667,4,2,1,90,0,1
224307,-66.6666666666667,4,2,1,5,0,1
224388,-33.3333333333333,4,2,1,90,0,1
224496,-33.3333333333333,4,2,1,5,0,1
224550,-66.6666666666667,4,2,1,90,0,1
224631,-66.6666666666667,4,2,1,5,0,1
224713,-58.8235294117647,4,2,1,90,0,1
224794,-58.8235294117647,4,2,1,5,0,1
224875,-58.8235294117647,4,2,1,90,0,1
224956,-58.8235294117647,4,2,1,5,0,1
225037,-58.8235294117647,4,2,1,90,0,1
225118,-58.8235294117647,4,2,1,5,0,1
225199,-58.8235294117647,4,2,1,90,0,1
225280,-58.8235294117647,4,2,1,5,0,1
225361,-58.8235294117647,4,2,1,90,0,1
225442,-58.8235294117647,4,2,1,5,0,1
225523,-58.8235294117647,4,2,1,90,0,1
225604,-58.8235294117647,4,2,1,5,0,1
225685,-58.8235294117647,4,2,1,90,0,1
225766,-58.8235294117647,4,2,1,5,0,1
225848,-58.8235294117647,4,2,1,90,0,1
225929,-58.8235294117647,4,2,1,5,0,1
226010,-58.8235294117647,4,2,1,90,0,1
226091,-58.8235294117647,4,2,1,5,0,1
226172,-58.8235294117647,4,2,1,90,0,1
226253,-58.8235294117647,4,2,1,5,0,1
226334,-58.8235294117647,4,2,1,90,0,1
226415,-58.8235294117647,4,2,1,5,0,1
226496,-58.8235294117647,4,2,1,90,0,1
226577,-58.8235294117647,4,2,1,5,0,1
226658,-58.8235294117647,4,2,1,90,0,1
226739,-58.8235294117647,4,2,1,5,0,1
226821,-58.8235294117647,4,2,1,90,0,1
226902,-58.8235294117647,4,2,1,5,0,1
226983,-58.8235294117647,4,2,1,90,0,1
227064,-58.8235294117647,4,2,1,5,0,1
227145,-58.8235294117647,4,2,1,90,0,1
227226,-58.8235294117647,4,2,1,5,0,1
227307,-58.8235294117647,4,2,1,90,0,1
231199,-58.8235294117647,4,2,1,90,0,0

[Colours]
Combo1 : 250,120,175
Combo2 : 147,200,253

[HitObjects]
0,224,280,5,2,1:0:0:0:
512,158,604,5,2,1:0:0:0:
96,160,929,5,2,1:0:0:0:
416,224,1091,1,2,1:0:0:0:
192,256,1253,5,2,1:0:0:0:
320,128,1415,1,2,1:0:0:0:
256,192,1577,5,2,1:0:0:0:
256,0,1740,1,2,1:0:0:0:
256,384,2064,5,2,1:0:0:0:
256,192,2226,1,2,1:0:0:0:
0,256,2550,5,8,2:0:0:0:
256,0,2713,1,8,2:0:0:0:
512,256,2875,1,6,1:0:0:0:
0,128,5469,5,6,1:0:0:0:
512,128,8064,5,6,1:0:0:0:
0,256,10658,5,6,1:0:0:0:
148,57,11956,5,4,1:0:0:0:
331,319,12604,6,0,L|349:169,1,121.8,12|0,1:0|1:0,1:0:0:0:
411,154,12848,2,0,B|424:182|424:182|422:212,1,60.9,8|8,1:0|2:0,2:0:0:0:
430,212,13091,6,0,B|431:182|431:182|418:153,1,60.9,10|0,1:0|2:0,2:0:0:0:
256,32,13253,1,8,1:0:0:0:
240,41,13334,1,0,1:0:0:0:
236,57,13415,1,0,1:0:0:0:
243,72,13496,1,0,1:0:0:0:
258,79,13577,1,0,1:0:0:0:
271,76,13658,1,0,1:0:0:0:
280,66,13740,1,0,1:0:0:0:
281,52,13821,1,0,1:0:0:0:
276,40,13902,5,2,1:0:0:0:
236,57,13983,1,0,1:0:0:0:
219,95,14064,1,0,1:0:0:0:
225,135,14145,1,0,1:0:0:0:
255,161,14226,1,0,1:0:0:0:
303,162,14307,1,0,1:0:0:0:
335,125,14388,1,0,1:0:0:0:
339,78,14469,1,0,1:0:0:0:
313,41,14550,5,2,1:0:0:0:
253,60,14631,1,0,1:0:0:0:
220,116,14713,1,0,1:0:0:0:
230,178,14794,1,0,1:0:0:0:
278,224,14875,1,0,1:0:0:0:
342,213,14956,1,0,1:0:0:0:
379,161,15037,1,0,1:0:0:0:
375,94,15118,1,0,1:0:0:0:
337,46,15199,6,0,L|263:64,4,60.9,2|0|0|0|0,1:0|1:0|1:0|1:0|1:0,2:0:0:0:
342,213,15604,6,0,L|401:225,2,60.9,2|2|0,1:3|1:3|2:0,2:0:0:0:
90,358,15848,5,8,1:0:0:0:
74,349,15929,1,0,1:0:0:0:
70,333,16010,1,0,1:0:0:0:
77,318,16091,1,0,1:0:0:0:
92,311,16172,1,0,1:0:0:0:
105,314,16253,1,0,1:0:0:0:
114,324,16334,1,0,1:0:0:0:
115,338,16415,1,0,1:0:0:0:
110,350,16496,5,2,1:0:0:0:
70,333,16577,1,0,1:0:0:0:
53,295,16658,1,0,1:0:0:0:
59,255,16740,1,0,1:0:0:0:
94,227,16821,1,0,1:0:0:0:
137,228,16902,1,0,1:0:0:0:
169,265,16983,1,0,1:0:0:0:
173,312,17064,1,0,1:0:0:0:
147,349,17145,5,2,1:0:0:0:
87,330,17226,1,0,1:0:0:0:
54,274,17307,1,0,1:0:0:0:
64,212,17388,1,0,1:0:0:0:
112,166,17469,1,0,1:0:0:0:
176,177,17550,1,0,1:0:0:0:
213,229,17631,1,0,1:0:0:0:
209,296,17713,1,0,1:0:0:0:
171,344,17794,6,0,L|97:326,2,60.9,2|0|0,1:0|1:0|1:0,2:0:0:0:
333,216,18037,5,8,2:3:0:0:
342,213,18118,2,0,L|421:198,1,60.9,8|0,1:3|2:0,2:0:0:0:
174,33,18280,6,0,L|194:114,1,60.9,2|0,1:2|2:0,2:0:0:0:
401,201,18442,5,4,1:0:0:0:
370,192,18523,1,0,1:0:0:0:
338,200,18604,1,0,1:0:0:0:
316,229,18685,1,0,1:0:0:0:
314,259,18767,5,2,1:0:0:0:
277,236,18848,1,0,1:0:0:0:
224,243,18929,1,0,1:0:0:0:
188,275,19010,1,0,1:0:0:0:
175,324,19091,5,8,1:2:0:0:
127,281,19172,1,0,1:0:0:0:
61,280,19253,1,0,1:0:0:0:
13,322,19334,1,0,1:0:0:0:
0,384,19415,2,0,P|30:372|67:369,2,60.9,8|0|0,1:0|1:0|1:0,2:0:0:0:
88,136,19740,5,4,1:0:0:0:
118,126,19821,1,0,1:0:0:0:
150,137,19902,1,0,1:0:0:0:
171,165,19983,1,0,1:0:0:0:
175,194,20064,5,2,1:0:0:0:
212,171,20145,1,0,1:0:0:0:
265,178,20226,1,0,1:0:0:0:
301,210,20307,1,0,1:0:0:0:
314,259,20388,5,8,1:2:0:0:
362,216,20469,1,0,1:0:0:0:
428,215,20550,1,0,1:0:0:0:
476,257,20631,1,0,1:0:0:0:
484,320,20713,2,0,L|401:299,2,60.9,8|0|0,1:0|1:0|1:0,2:0:0:0:
175,194,21037,5,12,1:0:0:0:
173,183,21118,1,0,1:0:0:0:
172,171,21199,1,0,1:0:0:0:
171,160,21280,1,0,1:0:0:0:
169,151,21361,2,0,L|180:81,1,60.9,10|0,1:0|1:0,1:0:0:0:
265,178,21523,2,0,L|254:248,1,60.9,0|0,1:0|1:0,1:0:0:0:
240,42,21685,5,10,1:0:0:0:
279,32,21767,1,0,1:0:0:0:
323,23,21848,1,0,1:0:0:0:
367,14,21929,1,0,1:0:0:0:
412,7,22010,2,0,L|427:87,1,60.9,2|0,1:0|2:0,2:0:0:0:
68,372,22172,2,0,L|53:292,1,60.9,2|0,1:0|2:0,2:0:0:0:
266,170,22334,5,2,2:1:0:0:
149,218,22658,5,2,2:1:0:0:
178,90,22983,5,2,2:1:0:0:
387,236,23307,5,12,1:0:0:0:
320,272,23388,1,8,1:0:0:0:
331,345,23469,1,8,1:0:0:0:
405,361,23550,1,8,1:0:0:0:
446,297,23631,6,0,P|322:307|255:375,1,217.5,4|2,1:0|2:0,2:0:0:0:
149,218,23875,1,2,2:0:0:0:
211,173,23956,2,0,P|229:214|227:264,1,87,8|0,1:0|2:0,2:0:0:0:
59,353,24118,2,0,P|42:314|44:259,1,87,0|0,1:0|2:0,2:0:0:0:
207,98,24280,6,0,P|186:200|171:331,1,217.5,8|2,1:0|2:1,2:0:0:0:
37,114,24523,1,2,2:3:0:0:
11,186,24604,6,0,B|54:191|54:191|102:160,1,87,8|0,1:0|2:0,2:0:0:0:
269,36,24767,2,0,B|232:12|232:12|189:17,1,87,2|0,1:0|2:0,2:0:0:0:
324,204,24929,6,0,P|402:219|445:305,1,174,4|2,1:0|1:0,1:0:0:0:
270,384,25172,1,2,2:0:0:0:
258,368,25253,2,0,P|261:325|296:282,1,87,10|0,1:0|2:0,2:0:0:0:
512,167,25415,6,0,P|472:183|406:192,1,87,2|0,1:0|2:0,2:0:0:0:
121,53,25577,2,0,L|331:97,1,195.75,4|0,1:0|2:0,2:0:0:0:
393,106,25902,6,0,B|412:67|412:67|400:12,1,87,12|0,1:0|2:0,2:0:0:0:
106,158,26064,2,0,B|96:200|96:200|115:239,1,87,2|0,1:0|2:0,2:0:0:0:
270,384,26226,6,0,P|265:266|227:166,1,217.5,14|0,1:0|2:0,2:0:0:0:
445,296,26469,1,2,2:0:0:0:
367,307,26550,2,0,P|371:264|397:207,1,87,10|0,1:0|2:0,2:0:0:0:
393,106,26713,2,0,P|429:129|471:141,1,87,2|0,1:0|2:0,2:0:0:0:
334,13,26875,6,0,L|113:54,1,217.5,12|2,1:0|1:0,2:0:0:0:
231,173,27118,1,2,2:3:0:0:
294,128,27199,2,0,B|312:167|312:167|306:217,1,87,10|0,1:0|2:0,2:0:0:0:
102,322,27361,2,0,B|96:278|96:278|114:239,1,87,2|0,1:0|2:0,2:0:0:0:
13,76,27523,6,0,P|91:88|148:174,1,174,12|0,1:0|2:0,2:0:0:0:
277,292,27767,1,2,2:0:0:0:
294,305,27848,2,0,P|325:305|370:266,1,87,10|0,1:0|2:0,2:0:0:0:
313,43,28010,6,0,P|301:88|291:149,1,87,2|0,1:0|2:0,2:0:0:0:
261,384,28172,2,0,P|254:311|223:206,2,174,4|2|10,1:0|2:0|1:0,2:0:0:0:
52,168,28658,5,8,1:0:0:0:
0,222,28740,1,8,1:0:0:0:
41,289,28821,2,0,P|92:299|146:336,1,108.75,14|0,1:0|2:0,2:0:0:0:
385,186,28983,1,0,1:0:0:0:
120,52,29145,6,0,P|161:54|209:18,1,87,8|0,1:0|2:0,2:0:0:0:
385,186,29307,2,0,P|373:230|366:277,1,87,10|0,1:0|2:0,2:0:0:0:
512,112,29469,6,0,P|414:111|373:12,1,217.5,14|8,1:0|1:0,2:0:0:0:
216,136,29713,1,8,1:0:0:0:
278,89,29794,2,0,P|293:129|300:179,1,87,14|0,1:0|2:0,2:0:0:0:
445,291,29956,2,0,P|448:251|464:201,1,87,2|0,2:1|2:0,2:0:0:0:
212,142,30118,6,0,P|134:153|86:228,1,174,14|0,1:0|2:0,2:0:0:0:
267,347,30361,5,2,2:0:0:0:
283,334,30442,2,0,B|300:295|300:295|296:244,1,87,10|0,1:0|2:0,2:0:0:0:
5,196,30604,2,0,B|-2:240|-2:240|11:280,1,87,2|0,1:0|2:0,2:0:0:0:
216,276,30767,6,0,P|234:102|254:0,1,261,12|0,1:0|2:0,2:0:0:0:
5,196,31091,6,0,P|48:204|93:235,1,87,12|0,1:0|2:0,2:0:0:0:
278,89,31253,2,0,P|320:81|358:48,1,87,8|0,1:0|2:0,2:0:0:0:
512,192,31415,5,10,1:0:0:0:
421,140,31577,5,0,1:0:0:0:
297,250,31740,5,8,1:0:0:0:
142,70,31902,6,0,P|131:113|127:167,1,87,2|0,1:0|2:0,2:0:0:0:
0,288,32064,5,8,1:0:0:0:
0,288,32226,5,2,2:0:0:0:
25,235,32307,1,2,1:2:0:0:
84,226,32388,1,8,1:0:0:0:
132,254,32469,1,0,1:0:0:0:
161,305,32550,1,0,1:0:0:0:
218,326,32631,1,0,1:0:0:0:
297,250,32713,6,0,P|294:210|280:156,1,87,4|0,1:0|2:0,2:0:0:0:
237,101,32875,5,2,2:0:0:0:
376,210,33037,5,2,1:0:0:0:
295,259,33199,5,2,2:1:0:0:
338,326,33361,5,2,2:1:0:0:
338,326,33685,6,0,P|348:209|410:42,1,261,14|0,1:0|2:0,2:0:0:0:
360,5,34010,6,0,P|309:19|258:23,1,87,4|0,3:2|2:0,2:0:0:0:
451,183,34334,2,0,B|378:165|418:137|275:107,1,174,10|2,2:0|3:2,2:0:0:0:
466,38,34821,1,2,2:0:0:0:
361,169,34983,5,10,2:0:0:0:
294,111,35145,2,0,P|286:155|271:201,1,87,2|0,2:0|3:0,2:0:0:0:
464,268,35469,2,0,P|454:227|450:181,1,87,2|8,2:0|2:0,2:0:0:0:
297,346,35794,6,0,B|341:344|341:344|382:368,1,87,2|0,2:0|3:0,2:0:0:0:
337,241,36118,1,0,3:0:0:0:
394,291,36280,5,10,2:0:0:0:
306,357,36442,1,2,2:0:0:0:
306,357,36523,1,2,2:0:0:0:
306,357,36604,2,0,P|242:353|218:244,2,174,2|8|2,3:2|2:0|3:2,2:0:0:0:
450,182,37415,6,0,P|441:143|435:91,1,87,2|8,2:0|2:0,2:0:0:0:
300,0,37740,1,2,2:0:0:0:
231,39,37902,2,0,B|131:42|156:109|32:76,1,174,2|8,3:2|2:0,2:0:0:0:
66,83,38388,1,2,2:0:0:0:
195,196,38550,1,0,3:0:0:0:
213,123,38713,1,0,3:0:0:0:
21,207,38875,1,10,2:0:0:0:
97,164,39037,5,2,2:0:0:0:
97,164,39118,1,2,2:0:0:0:
97,164,39199,2,0,B|114:223|114:223|66:270|95:350,1,174,4|8,3:2|2:0,2:0:0:0:
88,327,39848,6,0,P|131:335|172:369,1,87,0|0,3:2|2:0,2:0:0:0:
369,247,40172,2,0,L|227:268,1,130.5,10|0,2:0|2:0,2:0:0:0:
239,266,40496,6,0,L|256:175,1,87,0|0,3:2|2:0,2:0:0:0:
393,332,40821,2,0,B|398:291|398:291|374:239,1,87,10|0,2:0|2:0,2:0:0:0:
271,104,41145,5,0,3:2:0:0:
163,183,41307,1,2,3:2:0:0:
377,123,41469,5,10,2:0:0:0:
177,17,41631,1,2,2:0:0:0:
271,104,41794,6,0,P|341:113|373:8,2,174,2|8|0,3:2|2:0|3:0,2:0:0:0:
129,272,42767,2,0,P|167:262|218:255,1,87,10|0,2:0|2:0,2:0:0:0:
45,128,43091,6,0,P|58:175|64:219,1,87,0|0,3:2|2:0,2:0:0:0:
233,339,43415,1,10,2:0:0:0:
233,339,43577,1,2,2:0:0:0:
140,380,43740,1,2,3:2:0:0:
231,235,43902,1,0,3:0:0:0:
392,331,44064,6,0,B|350:338|350:338|307:311,1,87,10|0,2:0|2:0,2:0:0:0:
162,163,44388,6,0,L|263:141,1,95.7,6|2,3:2|2:3,2:0:0:0:
368,240,44713,1,10,2:0:0:0:
439,210,44875,1,2,2:3:0:0:
512,280,45037,5,2,3:0:0:0:
449,103,45199,2,0,L|432:200,1,95.7,2|8,2:0|2:0,2:0:0:0:
233,339,45523,6,0,L|217:236,2,95.7,2|0|2,2:3|3:0|2:3,2:3:0:0:
183,73,46010,5,10,2:0:0:0:
264,148,46172,1,2,2:3:0:0:
249,12,46334,5,0,3:0:0:0:
154,174,46496,1,2,3:0:0:0:
264,148,46658,5,10,2:0:0:0:
196,85,46821,1,2,2:3:0:0:
196,85,46902,1,2,2:3:0:0:
196,85,46983,2,0,P|96:95|48:190,1,191.4,4|8,3:2|2:0,2:0:0:0:
218,244,47469,5,2,2:3:0:0:
60,340,47631,2,0,P|100:315|161:316,1,95.7,0|2,3:2|2:3,2:0:0:0:
295,177,47956,5,10,2:0:0:0:
402,293,48118,2,0,P|355:287|305:260,1,95.7,2|0,2:3|3:2,2:0:0:0:
196,85,48442,5,2,2:3:0:0:
249,12,48604,1,10,2:0:0:0:
103,63,48767,5,2,2:3:0:0:
295,177,48929,1,0,3:0:0:0:
218,244,49091,1,2,3:0:0:0:
261,369,49253,1,10,2:0:0:0:
333,318,49415,5,2,2:3:0:0:
333,318,49496,1,2,2:3:0:0:
333,318,49577,2,0,B|445:300|418:379|546:348,2,191.4,6|8|0,3:2|2:0|3:2,2:0:0:0:
218,244,50388,1,2,2:3:0:0:
152,286,50550,2,0,L|57:303,1,95.7,10|2,2:0|2:3,2:0:0:0:
278,87,50875,6,0,B|301:129|301:129|293:187,1,95.7,0|2,3:2|2:3,2:0:0:0:
150,278,51199,1,10,2:0:0:0:
131,203,51361,1,2,2:3:0:0:
55,302,51523,5,0,3:0:0:0:
229,360,51685,1,2,3:0:0:0:
121,382,51848,5,10,2:0:0:0:
295,256,52010,1,2,2:3:0:0:
295,256,52172,2,0,L|496:295,1,191.4,0|8,3:2|2:0,2:0:0:0:
212,147,52658,5,2,2:3:0:0:
128,200,52821,2,0,B|107:160|107:160|120:99,1,95.7,0|2,3:0|2:3,2:0:0:0:
316,6,53145,6,0,L|294:118,1,95.7,8|2,2:0|2:3,2:0:0:0:
403,243,53469,1,0,3:0:0:0:
403,243,53631,1,2,2:3:0:0:
470,209,53794,1,10,2:0:0:0:
360,168,53956,5,2,2:3:0:0:
307,362,54118,1,0,3:0:0:0:
495,296,54280,5,8,2:0:0:0:
510,248,54361,1,8,2:0:0:0:
470,209,54442,1,8,2:0:0:0:
258,297,54604,1,10,2:0:0:0:
203,232,54767,6,0,P|156:221|108:201,1,95.7,6|2,3:2|2:3,2:0:0:0:
307,362,55091,2,0,P|350:343|411:332,1,95.7,10|2,2:0|2:3,2:0:0:0:
273,189,55415,5,2,3:2:0:0:
198,358,55577,1,2,2:3:0:0:
332,253,55740,5,10,2:0:0:0:
161,42,55902,2,0,L|175:136,1,95.7,2|0,2:3|3:0,2:0:0:0:
25,274,56226,6,0,B|73:280|73:280|122:254,1,95.7,2|8,2:3|2:0,2:0:0:0:
343,116,56550,2,0,B|301:93|301:93|253:99,1,95.7,2|0,2:3|3:2,2:0:0:0:
58,195,56875,5,2,3:0:0:0:
258,297,57037,1,8,2:0:0:0:
198,358,57199,5,2,2:3:0:0:
417,270,57361,2,0,P|406:319|399:376,1,95.7,2|2,3:2|2:3,2:0:0:0:
259,214,57685,5,10,2:0:0:0:
400,364,57848,1,2,2:3:0:0:
258,297,58010,5,2,3:2:0:0:
449,189,58172,2,0,B|402:182|402:182|348:213,1,95.7,2|8,2:3|2:0,2:0:0:0:
417,270,58496,5,2,2:3:0:0:
290,132,58658,2,0,L|305:34,1,95.7,0|2,3:0|2:3,2:0:0:0:
379,100,58983,5,10,2:0:0:0:
258,300,59145,1,2,2:3:0:0:
150,192,59307,5,2,3:2:0:0:
300,384,59469,1,2,3:0:0:0:
291,220,59631,5,10,2:0:0:0:
143,318,59794,1,2,2:3:0:0:
143,318,59875,1,2,2:3:0:0:
143,318,59956,2,0,P|85:315|52:195,1,191.4,2|8,3:2|2:0,2:0:0:0:
18,98,60442,5,2,2:3:0:0:
150,192,60604,1,2,3:2:0:0:
210,142,60767,2,0,L|321:122,1,95.7,2|8,2:3|2:0,2:0:0:0:
200,262,61091,1,2,2:3:0:0:
200,262,61253,2,0,L|183:368,1,95.7,2|2,3:2|2:3,2:0:0:0:
149,90,61577,5,10,2:0:0:0:
210,142,61740,1,2,2:0:0:0:
150,192,61902,1,0,3:0:0:0:
89,140,62064,5,2,3:0:0:0:
200,262,62226,1,10,2:0:0:0:
344,188,62388,1,2,2:3:0:0:
344,188,62550,2,0,B|461:209|418:268|523:280,1,191.4,2|8,3:2|2:0,2:0:0:0:
346,377,63037,5,2,2:0:0:0:
346,377,63199,2,0,L|360:280,1,95.7,0|2,3:2|2:3,2:0:0:0:
512,181,63523,1,10,2:0:0:0:
330,48,63685,5,2,2:3:0:0:
427,197,63848,2,0,L|410:99,1,95.7,2|0,3:2|2:0,2:0:0:0:
272,218,64172,5,10,2:0:0:0:
344,188,64334,1,2,2:0:0:0:
357,283,64496,5,0,3:0:0:0:
197,193,64658,1,0,3:0:0:0:
106,265,64821,6,0,L|-7:290,1,95.7,10|0,2:0|2:0,2:0:0:0:
145,52,65145,6,0,P|193:85|189:203,1,174,6|8,3:2|2:0,2:0:0:0:
106,265,65631,1,2,2:0:0:0:
152,328,65794,1,2,2:0:0:0:
152,328,65956,2,0,L|240:348,1,87,2|8,2:0|2:0,2:0:0:0:
341,293,66280,6,0,B|456:274|427:341|534:318,2,174,0|2|0,2:0|2:0|2:0,2:0:0:0:
341,293,67253,6,0,P|337:252|366:198,1,87,2|8,2:0|2:0,2:0:0:0:
418,169,67577,1,2,2:0:0:0:
276,108,67740,6,0,P|312:158|430:162,1,174,2|8,2:0|2:0,2:0:0:0:
340,292,68226,1,2,2:0:0:0:
201,197,68388,5,2,2:0:0:0:
201,197,68550,2,0,P|158:203|117:235,1,87,2|8,2:0|2:0,2:0:0:0:
276,108,68875,2,0,L|293:9,2,87,2|0|0,2:0|2:0|2:0,2:0:0:0:
316,173,69361,1,10,2:0:0:0:
165,103,69523,6,0,B|91:85|137:49|-16:15,2,174,2|2|2,2:0|2:0|2:0,2:0:0:0:
316,173,70334,6,0,L|490:145,1,174,2|8,2:0|2:0,2:0:0:0:
487,145,70821,1,2,2:0:0:0:
382,0,70983,5,2,2:0:0:0:
382,0,71145,2,0,B|362:40|362:40|369:91,1,87,2|8,2:0|2:0,2:0:0:0:
198,212,71469,2,0,L|15:177,1,174,2|0,2:0|2:0,2:0:0:0:
27,179,71956,1,10,2:0:0:0:
256,384,72442,5,2,2:0:0:0:
292,317,72604,1,8,2:0:0:0:
362,356,72767,2,0,L|450:369,1,87,2|0,2:0|2:0,2:0:0:0:
269,242,73091,2,0,L|244:140,1,87,2|8,2:0|2:0,2:0:0:0:
358,275,73415,5,2,2:0:0:0:
420,218,73577,2,0,B|386:194|386:194|332:199,1,87,2|0,2:0|2:0,2:0:0:0:
131,309,73902,5,10,2:0:0:0:
22,266,74064,1,2,2:0:0:0:
145,199,74226,5,0,3:2:0:0:
147,220,74307,1,0,3:2:0:0:
150,242,74388,1,0,3:2:0:0:
152,263,74469,1,0,3:2:0:0:
155,285,74550,1,8,3:2:0:0:
158,306,74631,1,0,3:2:0:0:
160,328,74713,1,0,3:2:0:0:
163,350,74794,1,0,3:2:0:0:
166,371,74875,1,0,3:2:0:0:
29,200,75037,5,8,2:0:0:0:
13,144,75118,1,8,2:0:0:0:
58,105,75199,1,8,2:0:0:0:
221,54,75361,1,10,2:0:0:0:
0,0,75523,1,6,2:0:0:0:
256,192,80713,5,8,1:3:0:0:
301,189,80875,5,8,2:3:0:0:
265,163,80956,1,8,2:3:0:0:
224,175,81037,1,8,3:0:0:0:
331,178,81199,5,8,2:3:0:0:
256,206,81280,1,8,2:3:0:0:
201,154,81361,1,8,3:0:0:0:
411,162,81523,5,8,2:3:0:0:
376,192,81604,1,8,2:3:0:0:
331,178,81685,1,8,3:0:0:0:
467,217,81848,5,8,2:3:0:0:
407,173,81929,1,8,2:3:0:0:
335,186,82010,1,8,3:0:0:0:
121,138,82172,5,8,2:3:0:0:
156,168,82253,1,8,2:3:0:0:
201,154,82334,1,8,3:0:0:0:
65,193,82496,5,8,2:3:0:0:
125,149,82577,1,8,2:3:0:0:
197,162,82658,1,8,3:0:0:0:
250,298,82821,5,8,2:3:0:0:
240,316,82902,1,8,2:3:0:0:
237,295,82983,1,8,3:0:0:0:
257,355,83145,5,8,2:3:0:0:
247,281,83226,1,8,2:3:0:0:
222,349,83307,1,8,3:0:0:0:
271,84,83469,5,8,2:3:0:0:
281,66,83550,1,8,2:3:0:0:
284,87,83631,1,8,3:0:0:0:
264,27,83794,5,8,2:3:0:0:
274,101,83875,1,8,2:3:0:0:
299,33,83956,1,8,3:0:0:0:
65,193,84118,5,8,2:3:0:0:
11,151,84199,1,8,2:3:0:0:
60,105,84280,1,8,3:0:0:0:
463,217,84442,5,8,2:3:0:0:
512,263,84523,1,8,2:3:0:0:
458,305,84604,1,8,3:0:0:0:
131,144,84767,5,8,2:3:0:0:
172,86,84848,1,8,2:3:0:0:
238,109,84929,1,8,3:0:0:0:
391,260,85091,5,8,2:3:0:0:
350,318,85172,1,8,2:3:0:0:
284,295,85253,1,8,3:0:0:0:
246,201,85415,5,8,2:3:0:0:
257,190,85496,1,8,2:3:0:0:
261,203,85577,1,8,3:0:0:0:
231,373,85740,1,8,3:0:0:0:
294,17,85902,1,8,3:0:0:0:
288,190,86064,5,8,2:3:0:0:
255,216,86145,1,8,2:3:0:0:
244,175,86226,1,8,3:0:0:0:
461,82,86388,5,8,2:3:0:0:
476,152,86469,1,8,2:3:0:0:
405,133,86550,1,8,3:0:0:0:
68,49,86713,5,8,2:3:0:0:
55,122,86794,1,8,2:3:0:0:
124,96,86875,1,8,3:0:0:0:
290,5,87037,5,8,2:3:0:0:
253,193,87199,5,8,3:0:0:0:
61,282,87361,5,8,2:3:0:0:
111,275,87442,1,8,2:3:0:0:
148,311,87523,1,8,3:0:0:0:
209,373,87685,5,8,2:3:0:0:
243,318,87767,1,8,2:3:0:0:
308,334,87848,1,8,3:0:0:0:
381,295,88010,5,8,2:3:0:0:
427,353,88091,1,8,2:3:0:0:
499,337,88172,1,8,3:0:0:0:
253,193,88334,5,8,3:0:0:0:
461,82,88496,5,8,3:0:0:0:
405,153,88658,5,8,2:3:0:0:
365,130,88740,1,8,2:3:0:0:
371,84,88821,1,8,3:0:0:0:
192,78,88983,5,8,2:3:0:0:
204,14,89064,1,8,2:3:0:0:
261,6,89145,1,8,3:0:0:0:
1,105,89307,5,8,2:3:0:0:
73,84,89388,1,8,2:3:0:0:
119,141,89469,1,8,3:0:0:0:
23,233,89631,5,8,3:0:0:0:
256,192,89794,5,8,3:0:0:0:
482,246,89956,5,8,2:3:0:0:
454,274,90037,1,8,2:3:0:0:
416,270,90118,1,8,3:0:0:0:
256,192,90280,5,8,2:3:0:0:
220,149,90361,1,8,2:3:0:0:
240,95,90442,1,8,3:0:0:0:
400,11,90604,5,8,2:3:0:0:
462,50,90685,1,8,2:3:0:0:
435,117,90767,1,8,3:0:0:0:
256,192,90929,5,8,3:0:0:0:
72,83,91091,6,0,L|56:5,1,65.25,12|0,3:0|2:0,2:0:0:0:
256,205,91253,1,2,2:3:0:0:
274,248,91334,1,8,2:3:0:0:
228,297,91415,1,8,3:0:0:0:
253,339,91496,1,8,2:3:0:0:
243,362,91577,1,10,2:3:0:0:
424,181,91740,6,0,L|437:101,1,65.25,10|0,3:2|2:0,2:0:0:0:
245,368,91902,1,2,2:3:0:0:
227,325,91983,1,8,2:3:0:0:
273,276,92064,1,8,3:0:0:0:
248,234,92145,1,8,2:3:0:0:
258,211,92226,1,10,2:3:0:0:
108,291,92388,6,0,L|31:305,1,65.25,14|0,3:0|2:0,2:0:0:0:
190,144,92550,1,2,2:3:0:0:
199,156,92631,1,8,2:3:0:0:
164,186,92713,1,8,3:0:0:0:
144,139,92794,1,2,2:0:0:0:
187,101,92875,1,2,2:3:0:0:
226,66,92956,1,8,2:3:0:0:
205,23,93037,1,10,3:2:0:0:
165,54,93118,1,2,2:0:0:0:
187,101,93199,1,2,2:3:0:0:
205,147,93280,1,8,2:3:0:0:
164,186,93361,1,8,3:0:0:0:
365,20,93523,5,8,2:3:0:0:
415,9,93604,1,8,2:3:0:0:
445,52,93685,2,0,L|432:125,1,65.25,14|0,3:0|2:0,2:0:0:0:
379,166,93848,2,0,L|364:244,1,65.25,2|0,2:3|2:0,2:0:0:0:
414,316,94010,1,8,3:0:0:0:
433,330,94091,1,2,2:0:0:0:
453,320,94172,1,2,2:3:0:0:
418,294,94253,1,8,2:3:0:0:
372,309,94334,1,10,3:2:0:0:
352,355,94415,1,2,2:0:0:0:
302,366,94496,1,2,2:3:0:0:
271,320,94577,1,8,2:3:0:0:
291,278,94658,1,8,3:0:0:0:
87,83,94902,5,2,2:1:0:0:
81,93,94983,5,8,3:0:0:0:
53,67,95064,1,2,2:0:0:0:
74,24,95145,1,2,2:3:0:0:
132,29,95226,1,8,2:3:0:0:
170,73,95307,1,8,3:0:0:0:
215,84,95388,1,2,2:0:0:0:
253,66,95469,1,2,2:3:0:0:
246,36,95550,1,8,2:3:0:0:
225,33,95631,1,10,3:2:0:0:
201,64,95713,1,2,2:0:0:0:
220,114,95794,1,2,2:3:0:0:
267,144,95875,1,8,2:3:0:0:
280,200,95956,1,8,3:0:0:0:
512,18,96199,5,2,2:1:0:0:
495,37,96280,1,8,3:0:0:0:
495,37,96361,2,0,L|423:19,1,65.25,2|2,2:1|2:3,2:0:0:0:
368,67,96523,1,8,2:3:0:0:
370,115,96604,1,8,3:0:0:0:
404,153,96685,1,2,2:0:0:0:
403,189,96767,1,2,2:3:0:0:
368,203,96848,1,8,2:3:0:0:
355,181,96929,1,10,3:2:0:0:
397,210,97010,1,2,2:0:0:0:
400,265,97091,1,2,2:3:0:0:
354,291,97172,1,8,2:3:0:0:
344,338,97253,1,8,3:0:0:0:
0,179,97496,5,2,2:1:0:0:
9,190,97577,2,0,L|85:173,1,65.25,8|2,3:0|2:0,2:0:0:0:
136,214,97740,1,2,2:3:0:0:
164,260,97821,1,8,2:3:0:0:
148,285,97902,1,8,3:0:0:0:
118,250,97983,1,2,2:0:0:0:
154,207,98064,1,2,2:3:0:0:
211,207,98145,1,8,2:3:0:0:
249,251,98226,1,10,3:2:0:0:
296,237,98307,1,2,2:0:0:0:
305,192,98388,1,2,2:3:0:0:
282,172,98469,1,8,2:3:0:0:
263,183,98550,1,8,3:0:0:0:
512,247,98794,5,2,2:1:0:0:
503,258,98875,2,0,L|427:241,1,65.25,8|2,3:0|2:0,2:0:0:0:
376,282,99037,1,2,2:3:0:0:
348,328,99118,1,8,2:3:0:0:
364,353,99199,1,8,3:0:0:0:
394,318,99280,1,2,2:0:0:0:
358,275,99361,1,2,2:3:0:0:
301,275,99442,1,8,2:3:0:0:
263,319,99523,1,10,3:2:0:0:
216,305,99604,1,2,2:0:0:0:
207,260,99685,1,2,2:3:0:0:
230,240,99767,1,8,2:3:0:0:
249,251,99848,1,8,3:0:0:0:
254,257,100172,6,0,L|242:170,1,65.25,10|0,3:0|2:0,2:0:0:0:
371,50,100334,6,0,L|459:78,1,65.25,2|8,2:3|2:3,2:0:0:0:
107,141,100496,6,0,L|15:165,1,65.25,8|2,3:0|2:0,2:0:0:0:
210,64,100658,6,0,L|223:-13,1,65.25,2|8,2:3|2:3,2:0:0:0:
484,197,100821,5,10,3:2:0:0:
455,192,100902,1,2,2:0:0:0:
411,222,100983,1,2,2:3:0:0:
429,285,101064,1,8,2:3:0:0:
475,283,101145,1,8,3:0:0:0:
479,269,101226,1,2,2:0:0:0:
468,256,101307,2,0,L|384:232,1,65.25,8|2,2:3|2:3,2:0:0:0:
212,349,101469,5,8,3:0:0:0:
32,192,101631,5,2,2:0:0:0:
288,320,101794,5,8,3:0:0:0:
512,180,101956,5,2,2:0:0:0:
226,271,102118,5,14,2:0:0:0:
35,76,102280,5,2,2:0:0:0:
276,214,102442,5,8,3:0:0:0:
493,4,102604,5,2,2:0:0:0:
242,147,102767,5,8,3:0:0:0:
179,81,102929,5,8,2:3:0:0:
168,52,103010,1,8,2:3:0:0:
191,28,103091,1,8,3:0:0:0:
328,112,103253,5,8,2:3:0:0:
145,182,103415,1,8,3:2:0:0:
288,320,103577,5,8,2:3:0:0:
206,273,103740,1,8,3:0:0:0:
339,189,103902,5,8,2:3:0:0:
372,215,103983,1,8,2:3:0:0:
353,260,104064,1,8,3:0:0:0:
158,349,104226,1,8,2:3:0:0:
254,203,104388,5,8,3:0:0:0:
328,384,104550,1,8,2:3:0:0:
145,182,104713,5,8,3:2:0:0:
353,260,104875,5,8,2:3:0:0:
412,268,104956,1,8,2:3:0:0:
452,229,105037,1,8,3:0:0:0:
238,384,105199,5,8,2:3:0:0:
316,111,105361,1,8,3:0:0:0:
185,265,105523,5,8,2:3:0:0:
316,346,105685,1,8,3:0:0:0:
486,230,105848,5,8,2:3:0:0:
439,174,105929,1,8,2:3:0:0:
369,196,106010,2,0,L|351:266,1,65.25,14|0,2:0|2:0,2:0:0:0:
156,346,106172,6,0,L|74:364,1,65.25,2|0,2:0|2:0,2:0:0:0:
133,119,106334,6,0,L|149:201,1,65.25,8|0,3:0|2:0,2:0:0:0:
262,289,106496,1,8,2:3:0:0:
262,289,106577,1,8,2:3:0:0:
262,289,106658,2,0,P|242:220|368:95,2,261,4|8|12,1:0|3:0|2:0,2:0:0:0:
0,128,107631,1,8,3:0:0:0:
305,372,107956,6,0,P|333:275|145:155,2,348,8|8|14,3:0|3:0|3:2,2:0:0:0:
512,192,108929,1,8,3:0:0:0:
231,346,109253,5,8,1:3:0:0:
221,335,109334,1,0,1:3:0:0:
214,322,109415,1,0,1:0:0:0:
213,306,109496,1,0,1:0:0:0:
218,292,109577,5,8,1:3:0:0:
245,271,109658,1,0,1:0:0:0:
258,234,109740,1,0,1:0:0:0:
250,193,109821,1,0,1:0:0:0:
215,166,109902,5,8,1:2:0:0:
160,173,109983,1,0,1:0:0:0:
120,130,110064,1,0,1:0:0:0:
124,79,110145,1,0,1:0:0:0:
168,48,110226,6,0,L|255:69,1,87,8|0,1:0|1:0,1:0:0:0:
403,148,110388,5,0,1:0:0:0:
412,138,110469,1,0,1:0:0:0:
406,130,110550,2,0,L|318:147,1,65.25,8|0,1:0|1:0,2:0:0:0:
123,280,110713,5,0,1:0:0:0:
114,273,110794,1,0,1:0:0:0:
119,266,110875,2,0,L|188:280,1,52.2,8|0,1:0|1:0,2:0:0:0:
346,376,111037,5,0,1:0:0:0:
356,360,111118,1,0,1:0:0:0:
339,324,111199,1,10,1:0:0:0:
210,367,111361,5,2,2:0:0:0:
160,242,111523,6,0,L|170:276,5,34.8,8|8|8|8|8|8,1:0|1:0|1:0|1:0|1:0|1:0,2:0:0:0:
207,382,111848,5,4,1:0:0:0:
274,14,112010,1,4,1:0:0:0:
452,272,112334,6,0,P|414:253|356:245,1,87,4|0,1:0|2:0,2:0:0:0:
88,136,112658,6,0,P|130:128|169:108,1,87,4|0,1:0|2:0,2:0:0:0:
417,103,112983,6,0,B|334:89|274:24|274:24|364:181|334:351|334:351|299:304|235:287,1,609,6|2,1:2|2:0,2:0:0:0:
251,292,114280,1,2,2:3:0:0:
493,164,114442,5,4,1:0:0:0:
37,272,114604,1,4,1:0:0:0:
162,11,114929,6,0,P|161:53|139:105,1,87,4|0,1:0|2:0,2:0:0:0:
388,291,115253,2,0,P|372:250|371:207,1,87,4|0,1:0|2:0,2:0:0:0:
27,111,115577,6,0,B|-11:150|0:197|0:197|185:93|318:126|318:126|280:174|284:233,1,522,6|2,1:0|2:0,2:0:0:0:
283,211,116713,1,4,1:0:0:0:
162,11,116875,1,4,1:0:0:0:
350,123,117037,5,4,1:0:0:0:
217,384,117199,1,4,1:0:0:0:
512,302,117523,6,0,P|477:281|419:269,1,87,4|0,1:0|2:0,2:0:0:0:
27,111,117848,2,0,P|69:100|106:78,1,87,4|0,1:0|2:0,2:0:0:0:
350,123,118172,6,0,B|319:48|216:70|216:70|325:213|305:372|305:372|272:329|237:325,1,565.5,6|0,1:0|2:0,2:0:0:0:
237,325,119307,1,6,1:0:0:0:
506,207,119469,1,4,1:0:0:0:
144,194,119631,5,6,1:0:0:0:
445,355,119794,1,4,1:0:0:0:
369,39,120118,6,0,P|353:82|351:143,1,87,4|0,1:0|2:0,2:0:0:0:
87,341,120442,2,0,P|82:297|67:257,1,87,4|0,1:0|2:0,2:0:0:0:
506,207,120767,6,0,B|499:167|539:108|539:108|406:78|258:184|258:184|235:121|286:67,1,522,4|0,1:0|2:0,2:0:0:0:
506,207,121902,1,12,2:0:0:0:
315,336,122064,1,10,2:0:0:0:
386,377,122226,6,0,P|402:340|398:285,1,87,12|0,1:0|2:0,2:0:0:0:
162,120,122388,2,0,P|86:137|105:236,1,174,2|8,1:0|1:0,2:0:0:0:
240,300,122631,5,2,2:0:0:0:
179,344,122713,2,0,P|161:305|165:253,1,87,2|2,2:3|2:3,2:0:0:0:
375,86,122875,1,8,1:0:0:0:
33,284,123037,6,0,P|48:247|92:217,1,87,2|0,1:0|2:0,2:0:0:0:
372,172,123199,1,8,2:0:0:0:
0,115,123361,6,0,P|46:115|84:138,1,87,2|0,1:0|2:0,2:0:0:0:
318,230,123523,2,0,P|220:221|183:62,1,261,8|0,1:0|2:0,2:0:0:0:
256,0,123848,6,0,P|265:45|269:98,1,87,8|0,1:0|2:0,2:0:0:0:
372,317,124010,1,2,2:3:0:0:
326,335,124091,1,2,2:3:0:0:
300,314,124172,2,0,P|305:273|321:222,1,87,8|0,1:0|2:0,2:0:0:0:
473,97,124334,6,0,P|435:117|377:126,1,87,2|0,1:0|2:0,2:0:0:0:
35,309,124496,1,8,1:3:0:0:
39,252,124577,1,8,1:3:0:0:
84,219,124658,1,8,1:3:0:0:
146,230,124740,1,8,1:3:0:0:
190,291,124821,6,0,P|187:334|173:380,1,87,8|0,1:0|2:0,2:0:0:0:
434,215,124983,2,0,P|371:158|280:164,1,174,2|8,1:0|1:0,2:0:0:0:
77,78,125226,5,2,2:0:0:0:
83,89,125307,2,0,P|124:104|168:111,1,87,2|0,1:0|2:0,2:0:0:0:
304,263,125469,1,8,1:0:0:0:
475,102,125631,6,0,P|436:118|374:125,1,87,2|0,1:0|2:0,2:0:0:0:
117,299,125794,1,8,1:0:0:0:
401,384,125956,6,0,P|392:342|387:285,1,87,2|0,1:0|2:0,2:0:0:0:
200,23,126118,2,0,P|191:107|172:203,1,174,10|0,1:0|2:0,2:0:0:0:
165,361,126361,5,2,2:0:0:0:
117,299,126442,2,0,P|152:276|212:270,1,87,2|0,1:0|2:0,2:0:0:0:
475,102,126604,1,0,1:0:0:0:
503,147,126685,1,0,1:0:0:0:
466,188,126767,2,0,P|361:168|310:89,1,174,8|0,1:0|1:0,2:0:0:0:
102,0,127091,5,8,1:3:0:0:
37,1,127172,1,8,1:3:0:0:
0,53,127253,1,8,1:3:0:0:
23,107,127334,1,8,1:3:0:0:
88,134,127415,6,0,P|133:129|181:108,1,87,8|0,1:0|2:0,2:0:0:0:
420,0,127577,2,0,P|400:42|389:101,1,87,2|0,1:0|2:0,2:0:0:0:
354,315,127740,1,8,1:0:0:0:
321,120,127902,5,0,1:0:0:0:
273,163,127983,1,0,1:0:0:0:
291,207,128064,2,0,P|331:226|389:234,1,87,8|0,1:0|2:0,2:0:0:0:
170,367,128226,2,0,P|132:315|164:201,2,174,2|8|2,1:0|1:0|1:0,2:0:0:0:
453,258,128713,6,0,P|497:190|467:92,1,174,10|0,1:0|2:0,2:0:0:0:
215,32,128956,1,2,2:0:0:0:
282,0,129037,2,0,P|296:41|298:93,1,87,10|0,1:0|2:0,2:0:0:0:
13,258,129199,1,0,1:0:0:0:
62,317,129280,1,0,1:0:0:0:
136,297,129361,2,0,P|149:257|150:204,1,87,8|0,1:0|2:0,2:0:0:0:
13,66,129523,5,0,1:0:0:0:
26,106,129604,1,0,1:0:0:0:
73,121,129685,1,8,1:3:0:0:
133,102,129767,1,8,1:3:0:0:
194,119,129848,1,8,1:3:0:0:
245,170,129929,1,8,1:3:0:0:
256,244,130010,1,4,1:0:0:0:
288,0,130658,5,4,1:0:0:0:
506,307,131307,6,0,P|461:311|416:329,1,87,4|0,1:0|2:0,2:0:0:0:
325,150,131469,6,0,P|281:144|233:120,1,87,4|0,1:0|2:0,2:0:0:0:
98,344,131631,6,0,P|114:303|117:259,1,87,4|0,1:0|2:0,2:0:0:0:
420,166,131794,6,0,P|403:126|399:75,1,87,4|0,1:0|2:0,2:0:0:0:
104,5,131956,6,0,P|25:47|54:134,1,174,12|0,2:0|1:0,2:0:0:0:
296,304,132199,1,0,1:0:0:0:
246,365,132280,2,0,P|203:371|160:384,1,87,14|0,2:0|2:0,2:0:0:0:
372,282,132442,6,0,L|432:298,2,58,0|0|0,1:0|1:0|1:0,2:0:0:0:
261,232,132604,6,0,L|252:153,1,78.2999999999998,12|0,1:0|2:0,2:0:0:0:
195,71,132929,6,0,P|222:47|284:54,1,87,10|0,1:0|2:0,2:0:0:0:
274,243,133091,1,2,2:3:0:0:
274,243,133145,1,2,2:3:0:0:
274,243,133199,1,2,2:3:0:0:
274,243,133253,2,0,P|145:246|125:73,1,326.25,14|0,1:0|2:0,2:0:0:0:
271,47,133577,6,0,L|250:165,1,108.75,8|0,1:0|2:0,2:0:0:0:
295,320,133740,1,2,2:0:0:0:
348,267,133821,1,2,2:0:0:0:
274,243,133902,2,0,P|228:261|198:324,1,108.75,8|0,1:0|2:0,2:0:0:0:
440,212,134064,2,0,B|332:188,1,108.75,2|0,2:1|2:0,2:0:0:0:
47,74,134226,6,0,B|40:101|40:101|122:79,1,108.75,8|0,1:0|2:0,2:0:0:0:
336,0,134388,2,0,B|370:43|370:43|358:114,1,108.75,2|0,2:1|2:0,2:0:0:0:
76,344,134550,6,0,B|32:285|32:285|207:239|207:239|196:334,1,326.25,14|0,1:0|2:0,2:0:0:0:
277,329,134875,2,0,B|260:359|260:359|377:377|377:377|360:309,1,217.5,8|0,1:0|2:0,2:0:0:0:
463,123,135118,1,0,2:0:0:0:
512,188,135199,6,0,L|425:204,1,78.2999999999998,12|0,1:0|2:0,2:0:0:0:
357,234,135523,6,0,B|349:193|349:193|370:152,1,87,8|0,1:0|2:0,2:0:0:0:
498,277,135685,1,2,2:3:0:0:
498,277,135740,1,2,2:3:0:0:
498,277,135794,1,2,2:3:0:0:
498,277,135848,6,0,B|504:296|504:296|479:305|479:305|179:232,1,326.25,12|0,1:0|2:0,2:0:0:0:
411,62,136172,2,0,L|304:83,1,108.75,10|0,1:0|2:0,2:0:0:0:
147,294,136334,5,2,2:3:0:0:
133,219,136415,1,2,2:3:0:0:
207,238,136496,2,0,B|228:287|228:287|213:344,1,108.75,10|0,1:0|2:0,2:0:0:0:
50,375,136658,2,0,B|36:322|36:322|69:266,1,108.75,2|0,2:1|2:0,2:0:0:0:
362,207,136821,6,0,B|368:231|368:231|279:211,1,108.75,12|0,1:0|2:0,2:0:0:0:
23,164,136983,2,0,P|6:130|59:89,1,108.75,2|0,1:0|2:0,2:0:0:0:
362,207,137145,6,0,B|403:174|403:174|126:222,1,326.25,12|0,1:0|2:0,2:0:0:0:
287,0,137469,1,8,1:0:0:0:
354,32,137550,1,8,1:0:0:0:
344,108,137631,1,8,1:0:0:0:
269,121,137713,1,8,1:0:0:0:
233,54,137794,2,0,L|135:34,1,78.2999999999998,8|0,1:0|2:0,2:0:0:0:
362,207,138118,6,0,L|470:186,1,87,10|0,1:0|2:0,2:0:0:0:
261,293,138280,1,2,2:3:0:0:
261,293,138334,1,2,2:3:0:0:
261,293,138388,1,2,2:3:0:0:
261,293,138442,2,0,B|208:337|208:337|377:378|377:378|344:298,1,326.25,12|0,1:0|2:0,2:0:0:0:
468,228,138767,6,0,L|345:203,1,108.75,8|0,1:0|2:0,2:0:0:0:
158,123,138929,2,0,B|125:168|125:168|135:231,1,108.75,2|0,1:0|2:0,2:0:0:0:
224,191,139091,5,8,1:0:0:0:
126,218,139253,2,0,B|117:166|117:166|150:121,1,108.75,2|0,1:0|2:0,2:0:0:0:
310,5,139415,6,0,L|331:125,1,108.75,10|0,1:0|2:0,2:0:0:0:
468,228,139577,2,0,L|345:203,1,108.75,2|0,1:0|2:0,2:0:0:0:
191,19,139740,6,0,P|97:9|55:207,1,326.25,12|0,1:0|2:0,2:0:0:0:
318,375,140064,2,0,P|304:323|249:290,1,108.75,10|0,1:0|2:0,2:0:0:0:
21,266,140226,5,0,2:0:0:0:
2,340,140307,1,0,2:0:0:0:
78,318,140388,5,12,1:0:0:0:
91,318,140469,1,0,1:0:0:0:
104,323,140550,1,0,1:0:0:0:
113,333,140631,1,0,1:0:0:0:
185,381,140713,5,8,1:0:0:0:
204,345,140794,1,0,1:0:0:0:
200,311,140875,1,0,1:0:0:0:
180,288,140956,1,0,1:0:0:0:
108,238,141037,5,8,1:0:0:0:
136,195,141118,1,0,1:0:0:0:
194,190,141199,1,0,1:0:0:0:
241,227,141280,1,0,1:0:0:0:
298,306,141361,5,8,1:0:0:0:
350,268,141442,1,0,1:0:0:0:
358,208,141523,1,0,1:0:0:0:
332,153,141604,1,0,1:0:0:0:
242,106,141685,6,0,L|266:-8,1,108.75,8|0,1:0|2:0,2:0:0:0:
464,185,141848,5,2,2:3:0:0:
464,185,141929,1,2,2:3:0:0:
464,185,142010,2,0,L|341:211,1,108.75,8|0,1:0|2:0,2:0:0:0:
3,82,142172,5,2,2:3:0:0:
3,82,142253,1,2,2:3:0:0:
3,82,142334,2,0,L|109:104,1,108.75,8|0,1:0|2:0,2:0:0:0:
231,238,142496,5,2,2:3:0:0:
231,238,142577,1,2,2:3:0:0:
231,238,142658,2,0,L|245:307,1,54.375,8|8,1:0|1:0,2:0:0:0:
231,238,142740,2,0,L|162:252,1,54.375,8|8,1:0|1:0,2:0:0:0:
231,238,142821,2,0,L|217:169,1,54.375,8|8,1:0|1:0,2:0:0:0:
231,238,142902,2,0,L|300:224,1,54.375,8|8,1:0|1:0,2:0:0:0:
256,192,157253,5,12,1:0:0:0:
0,192,159848,5,4,1:0:0:0:
512,192,162442,5,4,1:0:0:0:
96,96,165037,5,4,1:0:0:0:
416,288,166334,5,4,1:0:0:0:
256,192,166983,5,12,1:0:0:0:
160,320,167226,5,10,1:0:0:0:
160,320,167307,1,10,1:0:0:0:
352,64,167469,5,10,1:0:0:0:
498,251,167631,1,12,1:0:0:0:
488,274,167713,1,0,1:0:0:0:
466,287,167794,1,0,1:0:0:0:
440,283,167875,1,0,1:0:0:0:
423,265,167956,1,0,1:0:0:0:
420,239,168037,1,0,1:0:0:0:
434,218,168118,1,0,1:0:0:0:
458,209,168199,1,0,1:0:0:0:
491,216,168280,5,2,1:0:0:0:
462,238,168361,1,0,1:0:0:0:
427,248,168442,1,0,1:0:0:0:
393,239,168523,1,0,1:0:0:0:
371,210,168604,1,0,1:0:0:0:
370,174,168685,1,0,1:0:0:0:
391,145,168767,1,0,1:0:0:0:
425,134,168848,1,0,1:0:0:0:
466,142,168929,5,2,1:0:0:0:
424,171,169010,1,0,1:0:0:0:
373,180,169091,1,0,1:0:0:0:
323,166,169172,1,0,1:0:0:0:
293,125,169253,1,0,1:0:0:0:
311,78,169334,1,0,1:0:0:0:
356,53,169415,1,0,1:0:0:0:
408,48,169496,1,0,1:0:0:0:
457,64,169577,6,0,L|468:127,3,52.2,2|0|0|0,1:0|1:0|1:0|1:0,2:0:0:0:
373,180,169902,2,0,L|321:193,1,52.2,2|0,1:0|2:0,2:0:0:0:
262,145,170064,2,0,L|202:133,1,52.2,2|0,1:0|2:0,2:0:0:0:
5,260,170226,5,12,1:0:0:0:
15,283,170307,1,0,1:0:0:0:
37,296,170388,1,0,1:0:0:0:
63,292,170469,1,0,1:0:0:0:
80,274,170550,1,0,1:0:0:0:
83,248,170631,1,0,1:0:0:0:
69,227,170713,1,0,1:0:0:0:
45,218,170794,1,0,1:0:0:0:
12,225,170875,5,2,1:0:0:0:
41,247,170956,1,0,1:0:0:0:
76,257,171037,1,0,1:0:0:0:
110,248,171118,1,0,1:0:0:0:
132,219,171199,1,0,1:0:0:0:
133,183,171280,1,0,1:0:0:0:
112,154,171361,1,0,1:0:0:0:
78,143,171442,1,0,1:0:0:0:
37,151,171523,5,2,1:0:0:0:
79,180,171604,1,0,1:0:0:0:
130,189,171685,1,0,1:0:0:0:
180,175,171767,1,0,1:0:0:0:
210,134,171848,1,0,1:0:0:0:
192,87,171929,1,0,1:0:0:0:
147,62,172010,1,0,1:0:0:0:
95,57,172091,1,0,1:0:0:0:
46,73,172172,6,0,L|35:136,2,52.2,2|0|0,1:0|1:0|1:0,2:0:0:0:
258,0,172415,5,8,2:0:0:0:
262,16,172496,2,0,L|276:76,1,52.2,8|0,2:0|2:0,2:0:0:0:
220,124,172658,2,0,L|209:193,1,52.2,0|0,1:0|2:0,2:0:0:0:
288,355,172821,5,12,1:0:0:0:
297,330,172902,1,0,1:0:0:0:
298,304,172983,1,0,1:0:0:0:
287,281,173064,1,0,1:0:0:0:
264,270,173145,1,0,1:0:0:0:
239,277,173226,1,0,1:0:0:0:
224,297,173307,1,0,1:0:0:0:
220,323,173388,1,0,1:0:0:0:
225,348,173469,5,2,1:0:0:0:
207,316,173550,1,0,1:0:0:0:
200,280,173631,1,0,1:0:0:0:
209,245,173713,1,0,1:0:0:0:
236,222,173794,1,0,1:0:0:0:
272,224,173875,1,0,1:0:0:0:
297,249,173956,1,0,1:0:0:0:
308,284,174037,1,0,1:0:0:0:
307,325,174118,5,12,1:0:0:0:
332,273,174199,1,0,1:0:0:0:
339,217,174280,1,0,1:0:0:0:
324,162,174361,1,0,1:0:0:0:
280,127,174442,1,0,1:0:0:0:
227,143,174523,1,0,1:0:0:0:
197,191,174604,1,0,1:0:0:0:
191,248,174685,1,0,1:0:0:0:
202,298,174767,6,0,L|275:314,2,52.2,2|0|0,1:0|1:0|1:0,2:0:0:0:
407,203,175010,5,0,1:0:0:0:
390,206,175091,2,0,L|339:217,2,52.2,2|0|0,1:0|1:0|1:0,2:0:0:0:
509,143,175415,5,12,1:0:0:0:
492,104,175496,1,0,1:0:0:0:
448,82,175577,1,0,1:0:0:0:
401,89,175658,1,0,1:0:0:0:
374,124,175740,1,0,1:0:0:0:
373,171,175821,1,0,1:0:0:0:
355,215,175902,1,0,1:0:0:0:
302,233,175983,1,0,1:0:0:0:
257,211,176064,5,12,1:0:0:0:
282,153,176145,1,0,1:0:0:0:
264,91,176226,1,0,1:0:0:0:
202,68,176307,1,0,1:0:0:0:
142,96,176388,1,0,1:0:0:0:
124,161,176469,1,0,1:0:0:0:
151,220,176550,1,0,1:0:0:0:
206,241,176631,1,0,1:0:0:0:
213,160,176713,5,2,1:0:0:0:
213,160,177037,5,2,1:0:0:0:
213,160,177361,5,2,1:0:0:0:
413,239,177685,6,0,L|401:184,1,36.975,10|0,1:0|2:0,2:0:0:0:
413,239,177767,2,0,L|376:246,1,36.975,10|0,1:0|2:0,2:0:0:0:
413,239,177848,2,0,L|425:294,1,36.975,10|0,1:0|2:0,2:0:0:0:
413,239,177929,2,0,L|449:231,1,36.975,10|0,1:0|2:0,2:0:0:0:
512,374,178010,6,0,P|414:298|280:319,1,261,12|0,1:0|2:0,2:0:0:0:
60,158,178334,2,0,P|61:201|85:244,1,87,10|1,1:0|2:0,2:0:0:0:
285,315,178496,5,2,2:0:0:0:
214,347,178577,1,2,2:0:0:0:
155,300,178658,2,0,P|154:258|180:205,1,87,10|0,1:0|2:0,2:0:0:0:
336,42,178821,2,0,P|347:82|355:142,1,87,2|0,1:2|2:0,2:0:0:0:
449,231,178983,6,0,P|448:187|416:139,1,87,8|0,1:0|2:0,2:0:0:0:
265,0,179145,2,0,P|248:83|239:188,1,174,2|8,1:0|1:0,2:0:0:0:
11,298,179388,5,2,2:0:0:0:
0,221,179469,2,0,B|44:216|44:216|102:250,1,87,2|0,1:0|2:0,2:0:0:0:
213,71,179631,2,0,B|174:92|174:92|119:85,1,87,10|0,2:0|2:0,2:0:0:0:
252,253,179794,6,0,B|232:214|232:214|240:163,1,87,2|0,1:0|2:0,2:0:0:0:
42,41,179956,2,0,L|213:71,1,174,10|2,1:0|2:0,2:0:0:0:
485,9,180280,6,0,P|442:13|408:39,1,87,10|0,1:0|2:0,2:0:0:0:
227,257,180442,2,0,L|239:163,1,87,2|0,1:0|2:0,2:0:0:0:
322,65,180604,6,0,P|407:71|434:155,1,174,10|2,1:0|2:0,2:0:0:0:
512,253,180848,1,2,2:0:0:0:
463,314,180929,2,0,P|421:318|376:335,1,87,10|0,1:0|2:0,2:0:0:0:
320,196,181091,2,0,P|278:188|227:164,1,87,2|0,1:0|2:0,2:0:0:0:
31,314,181253,2,0,L|210:283,1,174,8|2,1:0|1:0,2:0:0:0:
436,145,181577,6,0,B|443:189|443:189|420:238,1,87,10|0,1:0|2:0,2:0:0:0:
288,351,181740,5,2,2:3:0:0:
288,351,181821,1,2,2:3:0:0:
288,351,181902,2,0,P|302:222|324:68,1,261,4|0,1:0|2:0,2:0:0:0:
216,8,182226,2,0,B|171:-1|171:-1|119:34,1,87,8|0,1:0|2:0,2:0:0:0:
0,127,182388,2,0,L|102:147,1,87,2|0,1:0|2:0,2:0:0:0:
344,220,182550,6,0,P|330:162|318:82,1,130.5,10|0,1:0|1:0,2:0:0:0:
16,229,182875,5,8,1:0:0:0:
0,299,182956,1,8,1:0:0:0:
58,349,183037,1,8,1:0:0:0:
133,329,183118,1,8,1:0:0:0:
163,257,183199,6,0,P|180:167|190:60,1,174,14|0,1:0|2:0,2:0:0:0:
346,229,183442,1,2,2:0:0:0:
374,156,183523,2,0,B|332:150|332:150|277:180,1,87,10|0,1:0|2:0,2:0:0:0:
234,300,183685,2,0,B|273:318|273:318|316:312,1,87,2|0,1:0|2:0,2:0:0:0:
483,129,183848,6,0,P|404:127|353:29,1,174,10|0,1:0|2:0,2:0:0:0:
213,196,184091,1,2,2:0:0:0:
154,144,184172,2,0,P|111:137|64:119,1,87,10|0,1:0|2:0,2:0:0:0:
145,342,184334,2,0,P|151:299|162:256,1,87,2|0,1:0|2:0,2:0:0:0:
352,54,184496,6,0,P|460:79|472:240,1,261,14|0,1:0|2:0,2:0:0:0:
441,273,184821,1,8,1:0:0:0:
206,85,184983,6,0,P|201:43|187:-11,1,87,2|0,1:0|2:0,2:0:0:0:
29,195,185145,2,0,P|154:168|286:152,1,261,6|0,1:0|2:0,2:0:0:0:
102,20,185469,6,0,P|73:60|86:105,1,87,10|0,1:0|2:0,2:0:0:0:
253,322,185631,2,0,P|256:277|267:225,1,87,2|0,1:0|2:0,2:0:0:0:
495,2,185794,6,0,P|441:59|324:30,1,174,6|2,1:0|1:0,2:0:0:0:
159,194,186037,1,2,2:0:0:0:
201,132,186118,2,0,P|246:138|290:154,1,87,10|0,1:0|2:0,2:0:0:0:
367,257,186280,2,0,P|410:253|461:237,1,87,2|0,1:0|2:0,2:0:0:0:
512,190,186442,1,10,1:0:0:0:
285,151,186604,6,0,P|245:145|198:131,1,87,2|0,1:0|2:0,2:0:0:0:
88,234,186767,2,0,P|44:238|3:250,1,87,10|0,1:0|2:0,2:0:0:0:
59,32,186929,6,0,P|101:45|162:55,1,87,2|0,1:0|2:0,2:0:0:0:
332,360,187091,2,0,P|345:287|261:226,1,174,14|0,1:0|2:0,2:0:0:0:
78,226,187334,5,2,2:0:0:0:
88,234,187415,5,8,1:0:0:0:
105,174,187496,5,8,1:0:0:0:
125,113,187577,5,8,1:0:0:0:
144,54,187658,5,8,1:0:0:0:
162,0,187740,6,0,P|208:10|247:41,1,87,10|0,1:0|2:0,2:0:0:0:
468,108,187902,2,0,L|381:124,1,87,2|0,1:0|2:0,2:0:0:0:
105,311,188064,6,0,B|69:332|73:374|73:374|243:296|346:329|346:329|329:351|331:376,1,391.5,14|0,1:0|2:0,2:0:0:0:
338,366,188388,2,0,L|320:278,1,87,12|0,1:0|2:0,2:0:0:0:
125,113,188550,1,2,2:3:0:0:
85,147,188631,1,2,2:3:0:0:
112,181,188713,2,0,P|199:181|240:85,1,174,10|0,1:0|2:0,2:0:0:0:
492,242,189037,6,0,P|452:230|398:221,1,87,10|0,1:0|2:0,2:0:0:0:
223,29,189199,2,0,P|236:72|242:124,1,87,2|0,2:3|2:0,2:0:0:0:
413,44,189361,6,0,P|370:55|316:64,1,87,8|0,1:0|2:0,2:0:0:0:
31,261,189523,2,0,P|119:268|214:307,1,174,2|8,1:0|1:0,2:0:0:0:
351,164,189767,5,2,2:0:0:0:
407,222,189848,2,0,P|405:263|389:315,1,87,2|0,1:0|2:0,2:0:0:0:
213,384,190010,2,0,P|202:342|200:291,1,87,10|0,1:0|2:0,2:0:0:0:
83,188,190172,6,0,P|124:174|181:167,1,87,2|0,1:0|2:0,2:0:0:0:
458,351,190334,2,0,P|373:342|321:262,1,174,10|0,1:0|2:0,2:0:0:0:
11,55,190658,6,0,P|53:68|104:76,1,87,10|0,1:0|2:0,2:0:0:0:
428,128,190821,2,0,P|425:89|411:40,1,87,2|0,1:0|2:0,2:0:0:0:
255,165,190983,6,0,L|37:193,1,174,10|2,1:0|1:0,2:0:0:0:
264,28,191226,1,2,2:0:0:0:
194,0,191307,2,0,B|173:39|173:39|183:90,1,87,8|0,1:0|2:0,2:0:0:0:
342,194,191469,2,0,B|348:153|348:153|326:95,1,87,2|0,1:0|2:0,2:0:0:0:
82,187,191631,6,0,P|156:204|204:290,1,174,10|0,1:0|2:0,2:0:0:0:
19,357,191875,1,0,2:0:0:0:
0,343,191956,2,0,P|3:302|24:253,1,87,8|0,1:0|2:0,2:0:0:0:
256,168,192118,1,2,1:0:0:0:
0,139,192280,6,0,P|48:157|119:52,1,174,8|0,1:0|2:0,2:0:0:0:
342,194,192523,1,2,2:0:0:0:
386,131,192604,2,0,P|427:136|466:186,2,87,10|0|0,1:0|2:0|1:0,2:0:0:0:
291,253,192848,1,2,2:0:0:0:
329,322,192929,2,0,P|334:220|353:58,1,261,6|0,1:0|2:0,2:0:0:0:
82,274,193253,5,8,1:0:0:0:
122,330,193334,1,8,1:0:0:0:
189,308,193415,1,8,1:0:0:0:
189,239,193496,1,8,1:0:0:0:
122,215,193577,2,0,P|25:199|0:130,1,174,10|0,1:0|2:0,2:0:0:0:
206,17,193821,1,2,2:0:0:0:
218,29,193902,2,0,P|217:75|189:117,1,87,10|0,1:0|2:0,2:0:0:0:
103,133,194064,6,0,P|82:95|80:32,1,87,10|0,1:0|2:0,2:0:0:0:
399,158,194226,2,0,P|375:234|274:245,1,174,12|8,1:0|1:0,2:0:0:0:
122,215,194469,5,8,1:0:0:0:
111,212,194550,1,10,1:0:0:0:
214,24,194713,6,0,L|196:109,1,87,2|0,2:1|2:0,2:0:0:0:
290,252,194875,2,0,L|476:288,1,174,10|0,1:0|2:0,2:0:0:0:
322,129,195118,1,2,2:0:0:0:
383,77,195199,2,0,B|405:117|405:117|396:170,1,87,10|0,1:0|2:0,2:0:0:0:
287,360,195361,5,2,2:0:0:0:
343,306,195442,1,2,2:0:0:0:
290,252,195523,2,0,P|196:268|156:338,1,174,10|0,1:0|2:0,2:0:0:0:
0,190,195767,1,2,2:0:0:0:
13,192,195848,2,0,L|111:209,1,87,10|0,1:0|2:0,2:0:0:0:
78,384,196010,6,0,P|73:342|60:292,1,87,8|0,1:0|2:0,2:0:0:0:
234,66,196172,2,0,P|212:148|200:236,1,174,14|2,1:0|1:0,2:0:0:0:
71,39,196415,1,2,2:3:0:0:
63,115,196496,2,0,P|105:115|152:83,1,87,8|0,1:0|2:0,2:0:0:0:
321,2,196658,2,0,P|365:15|398:50,1,87,2|0,1:0|2:0,2:0:0:0:
509,136,196821,2,0,L|317:167,1,174,10|2,1:0|1:0,2:0:0:0:
77,384,197145,6,0,P|84:338|88:288,1,87,10|0,1:0|2:0,2:0:0:0:
156,23,197307,2,0,P|117:34|67:39,1,87,0|0,1:0|2:0,2:0:0:0:
234,163,197469,6,0,P|289:180|357:293,1,174,10|2,1:0|1:0,2:0:0:0:
512,378,197713,1,2,2:3:0:0:
468,313,197794,2,0,P|473:268|493:218,1,87,10|0,1:0|2:0,2:0:0:0:
231,292,197956,5,8,1:0:0:0:
297,323,198037,1,8,1:0:0:0:
354,271,198118,2,0,P|350:229|332:181,1,87,8|0,1:0|2:0,2:0:0:0:
142,92,198280,2,0,P|123:132|117:189,1,87,8|0,1:0|2:0,2:0:0:0:
259,384,198442,6,0,P|247:202|229:48,1,326.25,12|0,1:0|2:0,2:0:0:0:
108,275,198767,6,0,P|36:285|37:156,1,217.5,14|0,1:0|2:0,2:0:0:0:
166,17,199010,1,2,2:0:0:0:
230,59,199091,2,0,B|250:98|250:98|244:149,1,87,10|0,1:0|2:0,2:0:0:0:
22,87,199253,2,0,B|16:44|16:44|36:5,1,87,2|0,1:0|2:0,2:0:0:0:
142,92,199415,6,0,P|261:92|323:18,1,217.5,10|2,1:0|1:0,2:0:0:0:
335,186,199658,1,2,2:3:0:0:
372,117,199740,2,0,P|416:126|456:162,1,87,10|0,1:0|2:0,2:0:0:0:
365,349,199902,2,0,P|359:308|346:253,1,87,2|0,1:0|2:0,2:0:0:0:
90,154,200064,6,0,P|12:187|36:275,1,174,10|2,1:0|1:0,2:0:0:0:
236,144,200307,1,2,2:0:0:0:
221,120,200388,2,0,P|185:98|133:92,1,87,10|0,1:0|2:0,2:0:0:0:
246,345,200550,2,0,P|260:306|260:254,1,87,2|0,1:0|2:0,2:0:0:0:
0,334,200713,6,0,P|48:303|193:290,1,195.75,10|0,1:0|2:0,2:0:0:0:
335,186,201037,2,0,P|376:202|427:208,1,87,10|0,1:0|2:0,2:0:0:0:
486,294,201199,2,0,P|442:300|391:322,1,87,2|0,1:0|2:0,2:0:0:0:
236,144,201361,6,0,P|200:73|318:19,1,217.5,10|2,1:0|1:0,2:0:0:0:
396,115,201604,1,2,2:3:0:0:
465,82,201685,2,0,P|464:40|440:-8,1,87,10|0,1:0|2:0,2:0:0:0:
335,186,201848,2,0,L|321:279,1,87,2|0,1:0|2:0,2:0:0:0:
87,50,202010,6,0,P|189:47|307:2,1,217.5,10|2,1:0|1:0,2:0:0:0:
462,161,202253,1,2,2:3:0:0:
465,82,202334,2,0,P|428:67|377:63,1,87,10|0,1:0|2:0,2:0:0:0:
233,249,202496,2,0,L|249:345,1,87,2|0,1:0|2:0,2:0:0:0:
335,186,202658,6,0,L|144:148,1,174,14|0,1:0|1:0,2:0:0:0:
318,304,202902,1,2,2:3:0:0:
247,334,202983,2,0,B|238:294|238:294|262:240,1,87,8|0,1:0|2:0,2:0:0:0:
462,161,203145,2,0,B|480:200|480:200|470:249,1,87,2|0,1:0|2:0,2:0:0:0:
368,374,203307,2,0,L|342:188,1,174,14|2,1:0|1:0,2:0:0:0:
84,14,203631,5,8,1:0:0:0:
17,35,203713,1,8,1:0:0:0:
17,105,203794,1,8,1:0:0:0:
84,126,203875,1,8,1:0:0:0:
124,70,203956,6,0,P|46:103|33:228,1,217.5,14|2,1:0|1:0,2:0:0:0:
157,338,204199,1,2,2:3:0:0:
83,361,204280,2,0,P|82:319|104:266,1,87,10|0,1:0|2:0,2:0:0:0:
343,201,204442,2,0,P|359:241|362:293,1,87,2|0,1:0|2:0,2:0:0:0:
492,121,204604,6,0,P|465:56|325:46,1,217.5,10|2,1:0|1:0,2:0:0:0:
228,192,204848,1,2,2:3:0:0:
217,203,204929,2,0,P|177:206|145:165,1,87,10|0,1:0|2:0,2:0:0:0:
223,13,205091,6,0,P|236:54|245:108,1,87,2|0,1:0|2:0,2:0:0:0:
321,375,205253,2,0,P|328:291|348:191,1,174,10|2,1:0|1:0,2:0:0:0:
182,378,205496,5,2,2:3:0:0:
140,314,205577,2,0,B|178:293|178:293|221:302,1,87,10|0,1:0|2:0,2:0:0:0:
425,221,205740,2,0,B|382:225|382:225|345:202,1,87,2|0,1:0|2:0,2:0:0:0:
123,63,205902,6,0,P|60:65|29:233,1,261,10|0,1:0|2:0,2:0:0:0:
243,97,206226,6,0,P|246:56|257:1,1,87,8|0,1:0|2:0,2:0:0:0:
92,154,206388,2,0,P|136:164|177:179,1,87,10|0,1:0|2:0,2:0:0:0:
340,59,206550,6,0,P|423:65|460:140,1,174,10|2,1:0|1:0,2:0:0:0:
292,262,206794,1,2,2:3:0:0:
355,309,206875,2,0,B|372:269|372:269|361:215,1,87,10|0,1:0|2:0,2:0:0:0:
123,63,207037,2,0,B|104:103|104:103|109:147,1,87,2|0,1:0|2:0,2:0:0:0:
0,384,207199,6,0,P|19:321|123:304,1,174,10|2,1:0|1:0,2:0:0:0:
261,171,207442,1,2,2:3:0:0:
252,187,207523,2,0,P|212:207|151:208,1,87,8|0,1:0|2:0,2:0:0:0:
108,145,207685,2,0,P|68:118|55:60,1,87,2|0,1:0|2:0,2:0:0:0:
323,91,207848,6,0,P|302:177|291:266,1,174,10|2,1:0|1:0,2:0:0:0:
422,379,208091,1,2,2:3:0:0:
480,327,208172,2,0,P|478:284|458:235,1,87,10|0,1:0|1:0,1:0:0:0:
210,221,208334,5,10,1:0:0:0:
223,297,208415,1,8,1:0:0:0:
291,261,208496,2,0,P|309:185|324:81,1,174,10|2,1:0|1:0,2:0:0:0:
458,0,208740,1,2,2:3:0:0:
512,55,208821,6,0,P|468:96|377:75,1,130.5,14|0,1:0|2:0,2:0:0:0:
154,25,208983,2,0,L|290:10,1,130.5,6|0,1:0|2:0,2:0:0:0:
487,165,209145,6,0,P|450:96|319:92,1,217.5,10|2,1:0|1:0,2:0:0:0:
213,220,209388,1,2,2:3:0:0:
143,181,209469,2,0,P|144:136|171:84,1,87,10|0,1:0|2:0,2:0:0:0:
370,234,209631,2,0,P|331:257|277:258,1,87,2|0,1:0|2:0,2:0:0:0:
0,310,209794,6,0,P|104:327|201:387,1,217.5,10|2,1:0|1:0,2:0:0:0:
213,220,210037,1,2,2:3:0:0:
168,284,210118,2,0,P|132:304|63:301,1,87,8|0,1:0|2:0,2:0:0:0:
289,210,210280,2,0,P|337:213|379:244,1,87,2|0,1:0|2:0,2:0:0:0:
471,340,210442,6,0,P|480:255|509:160,1,174,14|2,1:0|1:0,2:0:0:0:
349,16,210685,1,2,2:3:0:0:
400,76,210767,2,0,B|362:94|362:94|317:87,1,87,10|0,1:0|2:0,2:0:0:0:
143,181,210929,2,0,B|105:162|105:162|60:169,1,87,2|0,1:0|2:0,2:0:0:0:
237,76,211091,6,0,L|261:287,1,195.75,14|0,1:0|2:0,2:0:0:0:
170,384,211415,6,0,P|133:351|147:300,1,87,14|0,1:0|2:0,2:0:0:0:
370,234,211577,2,0,P|356:276|346:335,1,87,2|0,1:0|2:0,2:0:0:0:
40,98,211740,6,0,P|52:27|185:27,1,217.5,14|2,1:0|1:0,2:0:0:0:
402,163,211983,1,2,2:3:0:0:
370,234,212064,2,0,P|331:219|281:208,1,87,10|0,1:0|2:0,2:0:0:0:
449,31,212226,2,0,P|458:80|471:126,1,87,2|0,1:0|2:0,2:0:0:0:
348,318,212388,6,0,P|335:205|307:91,1,217.5,14|2,1:0|1:0,2:0:0:0:
508,186,212631,1,2,2:3:0:0:
467,115,212713,6,0,P|473:73|491:22,1,87,10|0,1:0|2:0,2:0:0:0:
287,208,212875,2,0,P|332:216|372:234,1,87,2|0,1:0|2:0,2:0:0:0:
367,18,213037,6,0,P|313:81|227:75,1,174,10|2,1:0|1:0,2:0:0:0:
137,181,213280,1,2,2:3:0:0:
120,171,213361,2,0,P|77:181|43:212,1,87,10|0,1:0|2:0,2:0:0:0:
169,379,213523,2,0,P|175:335|187:290,1,87,2|0,1:0|2:0,2:0:0:0:
0,128,213685,2,0,P|24:213|35:306,1,174,14|2,1:0|1:0,2:0:0:0:
448,0,214010,5,8,1:0:0:0:
490,65,214091,1,8,1:0:0:0:
441,125,214172,1,8,1:0:0:0:
367,97,214253,1,8,1:0:0:0:
367,20,214334,6,0,P|262:7|173:90,1,217.5,14|0,1:0|2:0,2:0:0:0:
45,208,214577,1,2,2:3:0:0:
25,134,214658,6,0,P|68:138|110:161,1,87,10|0,1:0|2:0,2:0:0:0:
185,293,214821,2,0,P|229:290|283:264,1,87,2|0,1:0|2:0,2:0:0:0:
379,172,214983,1,10,1:0:0:0:
512,347,215145,5,10,1:0:0:0:
437,284,215226,1,10,1:0:0:0:
420,384,215307,6,0,P|460:369|514:359,1,87,10|0,1:0|2:0,2:0:0:0:
281,188,215469,2,0,P|277:232|265:284,1,87,2|0,1:0|2:0,2:0:0:0:
137,384,215631,6,0,P|70:353|117:256,1,174,10|0,1:0|2:0,2:0:0:0:
320,119,215875,1,2,2:3:0:0:
379,172,215956,2,0,P|398:135|392:81,1,87,10|0,1:0|2:0,2:0:0:0:
181,0,216118,2,0,P|191:39|197:90,1,87,2|0,1:0|2:0,2:0:0:0:
359,289,216280,6,0,P|278:290|216:361,1,174,10|2,1:0|1:0,2:0:0:0:
0,128,216604,6,0,L|101:146,1,87,8|0,1:0|2:0,2:0:0:0:
364,294,216767,1,8,1:0:0:0:
425,242,216848,1,8,1:0:0:0:
372,184,216929,6,0,P|329:178|283:167,1,87,10|0,1:0|2:0,2:0:0:0:
4,290,217091,2,0,P|45:275|100:266,1,87,2|0,1:0|2:0,2:0:0:0:
300,0,217253,6,0,P|214:11|198:99,1,174,10|0,1:0|2:0,2:0:0:0:
364,294,217496,1,2,2:3:0:0:
297,335,217577,2,0,P|283:301|276:247,1,87,10|0,1:0|2:0,2:0:0:0:
474,24,217740,1,2,2:3:0:0:
512,70,217821,1,2,2:3:0:0:
479,119,217902,5,10,1:0:0:0:
409,105,217983,1,8,1:0:0:0:
339,88,218064,1,8,1:0:0:0:
268,69,218145,1,8,1:0:0:0:
192,85,218226,5,14,1:0:0:0:
343,219,218388,1,2,2:1:0:0:
339,88,218550,5,2,2:1:0:0:
180,262,218713,1,2,2:1:0:0:
256,384,218875,5,2,2:0:0:0:
191,84,219199,6,0,P|199:-6|279:39,1,217.5,14|0,1:0|2:0,2:0:0:0:
478,196,219523,6,0,P|386:195|290:159,1,174,4|0,1:0|2:0,2:0:0:0:
0,206,219685,2,0,P|39:192|84:189,1,65.25,2|0,2:1|2:0,2:0:0:0:
478,196,219848,6,0,P|386:195|290:159,1,174,8|0,1:0|2:0,2:0:0:0:
0,206,220010,2,0,P|39:192|84:189,1,65.25,2|0,2:1|2:0,2:0:0:0:
478,196,220172,6,0,P|386:195|290:159,1,174,8|0,1:0|2:0,2:0:0:0:
0,206,220334,2,0,P|39:192|84:189,1,65.25,2|0,2:1|2:0,2:0:0:0:
478,196,220496,6,0,P|386:195|290:159,1,174,8|0,1:0|2:0,2:0:0:0:
0,206,220658,2,0,P|39:192|84:189,1,65.25,2|0,2:1|2:0,2:0:0:0:
228,384,220821,6,0,P|206:294|194:187,1,174,10|0,1:0|2:0,2:0:0:0:
375,0,220983,2,0,P|372:35|363:69,1,65.25,2|0,2:1|2:0,2:0:0:0:
228,384,221145,6,0,P|206:294|194:187,1,174,10|0,1:0|2:0,2:0:0:0:
375,0,221307,2,0,P|372:35|363:69,1,65.25,2|0,2:1|2:0,2:0:0:0:
228,384,221469,6,0,P|206:294|194:187,1,174,10|0,1:0|2:0,2:0:0:0:
375,0,221631,2,0,P|372:35|363:69,1,65.25,2|0,2:1|2:0,2:0:0:0:
228,384,221794,6,0,P|206:294|194:187,1,174,10|0,1:0|2:0,2:0:0:0:
375,0,221956,2,0,P|372:35|363:69,1,65.25,2|0,2:1|2:0,2:0:0:0:
140,101,222118,6,0,P|170:30|276:37,1,174,10|0,1:0|2:0,2:0:0:0:
417,245,222280,2,0,P|390:235|350:228,1,65.25,2|0,2:1|2:0,2:0:0:0:
140,101,222442,6,0,P|170:30|276:37,1,174,10|0,1:0|2:0,2:0:0:0:
417,245,222604,2,0,P|390:235|350:228,1,65.25,2|0,2:1|2:0,2:0:0:0:
140,101,222767,6,0,P|170:30|276:37,1,174,10|0,1:0|2:0,2:0:0:0:
417,245,222929,2,0,P|390:235|350:228,1,65.25,2|0,2:1|2:0,2:0:0:0:
140,101,223091,6,0,P|170:30|276:37,1,174,10|0,1:0|2:0,2:0:0:0:
417,245,223253,2,0,P|390:235|350:228,1,65.25,2|0,2:1|2:0,2:0:0:0:
181,350,223415,6,0,P|104:306|137:208,1,174,10|0,1:0|2:0,2:0:0:0:
233,115,223577,2,0,P|225:144|221:178,1,65.25,2|0,2:1|2:0,2:0:0:0:
181,350,223740,6,0,P|104:306|137:208,1,174,10|0,1:0|2:0,2:0:0:0:
233,115,223902,2,0,P|225:144|221:178,1,65.25,2|0,2:1|2:0,2:0:0:0:
181,350,224064,6,0,P|104:306|137:208,1,174,10|0,1:0|2:0,2:0:0:0:
233,115,224226,2,0,P|225:144|221:178,1,65.25,2|0,2:1|2:0,2:0:0:0:
181,350,224388,6,0,P|104:306|137:208,1,174,10|0,1:0|2:0,2:0:0:0:
233,115,224550,2,0,P|225:144|221:178,1,65.25,2|0,2:1|2:0,2:0:0:0:
269,284,224713,6,0,L|359:304,1,73.95,14|0,1:0|2:0,2:0:0:0:
111,123,224875,6,0,L|92:42,1,73.95,8|0,1:0|2:0,2:0:0:0:
466,164,225037,6,0,L|379:182,1,73.95,8|0,1:0|2:0,2:0:0:0:
45,341,225199,6,0,L|131:363,1,73.95,8|0,1:0|2:0,2:0:0:0:
298,72,225361,6,0,L|317:-13,1,73.95,8|0,1:0|2:0,2:0:0:0:
455,264,225523,6,0,L|479:352,1,73.95,8|0,1:0|2:0,2:0:0:0:
215,210,225685,6,0,L|133:232,1,73.95,8|0,1:0|2:0,2:0:0:0:
298,72,225848,6,0,L|388:94,1,73.95,8|0,1:0|2:0,2:0:0:0:
45,341,226010,6,0,L|61:263,1,73.95,8|0,1:0|2:0,2:0:0:0:
195,40,226172,6,0,L|210:128,1,73.95,8|0,1:0|2:0,2:0:0:0:
371,304,226334,6,0,L|298:285,1,73.95,8|0,1:0|2:0,2:0:0:0:
9,139,226496,6,0,L|108:120,1,73.95,8|0,1:0|2:0,2:0:0:0:
423,22,226658,6,0,L|405:103,1,73.95,8|0,1:0|2:0,2:0:0:0:
220,373,226821,6,0,L|201:287,1,73.95,8|0,1:0|2:0,2:0:0:0:
357,164,226983,6,0,L|437:185,1,73.95,8|0,1:0|2:0,2:0:0:0:
195,40,227145,6,0,L|210:124,1,73.95,8|0,1:0|2:0,2:0:0:0:
219,379,227307,5,8,1:0:0:0:
152,345,227388,1,8,1:0:0:0:
104,289,227469,1,8,1:0:0:0:
83,218,227550,1,8,1:0:0:0:
95,145,227631,1,8,1:0:0:0:
134,82,227713,1,8,1:0:0:0:
195,40,227794,1,8,1:0:0:0:
269,27,227875,1,8,1:0:0:0:
340,46,227956,1,8,1:0:0:0:
398,90,228037,1,8,1:0:0:0:
433,155,228118,1,8,1:0:0:0:
437,230,228199,1,8,1:0:0:0:
412,299,228280,1,8,1:0:0:0:
361,352,228361,1,8,1:0:0:0:
292,380,228442,1,8,1:0:0:0:
219,379,228523,1,8,1:0:0:0:
236,305,228604,6,2,L|248:236,1,36.975,2|2,2:3|2:3,2:3:0:0:
243,262,228685,6,2,L|236:298,1,36.975,2|2,2:3|2:3,2:3:0:0:
222,291,228767,6,2,L|279:250,1,36.975,2|2,2:3|2:3,2:3:0:0:
257,265,228848,6,2,L|226:286,1,36.975,2|2,2:3|2:3,2:3:0:0:
220,276,228929,6,2,L|289:288,1,36.975,2|2,2:3|2:3,2:3:0:0:
263,283,229010,6,2,L|226:276,1,36.975,2|2,2:3|2:3,2:3:0:0:
234,262,229091,6,2,L|274:319,1,36.975,2|2,2:3|2:3,2:3:0:0:
260,297,229172,6,2,L|238:266,1,36.975,2|2,2:3|2:3,2:3:0:0:
236,305,229253,6,2,L|248:236,1,36.975,2|2,2:3|2:3,2:3:0:0:
243,262,229334,6,2,L|236:298,1,36.975,2|2,2:3|2:3,2:3:0:0:
222,291,229415,6,2,L|279:250,1,36.975,2|2,2:3|2:3,2:3:0:0:
257,265,229496,6,2,L|226:286,1,36.975,2|2,2:3|2:3,2:3:0:0:
220,276,229577,6,2,L|289:288,1,36.975,2|2,2:3|2:3,2:3:0:0:
263,283,229658,6,2,L|226:276,1,36.975,2|2,2:3|2:3,2:3:0:0:
234,262,229740,6,2,L|274:319,1,36.975,2|2,2:3|2:3,2:3:0:0:
260,297,229821,6,2,L|238:266,1,36.975,2|2,2:3|2:3,2:3:0:0:
236,305,229902,6,2,L|248:236,1,36.975,2|2,2:3|2:3,2:3:0:0:
243,262,229983,6,2,L|236:298,1,36.975,2|2,2:3|2:3,2:3:0:0:
222,291,230064,6,2,L|279:250,1,36.975,2|2,2:3|2:3,2:3:0:0:
257,265,230145,6,2,L|226:286,1,36.975,2|2,2:3|2:3,2:3:0:0:
220,276,230226,6,2,L|289:288,1,36.975,2|2,2:3|2:3,2:3:0:0:
263,283,230307,6,2,L|226:276,1,36.975,2|2,2:3|2:3,2:3:0:0:
234,262,230388,6,2,L|274:319,1,36.975,2|2,2:3|2:3,2:3:0:0:
260,297,230469,6,2,L|238:266,1,36.975,2|2,2:3|2:3,2:3:0:0:
236,305,230550,6,2,L|248:236,1,36.975,2|2,2:3|2:3,2:3:0:0:
243,262,230631,6,2,L|236:298,1,36.975,2|2,2:3|2:3,2:3:0:0:
222,291,230713,6,2,L|279:250,1,36.975,2|2,2:3|2:3,2:3:0:0:
257,265,230794,6,2,L|226:286,1,36.975,2|2,2:3|2:3,2:3:0:0:
220,276,230875,6,2,L|289:288,1,36.975,2|2,2:3|2:3,2:3:0:0:
263,283,230956,6,2,L|226:276,1,36.975,2|2,2:3|2:3,2:3:0:0:
234,262,231037,6,2,L|274:319,1,36.975,2|2,2:3|2:3,2:3:0:0:
260,297,231118,6,2,L|238:266,1,36.975,2|2,2:3|2:3,2:3:0:0:
