osu file format v14

[General]
AudioFilename: audio.ogg
AudioLeadIn: 0
PreviewTime:20915
Countdown: 0
SampleSet: Soft
StackLeniency: 0.3
Mode: 0
LetterboxInBreaks: 0
WidescreenStoryboard: 1
EpilepsyWarning: 1

[Editor]
DistanceSpacing: 0.9
BeatDivisor: 4
GridSize: 32
TimelineZoom: 2.5

[Metadata]
Title:INTERNET YAMERO
TitleUnicode:INTERNET YAMERO
Artist:Aiobahn feat. KOTOKO
ArtistUnicode:Aiobahn feat. KOTOKO
Creator:Ducky-
Version:HARD DECISION
Source:NEEDY GIRL OVERDOSE
Tags:big data iljaaz anxient gorou wanpachi tohru mitsuhashi 前田地生 まろん maron iosys eurobeat rawstyle speedcore extratone ame-chan amechan wss playground overdose synthpop arcaea にゃるら nyalra nyarura xemono maeda chisei as_chisei インターネットやめろ electronic japanese pop jpop j-pop female vocal vocalist ft. featuring videogame video game music vgm denpa hardstyle techno hardcore synthwave streamer overload ame kangel omgkawaiiangel angel p-chan pchan tenshi muse dash fa featured artist
BeatmapID:4346043
BeatmapSetID:2074198

[Difficulty]
HPDrainRate:4
CircleSize:3
OverallDifficulty:6
ApproachRate:8
SliderMultiplier:1.49999990463257
SliderTickRate:1

[Events]
//Background and Video events
Video,-1880,"video.mp4"
0,0,"default.jpg",0,0
//Break Periods
2,3075,4719
2,5669,7314
2,8264,9908
2,75723,79963
2,143182,156503
2,157453,159098
2,160048,161692
2,162642,164287
//Storyboard Layer 0 (Background)
//Storyboard Layer 1 (Fail)
//Storyboard Layer 2 (Pass)
//Storyboard Layer 3 (Foreground)
//Storyboard Layer 4 (Overlay)
//Storyboard Sound Samples

[TimingPoints]
-2314,324.324324324324,4,2,1,60,1,0
21037,-83.3333333333333,4,2,1,60,0,0
23631,-90.9090909090909,4,2,1,80,0,0
34010,-100,4,2,2,70,0,0
80713,-111.111111111111,4,2,1,80,0,0
91091,-100,4,2,1,80,0,0
107956,-100,4,2,1,80,0,0
122226,-90.9090909090909,4,2,1,80,0,1
132604,-83.3333333333333,4,2,1,90,0,0
133253,-83.3333333333333,4,2,1,90,0,1
142983,-83.3333333333333,4,2,1,90,0,0
157253,-83.3333333333333,4,2,1,60,0,0
167631,-100,4,2,1,60,0,0
177685,-100,4,2,1,90,0,0
178010,-83.3333333333333,4,2,1,80,0,1
198767,-83.3333333333333,4,2,1,80,0,0
219523,-83.3333333333333,4,2,1,90,0,0

[Colours]
Combo1 : 250,120,175
Combo2 : 147,200,253

[HitObjects]
0,0,280,6,0,L|162:24,1,149.999990463257,2|2,1:0|1:0,2:0:0:0:
262,117,929,2,0,P|274:162|281:205,2,74.9999952316285,2|2|2,1:0|1:0|1:0,2:0:0:0:
308,36,1415,1,2,1:0:0:0:
308,36,1577,2,0,P|361:42|404:48,1,74.9999952316285,2|2,1:0|1:0,2:0:0:0:
499,159,2064,1,2,1:0:0:0:
499,159,2226,2,0,L|414:172,1,74.9999952316285,2|0,1:0|2:0,2:0:0:0:
362,240,2550,1,8,2:0:0:0:
362,240,2713,1,8,2:0:0:0:
406,316,2875,1,6,1:0:0:0:
260,384,5469,5,6,1:0:0:0:
260,384,8064,5,6,1:0:0:0:
260,384,10658,5,6,1:0:0:0:
260,384,11956,5,4,1:0:0:0:
260,384,12604,5,12,1:0:0:0:
231,259,12848,1,8,2:0:0:0:
242,244,12929,1,8,2:0:0:0:
216,154,13091,1,10,1:0:0:0:
95,120,13253,6,0,L|86:67,3,37.4999976158143,8|0|0|0,1:0|1:0|1:0|1:0,2:0:0:0:
96,41,13577,2,0,L|149:32,3,37.4999976158143,0|0|0|0,1:0|1:0|1:0|1:0,2:0:0:0:
174,52,13902,2,0,L|183:105,3,37.4999976158143,2|0|0|0,1:0|1:0|1:0|1:0,2:0:0:0:
173,131,14226,2,0,L|120:140,3,37.4999976158143,0|0|0|0,1:0|1:0|1:0|1:0,2:0:0:0:
108,170,14550,6,0,L|117:223,3,37.4999976158143,2|0|0|0,1:0|1:0|1:0|1:0,2:0:0:0:
107,249,14875,2,0,L|54:258,3,37.4999976158143,0|0|0|0,1:0|1:0|1:0|1:0,2:0:0:0:
29,238,15199,2,0,L|20:185,3,37.4999976158143,2|0|0|0,1:0|1:0|1:0|1:0,2:0:0:0:
30,159,15523,2,0,L|12:75,1,74.9999952316285,0|2,1:0|1:3,2:0:0:0:
108,170,15848,6,0,L|161:161,3,37.4999976158143,8|0|0|0,1:0|1:0|1:0|1:0,2:0:0:0:
173,131,16172,2,0,L|226:122,3,37.4999976158143,0|0|0|0,1:0|1:0|1:0|1:0,2:0:0:0:
251,142,16496,2,0,L|304:133,3,37.4999976158143,2|0|0|0,1:0|1:0|1:0|1:0,2:0:0:0:
316,93,16821,2,0,L|369:84,3,37.4999976158143,0|0|0|0,1:0|1:0|1:0|1:0,2:0:0:0:
398,103,17145,6,0,L|407:156,3,37.4999976158143,2|0|0|0,1:0|1:0|1:0|1:0,2:0:0:0:
437,168,17469,2,0,L|446:221,3,37.4999976158143,0|0|0|0,1:0|1:0|1:0|1:0,2:0:0:0:
426,246,17794,2,0,L|435:299,3,37.4999976158143,2|0|0|8,1:0|1:0|1:0|2:3,2:0:0:0:
477,322,18118,1,8,1:3:0:0:
415,384,18280,1,2,1:2:0:0:
323,320,18442,6,0,L|269:310,3,37.4999976158143,4|0|0|0,1:0|2:0|1:0|1:0,2:0:0:0:
250,279,18767,2,0,L|213:285,3,37.4999976158143,2|0|0|0,1:0|1:0|1:0|1:0,2:0:0:0:
185,247,19091,2,0,L|131:237,3,37.4999976158143,8|0|0|0,1:2|1:0|1:0|1:0,2:0:0:0:
112,206,19415,2,0,L|75:212,3,37.4999976158143,8|0|0|0,1:0|1:0|1:0|1:0,2:0:0:0:
139,154,19740,6,0,L|193:144,3,37.4999976158143,4|0|0|0,1:0|1:0|1:0|1:0,2:0:0:0:
212,113,20064,2,0,L|248:119,3,37.4999976158143,2|0|0|0,1:0|1:0|1:0|1:0,2:0:0:0:
277,81,20388,2,0,L|331:71,3,37.4999976158143,8|0|0|0,1:2|1:0|1:0|1:0,2:0:0:0:
350,40,20713,2,0,L|386:46,3,37.4999976158143,8|0|0|0,1:0|1:0|1:0|1:0,2:0:0:0:
434,17,21037,6,0,P|485:83|489:202,1,179.999988555908,12|10,1:0|1:0,2:0:0:0:
371,210,21685,2,0,P|318:139|310:51,1,179.999988555908,10|2,1:0|1:0,2:0:0:0:
76,0,22334,5,2,2:1:0:0:
76,0,22658,1,2,2:1:0:0:
76,0,22983,1,2,2:1:0:0:
0,144,23307,2,0,L|53:152,3,44.9999971389771,12|8|8|8,1:0|1:0|1:0|1:0,2:0:0:0:
83,176,23631,6,0,P|102:224|92:278,2,82.4999947547913,4|2|8,1:0|2:0|1:0,2:0:0:0:
149,106,24118,1,0,1:0:0:0:
224,165,24280,2,0,P|280:156|317:147,1,82.4999947547913,8|2,1:0|2:1,2:0:0:0:
321,162,24523,1,2,2:3:0:0:
336,174,24604,2,0,P|385:162|431:157,1,82.4999947547913,8|2,1:0|1:0,2:0:0:0:
492,218,24929,6,0,P|481:281|479:314,1,82.4999947547913,4|2,1:0|1:0,1:0:0:0:
379,265,25253,2,0,P|384:328|391:361,1,82.4999947547913,10|2,1:0|1:0,2:0:0:0:
285,320,25577,1,4,1:0:0:0:
158,228,25902,5,12,1:0:0:0:
158,228,26064,1,2,1:0:0:0:
78,274,26226,2,0,P|30:292|-14:300,2,82.4999947547913,14|0|10,1:0|2:0|1:0,2:0:0:0:
34,194,26713,1,2,1:0:0:0:
97,125,26875,2,0,P|113:76|116:31,1,82.4999947547913,12|2,1:0|1:0,2:0:0:0:
126,35,27118,1,2,2:3:0:0:
135,28,27199,2,0,P|177:28|216:39,1,82.4999947547913,10|2,1:0|1:0,2:0:0:0:
274,116,27523,6,0,P|326:102|357:82,1,82.4999947547913,12|0,1:0|2:0,2:0:0:0:
396,179,27848,2,0,P|426:152|450:105,1,82.4999947547913,10|2,1:0|1:0,2:0:0:0:
477,33,28172,1,4,1:0:0:0:
477,33,28334,1,2,2:0:0:0:
496,125,28496,2,0,L|505:180,3,41.2499973773957,10|0|8|8,1:0|2:0|1:0|1:0,2:0:0:0:
501,210,28821,6,0,P|509:267|515:312,2,82.4999947547913,14|0|8,1:0|1:0|1:0,2:0:0:0:
424,275,29307,1,10,1:0:0:0:
370,199,29469,2,0,P|323:186|276:174,1,82.4999947547913,14|8,1:0|1:0,2:0:0:0:
281,165,29713,1,8,1:0:0:0:
272,153,29794,2,0,P|229:160|188:183,1,82.4999947547913,14|2,1:0|2:1,2:0:0:0:
89,155,30118,6,0,P|106:214|113:253,1,82.4999947547913,14|0,1:0|2:0,2:0:0:0:
91,332,30442,2,0,P|143:315|188:311,1,82.4999947547913,10|2,1:0|1:0,2:0:0:0:
241,364,30767,1,12,1:0:0:0:
241,364,30929,1,0,2:0:0:0:
309,297,31091,1,12,1:0:0:0:
390,352,31253,1,8,1:0:0:0:
466,300,31415,6,0,P|498:253|485:137,1,164.999989509583,10|8,1:0|1:0,2:0:0:0:
416,195,31902,1,2,1:0:0:0:
358,130,32064,2,0,P|292:142|253:149,1,82.4999947547913,8|2,1:0|2:0,2:0:0:0:
264,158,32307,1,2,1:2:0:0:
254,174,32388,2,0,P|266:226|267:244,3,41.2499973773957,8|0|0|0,1:0|1:0|1:0|1:0,2:0:0:0:
300,245,32713,6,0,P|291:298|289:343,1,82.4999947547913,4|2,1:0|2:0,2:0:0:0:
194,288,33037,2,0,P|201:338|214:382,1,82.4999947547913,2|2,1:0|2:1,2:0:0:0:
110,343,33361,1,2,2:1:0:0:
140,173,33685,1,14,1:0:0:0:
0,0,34010,6,0,P|80:13|168:32,1,149.999990463257,4|10,3:2|2:0,2:0:0:0:
291,133,34658,2,0,P|211:146|123:165,1,149.999990463257,2|10,3:2|2:0,2:0:0:0:
0,284,35307,2,0,P|80:297|168:316,1,149.999990463257,0|8,3:0|2:0,2:0:0:0:
334,384,35956,2,0,P|326:349|327:301,1,74.9999952316285,0|0,3:0|3:0,2:0:0:0:
374,233,36280,1,10,2:0:0:0:
258,0,36604,6,0,P|200:8|198:110,1,149.999990463257,2|8,3:2|2:0,2:0:0:0:
31,122,37253,2,0,P|39:180|141:182,1,149.999990463257,2|8,3:2|2:0,2:0:0:0:
164,354,37902,2,0,P|222:346|224:244,1,149.999990463257,2|8,3:2|2:0,2:0:0:0:
389,169,38550,6,0,P|400:103|399:90,1,74.9999952316285,0|0,3:0|3:0,2:0:0:0:
362,18,38875,1,10,2:0:0:0:
242,266,39199,6,0,B|323:266|296:320|378:320,1,149.999990463257,4|8,3:2|2:0,2:0:0:0:
241,151,39848,2,0,B|159:151|186:205|104:205,1,149.999990463257,0|10,3:2|2:0,2:0:0:0:
239,22,40496,2,0,B|320:22|293:76|375:76,1,149.999990463257,0|10,3:2|2:0,2:0:0:0:
468,227,41145,6,0,P|499:205|512:152,2,74.9999952316285,0|2|10,3:2|3:2|2:0,2:0:0:0:
366,384,41794,6,0,P|297:318|242:331,1,149.999990463257,2|8,3:2|2:0,2:0:0:0:
84,271,42442,2,0,P|156:271|199:212,1,149.999990463257,0|10,3:0|2:0,2:0:0:0:
185,101,43091,2,0,P|257:100|300:159,1,149.999990463257,0|10,3:2|2:0,2:0:0:0:
395,384,43740,2,0,L|465:359,1,74.9999952316285,2|0,3:2|3:0,2:0:0:0:
512,288,44064,1,10,2:0:0:0:
437,113,44388,6,0,L|426:18,2,74.9999952316285,6|2|10,3:2|2:3|2:0,2:0:0:0:
399,199,44875,1,2,2:3:0:0:
318,150,45037,1,2,3:0:0:0:
318,150,45199,2,0,P|269:165|246:187,1,74.9999952316285,2|8,2:0|2:0,2:0:0:0:
173,108,45523,2,0,P|149:157|155:203,1,74.9999952316285,2|0,2:3|3:0,2:3:0:0:
44,157,45848,2,0,P|57:208|63:245,1,74.9999952316285,2|10,2:3|2:0,2:0:0:0:
44,337,46172,2,0,P|87:318|125:311,1,74.9999952316285,2|0,2:3|3:0,2:0:0:0:
184,384,46496,1,2,3:0:0:0:
184,384,46658,1,10,2:0:0:0:
279,344,46821,1,2,2:3:0:0:
279,344,46983,6,0,L|256:163,1,149.999990463257,4|8,3:2|2:0,2:0:0:0:
228,111,47469,1,2,2:3:0:0:
314,84,47631,1,0,3:2:0:0:
314,84,47794,2,0,P|363:92|397:127,1,74.9999952316285,2|10,2:3|2:0,2:0:0:0:
467,56,48118,2,0,P|474:105|451:148,1,74.9999952316285,2|0,2:3|3:2,2:0:0:0:
512,210,48442,2,0,P|467:232|419:223,1,74.9999952316285,2|10,2:3|2:0,2:0:0:0:
385,300,48767,2,0,P|350:264|343:216,1,74.9999952316285,2|0,2:3|3:0,2:0:0:0:
267,185,49091,1,2,3:0:0:0:
267,185,49253,1,10,2:0:0:0:
205,254,49415,1,2,2:3:0:0:
205,254,49577,6,0,P|117:268|50:308,1,149.999990463257,6|8,3:2|2:0,2:0:0:0:
0,118,50226,2,0,P|66:151|140:160,1,149.999990463257,0|10,3:2|2:0,2:0:0:0:
244,10,50875,2,0,P|156:24|89:64,1,149.999990463257,0|10,3:2|2:0,2:0:0:0:
290,128,51523,2,0,P|353:141|375:150,1,74.9999952316285,0|2,3:0|3:0,2:0:0:0:
419,70,51848,1,10,2:0:0:0:
419,70,52010,2,0,P|471:65|504:106,1,74.9999952316285,2|0,2:3|3:2,2:0:0:0:
490,165,52334,2,0,P|500:201|503:242,1,74.9999952316285,0|8,2:0|2:0,2:0:0:0:
451,317,52658,1,2,2:3:0:0:
451,317,52821,6,0,L|287:302,1,149.999990463257,0|8,3:0|2:0,2:0:0:0:
195,218,53469,2,0,L|31:203,1,149.999990463257,0|10,3:0|2:0,2:0:0:0:
130,74,54118,2,0,L|204:81,1,74.9999952316285,0|8,3:0|2:0,2:0:0:0:
214,87,54361,1,8,2:0:0:0:
223,95,54442,1,8,2:0:0:0:
288,17,54604,1,10,2:0:0:0:
376,69,54767,6,0,L|471:80,2,74.9999952316285,6|2|10,3:2|2:3|2:0,2:0:0:0:
309,137,55253,1,2,2:3:0:0:
392,193,55415,1,2,3:2:0:0:
392,193,55577,2,0,L|404:294,1,74.9999952316285,2|10,2:3|2:0,2:0:0:0:
396,357,55902,2,0,L|321:365,1,74.9999952316285,2|0,2:3|3:0,2:0:0:0:
254,291,56226,2,0,L|245:216,1,74.9999952316285,2|8,2:3|2:0,2:0:0:0:
276,134,56550,2,0,L|267:59,1,74.9999952316285,2|0,2:3|3:2,2:0:0:0:
185,30,56875,1,2,3:0:0:0:
185,30,57037,1,8,2:0:0:0:
135,107,57199,1,2,2:3:0:0:
135,107,57361,6,0,P|109:171|109:263,1,149.999990463257,2|10,3:2|2:0,2:0:0:0:
58,332,57848,1,2,2:3:0:0:
144,359,58010,1,2,3:2:0:0:
144,359,58172,2,0,P|193:351|227:316,1,74.9999952316285,2|8,2:3|2:0,2:0:0:0:
294,376,58496,2,0,P|301:326|278:283,1,74.9999952316285,2|0,2:3|3:0,2:0:0:0:
356,239,58821,2,0,P|311:216|263:225,1,74.9999952316285,2|10,2:3|2:0,2:0:0:0:
244,138,59145,2,0,P|209:173|202:221,1,74.9999952316285,2|2,2:3|3:2,2:0:0:0:
151,268,59469,1,2,3:0:0:0:
151,268,59631,1,10,2:0:0:0:
110,186,59794,1,2,2:3:0:0:
110,186,59956,6,0,P|140:108|197:52,1,149.999990463257,2|8,3:2|2:0,2:0:0:0:
200,196,60604,2,0,P|226:267|275:322,1,149.999990463257,2|8,3:2|2:0,2:0:0:0:
292,186,61253,2,0,P|322:108|379:52,1,149.999990463257,2|10,3:2|2:0,2:0:0:0:
383,197,61902,2,0,P|413:275|426:290,1,74.9999952316285,0|2,3:0|3:0,2:0:0:0:
464,340,62226,1,10,2:0:0:0:
379,361,62388,1,2,2:3:0:0:
379,361,62550,6,0,L|217:383,1,149.999990463257,2|8,3:2|2:0,2:0:0:0:
234,288,63037,1,2,2:0:0:0:
130,259,63199,1,0,3:2:0:0:
130,259,63361,2,0,L|34:269,1,74.9999952316285,2|10,2:3|2:0,2:0:0:0:
6,178,63685,1,2,2:3:0:0:
6,178,63848,6,0,L|170:163,1,149.999990463257,2|10,3:2|2:0,2:0:0:0:
308,272,64496,1,0,3:0:0:0:
308,272,64658,1,0,3:0:0:0:
252,201,64821,2,0,L|246:108,1,74.9999952316285,10|0,2:0|2:0,2:0:0:0:
223,42,65145,6,0,P|167:52|136:67,2,74.9999952316285,6|0|8,3:2|2:0|2:0,2:0:0:0:
311,0,65631,1,2,2:0:0:0:
311,0,65794,2,0,P|352:17|393:21,1,74.9999952316285,2|2,2:0|2:0,2:0:0:0:
455,83,66118,1,8,2:0:0:0:
455,83,66280,2,0,P|463:135|471:236,1,149.999990463257,2|2,2:0|2:0,2:0:0:0:
356,307,66767,1,8,2:0:0:0:
356,307,66929,2,0,P|367:256|377:145,1,149.999990463257,2|2,2:0|2:0,2:0:0:0:
312,89,67415,1,8,2:0:0:0:
312,89,67577,2,0,P|267:13|196:18,1,149.999990463257,2|0,2:0|2:0,2:0:0:0:
140,68,68064,2,0,P|72:86|47:87,1,74.9999952316285,8|2,2:0|2:0,2:0:0:0:
10,165,68388,1,2,2:0:0:0:
10,165,68550,2,0,P|22:217|34:243,1,74.9999952316285,2|8,2:0|2:0,2:0:0:0:
98,302,68875,6,0,P|184:272|268:265,1,149.999990463257,0|2,2:0|2:0,2:0:0:0:
316,199,69361,1,10,2:0:0:0:
316,199,69524,2,0,P|390:211|454:250,1,149.999990463257,2|2,2:0|2:0,2:0:0:0:
512,172,70010,2,0,P|508:122|500:82,1,74.9999952316285,8|2,2:0|2:0,2:0:0:0:
442,25,70334,6,0,P|399:34|274:50,1,149.999990463257,2|8,2:0|2:0,2:0:0:0:
265,137,70821,1,2,2:0:0:0:
265,137,70983,2,0,P|221:120|174:117,1,74.9999952316285,2|2,2:0|2:0,2:0:0:0:
116,60,71307,1,8,2:0:0:0:
116,60,71469,2,0,P|71:77|82:183,1,149.999990463257,2|0,2:0|2:0,2:0:0:0:
21,243,71956,2,0,P|39:290|41:326,1,74.9999952316285,10|0,2:0|2:0,2:0:0:0:
132,272,72280,1,2,2:0:0:0:
132,272,72442,1,2,2:0:0:0:
176,354,72604,2,0,P|222:358|258:369,1,74.9999952316285,8|2,2:0|2:0,2:0:0:0:
341,354,72929,6,0,L|344:286,24,37.4999976158143,0|0|2|0|8|0|2|0|2|0|0|0|10|0|2|0|0|0|0|0|8|0|0|0|0,2:0|2:0|2:0|2:0|2:0|2:0|2:0|2:0|2:0|2:0|2:0|2:0|2:0|2:0|2:0|2:0|3:2|3:2|3:2|3:2|3:2|3:2|3:2|3:2|3:2,2:0:0:0:
393,244,75037,1,8,2:0:0:0:
393,244,75118,1,8,2:0:0:0:
393,244,75199,1,8,2:0:0:0:
333,142,75361,1,10,2:0:0:0:
401,60,75523,5,6,2:0:0:0:
23,384,80713,6,0,L|21:350,3,33.7499978542329,8|8|8|8,1:3|3:0|2:3|2:3,2:0:0:0:
39,319,81037,2,0,L|72:317,3,33.7499978542329,8|8|8|8,3:0|3:0|2:3|2:3,2:0:0:0:
104,292,81361,2,0,L|102:258,3,33.7499978542329,8|8|8|8,3:0|3:0|2:3|2:3,2:0:0:0:
120,227,81685,2,0,L|153:225,3,33.7499978542329,8|8|8|8,3:0|3:0|2:3|2:3,2:0:0:0:
178,192,82010,6,0,L|176:158,3,33.7499978542329,8|8|8|8,3:0|3:0|2:3|2:3,2:0:0:0:
194,127,82334,2,0,L|227:125,3,33.7499978542329,8|8|8|8,3:0|3:0|2:3|2:3,2:0:0:0:
259,100,82658,2,0,L|257:66,3,33.7499978542329,8|8|8|8,3:0|3:0|2:3|2:3,2:0:0:0:
275,35,82983,2,0,L|308:33,3,33.7499978542329,8|8|8|8,3:0|3:0|3:0|2:3,2:0:0:0:
341,34,83307,6,0,L|342:67,3,33.7499978542329,8|8|8|8,3:0|3:0|2:3|2:3,2:0:0:0:
325,99,83631,2,0,L|291:100,3,33.7499978542329,8|8|8|8,3:0|3:0|2:3|2:3,2:0:0:0:
260,126,83956,2,0,L|261:159,3,33.7499978542329,8|8|8|8,3:0|3:0|2:3|2:3,2:0:0:0:
244,191,84280,2,0,L|210:192,3,33.7499978542329,8|8|8|8,3:0|3:0|2:3|2:3,2:0:0:0:
186,226,84604,6,0,L|187:259,3,33.7499978542329,8|8|8|8,3:0|3:0|2:3|2:3,2:0:0:0:
170,291,84929,2,0,L|136:292,3,33.7499978542329,8|8|8|8,3:0|3:0|2:3|2:3,2:0:0:0:
105,318,85253,2,0,L|106:351,3,33.7499978542329,8|8|8|8,3:0|3:0|2:3|2:3,2:0:0:0:
129,384,85577,2,0,L|204:376,1,67.4999936485293,8|8,3:0|3:0,2:0:0:0:
292,350,85902,6,0,L|293:316,3,33.7499978542329,8|8|8|8,3:0|3:0|2:3|2:3,2:0:0:0:
276,285,86226,2,0,L|242:283,3,33.7499978542329,8|8|8|8,3:0|3:0|2:3|2:3,2:0:0:0:
211,258,86550,2,0,L|212:224,3,33.7499978542329,8|8|8|8,3:0|3:0|2:3|2:3,2:0:0:0:
195,193,86875,2,0,L|161:191,3,33.7499978542329,8|8|8|8,3:0|3:0|3:0|3:0,2:0:0:0:
137,158,87199,6,0,L|138:124,3,33.7499978542329,8|8|8|8,3:0|3:0|2:3|2:3,2:0:0:0:
121,93,87523,2,0,L|87:91,3,33.7499978542329,8|8|8|8,3:0|3:0|2:3|2:3,2:0:0:0:
56,66,87848,2,0,L|57:32,3,33.7499978542329,8|8|8|8,3:0|3:0|2:3|2:3,2:0:0:0:
40,1,88172,2,0,L|6:0,3,33.7499978542329,8|8|8|8,3:0|3:0|3:0|3:0,2:0:0:0:
1,27,88496,6,0,L|0:60,3,33.7499978542329,8|8|8|8,3:0|3:0|2:3|2:3,2:0:0:0:
17,92,88821,2,0,L|50:93,3,33.7499978542329,8|8|8|8,3:0|3:0|2:3|2:3,2:0:0:0:
82,119,89145,2,0,L|80:152,3,33.7499978542329,8|8|8|8,3:0|3:0|2:3|2:3,2:0:0:0:
98,184,89469,2,0,L|131:185,3,33.7499978542329,8|8|8|8,3:0|3:0|3:0|3:0,2:0:0:0:
156,219,89794,6,0,L|154:252,3,33.7499978542329,8|8|8|8,3:0|3:0|2:3|2:3,2:0:0:0:
172,284,90118,2,0,L|205:285,3,33.7499978542329,8|8|8|8,3:0|3:0|2:3|2:3,2:0:0:0:
237,311,90442,2,0,L|235:344,3,33.7499978542329,8|8|8|8,3:0|3:0|2:3|2:3,2:0:0:0:
253,376,90767,2,0,L|286:377,3,33.7499978542329,8|8|8|8,3:0|3:0|3:0|3:0,2:0:0:0:
329,342,91091,6,0,P|371:338|435:343,2,74.9999952316285,12|2|8,3:0|2:3|3:0,2:0:0:0:
276,262,91577,1,10,2:3:0:0:
339,202,91740,2,0,P|348:164|343:106,1,74.9999952316285,10|2,3:2|2:3,2:0:0:0:
344,118,91983,1,8,2:3:0:0:
339,109,92064,2,0,P|274:113|245:117,1,74.9999952316285,8|10,3:0|2:3,2:0:0:0:
214,42,92388,6,0,P|170:47|132:50,1,74.9999952316285,14|2,3:0|2:3,2:0:0:0:
45,34,92713,2,0,L|5:28,2,37.4999976158143,8|2|2,3:0|2:0|2:3,2:0:0:0:
76,121,93037,2,0,P|92:155|100:207,1,74.9999952316285,10|2,3:2|2:3,2:0:0:0:
89,206,93280,1,8,2:3:0:0:
83,219,93361,2,0,P|78:262|67:315,1,74.9999952316285,8|8,3:0|2:3,2:0:0:0:
134,365,93685,6,0,P|181:348|233:347,1,74.9999952316285,14|2,3:0|2:3,2:0:0:0:
295,366,94010,2,0,P|311:334|311:289,1,74.9999952316285,8|2,3:0|2:3,2:0:0:0:
259,221,94334,2,0,P|242:227|209:229,2,37.4999976158143,10|2|2,3:2|2:0|2:3,2:0:0:0:
311,148,94658,2,0,P|354:160|403:169,1,74.9999952316285,8|0,3:0|2:0,2:0:0:0:
438,98,94983,6,0,P|475:88|517:85,2,74.9999952316285,8|2|8,3:0|2:3|3:0,2:0:0:0:
384,12,95469,1,2,2:3:0:0:
308,56,95631,2,0,P|255:63|206:70,1,74.9999952316285,10|2,3:2|2:3,2:0:0:0:
227,81,95875,1,8,2:3:0:0:
219,94,95956,2,0,L|118:113,1,74.9999952316285,8|0,3:0|2:0,2:0:0:0:
31,101,96280,6,0,P|11:141|51:211,1,112.499992847443,8|8,3:0|2:3,2:0:0:0:
55,237,96604,2,0,L|108:245,2,37.4999976158143,8|2|2,3:0|2:0|2:3,2:0:0:0:
85,343,96929,2,0,P|133:325|179:318,1,74.9999952316285,10|2,3:2|2:3,2:0:0:0:
233,262,97253,2,0,P|277:272|325:276,1,74.9999952316285,8|0,3:0|2:0,2:0:0:0:
396,321,97577,6,0,P|401:346|404:376,2,37.4999976158143,8|2|2,3:0|2:0|2:3,2:0:0:0:
407,313,97821,1,8,2:3:0:0:
413,305,97902,2,0,P|419:268|408:211,1,74.9999952316285,8|2,3:0|2:3,2:0:0:0:
353,161,98226,2,0,P|311:154|273:93,1,112.499992847443,10|8,3:2|2:3,2:0:0:0:
258,80,98550,2,0,P|173:95|159:96,1,74.9999952316285,8|0,3:0|2:0,2:0:0:0:
79,74,98875,6,0,P|89:121|96:164,1,74.9999952316285,8|2,3:0|2:3,2:0:0:0:
67,240,99199,2,0,P|46:249|18:253,2,37.4999976158143,8|2|2,3:0|2:0|2:3,2:0:0:0:
128,309,99523,2,0,P|173:319|219:336,1,74.9999952316285,10|2,3:2|2:3,2:0:0:0:
213,342,99767,1,8,2:3:0:0:
224,355,99848,2,0,P|281:341|328:333,1,74.9999952316285,8|0,3:0|2:0,2:0:0:0:
370,266,100172,6,0,P|424:283|454:288,2,74.9999952316285,10|2|8,3:0|2:3|3:0,2:0:0:0:
318,181,100658,1,2,2:3:0:0:
393,123,100821,2,0,L|440:134,2,37.4999976158143,10|2|2,3:2|2:0|2:3,2:0:0:0:
301,72,101145,2,0,P|287:26|284:-18,1,74.9999952316285,8|8,3:0|2:3,2:0:0:0:
196,52,101469,6,0,P|181:126|117:188,2,149.999990463257,8|8|14,3:0|3:0|2:0,2:0:0:0:
318,181,102442,1,8,3:0:0:0:
249,326,102767,2,0,P|175:311|113:247,2,149.999990463257,8|8|8,3:0|3:0|3:2,2:0:0:0:
397,384,103740,1,8,3:0:0:0:
482,277,104064,6,0,P|494:199|515:123,1,149.999990463257,8|8,3:0|3:0,2:0:0:0:
388,184,104713,2,0,P|373:65|370:13,1,149.999990463257,8|8,3:2|3:0,2:0:0:0:
242,118,105361,2,0,P|254:196|275:272,1,149.999990463257,8|8,3:0|3:0,2:0:0:0:
148,211,106010,2,0,P|133:330|130:382,1,149.999990463257,14|8,2:0|3:0,2:0:0:0:
11,296,106658,6,0,L|-5:235,3,37.4999976158143,4|0|0|0,1:0|2:0|2:0|2:0,2:0:0:0:
15,225,106983,2,0,L|31:164,3,37.4999976158143,8|0|0|0,3:0|2:0|2:0|2:0,2:0:0:0:
61,164,107307,2,0,L|110:164,3,37.4999976158143,12|0|0|0,2:0|2:0|2:0|2:0,2:0:0:0:
129,135,107631,2,0,L|181:123,3,37.4999976158143,8|0|0|0,3:0|2:0|2:0|2:0,2:0:0:0:
213,108,107956,6,0,L|197:169,3,37.4999976158143,8|0|0|0,3:0|2:0|2:0|2:0,2:0:0:0:
217,179,108280,2,0,L|233:239,3,37.4999976158143,8|0|0|0,3:0|2:0|2:0|2:0,2:0:0:0:
263,240,108604,2,0,L|312:240,3,37.4999976158143,14|0|0|0,3:2|2:0|2:0|2:0,2:0:0:0:
331,269,108929,2,0,L|383:281,3,37.4999976158143,8|0|0|0,3:0|2:0|2:0|2:0,2:0:0:0:
406,304,109253,6,0,L|443:286,3,37.4999976158143,8|0|0|0,1:3|1:3|1:0|1:0,2:0:0:0:
453,207,109577,2,0,L|476:172,3,37.4999976158143,8|0|0|0,1:3|1:0|1:0|1:0,2:0:0:0:
411,123,109902,2,0,L|413:81,3,37.4999976158143,8|0|0|0,1:2|1:0|1:0|1:0,2:0:0:0:
350,33,110226,2,0,L|331:-3,3,37.4999976158143,8|0|0|0,1:0|1:0|1:0|1:0,1:0:0:0:
252,25,110550,6,0,L|217:1,3,37.4999976158143,8|0|0|0,1:0|1:0|1:0|1:0,2:0:0:0:
173,97,110875,1,8,1:0:0:0:
173,97,111037,2,0,L|77:75,2,74.9999952316285,0|10|2,1:0|1:0|2:0,2:0:0:0:
137,189,111523,2,0,L|85:249,1,74.9999952316285,8|8,1:0|1:0,2:0:0:0:
201,279,111848,5,4,1:0:0:0:
201,279,112010,2,0,L|365:254,2,149.999990463257,4|4|4,1:0|1:0|1:0,2:0:0:0:
268,156,112983,6,0,P|330:219|434:27,1,374.999976158142,6|2,1:2|2:0,2:0:0:0:
363,73,113956,2,0,L|345:-11,2,74.9999952316285,2|4|4,2:1|1:0|1:3,2:0:0:0:
267,50,114442,1,4,1:0:0:0:
267,50,114604,2,0,L|110:76,2,149.999990463257,4|4|4,1:0|1:0|1:0,2:0:0:0:
302,195,115577,6,0,P|431:165|443:367,1,374.999976158142,6|2,1:2|2:0,2:0:0:0:
381,318,116550,2,0,L|398:224,2,74.9999952316285,2|4|4,2:1|1:0|1:0,2:0:0:0:
318,384,117037,1,4,1:0:0:0:
318,384,117199,2,0,L|237:225,2,149.999990463257,4|4|4,1:0|1:0|1:0,2:0:0:0:
91,330,118172,6,0,P|93:202|299:183,1,374.999976158142,6|2,1:0|2:0,2:0:0:0:
377,127,119145,2,0,L|391:36,2,74.9999952316285,2|6|4,2:1|1:0|1:0,2:0:0:0:
446,206,119631,1,6,1:0:0:0:
446,206,119794,2,0,L|481:374,2,149.999990463257,4|4|4,1:0|1:0|1:0,2:0:0:0:
292,384,120767,6,0,P|264:291|11:324,1,374.999976158142,4|2,1:0|2:0,2:0:0:0:
53,203,121740,1,2,2:1:0:0:
53,203,121902,2,0,L|38:122,1,74.9999952316285,12|10,2:0|2:0,2:0:0:0:
88,49,122226,6,0,L|177:63,1,82.4999947547913,12|2,1:0|1:0,2:0:0:0:
231,130,122550,2,0,L|312:117,1,82.4999947547913,8|2,1:0|2:3,2:0:0:0:
318,108,122794,1,2,2:3:0:0:
326,99,122875,2,0,L|425:83,1,82.4999947547913,8|2,1:0|1:0,2:0:0:0:
484,149,123199,2,0,L|463:232,1,82.4999947547913,8|2,2:0|1:0,2:0:0:0:
397,278,123523,6,0,P|328:301|332:386,1,164.999989509583,8|8,1:0|1:0,2:0:0:0:
209,358,124010,1,2,2:3:0:0:
216,349,124091,1,2,2:3:0:0:
224,341,124172,2,0,P|216:278|202:227,1,82.4999947547913,8|2,1:0|1:0,2:0:0:0:
123,224,124496,2,0,P|107:170|104:133,1,82.4999947547913,8|8,1:3|1:3,2:0:0:0:
159,69,124821,5,8,1:0:0:0:
159,69,124983,2,0,P|227:57|269:56,1,82.4999947547913,2|8,1:0|1:0,2:0:0:0:
335,53,125307,2,0,L|348:2,2,41.2499973773957,2|0|8,1:0|2:0|1:0,2:0:0:0:
309,141,125631,1,2,1:0:0:0:
380,203,125794,2,0,P|366:266|358:303,1,82.4999947547913,8|2,1:0|1:0,2:0:0:0:
337,368,126118,6,0,P|268:355|226:346,2,82.4999947547913,10|0|2,1:0|2:0|1:0,2:0:0:0:
435,357,126604,1,0,1:0:0:0:
451,348,126685,1,0,1:0:0:0:
465,340,126767,2,0,P|486:294|490:250,1,82.4999947547913,8|0,1:0|1:0,2:0:0:0:
436,186,127091,1,8,1:3:0:0:
436,186,127253,1,8,1:3:0:0:
504,121,127415,5,8,1:0:0:0:
504,121,127577,2,0,P|514:73|508:24,1,82.4999947547913,2|8,1:0|1:0,2:0:0:0:
417,40,127902,2,0,L|408:-5,2,41.2499973773957,0|0|8,1:0|1:0|1:0,2:0:0:0:
353,112,128226,1,2,1:0:0:0:
275,58,128388,2,0,P|207:70|162:76,1,82.4999947547913,8|0,1:0|2:0,2:0:0:0:
100,92,128713,6,0,P|114:158|115:185,1,82.4999947547913,10|0,1:0|2:0,2:0:0:0:
209,200,129037,2,0,P|195:245|194:291,1,82.4999947547913,10|0,1:0|1:0,2:0:0:0:
201,295,129280,1,0,1:0:0:0:
214,309,129361,2,0,P|270:297|311:317,1,82.4999947547913,8|0,1:0|1:0,2:0:0:0:
381,332,129685,2,0,L|389:373,3,41.2499973773957,8|8|8|8,1:3|1:3|1:3|1:3,2:0:0:0:
411,286,130010,5,4,1:0:0:0:
0,3,130658,1,4,1:0:0:0:
411,129,131307,6,0,L|492:116,2,82.4999947547913,4|4|4,1:0|1:0|1:0,2:0:0:0:
347,203,131794,1,4,1:0:0:0:
283,134,131956,2,0,L|140:109,1,123.749992132187,12|0,2:0|1:0,2:0:0:0:
135,111,132280,2,0,L|165:245,1,123.749992132187,14|0,2:0|2:0,2:0:0:0:
189,260,132604,6,0,B|178:309|178:309|222:335,1,89.9999942779542,12|0,1:0|2:0,2:0:0:0:
307,384,132929,2,0,B|414:353|414:353|423:305,1,134.999991416931,10|0,1:0|2:0,2:0:0:0:
447,318,133253,2,0,L|464:204,1,89.9999942779542,14|0,1:0|2:0,2:0:0:0:
354,238,133577,2,0,L|338:129,1,89.9999942779542,8|0,1:0|2:0,2:0:0:0:
356,131,133821,1,2,2:0:0:0:
370,121,133902,6,0,B|380:95|380:95|474:83,1,89.9999942779542,8|0,1:0|2:0,2:0:0:0:
317,15,134226,2,0,B|307:41|307:41|213:53,1,89.9999942779542,8|2,1:0|2:1,2:0:0:0:
202,142,134550,2,0,B|188:126|188:126|46:98,1,134.999991416931,14|0,1:0|2:0,2:0:0:0:
46,130,134875,2,0,L|66:230,1,89.9999942779542,8|0,1:0|2:0,2:0:0:0:
93,309,135199,5,12,1:0:0:0:
93,309,135361,1,0,2:0:0:0:
161,253,135523,2,0,B|168:240|168:240|303:208,1,134.999991416931,8|0,1:0|2:0,2:0:0:0:
308,224,135848,2,0,B|317:248|317:248|401:285,1,89.9999942779542,12|0,1:0|2:0,2:0:0:0:
450,217,136172,2,0,B|493:201|493:201|496:150,2,89.9999942779542,10|2|10,1:0|2:3|1:0,2:0:0:0:
380,140,136658,1,0,2:0:0:0:
417,47,136821,6,0,B|468:30|468:30|496:81,2,89.9999942779542,12|2|12,1:0|1:0|1:0,2:0:0:0:
239,8,137469,2,0,L|195:19,3,44.9999971389771,8|8|8|8,1:0|1:0|1:0|1:0,2:0:0:0:
168,43,137794,6,0,B|161:56|161:56|206:165,1,89.9999942779542,8|0,1:0|2:0,2:0:0:0:
275,186,138118,2,0,B|299:207|299:207|275:331,1,134.999991416931,10|0,1:0|2:0,2:0:0:0:
269,331,138442,2,0,L|169:357,1,89.9999942779542,12|0,1:0|2:0,2:0:0:0:
93,384,138767,1,8,1:0:0:0:
93,384,138929,1,2,1:0:0:0:
17,309,139091,6,0,B|-12:198|-12:198|21:163,1,134.999991416931,8|0,1:0|2:0,2:0:0:0:
22,157,139415,2,0,L|126:172,1,89.9999942779542,10|2,1:0|1:0,2:0:0:0:
213,192,139740,2,0,L|187:91,1,89.9999942779542,12|0,1:0|2:0,2:0:0:0:
295,130,140064,2,0,L|311:40,1,89.9999942779542,10|0,1:0|2:0,2:0:0:0:
402,104,140388,6,0,B|514:61|514:61|494:94,1,134.999991416931,12|8,1:0|1:0,2:0:0:0:
504,91,140713,2,0,L|479:182,1,89.9999942779542,8|0,1:0|1:0,2:0:0:0:
438,295,141037,6,0,B|432:273|432:273|296:229,1,134.999991416931,8|0,1:0|1:0,2:0:0:0:
310,221,141361,2,0,L|202:245,1,89.9999942779542,8|0,1:0|1:0,2:0:0:0:
136,311,141685,6,0,B|111:295|111:295|140:163,1,134.999991416931,8|2,1:0|2:3,2:0:0:0:
147,189,142010,2,0,L|128:69,1,89.9999942779542,8|2,1:0|2:3,2:0:0:0:
87,0,142334,6,0,L|239:20,1,134.999991416931,8|2,1:0|2:3,2:0:0:0:
250,50,142658,2,0,L|282:44,8,22.4999985694886,8|8|8|8|8|8|8|8|0,1:0|1:0|1:0|1:0|1:0|1:0|1:0|1:0|2:0,2:0:0:0:
256,192,157253,5,12,1:0:0:0:
256,192,159848,5,4,1:0:0:0:
256,192,162442,5,4,1:0:0:0:
256,192,165037,5,4,1:0:0:0:
256,192,166334,5,4,1:0:0:0:
256,192,166983,5,12,1:0:0:0:
267,84,167226,1,8,1:0:0:0:
275,77,167307,1,10,1:0:0:0:
357,121,167469,1,10,1:0:0:0:
436,62,167631,6,0,P|473:97|491:199,1,149.999990463257,12|0,1:0|1:0,2:0:0:0:
446,304,168280,2,0,P|411:341|309:359,1,149.999990463257,2|0,1:0|1:0,2:0:0:0:
208,303,168929,2,0,P|171:268|153:166,1,149.999990463257,2|0,1:0|1:0,2:0:0:0:
198,61,169578,2,0,P|233:24|335:6,1,149.999990463257,2|2,1:0|1:0,2:0:0:0:
418,4,170064,1,2,1:0:0:0:
481,62,170226,6,0,P|472:145|428:200,1,149.999990463257,12|0,1:0|1:0,2:0:0:0:
336,297,170875,2,0,P|327:214|283:159,1,149.999990463257,2|0,1:0|1:0,2:0:0:0:
197,45,171523,2,0,P|188:128|144:183,1,149.999990463257,2|0,1:0|1:0,2:0:0:0:
52,280,172172,2,0,P|43:197|-1:142,1,149.999990463257,2|8,1:0|2:0,2:0:0:0:
18,57,172658,1,0,1:0:0:0:
102,82,172821,6,0,P|183:46|273:40,1,149.999990463257,12|0,1:0|1:0,2:0:0:0:
351,0,173469,2,0,P|387:81|393:171,1,149.999990463257,2|0,1:0|1:0,2:0:0:0:
477,202,174118,2,0,P|396:238|306:244,1,149.999990463257,12|0,1:0|1:0,2:0:0:0:
228,284,174766,2,0,P|192:203|186:113,1,149.999990463257,2|2,1:0|1:0,2:0:0:0:
239,61,175415,6,0,L|139:47,1,74.9999952316285,12|0,1:0|1:0,2:0:0:0:
185,143,175740,2,0,L|85:129,1,74.9999952316285,0|0,1:0|1:0,2:0:0:0:
65,215,176064,6,0,L|139:225,1,74.9999952316285,12|0,1:0|1:0,2:0:0:0:
12,297,176388,2,0,L|86:307,1,74.9999952316285,0|0,1:0|1:0,2:0:0:0:
153,377,176713,5,2,1:0:0:0:
295,290,177037,1,2,1:0:0:0:
463,384,177361,1,2,1:0:0:0:
505,209,177685,2,0,L|517:146,3,37.4999976158143,10|10|10|10,1:0|1:0|1:0|1:0,2:0:0:0:
508,129,178010,6,0,P|442:119|399:110,1,89.9999942779542,12|0,1:0|2:0,2:0:0:0:
355,43,178334,2,0,P|283:62|236:71,1,89.9999942779542,10|2,1:0|2:0,2:0:0:0:
191,15,178658,1,10,1:0:0:0:
191,15,178821,1,2,1:2:0:0:
127,76,178983,1,8,1:0:0:0:
170,151,179145,2,0,P|157:205|149:269,1,89.9999942779542,2|8,1:0|1:0,2:0:0:0:
121,321,179469,2,0,P|56:338|0:348,2,89.9999942779542,2|10|2,1:0|2:0|1:0,2:0:0:0:
194,381,179956,6,0,P|262:355|333:341,1,134.999991416931,10|0,1:0|2:0,2:0:0:0:
342,356,180280,1,10,1:0:0:0:
428,319,180442,1,2,1:0:0:0:
356,255,180604,2,0,P|364:178|378:133,1,89.9999942779542,10|2,1:0|2:0,2:0:0:0:
466,156,180929,1,10,1:0:0:0:
512,80,181091,1,2,1:0:0:0:
456,12,181253,5,8,1:0:0:0:
456,12,181415,1,2,1:0:0:0:
405,88,181577,1,10,1:0:0:0:
333,25,181740,2,0,P|267:32|220:37,1,89.9999942779542,2|4,2:3|1:0,2:0:0:0:
194,111,182064,1,0,2:0:0:0:
126,55,182226,2,0,P|69:60|47:179,1,179.999988555908,8|10,1:0|1:0,2:0:0:0:
113,208,182713,1,0,1:0:0:0:
63,277,182875,2,0,L|69:330,3,44.9999971389771,8|8|8|8,1:0|1:0|1:0|1:0,2:0:0:0:
89,362,183199,6,0,L|192:341,1,89.9999942779542,14|0,1:0|2:0,2:0:0:0:
247,282,183523,2,0,L|346:300,1,89.9999942779542,10|2,1:0|1:0,2:0:0:0:
400,369,183848,2,0,P|468:356|486:275,1,134.999991416931,10|2,1:0|2:0,2:0:0:0:
464,280,184172,1,10,1:0:0:0:
507,201,184334,2,0,P|496:134|487:96,1,89.9999942779542,2|14,1:0|1:0,2:0:0:0:
398,142,184658,1,0,2:0:0:0:
332,78,184821,2,0,P|261:90|190:96,1,134.999991416931,8|0,1:0|2:0,2:0:0:0:
169,111,185145,2,0,P|184:160|187:223,1,89.9999942779542,6|0,1:0|2:0,2:0:0:0:
270,284,185469,1,10,1:0:0:0:
270,284,185631,1,2,1:0:0:0:
186,344,185794,5,6,1:0:0:0:
108,278,185956,1,2,1:0:0:0:
30,331,186118,2,0,P|-4:279|2:240,2,89.9999942779542,10|2|10,1:0|1:0|1:0,2:0:0:0:
106,384,186604,1,2,1:0:0:0:
106,384,186767,1,10,1:0:0:0:
191,343,186929,6,0,P|274:360|327:364,1,134.999991416931,2|0,1:0|2:0,2:0:0:0:
346,341,187253,1,2,2:0:0:0:
297,255,187415,2,0,L|247:263,3,44.9999971389771,8|8|8|8,1:0|1:0|1:0|1:0,2:0:0:0:
327,229,187740,1,10,1:0:0:0:
311,136,187902,1,2,1:0:0:0:
389,73,188064,1,14,1:0:0:0:
389,73,188226,1,0,1:0:0:0:
310,9,188388,6,0,L|195:39,1,89.9999942779542,12|2,1:0|2:3,2:0:0:0:
131,0,188713,2,0,P|129:80|124:159,1,134.999991416931,10|0,1:0|2:0,2:0:0:0:
87,157,189037,2,0,P|104:213|109:251,1,89.9999942779542,10|2,1:0|2:3,2:0:0:0:
58,315,189361,1,8,1:0:0:0:
133,379,189523,2,0,P|199:362|254:357,1,89.9999942779542,2|8,1:0|1:0,2:0:0:0:
294,296,189848,1,2,1:0:0:0:
225,231,190010,2,0,P|234:177|240:112,1,89.9999942779542,10|2,1:0|1:0,2:0:0:0:
332,147,190334,2,0,P|384:141|379:49,1,134.999991416931,10|0,1:0|2:0,2:0:0:0:
386,51,190658,1,10,1:0:0:0:
475,17,190821,1,2,1:0:0:0:
507,110,190983,5,10,1:0:0:0:
507,110,191145,1,2,1:0:0:0:
426,179,191307,1,8,1:0:0:0:
426,179,191469,1,2,1:0:0:0:
487,248,191631,2,0,P|475:301|467:346,1,89.9999942779542,10|0,1:0|2:0,2:0:0:0:
371,290,191956,1,8,1:0:0:0:
321,379,192118,2,0,P|254:361|201:350,1,89.9999942779542,2|8,1:0|1:0,2:0:0:0:
150,330,192442,1,2,2:0:0:0:
192,250,192604,2,0,P|181:176|173:131,1,89.9999942779542,10|0,1:0|1:0,2:0:0:0:
279,193,192929,6,0,P|284:131|294:89,1,89.9999942779542,6|0,1:0|2:0,2:0:0:0:
352,39,193253,1,8,1:0:0:0:
414,119,193415,1,8,1:0:0:0:
429,129,193496,1,8,1:0:0:0:
445,131,193577,6,0,P|504:98|500:18,1,134.999991416931,10|2,1:0|2:0,2:0:0:0:
497,22,193902,2,0,P|440:34|392:31,1,89.9999942779542,10|10,1:0|1:0,2:0:0:0:
316,8,194226,1,12,1:0:0:0:
224,39,194388,1,8,1:0:0:0:
209,50,194469,1,8,1:0:0:0:
196,57,194550,2,0,P|133:72|66:88,2,89.9999942779542,10|2|10,1:0|2:1|1:0,2:0:0:0:
193,147,195037,1,0,2:0:0:0:
216,233,195199,6,0,P|258:217|301:203,1,89.9999915313724,10|2,1:0|2:0,2:0:0:0:
386,172,195523,2,0,P|427:153|471:146,1,89.9999942779542,10|0,1:0|2:0,2:0:0:0:
507,251,195848,1,10,1:0:0:0:
507,251,196010,1,8,1:0:0:0:
495,356,196172,1,14,1:0:0:0:
399,295,196334,1,2,1:0:0:0:
350,384,196496,1,8,1:0:0:0:
289,311,196658,6,0,P|234:302|128:281,1,134.999987297059,2|0,1:0|2:0,2:0:0:0:
132,309,196983,1,2,1:0:0:0:
34,249,197145,1,10,1:0:0:0:
95,177,197307,2,0,P|74:78|74:54,1,89.9999942779542,0|0,1:0|2:0,2:0:0:0:
52,5,197631,1,2,1:0:0:0:
150,7,197794,2,0,L|214:20,3,44.9999971389771,10|8|8|8,1:0|1:0|1:0|1:0,2:0:0:0:
229,62,198118,1,8,1:0:0:0:
321,27,198280,1,8,1:0:0:0:
397,97,198442,1,12,1:0:0:0:
397,97,198604,1,0,1:0:0:0:
317,179,198767,6,0,P|252:197|226:215,2,89.9999942779542,14|0|10,1:0|2:0|1:0,2:0:0:0:
382,253,199253,1,2,1:0:0:0:
466,204,199415,2,0,P|490:245|488:303,1,89.9999942779542,10|2,1:0|1:0,2:0:0:0:
492,315,199658,1,2,2:3:0:0:
479,336,199740,2,0,P|421:355|383:381,1,89.9999942779542,10|2,1:0|1:0,2:0:0:0:
295,346,200064,6,0,P|228:334|203:332,2,89.9999942779542,10|2|10,1:0|1:0|1:0,2:0:0:0:
343,266,200550,1,2,1:0:0:0:
267,211,200713,1,10,1:0:0:0:
392,20,201037,1,10,1:0:0:0:
392,20,201199,1,2,1:0:0:0:
326,84,201361,6,0,L|359:173,2,89.9999942779542,10|2|10,1:0|1:0|1:0,2:0:0:0:
253,30,201848,1,2,1:0:0:0:
203,101,202010,2,0,P|144:114|103:120,1,89.9999942779542,10|2,1:0|1:0,2:0:0:0:
100,108,202253,1,2,2:3:0:0:
74,95,202334,2,0,P|24:117|19:178,1,89.9999942779542,10|2,1:0|1:0,2:0:0:0:
58,229,202658,6,0,P|50:264|45:328,2,89.9999942779542,14|0|8,1:0|1:0|1:0,2:0:0:0:
147,273,203145,1,2,1:0:0:0:
206,205,203307,2,0,P|272:212|306:229,1,89.9999942779542,14|2,1:0|1:0,2:0:0:0:
370,292,203631,1,8,1:0:0:0:
442,240,203794,1,8,1:0:0:0:
457,234,203875,1,8,1:0:0:0:
476,229,203956,6,0,P|486:183|475:132,2,89.9999942779542,14|2|10,1:0|1:0|1:0,2:0:0:0:
510,313,204442,1,2,1:0:0:0:
444,378,204604,2,0,P|383:361|316:358,1,89.9999942779542,10|2,1:0|1:0,2:0:0:0:
347,342,204848,1,2,2:3:0:0:
334,322,204929,2,0,P|264:331|212:338,1,89.9999942779542,10|2,1:0|1:0,2:0:0:0:
154,294,205253,6,0,L|143:385,2,89.9999942779542,10|2|10,1:0|1:0|1:0,2:0:0:0:
64,264,205740,1,2,1:0:0:0:
103,178,205902,1,10,1:0:0:0:
2,0,206226,1,8,1:0:0:0:
2,0,206388,1,10,1:0:0:0:
88,38,206550,6,0,P|77:75|24:101,2,89.9999942779542,10|2|10,1:0|1:0|1:0,2:0:0:0:
172,88,207037,1,2,1:0:0:0:
236,13,207199,2,0,P|296:7|331:-2,1,89.9999942779542,10|2,1:0|1:0,2:0:0:0:
343,12,207442,1,2,2:3:0:0:
370,19,207523,2,0,P|371:63|354:128,1,89.9999942779542,8|2,1:0|1:0,2:0:0:0:
300,184,207848,6,0,P|258:199|202:218,1,89.9999942779542,10|2,1:0|1:0,2:0:0:0:
340,269,208172,2,0,P|382:254|438:235,2,89.9999942779542,10|10|10,1:0|1:0|1:0,1:0:0:0:
284,352,208658,1,2,1:0:0:0:
198,317,208821,1,14,1:0:0:0:
198,317,208983,1,6,1:0:0:0:
117,375,209145,6,0,P|36:341|5:339,2,89.9999942779542,10|2|10,1:0|1:0|1:0,2:0:0:0:
182,299,209631,1,2,1:0:0:0:
106,242,209794,2,0,P|90:183|82:119,1,89.9999942779542,10|2,1:0|1:0,2:0:0:0:
91,134,210037,1,2,2:3:0:0:
111,117,210118,2,0,P|177:97|229:84,1,89.9999942779542,8|2,1:0|1:0,2:0:0:0:
272,145,210442,6,0,P|273:202|278:243,2,89.9999942779542,14|2|10,1:0|1:0|1:0,2:0:0:0:
312,54,210929,1,2,1:0:0:0:
398,99,211091,1,14,1:0:0:0:
512,301,211415,1,14,1:0:0:0:
512,301,211577,1,2,1:0:0:0:
421,296,211740,6,0,P|428:351|439:390,2,89.9999942779542,14|2|10,1:0|1:0|1:0,2:0:0:0:
328,240,212226,1,2,1:0:0:0:
275,312,212388,2,0,P|208:319|154:325,1,89.9999942779542,14|2,1:0|1:0,2:0:0:0:
176,333,212631,1,2,2:3:0:0:
164,350,212713,2,0,P|88:335|40:335,1,89.9999942779542,10|2,1:0|1:0,2:0:0:0:
41,240,213037,6,0,P|11:190|8:152,1,89.9999942779542,10|2,1:0|1:0,2:0:0:0:
109,166,213361,2,0,P|113:118|148:83,1,89.9999942779542,10|2,1:0|1:0,2:0:0:0:
218,144,213685,2,0,P|272:118|309:115,2,89.9999942779542,14|0|8,1:0|2:0|1:0,2:0:0:0:
198,242,214172,1,8,1:0:0:0:
277,296,214334,6,0,P|259:373|254:407,2,89.9999942779542,14|0|10,1:0|2:0|1:0,2:0:0:0:
370,341,214821,1,2,1:0:0:0:
433,273,214983,2,0,P|421:189|416:157,1,89.9999942779542,10|10,1:0|1:0,2:0:0:0:
430,172,215226,1,10,1:0:0:0:
438,161,215307,2,0,P|433:115|426:72,1,89.9999942779542,10|2,1:0|1:0,2:0:0:0:
322,89,215631,6,0,P|332:22|337:-22,2,89.9999942779542,10|0|10,1:0|2:0|1:0,2:0:0:0:
273,170,216118,1,2,1:0:0:0:
191,123,216280,2,0,P|122:137|74:145,1,89.9999942779542,10|2,1:0|1:0,2:0:0:0:
26,212,216604,1,8,1:0:0:0:
26,212,216767,1,8,1:0:0:0:
94,271,216929,6,0,P|90:312|113:378,1,89.9999942779542,10|2,1:0|1:0,2:0:0:0:
197,377,217253,1,10,1:0:0:0:
247,295,217415,1,2,1:0:0:0:
329,352,217577,2,0,P|384:338|426:332,1,89.9999942779542,10|2,1:0|2:3,2:0:0:0:
427,320,217821,1,2,2:3:0:0:
441,301,217902,2,0,L|427:256,3,44.9999971389771,10|8|8|8,1:0|1:0|1:0|1:0,2:0:0:0:
452,236,218226,6,0,P|462:167|475:124,1,89.9999942779542,14|2,1:0|2:1,2:0:0:0:
345,200,218550,2,0,P|335:131|322:88,1,89.9999942779542,2|2,2:1|2:1,2:0:0:0:
221,239,218875,2,0,P|231:170|244:127,1,89.9999942779542,2|0,2:0|2:0,2:0:0:0:
186,67,219199,1,14,1:0:0:0:
0,277,219523,6,0,P|82:308|153:392,1,179.999988555908,4|8,1:0|1:0,2:0:0:0:
276,361,220172,2,0,P|307:279|391:208,1,179.999988555908,8|8,1:0|1:0,2:0:0:0:
461,116,220821,2,0,P|379:85|308:1,1,179.999988555908,10|10,1:0|1:0,2:0:0:0:
185,32,221469,2,0,P|154:114|70:185,1,179.999988555908,10|10,1:0|1:0,2:0:0:0:
0,277,222118,6,0,P|82:308|153:392,1,179.999988555908,10|10,1:0|1:0,2:0:0:0:
276,361,222767,2,0,P|307:279|391:208,1,179.999988555908,10|10,1:0|1:0,2:0:0:0:
461,116,223415,2,0,P|379:85|308:1,1,179.999988555908,10|10,1:0|1:0,2:0:0:0:
185,32,224064,2,0,P|154:114|70:185,1,179.999988555908,10|10,1:0|1:0,2:0:0:0:
152,314,224713,6,0,L|269:343,1,89.9999942779542,14|8,1:0|1:0,2:0:0:0:
332,384,225037,2,0,L|361:267,1,89.9999942779542,8|8,1:0|1:0,2:0:0:0:
426,215,225361,2,0,L|309:186,1,89.9999942779542,8|8,1:0|1:0,2:0:0:0:
246,145,225685,2,0,L|217:262,1,89.9999942779542,8|8,1:0|1:0,2:0:0:0:
152,314,226010,6,0,L|269:343,1,89.9999942779542,8|8,1:0|1:0,2:0:0:0:
332,384,226334,2,0,L|361:267,1,89.9999942779542,8|8,1:0|1:0,2:0:0:0:
426,215,226658,2,0,L|309:186,1,89.9999942779542,8|8,1:0|1:0,2:0:0:0:
246,145,226983,2,0,L|217:262,1,89.9999942779542,8|8,1:0|1:0,2:0:0:0:
143,160,227307,6,0,L|134:109,15,44.9999971389771,8|8|8|8|8|8|8|8|8|8|8|8|8|8|8|8,1:0|1:0|1:0|1:0|1:0|1:0|1:0|1:0|1:0|1:0|1:0|1:0|1:0|1:0|1:0|1:0,2:0:0:0:
156,86,228604,6,2,L|160:52,64,22.4999985694886,2|2|2|2|2|2|2|2|2|2|2|2|2|2|2|2|2|2|2|2|2|2|2|2|2|2|2|2|2|2|2|2|2|2|2|2|2|2|2|2|2|2|2|2|2|2|2|2|2|2|2|2|2|2|2|2|2|2|2|2|2|2|2|2|0,2:3|2:3|2:3|2:3|2:3|2:3|2:3|2:3|2:3|2:3|2:3|2:3|2:3|2:3|2:3|2:3|2:3|2:3|2:3|2:3|2:3|2:3|2:3|2:3|2:3|2:3|2:3|2:3|2:3|2:3|2:3|2:3|2:3|2:3|2:3|2:3|2:3|2:3|2:3|2:3|2:3|2:3|2:3|2:3|2:3|2:3|2:3|2:3|2:3|2:3|2:3|2:3|2:3|2:3|2:3|2:3|2:3|2:3|2:3|2:3|2:3|2:3|2:3|2:3|2:0,2:3:0:0:
