osu file format v14

[General]
AudioFilename: audio.ogg
AudioLeadIn: 0
PreviewTime:20915
Countdown: 0
SampleSet: Soft
StackLeniency: 0.5
Mode: 0
LetterboxInBreaks: 0
WidescreenStoryboard: 1
EpilepsyWarning: 1

[Editor]
Bookmarks: 34010,54767,80713,111848,143064,178010,198767
DistanceSpacing: 1
BeatDivisor: 8
GridSize: 32
TimelineZoom: 2.7

[Metadata]
Title:INTERNET YAMERO
TitleUnicode:INTERNET YAMERO
Artist:Aiobahn feat. KOTOKO
ArtistUnicode:Aiobahn feat. KOTOKO
Creator:Ducky-
Version:GOROU 'N DUCKY-'S EXTRA LIFE
Source:NEEDY GIRL OVERDOSE
Tags:big data iljaaz anxient gorou wanpachi tohru mitsuhashi 前田地生 まろん maron iosys eurobeat rawstyle speedcore extratone ame-chan amechan wss playground overdose synthpop arcaea にゃるら nyalra nyarura xemono maeda chisei as_chisei インターネットやめろ electronic japanese pop jpop j-pop female vocal vocalist ft. featuring videogame video game music vgm denpa hardstyle techno hardcore synthwave streamer overload ame kangel omgkawaiiangel angel p-chan pchan tenshi muse dash fa featured artist
BeatmapID:4353189
BeatmapSetID:2074198

[Difficulty]
HPDrainRate:5
CircleSize:3.8
OverallDifficulty:9
ApproachRate:9.3
SliderMultiplier:2.1
SliderTickRate:1

[Events]
//Background and Video events
0,0,"gorou.jpg",0,0
Video,-1880,"video.mp4"
//Break Periods
2,3075,4915
2,5709,7510
2,8304,10104
2,75723,80159
2,157777,159294
2,160372,161888
2,162966,164483
//Storyboard Layer 0 (Background)
//Storyboard Layer 1 (Fail)
//Storyboard Layer 2 (Pass)
//Storyboard Layer 3 (Foreground)
//Storyboard Layer 4 (Overlay)
//Storyboard Sound Samples

[TimingPoints]
-2314,324.324324324324,4,2,1,60,1,0
5469,-66.6666666666667,4,2,1,60,0,0
13253,-100,4,2,1,60,0,0
23631,-90.9090909090909,4,2,1,80,0,0
34010,-90.9090909090909,4,2,2,70,0,0
39199,-142.857142857143,4,2,2,70,0,0
41794,-100,4,2,2,70,0,0
44388,-125,4,2,2,70,0,0
80713,-125,4,2,1,80,0,0
86226,-62.5,4,2,1,80,0,0
88658,-83.3333333333333,4,2,1,80,0,0
101361,-62.5,4,2,1,80,0,0
101847,-62.5,4,2,1,80,0,0
102333,-62.5,4,2,1,80,0,0
102820,-62.5,4,2,1,80,0,0
103306,-62.5,4,2,1,80,0,0
103793,-62.5,4,2,1,80,0,0
104036,-62.5,4,2,1,5,0,0
104064,-125,4,2,1,80,0,0
104713,-83.3333333333333,4,2,1,80,0,0
105037,-125,4,2,1,80,0,0
106010,-83.3333333333333,4,2,1,80,0,0
106334,-125,4,2,1,80,0,0
106658,-66.6666666666667,4,2,1,80,0,0
107955,-66.6666666666667,4,2,1,80,0,0
108118,-125,4,2,1,80,0,0
108604,-83.3333333333333,4,2,1,80,0,0
108929,-125,4,2,1,80,0,0
122550,-83.3333333333333,4,2,1,80,0,0
132604,-83.3333333333333,4,2,1,90,0,0
132929,-500,4,2,1,90,0,0
133253,-50,4,2,1,90,0,0
134226,-500,4,2,1,90,0,0
134550,-50,4,2,1,90,0,0
135848,-100,4,2,1,90,0,0
136496,-50,4,2,1,90,0,0
138767,-100,4,2,1,90,0,0
142983,-200,4,2,1,90,0,0
155956,-266.666666666667,4,2,1,90,0,0
157253,-83.3333333333333,4,2,1,60,0,0
167631,-100,4,2,1,60,0,0
174118,-66.6666666666667,4,2,1,60,0,0
175415,-57.1428571428571,4,2,1,60,0,0
176064,-50,4,2,1,60,0,0
177685,-50,4,2,1,90,0,0
178010,-66.6666666666667,4,2,1,80,0,0
207848,-50,4,2,1,80,0,0
209145,-66.6666666666667,4,2,1,80,0,0
213361,-57.1428571428571,4,2,1,80,0,0
213685,-50,4,2,1,80,0,0
214010,-66.6666666666667,4,2,1,80,0,0
218226,-133.333333333333,4,2,1,80,0,0
219199,-50,4,2,1,80,0,0
219523,-57.1428571428571,4,2,1,90,0,0
224793,-57.1428571428571,4,2,1,5,0,0
224875,-57.1428571428571,4,2,1,90,0,0
224956,-57.1428571428571,4,2,1,5,0,0
225037,-57.1428571428571,4,2,1,90,0,0
225118,-57.1428571428571,4,2,1,5,0,0
225199,-57.1428571428571,4,2,1,90,0,0
225280,-57.1428571428571,4,2,1,5,0,0
225361,-57.1428571428571,4,2,1,90,0,0
225442,-57.1428571428571,4,2,1,5,0,0
225523,-57.1428571428571,4,2,1,90,0,0
225604,-57.1428571428571,4,2,1,5,0,0
225685,-57.1428571428571,4,2,1,90,0,0
225766,-57.1428571428571,4,2,1,5,0,0
225848,-57.1428571428571,4,2,1,90,0,0
225929,-57.1428571428571,4,2,1,5,0,0
226010,-57.1428571428571,4,2,1,90,0,0
226091,-57.1428571428571,4,2,1,5,0,0
226172,-57.1428571428571,4,2,1,90,0,0
226253,-57.1428571428571,4,2,1,5,0,0
226334,-57.1428571428571,4,2,1,90,0,0
226415,-57.1428571428571,4,2,1,5,0,0
226496,-57.1428571428571,4,2,1,90,0,0
226577,-57.1428571428571,4,2,1,5,0,0
226658,-57.1428571428571,4,2,1,90,0,0
226739,-57.1428571428571,4,2,1,5,0,0
226821,-57.1428571428571,4,2,1,90,0,0
226902,-57.1428571428571,4,2,1,5,0,0
226983,-57.1428571428571,4,2,1,90,0,0
227064,-57.1428571428571,4,2,1,5,0,0
227145,-57.1428571428571,4,2,1,90,0,0
227226,-57.1428571428571,4,2,1,5,0,0
227307,-57.1428571428571,4,2,1,90,0,0
227469,-66.6666666666667,4,2,1,90,0,0
228604,-40,4,2,1,90,0,0

[Colours]
Combo1 : 250,120,175
Combo2 : 147,200,253

[HitObjects]
217,308,280,6,0,P|183:270|170:197,1,105,2|0,1:0|2:0,2:0:0:0:
295,76,604,2,0,P|328:113|341:186,1,105,2|0,1:0|2:0,2:0:0:0:
256,192,929,5,2,1:0:0:0:
260,175,1091,1,2,1:0:0:0:
241,199,1253,1,2,1:0:0:0:
269,205,1415,1,2,1:0:0:0:
93,138,1577,5,2,1:0:0:0:
427,250,1740,1,2,1:0:0:0:
427,250,2064,5,2,1:0:0:0:
93,138,2226,1,2,1:0:0:0:
285,98,2550,5,8,2:0:0:0:
322,264,2713,5,8,2:0:0:0:
160,213,2875,5,6,1:0:0:0:
160,213,5469,6,0,L|215:201,1,39.375,6|0,1:0|2:0,2:0:0:0:
285,98,8064,6,0,L|268:151,1,39.375,6|0,1:0|2:0,2:0:0:0:
322,264,10658,6,0,L|284:223,1,39.375,6|0,1:0|2:0,2:0:0:0:
160,213,11956,6,0,L|215:201,1,39.375,4|0,1:0|2:0,2:0:0:0:
285,98,12604,6,0,L|268:151,1,39.375,12|0,1:0|2:0,1:0:0:0:
322,264,12848,1,8,2:0:0:0:
322,264,12929,2,0,L|284:223,1,39.375,8|0,2:0|2:0,2:0:0:0:
160,213,13091,2,0,L|215:201,1,39.375,10|0,1:0|2:0,2:0:0:0:
28,45,13253,6,0,P|10:11|-18:-3,3,52.5,8|0|0|0,1:0|1:0|1:0|1:0,2:0:0:0:
113,78,13577,2,0,P|114:39|97:13,3,52.5,0|0|0|0,1:0|1:0|1:0|1:0,2:0:0:0:
43,135,13902,5,2,1:0:0:0:
39,124,13983,1,0,1:0:0:0:
49,121,14064,1,0,1:0:0:0:
52,130,14145,1,0,1:0:0:0:
117,184,14226,5,0,1:0:0:0:
119,173,14307,1,0,1:0:0:0:
129,175,14388,1,0,1:0:0:0:
128,184,14469,1,0,1:0:0:0:
217,159,14550,6,0,P|251:141|265:113,3,52.5,2|0|0|0,1:0|1:0|1:0|1:0,2:0:0:0:
184,244,14875,2,0,P|222:245|248:228,3,52.5,0|0|0|0,1:0|1:0|1:0|1:0,2:0:0:0:
130,309,15199,2,0,P|162:329|193:327,3,52.5,2|0|0|0,1:0|1:0|1:0|1:0,2:0:0:0:
39,322,15523,2,0,P|57:356|85:369,2,52.5,0|0|2,1:0|1:0|1:3,2:0:0:0:
0,254,15848,6,0,L|12:183,3,52.5,8|0|0|0,1:0|1:0|1:0|1:0,2:0:0:0:
87,169,16172,2,0,L|61:101,3,52.5,0|0|0|0,1:0|1:0|1:0|1:0,2:0:0:0:
156,105,16496,5,2,1:0:0:0:
167,107,16577,1,0,1:0:0:0:
165,117,16658,1,0,1:0:0:0:
156,116,16740,1,0,1:0:0:0:
236,60,16821,6,0,L|185:18,3,52.5,0|0|0|0,1:0|1:0|1:0|1:0,2:0:0:0:
363,84,17145,6,0,L|404:33,3,52.5,2|0|0|0,1:0|1:0|1:0|1:0,2:0:0:0:
339,212,17469,6,0,L|389:253,3,52.5,0|0|0|0,1:0|1:0|1:0|1:0,2:0:0:0:
287,125,17794,5,2,1:0:0:0:
295,132,17875,1,0,1:0:0:0:
288,139,17956,1,0,1:0:0:0:
281,134,18037,1,8,2:3:0:0:
211,187,18118,6,0,L|169:237,1,52.5,8|0,1:3|2:0,2:0:0:0:
258,253,18280,6,0,L|247:317,1,52.5,2|0,1:2|2:0,2:0:0:0:
328,303,18442,6,0,L|334:362,3,52.5,4|0|0|0,1:0|2:0|1:0|1:0,2:0:0:0:
484,292,18767,6,0,L|489:239,3,52.5,2|0|0|0,1:0|1:0|1:0|1:0,2:0:0:0:
339,296,19091,6,0,L|345:355,3,52.5,8|0|0|0,1:2|1:0|1:0|1:0,2:0:0:0:
495,285,19415,6,0,L|500:232,2,52.5,8|0|0,1:0|1:0|1:0,2:0:0:0:
360,113,19740,6,0,L|354:172,3,52.5,4|0|0|0,1:0|1:0|1:0|1:0,2:0:0:0:
204,102,20064,6,0,L|198:49,3,52.5,2|0|0|0,1:0|1:0|1:0|1:0,2:0:0:0:
349,106,20388,6,0,L|343:165,3,52.5,8|0|0|0,1:2|1:0|1:0|1:0,2:0:0:0:
193,95,20713,6,0,L|187:42,2,52.5,8|0|0,1:0|1:0|1:0,2:0:0:0:
462,12,21037,5,12,1:0:0:0:
460,27,21118,1,0,1:0:0:0:
458,43,21199,1,0,1:0:0:0:
457,59,21280,1,0,1:0:0:0:
496,83,21361,5,10,1:0:0:0:
494,98,21442,1,0,1:0:0:0:
492,114,21523,1,0,1:0:0:0:
491,130,21604,1,0,1:0:0:0:
437,165,21685,5,10,1:0:0:0:
435,180,21767,1,0,1:0:0:0:
433,196,21848,1,0,1:0:0:0:
432,212,21929,1,0,1:0:0:0:
481,250,22010,5,2,1:0:0:0:
479,265,22091,1,0,1:0:0:0:
477,281,22172,1,2,1:0:0:0:
476,297,22253,1,0,1:0:0:0:
424,349,22334,5,2,1:0:0:0:
256,192,22658,1,2,2:1:0:0:
88,349,22983,1,2,2:1:0:0:
88,349,23307,5,12,1:0:0:0:
81,317,23388,1,8,1:0:0:0:
71,279,23469,1,8,1:0:0:0:
62,244,23550,1,8,1:0:0:0:
56,210,23631,6,0,L|118:195,1,57.75,4|0,1:0|2:0,2:0:0:0:
193,225,23794,1,2,2:0:0:0:
218,79,23956,1,8,1:0:0:0:
289,126,24118,1,0,1:0:0:0:
117,100,24280,2,0,L|94:17,1,57.75,8|0,1:0|2:0,2:0:0:0:
79,39,24442,1,2,2:1:0:0:
75,24,24523,1,2,2:3:0:0:
71,9,24604,1,8,1:0:0:0:
12,134,24767,1,2,1:0:0:0:
193,225,24929,6,0,L|327:248,1,115.5,4|2,1:0|1:0,1:0:0:0:
397,116,25253,6,0,L|510:96,1,115.5,10|2,1:0|1:0,2:0:0:0:
309,0,25577,5,4,1:0:0:0:
309,0,25902,1,12,1:0:0:0:
256,76,26064,1,2,1:0:0:0:
413,221,26226,6,0,L|427:291,1,57.75,14|0,1:0|2:0,2:0:0:0:
476,167,26388,1,0,1:0:0:0:
394,94,26550,1,10,1:0:0:0:
301,180,26713,1,2,1:0:0:0:
256,76,26875,2,0,L|174:62,1,57.75,12|0,1:0|2:0,2:0:0:0:
174,41,27037,1,2,1:0:0:0:
146,42,27118,1,2,2:3:0:0:
118,48,27199,1,10,1:0:0:0:
42,3,27361,1,2,1:0:0:0:
4,135,27523,6,0,L|28:260,1,115.5,12|0,1:0|2:0,2:0:0:0:
180,241,27848,6,0,L|156:366,1,115.5,10|2,1:0|1:0,2:0:0:0:
299,165,28172,5,4,1:0:0:0:
371,205,28334,1,2,2:0:0:0:
471,98,28496,1,10,1:0:0:0:
348,9,28658,1,8,1:0:0:0:
334,1,28740,1,8,1:0:0:0:
323,11,28821,6,0,L|341:81,1,57.75,14|0,1:0|2:0,2:0:0:0:
390,124,28983,1,0,1:0:0:0:
213,108,29145,1,8,1:0:0:0:
180,197,29307,1,10,1:0:0:0:
276,300,29469,2,0,L|338:286,1,57.75,14|0,1:0|2:0,2:0:0:0:
363,305,29631,1,8,1:0:0:0:
385,300,29713,1,8,1:0:0:0:
404,295,29794,1,14,1:0:0:0:
482,349,29956,1,2,2:1:0:0:
512,122,30118,6,0,L|496:236,1,115.5,14|0,1:0|2:0,2:0:0:0:
279,124,30442,6,0,L|263:9,1,115.5,10|2,1:0|1:0,2:0:0:0:
184,214,30767,5,12,1:0:0:0:
106,184,30929,1,0,2:0:0:0:
10,280,31091,1,12,1:0:0:0:
58,380,31253,1,8,1:0:0:0:
70,384,31334,1,8,1:0:0:0:
80,363,31415,6,0,L|220:334,1,115.5,10|0,1:0|1:0,2:0:0:0:
297,273,31740,1,8,1:0:0:0:
297,273,31902,1,2,1:0:0:0:
404,384,32064,2,0,L|381:237,1,115.5,8|2,1:0|2:0,2:0:0:0:
391,263,32307,1,2,1:2:0:0:
375,237,32388,1,8,1:0:0:0:
380,184,32469,1,0,1:0:0:0:
429,150,32550,1,0,1:0:0:0:
482,169,32631,1,0,1:0:0:0:
503,154,32713,6,0,P|500:90|448:60,1,115.5,4|2,1:0|2:0,2:0:0:0:
322,0,33037,6,0,P|268:34|268:94,1,115.5,2|2,1:0|2:1,2:0:0:0:
280,234,33361,6,0,P|336:263|388:233,1,115.5,2|0,2:1|2:0,2:0:0:0:
382,136,33685,5,14,1:0:0:0:
0,229,34010,5,4,3:2:0:0:
184,169,34334,1,10,2:0:0:0:
0,229,34658,1,2,3:2:0:0:
184,169,34983,1,10,2:0:0:0:
0,229,35307,5,0,3:0:0:0:
184,169,35631,1,8,2:0:0:0:
0,229,35956,1,0,3:0:0:0:
92,199,36118,1,0,3:0:0:0:
184,169,36280,1,10,2:0:0:0:
512,229,36604,5,2,3:2:0:0:
328,169,36929,1,8,2:0:0:0:
512,229,37253,1,2,3:2:0:0:
328,169,37577,1,8,2:0:0:0:
512,229,37902,5,2,3:2:0:0:
328,169,38226,1,8,2:0:0:0:
512,229,38550,1,0,3:0:0:0:
420,199,38713,1,0,3:0:0:0:
328,169,38875,1,10,2:0:0:0:
71,299,39199,6,0,L|56:368,2,36.75,4|0|0,3:2|2:0|2:0,2:0:0:0:
92,199,39523,1,8,2:0:0:0:
256,332,39848,6,0,L|256:368,2,36.75,0|0|0,3:2|2:0|2:0,2:0:0:0:
256,233,40172,1,10,2:0:0:0:
441,299,40496,6,0,L|456:368,2,36.75,0|0|0,3:2|2:0|2:0,2:0:0:0:
420,199,40821,1,10,2:0:0:0:
256,233,41145,6,0,L|256:192,1,36.75,0|0,3:2|2:0,2:0:0:0:
256,116,41307,2,0,L|256:75,1,36.75,2|0,3:2|2:0,2:0:0:0:
256,0,41469,1,10,2:0:0:0:
83,120,41794,6,0,P|112:111|152:92,3,52.5,2|0|0|0,3:2|2:0|2:0|2:0,2:0:0:0:
188,38,42118,1,8,2:0:0:0:
429,120,42442,6,0,P|400:111|360:92,3,52.5,0|0|0|0,3:0|2:0|2:0|2:0,2:0:0:0:
324,38,42767,1,10,2:0:0:0:
195,160,43091,6,0,L|210:232,3,52.5,0|0|0|0,3:2|2:0|2:0|2:0,2:0:0:0:
256,88,43415,1,10,2:0:0:0:
317,160,43740,5,2,3:2:0:0:
170,138,43902,1,0,3:0:0:0:
53,45,44064,1,10,2:0:0:0:
111,90,44388,6,0,P|118:130|105:227,1,126,6|0,3:2|2:0,2:0:0:0:
43,264,44713,2,0,L|23:175,1,84,10|2,2:0|2:3,2:0:0:0:
43,264,45037,1,2,3:0:0:0:
138,380,45199,2,0,L|118:291,1,84,2|8,2:0|2:0,2:0:0:0:
282,138,45523,2,0,L|193:158,1,84,2|0,2:3|3:0,2:3:0:0:
442,300,45848,2,0,L|422:211,1,84,2|10,2:3|2:0,2:0:0:0:
133,289,46172,6,0,L|151:370,1,84,2|0,2:3|3:0,2:0:0:0:
201,168,46496,2,0,L|282:150,1,84,2|10,3:0|2:0,2:0:0:0:
493,361,46821,1,2,2:3:0:0:
409,216,46983,6,0,L|428:297,1,84,4|0,3:2|2:0,2:0:0:0:
385,29,47307,2,0,P|381:120|350:168,1,126,8|0,2:0|2:0,2:0:0:0:
329,218,47631,2,0,P|290:233|248:231,1,84,0|2,3:2|2:3,2:0:0:0:
329,218,47956,1,10,2:0:0:0:
114,136,48118,6,0,L|193:160,1,84,2|0,2:3|3:2,2:0:0:0:
13,249,48442,2,0,L|37:169,1,84,2|10,2:3|2:0,2:0:0:0:
209,313,48767,2,0,L|234:234,1,84,2|0,2:3|3:0,2:0:0:0:
53,322,49091,2,0,L|133:347,1,84,2|10,3:0|2:0,2:0:0:0:
53,322,49415,1,2,2:3:0:0:
209,313,49577,6,0,P|295:313|348:277,1,126,6|0,3:2|2:0,2:0:0:0:
403,269,49902,2,0,P|421:218|458:176,1,84,8|0,2:0|2:0,2:0:0:0:
271,363,50226,1,0,3:2:0:0:
403,269,50388,1,2,2:3:0:0:
341,189,50550,2,0,L|305:50,1,126,10|0,2:0|2:0,2:0:0:0:
259,9,50875,6,0,P|293:32|333:44,1,84,0|2,3:2|2:3,2:0:0:0:
93,196,51199,2,0,P|180:202|246:126,1,168,10|0,2:0|3:0,2:0:0:0:
93,196,51685,1,2,3:0:0:0:
6,20,51848,1,10,2:0:0:0:
177,84,52010,6,0,L|96:108,1,84,2|0,2:3|3:2,2:0:0:0:
201,314,52334,2,0,L|263:371,1,84,0|8,2:0|2:0,2:0:0:0:
389,177,52658,2,0,L|407:95,1,84,2|0,2:3|3:0,2:0:0:0:
256,192,52983,5,2,2:3:0:0:
369,310,53145,2,0,P|451:298|501:249,1,126,8|0,2:0|2:0,2:0:0:0:
470,192,53469,2,0,P|492:157|494:115,1,84,0|2,3:0|2:3,2:0:0:0:
218,77,53794,6,0,P|230:159|279:209,1,126,10|0,2:0|2:0,2:0:0:0:
325,230,54118,1,0,3:0:0:0:
136,49,54280,1,8,2:0:0:0:
183,45,54361,1,8,2:0:0:0:
218,77,54442,1,8,2:0:0:0:
74,304,54604,1,10,2:0:0:0:
215,259,54767,6,0,L|120:243,1,84,6|2,3:2|2:3,2:0:0:0:
70,191,55091,1,10,2:0:0:0:
147,349,55253,1,2,2:3:0:0:
178,161,55415,1,2,3:2:0:0:
16,278,55577,1,2,2:3:0:0:
249,384,55740,1,10,2:0:0:0:
248,384,55902,6,0,P|284:363|303:326,1,84,2|0,2:3|3:0,2:0:0:0:
289,124,56226,2,0,P|288:165|311:200,1,84,2|8,2:3|2:0,2:0:0:0:
494,288,56550,2,0,P|458:267|416:269,1,84,2|0,2:3|3:2,2:0:0:0:
444,348,56875,1,2,3:0:0:0:
396,183,57037,1,8,2:0:0:0:
430,70,57199,1,2,2:3:0:0:
430,70,57361,6,0,L|521:52,1,84,2|2,3:2|2:3,2:0:0:0:
475,145,57685,1,10,2:0:0:0:
328,78,57848,1,2,2:3:0:0:
396,183,58010,1,2,3:2:0:0:
375,0,58172,1,2,2:3:0:0:
289,159,58334,1,8,2:0:0:0:
289,159,58496,6,0,L|187:139,1,84,2|0,2:3|3:0,2:0:0:0:
89,21,58821,2,0,L|122:119,1,84,2|10,2:3|2:0,2:0:0:0:
70,264,59145,2,0,L|138:185,1,84,2|2,2:3|3:2,2:0:0:0:
198,243,59469,1,2,3:0:0:0:
41,160,59631,1,10,2:0:0:0:
139,331,59794,1,2,2:3:0:0:
238,318,59956,6,0,L|334:297,1,84,2|0,3:2|2:0,2:0:0:0:
436,327,60280,1,8,2:0:0:0:
323,212,60442,1,2,2:3:0:0:
363,384,60604,1,2,3:2:0:0:
493,254,60767,1,2,2:3:0:0:
428,167,60929,1,8,2:0:0:0:
474,94,61091,1,2,2:3:0:0:
313,2,61253,6,0,L|121:24,1,168,2|10,3:2|2:0,2:0:0:0:
146,21,61902,6,0,L|153:81,1,42,0|0,3:0|2:0,2:0:0:0:
236,95,62064,2,0,L|243:155,1,42,2|0,3:0|2:0,2:0:0:0:
138,210,62226,5,10,2:0:0:0:
321,294,62388,1,2,2:3:0:0:
230,384,62550,6,0,L|242:287,1,84,2|0,3:2|2:0,2:0:0:0:
265,222,62875,1,8,2:0:0:0:
156,299,63037,1,2,2:0:0:0:
366,373,63199,1,0,3:2:0:0:
136,206,63361,2,0,L|36:231,1,84,2|10,2:3|2:0,2:0:0:0:
156,289,63685,1,2,2:3:0:0:
274,227,63848,6,0,P|335:194|328:90,1,168,2|10,3:2|2:0,2:0:0:0:
338,103,64496,6,0,L|397:91,1,42,0|0,3:0|2:0,2:0:0:0:
213,21,64658,6,0,L|271:8,1,42,0|0,3:0|2:0,2:0:0:0:
132,181,64821,6,0,L|240:158,1,84,10|0,2:0|2:0,2:0:0:0:
17,0,65145,6,0,L|2:111,1,84,6|0,3:2|2:0,2:0:0:0:
92,59,65469,1,8,2:0:0:0:
28,202,65631,1,2,2:0:0:0:
90,293,65794,1,2,2:0:0:0:
165,255,65956,1,2,2:0:0:0:
165,255,66118,2,0,L|342:299,1,168,8|0,2:0|2:0,2:0:0:0:
479,368,66604,5,2,2:0:0:0:
417,307,66767,2,0,L|397:123,1,168,8|0,2:0|2:0,2:0:0:0:
487,219,67253,1,2,2:0:0:0:
321,179,67415,2,0,L|309:235,3,42,8|0|0|0,3:2|3:2|3:2|3:2,2:0:0:0:
302,168,67740,5,0,3:2:0:0:
298,143,67821,1,0,3:2:0:0:
295,118,67902,1,2,3:2:0:0:
291,93,67983,1,0,3:2:0:0:
289,71,68064,6,0,L|300:24,3,42,8|0|2|0,3:2|3:2|3:2|3:2,2:0:0:0:
369,68,68388,6,0,L|406:37,1,42,2|0,3:2|2:0,2:0:0:0:
442,107,68550,2,0,L|493:102,1,42,2|0,3:2|2:0,2:0:0:0:
512,176,68713,1,8,2:0:0:0:
423,237,68875,5,2,3:2:0:0:
423,237,68956,1,0,3:2:0:0:
423,237,69037,2,0,L|436:303,3,42,0|0|2|0,3:2|3:2|3:2|3:2,2:0:0:0:
220,234,69361,2,0,L|207:168,3,42,8|0|2|0,3:2|3:2|3:2|3:2,2:0:0:0:
301,339,69685,6,0,L|288:405,3,42,0|0|2|0,3:2|3:2|3:2|3:2,2:0:0:0:
323,253,70010,2,0,L|336:187,3,42,8|0|2|0,3:2|3:2|3:2|3:2,2:0:0:0:
219,313,70334,1,0,3:2:0:0:
194,317,70415,1,0,3:2:0:0:
169,321,70496,1,0,3:2:0:0:
144,326,70577,1,0,3:2:0:0:
119,330,70658,1,8,3:2:0:0:
95,335,70740,1,0,3:2:0:0:
70,339,70821,1,0,3:2:0:0:
45,344,70902,1,0,3:2:0:0:
21,348,70983,2,0,L|33:289,1,42,0|0,3:2|2:0,2:0:0:0:
81,251,71145,2,0,L|91:198,3,42,2|0|8|0,3:2|3:2|3:2|3:2,2:0:0:0:
0,140,71469,6,0,L|10:87,5,42,2|0|0|0|2|0,3:2|3:2|3:2|3:2|3:2|3:2,2:0:0:0:
110,42,71956,6,0,L|120:-11,5,42,8|0|0|0|2|0,3:2|3:2|3:2|3:2|3:2|3:2,2:0:0:0:
218,118,72442,5,2,3:2:0:0:
218,118,72523,1,0,3:2:0:0:
218,118,72604,2,0,L|286:129,1,42,8|0,2:0|2:0,2:0:0:0:
328,76,72767,6,0,L|396:87,3,42,2|0|0|0,3:2|3:2|3:2|3:2,2:0:0:0:
412,194,73091,6,0,L|480:205,3,42,0|0|8|0,3:2|3:2|3:2|3:2,2:0:0:0:
289,256,73415,6,0,L|357:267,1,42,2|0,3:2|2:0,2:0:0:0:
349,374,73577,6,0,L|417:385,5,42,0|0|2|0|8|0,3:2|3:2|3:2|3:2|3:2|3:2,2:0:0:0:
186,358,74064,5,0,3:2:0:0:
195,347,74145,1,0,3:2:0:0:
206,337,74226,5,0,3:2:0:0:
200,308,74307,1,0,3:2:0:0:
195,279,74388,1,2,3:2:0:0:
190,250,74469,1,0,3:2:0:0:
158,249,74550,5,8,3:2:0:0:
152,220,74631,1,0,3:2:0:0:
147,191,74713,1,2,3:2:0:0:
142,162,74794,1,0,3:2:0:0:
137,133,74875,1,0,3:2:0:0:
132,104,74956,1,0,3:2:0:0:
125,76,75037,2,0,L|67:88,2,42,8|8|8,2:0|2:0|2:0,2:0:0:0:
189,6,75361,1,10,2:0:0:0:
293,85,75523,1,6,2:0:0:0:
286,77,80713,5,8,1:3:0:0:
256,192,80875,2,0,L|288:256,1,42,8|8,2:3|2:3,2:0:0:0:
340,276,81037,5,8,3:0:0:0:
256,192,81199,2,0,L|184:187,1,42,8|8,2:3|2:3,2:0:0:0:
141,222,81361,5,8,3:0:0:0:
256,192,81523,2,0,L|295:132,1,42,8|8,2:3|2:3,2:0:0:0:
296,80,81685,5,8,3:0:0:0:
256,192,81848,2,0,L|282:258,1,42,8|8,2:3|2:3,2:0:0:0:
332,283,82010,5,8,3:0:0:0:
256,192,82172,2,0,L|185:181,1,42,8|8,2:3|2:3,2:0:0:0:
139,212,82334,5,8,3:0:0:0:
256,192,82496,2,0,L|300:135,1,42,8|8,2:3|2:3,2:0:0:0:
306,84,82658,5,8,3:0:0:0:
256,192,82821,2,0,L|276:260,1,42,8|8,2:3|2:3,2:0:0:0:
324,289,82983,5,8,3:0:0:0:
256,192,83145,2,0,L|186:175,1,42,8|8,3:0|2:3,2:0:0:0:
137,202,83307,5,8,3:0:0:0:
256,192,83469,2,0,L|305:140,1,42,8|8,2:3|2:3,2:0:0:0:
315,89,83631,5,8,3:0:0:0:
256,192,83794,2,0,L|270:262,1,42,8|8,2:3|2:3,2:0:0:0:
315,294,83956,5,8,3:0:0:0:
256,192,84118,2,0,L|188:169,1,42,8|8,2:3|2:3,2:0:0:0:
137,192,84280,5,8,3:0:0:0:
256,192,84442,2,0,L|309:144,1,42,8|8,2:3|2:3,2:0:0:0:
323,94,84604,5,8,3:0:0:0:
256,192,84767,2,0,L|264:263,1,42,8|8,2:3|2:3,2:0:0:0:
306,299,84929,5,8,3:0:0:0:
256,192,85091,2,0,L|190:163,1,42,8|8,2:3|2:3,2:0:0:0:
137,181,85253,5,8,3:0:0:0:
256,192,85415,2,0,L|313:149,1,42,8|8,2:3|2:3,2:0:0:0:
332,101,85577,5,8,3:0:0:0:
421,82,85740,1,8,3:0:0:0:
509,62,85902,2,0,B|386:37|480:123|480:123,1,126,8|8,3:0|2:3,2:0:0:0:
501,96,86226,6,0,B|190:32|427:249|427:249,7,336,8|8|8|8|8|8|8|8,3:0|3:0|3:0|3:0|3:0|3:0|3:0|3:0,2:0:0:0:
426,249,88658,6,0,P|394:254|335:274,1,63,8|8,2:3|2:3,2:0:0:0:
249,304,88821,1,8,3:0:0:0:
249,304,88983,2,0,P|260:274|272:213,1,63,8|8,2:3|2:3,2:0:0:0:
289,123,89145,1,8,3:0:0:0:
289,123,89307,2,0,P|309:147|356:188,1,63,8|8,2:3|2:3,2:0:0:0:
426,249,89469,1,8,3:0:0:0:
349,315,89631,6,0,P|331:293|290:257,2,63,8|8|8,3:0|3:0|3:0,2:0:0:0:
230,204,89956,2,0,P|257:200|309:182,2,63,8|8|8,2:3|2:3|3:0,2:0:0:0:
384,156,90280,2,0,P|374:182|364:235,2,63,8|8|8,2:3|2:3|3:0,2:0:0:0:
327,224,90604,5,8,2:3:0:0:
317,220,90685,1,8,2:3:0:0:
319,230,90767,1,8,3:0:0:0:
184,224,90929,5,8,3:0:0:0:
194,220,91010,1,8,3:0:0:0:
192,230,91091,2,0,P|148:241|98:256,1,63,12|0,3:0|2:0,2:0:0:0:
66,276,91253,2,0,P|48:191|66:129,1,126,2|8,2:3|3:0,2:0:0:0:
55,153,91496,1,8,2:3:0:0:
55,153,91577,2,0,P|101:139|134:102,1,63,10|0,2:3|2:0,2:0:0:0:
154,69,91740,6,0,P|249:35|322:65,1,126,10|2,3:2|2:3,2:0:0:0:
270,38,91983,1,8,2:3:0:0:
270,38,92064,2,0,P|345:21|373:2,1,63,8|8,3:0|2:3,2:0:0:0:
403,5,92226,1,10,2:3:0:0:
486,130,92388,6,0,P|484:192|459:250,2,126,14|2|8,3:0|2:3|3:0,2:0:0:0:
482,126,92794,1,2,2:0:0:0:
478,122,92875,2,0,P|429:118|379:105,1,63,2|8,2:3|2:3,2:0:0:0:
343,93,93037,6,0,P|318:150|315:213,1,126,10|2,3:2|2:3,2:0:0:0:
344,288,93280,1,8,2:3:0:0:
344,288,93361,2,0,P|356:345|338:295,1,189,8|8,3:0|2:3,2:0:0:0:
333,305,93685,6,0,P|299:303|224:315,1,63,14|0,3:0|2:0,2:0:0:0:
218,361,93848,2,0,P|183:363|68:325,1,126,2|8,2:3|3:0,2:0:0:0:
91,337,94091,1,2,2:0:0:0:
87,333,94172,2,0,P|94:291|68:233,1,63,2|8,2:3|2:3,2:0:0:0:
72,202,94334,5,10,3:2:0:0:
72,202,94415,2,0,P|57:105|99:55,1,126,2|8,2:0|2:3,2:0:0:0:
67,84,94658,2,0,P|122:106|172:109,1,63,8|0,3:0|2:0,2:0:0:0:
354,33,94983,6,0,P|395:89|368:157,1,126,8|2,3:0|2:3,2:0:0:0:
383,140,95226,1,8,2:3:0:0:
383,140,95307,2,0,P|345:152|321:167,1,63,8|2,3:0|2:0,2:0:0:0:
284,229,95469,1,2,2:3:0:0:
284,229,95550,1,8,2:3:0:0:
284,229,95631,6,0,P|293:289|254:336,1,126,10|2,3:2|2:3,2:0:0:0:
253,336,95875,1,8,2:3:0:0:
253,336,95956,2,0,P|328:360|377:391,1,126,8|0,3:0|2:0,2:0:0:0:
474,277,96280,5,8,3:0:0:0:
474,277,96361,2,0,P|462:188|475:103,1,126,2|8,2:1|2:3,2:0:0:0:
464,152,96604,2,0,P|483:103|479:52,1,63,8|2,3:0|2:0,2:0:0:0:
447,38,96767,2,0,P|364:20|290:45,1,126,2|10,2:3|3:2,2:0:0:0:
325,28,97010,5,2,2:0:0:0:
325,28,97091,2,0,P|300:53|234:67,1,63,2|8,2:3|2:3,2:0:0:0:
204,39,97253,1,8,3:0:0:0:
204,341,97577,5,8,3:0:0:0:
204,341,97658,2,0,P|121:359|47:334,1,126,2|8,2:0|2:3,2:0:0:0:
81,351,97902,2,0,P|73:295|52:251,1,63,8|2,3:0|2:0,2:0:0:0:
29,226,98064,2,0,P|38:170|126:118,1,126,2|10,2:3|3:2,2:0:0:0:
87,124,98307,5,2,2:0:0:0:
87,124,98388,2,0,P|160:128|198:113,1,63,2|8,2:3|2:3,2:0:0:0:
215,93,98550,2,0,P|286:95|225:133,1,189,8|2,3:0|2:1,2:0:0:0:
225,133,98875,6,0,P|226:188|237:232,1,63,8|2,3:0|2:0,2:0:0:0:
289,239,99037,2,0,P|285:270|287:301,1,63,2|8,2:3|2:3,2:0:0:0:
365,357,99199,1,8,3:0:0:0:
365,357,99280,1,2,2:0:0:0:
365,357,99361,2,0,P|455:343|508:303,1,126,2|10,2:3|3:2,2:0:0:0:
484,326,99604,5,2,2:0:0:0:
484,326,99685,2,0,P|498:259|514:223,1,63,2|8,2:3|2:3,2:0:0:0:
475,190,99848,2,0,P|466:159|462:128,1,63,8|0,3:0|2:0,2:0:0:0:
150,201,100172,6,0,P|180:209|209:220,1,63,10|0,3:0|2:0,2:0:0:0:
301,95,100334,2,0,P|278:117|254:137,1,63,2|8,2:3|2:3,2:0:0:0:
316,279,100496,2,0,P|308:248|304:217,1,63,8|2,3:0|2:0,2:0:0:0:
256,192,100658,5,2,2:3:0:0:
256,192,100740,1,8,2:3:0:0:
220,215,100821,5,10,3:2:0:0:
222,165,100902,1,2,2:0:0:0:
270,151,100983,1,2,2:3:0:0:
298,193,101064,1,8,2:3:0:0:
267,233,101145,1,8,3:0:0:0:
0,368,101361,6,0,B|21:339|29:302|29:302|91:357|91:357|84:296|108:242,11,252,2|2|2|2|2|2|2|2|2|2|2|2,2:0|2:0|2:0|2:0|2:0|2:0|2:0|2:0|2:0|2:0|2:0|2:0,2:0:0:0:
113,248,104064,6,0,L|179:235,3,42,8|0|8|0,3:0|2:0|2:3|2:0,2:0:0:0:
187,235,104388,2,0,L|252:222,3,42,8|0|8|0,3:0|2:0|2:3|2:0,2:0:0:0:
305,213,104713,6,0,L|370:200,3,63,8|0|8|8,3:2|2:0|2:3|2:3,2:0:0:0:
397,195,105037,6,0,L|462:182,3,42,8|0|8|0,3:0|2:0|2:3|2:0,2:0:0:0:
470,180,105361,2,0,L|404:167,3,42,8|0|8|0,3:0|2:0|2:3|2:0,2:0:0:0:
397,167,105685,2,0,L|331:154,3,42,8|0|8|8,3:0|2:0|2:3|2:3,2:0:0:0:
279,145,106010,6,0,L|213:132,3,63,14|0|2|0,2:0|2:0|2:0|2:0,2:0:0:0:
187,127,106334,6,0,L|121:114,3,42,8|0|8|8,3:0|2:0|2:3|2:3,2:0:0:0:
115,111,106658,6,0,B|224:62|186:-45|58:-4|4:143|4:143|-48:295|130:348|172:193|88:169,2,630,4|12|8,1:0|2:0|3:0,2:0:0:0:
123,119,108037,1,2,2:0:0:0:
123,119,108118,2,0,P|184:113|192:116,1,42,2|0,2:0|2:0,2:0:0:0:
299,100,108280,2,0,P|320:98|340:91,3,42,10|2|2|2,3:0|2:0|2:0|2:0,2:0:0:0:
207,187,108604,6,0,P|268:181|276:184,3,63,14|2|2|2,3:2|2:0|2:0|2:0,2:0:0:0:
402,158,108929,2,0,P|423:156|443:149,3,42,10|2|2|2,3:0|2:0|2:0|2:0,2:0:0:0:
256,192,109253,12,8,111523,1:0:0:0:
393,69,111848,5,4,1:0:0:0:
345,2,112010,2,0,B|378:-14|378:-14|508:25,2,168,4|4|4,1:0|1:0|1:0,2:0:0:0:
510,17,112983,6,0,L|75:95,1,420,6|2,1:2|2:0,2:0:0:0:
185,47,113956,1,2,2:1:0:0:
303,96,114118,1,4,1:0:0:0:
264,166,114280,1,4,1:3:0:0:
361,297,114442,5,4,1:0:0:0:
360,211,114604,2,0,B|397:183|397:183|429:48,2,168,4|4|4,1:0|1:0|1:0,2:0:0:0:
462,384,115577,6,0,L|276:0,1,420,6|2,1:2|2:0,2:0:0:0:
348,65,116550,1,2,2:1:0:0:
226,131,116713,1,4,1:0:0:0:
40,47,116875,1,4,1:0:0:0:
116,0,117037,5,4,1:0:0:0:
201,54,117199,2,0,B|189:92|189:92|59:144,2,168,4|4|4,1:0|1:0|1:0,2:0:0:0:
98,17,118172,6,0,L|311:404,1,420,6|2,1:0|2:0,2:0:0:0:
296,295,119145,1,2,2:1:0:0:
151,260,119307,1,6,1:0:0:0:
98,333,119469,1,4,1:0:0:0:
2,211,119631,5,6,1:0:0:0:
62,148,119794,2,0,B|104:144|104:144|202:25,2,168,4|4|4,1:0|1:0|1:0,2:0:0:0:
0,46,120767,6,0,L|426:149,1,420,4|2,1:0|2:0,2:0:0:0:
492,111,121740,1,2,2:1:0:0:
361,27,121902,5,12,2:0:0:0:
470,227,122064,1,10,2:0:0:0:
376,384,122226,5,12,1:0:0:0:
321,303,122388,1,2,1:0:0:0:
472,242,122550,2,0,L|340:204,1,126,8|2,1:0|2:3,2:0:0:0:
341,195,122794,1,2,2:3:0:0:
331,183,122875,2,0,P|270:211|223:152,2,126,8|2|8,1:0|1:0|2:0,2:0:0:0:
407,267,123361,1,2,1:0:0:0:
477,122,123523,6,0,P|488:55|515:-2,1,126,8|0,1:0|2:0,2:0:0:0:
391,106,123848,2,0,L|248:62,1,126,8|2,1:0|2:3,2:0:0:0:
258,52,124091,1,2,2:3:0:0:
243,48,124172,1,8,1:0:0:0:
180,120,124334,1,2,1:0:0:0:
0,0,124496,6,0,L|20:73,1,63,8|8,1:3|1:3,2:0:0:0:
109,39,124658,2,0,L|90:114,1,63,8|8,1:3|1:3,2:0:0:0:
31,153,124821,5,8,1:0:0:0:
179,259,124983,1,2,1:0:0:0:
94,228,125145,2,0,P|30:264|35:351,1,126,8|2,1:0|1:0,2:0:0:0:
26,320,125388,1,0,2:0:0:0:
33,330,125469,2,0,L|195:365,1,126,8|2,1:0|1:0,2:0:0:0:
226,314,125794,1,8,1:0:0:0:
372,384,125956,1,2,1:0:0:0:
395,302,126118,6,0,P|449:258|429:195,1,126,10|0,1:0|2:0,2:0:0:0:
290,57,126442,2,0,P|312:124|377:127,1,126,2|0,1:0|1:0,2:0:0:0:
368,143,126685,1,0,1:0:0:0:
373,152,126767,2,0,P|446:122|515:130,1,126,8|0,1:0|1:0,2:0:0:0:
418,39,127091,1,8,1:3:0:0:
262,145,127253,1,8,1:3:0:0:
171,112,127415,5,8,1:0:0:0:
122,187,127577,1,2,1:0:0:0:
42,0,127740,2,0,P|63:74|60:127,1,126,8|0,1:0|1:0,2:0:0:0:
55,132,127983,1,0,1:0:0:0:
46,141,128064,2,0,L|58:279,1,126,8|2,1:0|1:0,2:0:0:0:
185,242,128388,1,8,1:0:0:0:
105,384,128550,1,0,2:0:0:0:
183,342,128713,6,0,P|274:328|338:321,1,126,10|0,1:0|2:0,2:0:0:0:
460,256,129037,1,10,1:0:0:0:
405,370,129199,1,0,1:0:0:0:
399,360,129280,1,0,1:0:0:0:
393,348,129361,2,0,P|372:268|365:201,1,126,8|0,1:0|1:0,2:0:0:0:
406,150,129685,1,8,1:3:0:0:
239,19,129848,1,8,1:3:0:0:
243,9,129929,1,8,1:3:0:0:
247,0,130010,6,0,P|127:15|143:125,1,252,4|0,1:0|2:0,2:0:0:0:
138,120,130658,6,0,P|258:135|242:245,1,252,4|0,1:0|2:0,2:0:0:0:
246,240,131307,6,0,L|158:264,1,63,4|0,1:0|2:0,2:0:0:0:
311,175,131469,2,0,L|399:151,1,63,4|0,1:0|2:0,2:0:0:0:
230,158,131631,6,0,L|206:70,1,63,4|0,1:0|2:0,2:0:0:0:
331,256,131794,2,0,L|355:344,1,63,4|0,1:0|2:0,2:0:0:0:
292,94,131956,6,0,L|309:21,3,63,12|0|0|0,2:0|2:0|1:0|1:0,2:0:0:0:
259,323,132280,2,0,L|244:384,3,63,14|0|0|0,2:0|2:0|1:0|2:0,2:0:0:0:
14,179,132604,5,12,1:0:0:0:
14,179,132929,6,0,L|47:187,1,31.5,10|0,1:0|2:0,2:0:0:0:
0,358,133253,6,0,B|115:123|115:123|68:52,1,315,14|0,1:0|2:0,2:0:0:0:
0,0,133577,2,0,B|31:40|31:40|334:94,1,315,8|2,1:0|2:0,2:0:0:0:
337,150,133902,5,8,1:0:0:0:
445,15,134064,1,8,1:0:0:0:
361,0,134226,6,0,L|371:36,1,31.5,8|0,1:0|2:0,2:0:0:0:
452,24,134550,6,0,B|177:110|177:110|168:135,1,315,14|0,1:0|2:0,2:0:0:0:
258,0,134875,2,0,B|274:15|274:15|195:335,1,315,8|0,1:0|2:0,2:0:0:0:
131,317,135199,6,0,L|142:382,2,52.5,12|0|0,1:0|2:0|2:0,2:0:0:0:
506,274,135523,6,0,L|198:204,1,315,8|0,1:0|2:0,2:0:0:0:
168,135,135848,2,0,L|102:150,1,52.5,12|0,1:0|2:0,2:0:0:0:
54,93,136010,1,2,2:0:0:0:
207,0,136172,5,10,1:0:0:0:
177,124,136334,1,2,2:3:0:0:
6,7,136496,6,0,L|55:250,1,210,10|0,1:0|2:0,2:0:0:0:
40,223,136740,1,2,2:0:0:0:
31,232,136821,2,0,L|277:162,1,210,12|2,1:0|1:0,2:0:0:0:
348,383,137145,6,0,L|401:5,1,315,12|0,1:0|2:0,2:0:0:0:
341,145,137469,5,8,1:0:0:0:
342,149,137550,1,8,1:0:0:0:
343,153,137631,1,8,1:0:0:0:
345,157,137713,1,8,1:0:0:0:
346,162,137794,2,0,B|265:303|265:303|445:230,1,315,8|0,1:0|2:0,2:0:0:0:
482,283,138118,6,0,L|92:191,1,315,10|0,1:0|2:0,2:0:0:0:
118,79,138442,6,0,L|199:399,1,315,12|0,1:0|2:0,2:0:0:0:
124,327,138767,6,0,L|137:261,1,52.5,8|0,1:0|2:0,2:0:0:0:
175,210,138929,1,2,1:0:0:0:
0,182,139091,6,0,L|51:169,3,52.5,8|0|2|0,1:0|2:0|1:0|2:0,2:0:0:0:
71,194,139415,2,0,L|108:157,3,52.5,10|0|2|0,1:0|2:0|1:0|2:0,2:0:0:0:
138,168,139740,2,0,L|152:117,3,52.5,12|0|0|0,1:0|2:0|2:0|2:0,2:0:0:0:
183,112,140064,2,0,L|170:60,3,52.5,10|0|0|0,1:0|2:0|2:0|2:0,2:0:0:0:
14,190,140388,6,0,L|64:177,3,52.5,12|0|0|0,1:0|1:0|1:0|1:0,2:0:0:0:
110,206,140713,2,0,L|147:169,3,52.5,8|0|0|0,1:0|1:0|1:0|1:0,2:0:0:0:
200,171,141037,2,0,L|214:120,3,52.5,8|0|0|0,1:0|1:0|1:0|1:0,2:0:0:0:
261,95,141361,2,0,L|248:44,3,52.5,8|0|0|0,1:0|1:0|1:0|1:0,2:0:0:0:
31,201,141685,6,0,L|96:184,3,52.5,8|0|0|0,1:0|1:0|1:0|1:0,2:0:0:0:
178,167,142010,6,0,L|160:101,3,52.5,8|0|0|0,1:0|1:0|1:0|1:0,2:0:0:0:
246,107,142334,6,0,L|311:90,3,52.5,8|0|0|0,1:2|1:2|1:2|1:2,2:0:0:0:
347,78,142658,6,0,L|337:41,1,26.25,8|8,1:0|1:0,2:0:0:0:
350,15,142740,2,0,L|387:5,1,26.25,8|8,1:0|1:0,2:0:0:0:
418,31,142821,2,0,L|428:68,1,26.25,8|8,1:0|1:0,2:0:0:0:
415,94,142902,2,0,L|378:104,1,26.25,8|8,1:0|1:0,2:0:0:0:
347,78,142983,6,0,L|291:96,1,52.5,0|0,2:0|2:0,2:0:0:0:
165,78,143307,2,0,L|221:96,1,52.5,2|0,2:0|2:0,2:0:0:0:
368,228,143631,5,2,2:0:0:0:
429,171,143794,1,2,2:0:0:0:
439,174,143875,1,2,2:0:0:0:
449,177,143956,2,0,P|467:212|472:248,1,52.5,2|0,2:0|2:0,2:0:0:0:
380,326,144280,2,0,L|317:318,1,52.5,2|0,2:0|2:0,2:0:0:0:
63,177,144604,6,0,P|45:212|40:248,1,52.5,2|0,2:0|2:0,2:0:0:0:
132,326,144929,2,0,L|195:318,1,52.5,2|0,2:0|2:0,2:0:0:0:
256,224,145253,1,2,2:0:0:0:
256,208,145415,1,2,2:0:0:0:
150,127,145577,6,0,L|213:135,1,52.5,2|0,2:0|2:0,2:0:0:0:
309,298,145902,2,0,L|361:291,1,52.5,2|0,2:0|2:0,2:0:0:0:
480,160,146226,5,2,2:0:0:0:
357,100,146388,1,2,2:0:0:0:
350,90,146469,1,2,2:0:0:0:
344,80,146550,2,0,P|346:43|359:11,1,52.5,2|0,2:0|2:0,2:0:0:0:
488,24,146875,6,0,L|510:32,1,13.125,2|0,2:0|2:0,2:0:0:0:
24,24,147199,2,0,L|2:32,1,13.125,2|0,2:0|2:0,2:0:0:0:
357,100,147523,6,0,L|379:108,1,13.125,2|0,2:0|2:0,2:0:0:0:
155,100,147848,2,0,L|133:108,1,13.125,2|0,2:0|2:0,2:0:0:0:
155,100,148172,5,2,2:0:0:0:
91,164,148334,1,2,2:0:0:0:
114,251,148496,1,2,2:0:0:0:
201,271,148658,1,2,2:0:0:0:
261,205,148821,5,2,2:0:0:0:
233,120,148983,1,2,2:0:0:0:
235,107,149064,1,2,2:0:0:0:
241,92,149145,2,0,P|253:58|263:41,1,52.5,2|0,2:0|2:0,2:0:0:0:
379,112,149469,6,0,L|318:101,1,52.5,2|0,2:0|2:0,2:0:0:0:
488,209,149794,2,0,L|508:267,1,52.5,2|0,2:0|2:0,2:0:0:0:
314,290,150118,2,0,L|354:242,1,52.5,2|0,2:0|2:0,2:0:0:0:
248,188,150442,2,0,L|187:177,1,52.5,2|0,2:0|2:0,2:0:0:0:
18,297,150767,6,0,B|129:280|129:280|92:311,1,157.5,2|0,2:0|2:0,2:0:0:0:
44,210,151415,1,2,2:0:0:0:
6,132,151577,1,2,2:0:0:0:
54,60,151740,1,2,2:0:0:0:
140,65,151902,1,2,2:0:0:0:
178,141,152064,6,0,P|230:151|288:136,1,105,2|0,2:0|2:0,2:0:0:0:
437,43,152713,1,2,2:0:0:0:
329,14,152875,1,2,2:0:0:0:
454,48,153037,1,2,2:0:0:0:
265,63,153199,1,2,2:0:0:0:
470,53,153361,6,0,L|459:122,1,52.5,2|0,2:0|2:0,2:0:0:0:
381,99,153685,2,0,L|372:150,1,52.5,2|0,2:0|2:0,2:0:0:0:
461,279,154010,6,0,L|470:331,1,52.5,2|0,2:0|2:0,2:0:0:0:
372,233,154334,2,0,L|381:285,1,52.5,2|0,2:0|2:0,2:0:0:0:
240,336,154658,6,0,B|189:343|147:317|147:317|172:312|172:312|123:322|123:322|85:298|25:309,1,262.5,2|0,2:0|2:0,2:0:0:0:
36,307,155631,2,0,P|36:342|41:372,1,52.5,2|0,2:0|2:0,2:0:0:0:
135,235,155956,2,0,P|138:195|131:156,1,78.7499999999999,2|0,2:0|2:0,2:0:0:0:
256,192,156361,12,0,157172,2:0:0:0:
48,33,157253,6,0,B|15:37|15:37|113:72|95:186|95:186|115:161,1,252,12|0,1:0|2:0,2:0:0:0:
115,161,159848,6,0,B|88:181|88:181|191:162|232:269|232:269|237:238,1,252,4|0,1:0|2:0,2:0:0:0:
237,238,162442,6,0,B|224:268|224:268|303:201|393:273|393:273|381:243,1,252,4|0,1:0|2:0,2:0:0:0:
381,243,165037,6,0,B|385:275|385:275|420:177|534:195|534:195|509:175,1,252,4|0,1:0|2:0,2:0:0:0:
509,175,166334,2,0,B|395:211|342:111|342:111|408:140,1,252,4|0,1:0|2:0,2:0:0:0:
391,132,166983,5,12,1:0:0:0:
256,32,167226,1,10,1:0:0:0:
256,32,167307,1,10,1:0:0:0:
121,132,167469,1,10,1:0:0:0:
256,232,167631,6,0,L|248:297,3,52.5,12|0|0|0,1:0|1:0|1:0|1:0,2:0:0:0:
161,323,167956,5,0,1:0:0:0:
162,317,168037,1,0,1:0:0:0:
163,310,168118,1,0,1:0:0:0:
164,304,168199,1,0,1:0:0:0:
165,297,168280,2,0,L|173:232,3,52.5,2|0|0|0,1:0|1:0|1:0|2:0,2:0:0:0:
100,173,168604,5,0,1:0:0:0:
99,179,168685,1,0,1:0:0:0:
98,186,168767,1,0,1:0:0:0:
97,192,168848,1,0,1:0:0:0:
96,199,168929,2,0,L|88:264,3,52.5,2|0|0|0,1:0|1:0|1:0|1:0,2:0:0:0:
0,296,169253,5,0,1:0:0:0:
1,290,169334,1,0,1:0:0:0:
2,283,169415,1,0,1:0:0:0:
3,277,169496,1,0,1:0:0:0:
4,270,169577,2,0,L|12:205,3,52.5,2|0|0|0,1:0|2:0|1:0|2:0,2:0:0:0:
28,140,169902,6,0,L|22:88,1,52.5,2|0,1:0|2:0,2:0:0:0:
8,12,170064,2,0,L|60:18,1,52.5,2|0,1:0|2:0,2:0:0:0:
178,118,170226,6,0,B|280:100|254:76|254:76|327:83|354:27,1,210,12|0,1:0|1:0,2:0:0:0:
354,28,170631,1,0,1:0:0:0:
361,23,170713,2,0,P|408:32|438:48,1,52.5,0|0,1:0|1:0,2:0:0:0:
487,226,170875,6,0,P|502:180|503:146,3,52.5,2|0|0|0,1:0|1:0|1:0|2:0,2:0:0:0:
389,109,171199,5,0,1:0:0:0:
393,113,171280,1,0,1:0:0:0:
397,117,171361,1,0,1:0:0:0:
401,121,171442,1,0,1:0:0:0:
405,125,171523,2,0,P|420:170|421:204,3,52.5,2|0|0|0,1:0|1:0|1:0|1:0,2:0:0:0:
303,238,171848,5,0,1:0:0:0:
307,234,171929,1,0,1:0:0:0:
311,230,172010,1,0,1:0:0:0:
315,226,172091,1,0,1:0:0:0:
319,222,172172,2,0,P|334:177|335:143,3,52.5,2|0|0|0,1:0|1:0|1:0|1:0,2:0:0:0:
297,101,172496,5,8,2:0:0:0:
215,283,172658,1,0,1:0:0:0:
9,253,172821,5,12,1:0:0:0:
18,244,172902,1,0,1:0:0:0:
30,238,172983,1,0,1:0:0:0:
43,236,173064,1,0,1:0:0:0:
56,237,173145,2,0,P|120:194|198:191,1,157.5,0|0,1:0|1:0,2:0:0:0:
151,207,173469,5,2,1:0:0:0:
160,198,173550,1,0,1:0:0:0:
172,192,173631,1,0,1:0:0:0:
185,190,173713,1,0,1:0:0:0:
198,191,173794,2,0,P|262:148|340:145,1,157.5,0|0,1:0|2:0,2:0:0:0:
277,191,174118,6,0,B|307:171|343:174|343:174|436:80|395:191|544:18|387:41,2,315,12|0|2,1:0|1:0|1:0,2:0:0:0:
274,210,174848,1,0,1:0:0:0:
272,230,174929,1,0,1:0:0:0:
270,249,175010,1,0,1:0:0:0:
240,265,175091,5,2,1:0:0:0:
242,284,175172,1,0,1:0:0:0:
244,304,175253,1,0,1:0:0:0:
246,323,175334,1,0,1:0:0:0:
285,368,175415,6,0,B|309:303|390:307|390:307|376:365|454:407|492:324|445:289|445:289|516:280|467:178,1,367.5,12|0,1:0|1:0,2:0:0:0:
121,24,176064,2,0,B|125:65|64:90|64:90|43:74|43:74|-3:67|-30:168|53:236|79:179|79:179|54:237|102:270,1,420,12|0,1:0|1:0,2:0:0:0:
97,266,176442,2,0,B|135:257|133:265|141:260|160:289,4,70,0|0|0|0|0,1:0|1:0|1:0|1:0|1:0,2:0:0:0:
104,344,176713,5,2,1:0:0:0:
256,32,177037,5,2,1:0:0:0:
408,344,177361,5,2,1:0:0:0:
357,293,177685,5,10,1:0:0:0:
306,242,177767,5,10,1:0:0:0:
255,191,177848,5,10,1:0:0:0:
205,141,177929,5,10,1:0:0:0:
154,90,178010,6,0,P|97:139|0:142,1,157.5,12|0,1:0|2:0,2:0:0:0:
11,72,178253,1,2,2:0:0:0:
10,60,178334,2,0,P|86:13|167:16,1,157.5,10|2,1:0|2:0,2:0:0:0:
450,76,178658,6,0,L|470:-6,1,78.75,10|0,1:0|2:0,2:0:0:0:
348,119,178821,2,0,L|368:206,1,78.75,2|0,1:2|2:0,2:0:0:0:
369,39,178983,6,0,L|250:4,1,78.75,8|0,1:0|2:0,2:0:0:0:
356,210,179145,2,0,L|522:172,1,157.5,2|8,1:0|1:0,2:0:0:0:
336,306,179388,1,2,2:0:0:0:
327,311,179469,2,0,P|289:292|273:240,1,78.75,2|0,1:0|2:0,2:0:0:0:
412,384,179631,2,0,P|409:341|446:301,1,78.75,10|0,2:0|2:0,2:0:0:0:
506,268,179794,1,2,1:0:0:0:
257,181,179956,6,0,P|176:208|184:292,1,157.5,10|0,1:0|2:0,2:0:0:0:
83,297,180199,1,0,1:0:0:0:
86,307,180280,2,0,P|79:358|72:396,1,78.75,10|0,1:0|2:0,2:0:0:0:
148,190,180442,2,0,P|141:139|134:101,1,78.75,2|0,1:0|2:0,2:0:0:0:
157,384,180604,6,0,P|124:280|-26:218,1,236.25,10|2,1:0|2:0,2:0:0:0:
148,108,180929,2,0,P|193:86|206:42,1,78.75,10|0,1:0|2:0,2:0:0:0:
51,137,181091,2,0,P|51:98|22:53,1,78.75,2|0,1:0|2:0,2:0:0:0:
107,13,181253,1,8,1:0:0:0:
247,149,181415,1,2,1:0:0:0:
372,75,181577,6,0,P|392:27|390:-17,1,78.75,10|0,1:0|2:0,2:0:0:0:
291,82,181740,2,0,P|310:178|407:199,1,157.5,2|4,2:3|1:0,2:0:0:0:
505,293,181983,1,2,2:0:0:0:
509,280,182064,6,0,P|516:240|504:176,1,78.75,2|0,1:0|2:0,2:0:0:0:
269,324,182226,6,0,P|383:281|464:274,1,157.5,8|2,1:0|1:0,2:0:0:0:
433,171,182469,1,0,2:0:0:0:
440,162,182550,2,0,P|453:122|465:64,1,78.75,10|0,1:0|2:0,2:0:0:0:
252,0,182713,2,0,P|261:38|273:75,1,78.75,0|0,1:0|2:0,2:0:0:0:
356,203,182875,5,8,1:0:0:0:
326,167,182956,1,8,1:0:0:0:
256,147,183037,1,8,1:0:0:0:
216,197,183118,1,8,1:0:0:0:
169,178,183199,6,0,P|60:214|-6:224,1,157.5,14|0,1:0|2:0,2:0:0:0:
124,285,183442,1,2,2:0:0:0:
130,283,183523,2,0,P|171:288|210:309,1,78.75,10|0,1:0|2:0,2:0:0:0:
82,158,183685,2,0,P|41:153|2:132,1,78.75,2|0,1:0|2:0,2:0:0:0:
99,18,183848,6,0,P|184:35|176:119,1,157.5,10|0,1:0|2:0,2:0:0:0:
256,147,184091,1,2,2:0:0:0:
266,154,184172,2,0,P|309:142|366:131,1,78.75,10|0,1:0|2:0,2:0:0:0:
496,82,184334,2,0,P|417:76|347:42,1,157.5,2|14,1:0|1:0,2:0:0:0:
425,50,184658,1,0,1:0:0:0:
329,230,184821,2,0,P|345:332|471:374,1,236.25,8|0,1:0|2:0,2:0:0:0:
499,312,185145,6,0,P|509:274|513:226,1,78.75,6|0,1:0|2:0,2:0:0:0:
440,207,185307,1,0,1:0:0:0:
366,341,185469,2,0,P|345:318|270:310,1,78.75,10|0,1:0|2:0,2:0:0:0:
76,344,185631,1,2,1:0:0:0:
83,348,185713,1,2,1:0:0:0:
89,359,185794,6,0,P|177:346|216:255,2,157.5,6|2|10,1:0|1:0|1:0,2:0:0:0:
0,146,186280,2,0,P|51:158|79:188,1,78.75,2|0,1:0|2:0,2:0:0:0:
121,280,186442,6,0,P|95:160|88:15,1,236.25,10|0,1:0|2:0,2:0:0:0:
172,85,186767,2,0,P|193:31|216:-10,1,78.75,10|0,1:0|2:0,2:0:0:0:
400,127,186929,6,0,P|289:145|263:217,1,157.5,2|0,1:0|2:0,2:0:0:0:
354,35,187253,1,2,1:0:0:0:
352,218,187415,1,8,1:0:0:0:
331,258,187496,1,8,1:0:0:0:
372,287,187577,1,8,1:0:0:0:
384,338,187658,1,8,1:0:0:0:
432,377,187740,6,0,P|452:347|459:300,1,78.75,10|0,1:0|2:0,2:0:0:0:
512,234,187902,2,0,P|514:198|496:153,1,78.75,2|0,1:0|2:0,2:0:0:0:
445,97,188064,5,14,1:0:0:0:
297,149,188226,1,10,1:2:0:0:
119,14,188388,6,0,P|148:35|86:170,1,157.5,12|2,1:0|2:3,2:0:0:0:
70,203,188631,1,2,2:3:0:0:
70,203,188713,2,0,P|25:121|55:66,1,157.5,10|0,1:0|2:0,2:0:0:0:
276,327,189037,6,0,P|386:362|459:419,1,157.5,10|2,1:0|2:3,2:0:0:0:
488,343,189280,1,0,2:0:0:0:
498,339,189361,2,0,P|513:305|506:246,1,78.75,8|0,1:0|2:0,2:0:0:0:
404,65,189523,2,0,P|410:145|478:190,1,157.5,2|8,1:0|1:0,2:0:0:0:
263,226,189848,6,0,P|293:201|314:168,1,78.75,2|0,1:0|2:0,2:0:0:0:
62,221,190010,2,0,P|148:253|147:337,1,157.5,10|2,1:0|1:0,2:0:0:0:
246,383,190253,1,2,2:0:0:0:
255,384,190334,2,0,P|256:339|236:299,1,78.75,10|0,1:0|2:0,2:0:0:0:
184,81,190496,1,2,1:0:0:0:
329,288,190658,6,0,P|361:296|408:313,1,78.75,10|0,1:0|2:0,2:0:0:0:
184,241,190821,2,0,P|220:227|259:217,1,78.75,2|0,1:0|2:0,2:0:0:0:
512,96,190983,6,0,P|462:150|394:121,2,157.5,10|2|8,1:0|1:0|1:0,2:0:0:0:
347,8,191469,2,0,P|342:38|296:74,1,78.75,2|0,1:0|2:0,2:0:0:0:
278,139,191631,6,0,P|199:44|89:59,1,236.25,10|0,1:0|2:0,2:0:0:0:
24,24,191956,2,0,P|3:58|19:106,1,78.75,8|0,1:0|2:0,2:0:0:0:
60,297,192118,2,0,P|78:199|76:123,1,157.5,2|0,1:0|2:0,2:0:0:0:
36,213,192442,1,2,1:0:0:0:
0,384,192604,6,0,P|88:319|225:314,1,236.25,10|2,1:0|2:0,2:0:0:0:
368,384,192929,2,0,P|292:326|311:249,1,157.5,6|0,1:0|2:0,2:0:0:0:
371,176,193253,1,8,1:0:0:0:
406,140,193334,1,8,1:0:0:0:
382,98,193415,1,8,1:0:0:0:
411,53,193496,1,8,1:0:0:0:
397,33,193577,6,0,P|316:21|176:127,1,236.25,10|2,1:0|2:0,2:0:0:0:
100,70,193902,2,0,P|115:120|122:165,1,78.75,10|0,1:0|2:0,2:0:0:0:
204,301,194064,2,0,P|211:262|223:224,1,78.75,10|0,1:0|2:0,2:0:0:0:
276,167,194226,1,12,1:0:0:0:
75,228,194388,1,8,1:0:0:0:
72,217,194469,1,8,1:0:0:0:
65,210,194550,6,0,P|11:288|127:347,1,236.250009012223,10|0,1:0|2:0,2:0:0:0:
179,373,194875,2,0,P|199:336|193:259,1,78.75,10|0,1:0|2:0,2:0:0:0:
153,244,195037,1,2,1:0:0:0:
364,383,195199,2,0,P|433:347|528:342,1,157.5,10|2,1:0|2:0,2:0:0:0:
213,165,195523,6,0,P|313:224|430:240,1,236.25,10|2,1:0|2:0,2:0:0:0:
452,163,195848,2,0,P|493:147|517:106,1,78.75,10|0,1:0|2:0,2:0:0:0:
397,84,196010,2,0,P|403:40|380:0,1,78.75,8|0,1:0|2:0,2:0:0:0:
292,94,196172,6,0,P|264:78|199:63,1,78.75,14|0,1:0|2:0,2:0:0:0:
72,175,196334,2,0,P|44:191|-21:206,1,78.75,2|0,1:0|2:3,2:0:0:0:
60,0,196496,1,8,1:0:0:0:
79,8,196577,1,8,1:0:0:0:
97,20,196658,2,0,P|142:85|159:161,1,157.5,2|10,1:0|1:0,2:0:0:0:
219,310,196983,2,0,P|243:288|244:212,1,78.75,2|0,1:0|2:0,2:0:0:0:
135,384,197145,2,0,P|131:356|86:304,1,78.75,10|0,1:0|2:0,2:0:0:0:
0,312,197307,6,0,P|120:257|155:214,1,157.5,2|0,1:0|1:0,2:0:0:0:
219,310,197631,1,2,1:0:0:0:
338,188,197794,5,10,1:0:0:0:
366,165,197875,1,8,1:0:0:0:
420,168,197956,1,8,1:0:0:0:
454,117,198037,1,8,1:0:0:0:
504,148,198118,2,0,L|493:229,1,78.75,8|0,1:0|2:0,2:0:0:0:
360,78,198280,2,0,L|371:-3,1,78.75,8|0,1:0|2:0,2:0:0:0:
216,149,198442,6,0,L|184:383,1,236.25,12|0,1:0|2:0,2:0:0:0:
183,383,198767,6,0,P|172:338|135:293,1,78.75,14|0,1:0|2:0,2:0:0:0:
83,267,198929,2,0,P|37:254|-19:264,1,78.75,2|2,1:0|2:0,2:0:0:0:
82,347,199091,2,0,L|190:174,2,157.5,10|2|10,1:0|1:0|1:0,2:0:0:0:
307,149,199577,5,2,1:0:0:0:
283,160,199658,1,2,2:3:0:0:
259,171,199740,2,0,B|252:210|252:210|262:269,1,78.75,10|0,1:0|2:0,2:0:0:0:
442,352,199902,2,0,B|448:312|448:312|438:253,1,78.75,2|0,1:0|2:0,2:0:0:0:
316,354,200064,6,0,B|339:256|352:314|382:173,1,157.5,10|2,1:0|1:0,2:0:0:0:
436,39,200307,1,2,2:0:0:0:
402,77,200388,2,0,P|410:116|463:159,1,78.75,10|0,1:0|2:0,2:0:0:0:
260,82,200550,2,0,P|284:51|292:13,1,78.75,2|0,1:0|2:0,2:0:0:0:
10,150,200713,6,0,B|37:127|37:127|180:97|180:97|92:73,1,236.25,10|0,1:0|2:0,2:0:0:0:
10,150,201037,2,0,P|6:191|39:247,1,78.75,10|0,1:0|2:0,2:0:0:0:
144,344,201199,2,0,P|148:303|115:247,1,78.75,2|0,1:0|2:0,2:0:0:0:
331,129,201361,6,0,B|340:161|340:161|318:231,1,78.75,10|0,1:0|2:0,2:0:0:0:
461,289,201523,2,0,L|377:279,1,78.75,2|0,1:0|2:0,2:0:0:0:
241,121,201685,6,0,B|250:153|250:153|228:223,1,78.75,10|0,1:0|2:0,2:0:0:0:
410,369,201848,2,0,L|326:359,1,78.75,2|0,1:0|2:0,2:0:0:0:
136,333,202010,6,0,L|220:323,1,78.75,10|0,1:0|2:0,2:0:0:0:
415,201,202172,1,2,1:0:0:0:
425,185,202253,1,2,2:3:0:0:
432,173,202334,2,0,P|395:134|294:159,1,157.5,10|2,1:0|1:0,2:0:0:0:
11,248,202658,6,0,P|55:251|114:283,1,78.75,14|0,1:0|2:0,2:0:0:0:
197,345,202821,2,0,P|231:317|261:257,1,78.75,0|2,1:0|2:3,2:0:0:0:
80,171,202983,6,0,P|123:166|187:187,1,78.75,8|0,1:0|2:0,2:0:0:0:
225,353,203145,2,0,P|253:319|273:255,1,78.75,2|0,1:0|2:0,2:0:0:0:
128,82,203307,6,0,P|170:69|236:79,1,78.75,14|0,1:0|2:0,2:0:0:0:
253,355,203469,2,0,P|276:318|283:251,1,78.75,2|0,1:0|2:0,2:0:0:0:
300,150,203631,5,8,1:0:0:0:
334,102,203713,1,8,1:0:0:0:
368,54,203794,1,8,1:0:0:0:
422,79,203875,1,8,1:0:0:0:
475,103,203956,6,0,P|447:131|431:166,1,78.75,14|0,1:0|2:0,2:0:0:0:
424,250,204118,2,0,P|434:287|457:319,1,78.75,2|2,1:0|2:3,2:0:0:0:
512,214,204280,2,0,L|344:202,1,157.5,10|2,1:0|1:0,2:0:0:0:
72,268,204604,5,10,1:0:0:0:
86,278,204685,1,0,1:0:0:0:
101,287,204767,2,0,L|184:281,1,78.75,2|2,1:0|2:3,2:0:0:0:
261,378,204929,2,0,B|277:272|277:272|253:208,1,157.5,10|2,1:0|1:0,2:0:0:0:
32,18,205253,6,0,P|92:69|178:57,1,157.5,10|2,1:0|1:0,2:0:0:0:
265,36,205496,1,2,2:3:0:0:
265,36,205577,2,0,P|252:79|260:158,1,78.75,10|0,1:0|2:0,2:0:0:0:
423,136,205740,2,0,P|436:93|428:14,1,78.75,2|0,1:0|2:0,2:0:0:0:
328,182,205902,6,0,B|313:238|313:238|330:284|330:284|314:353,1,157.5,10|2,1:0|2:0,2:0:0:0:
239,293,206145,1,2,2:0:0:0:
223,296,206226,2,0,L|90:323,1,78.75,8|0,1:0|2:0,2:0:0:0:
404,228,206388,5,10,1:0:0:0:
419,231,206469,1,2,1:0:0:0:
435,234,206550,2,0,B|473:225|473:225|516:154|436:107,1,157.5,10|2,1:0|1:0,2:0:0:0:
77,150,206875,2,0,B|39:159|39:159|-4:230|76:277,1,157.5,10|2,1:0|1:0,2:0:0:0:
307,325,207199,5,10,1:0:0:0:
295,343,207280,1,2,1:0:0:0:
283,361,207361,2,0,L|255:205,1,157.5,2|8,1:0|1:0,2:0:0:0:
178,142,207604,1,2,1:0:0:0:
184,133,207685,2,0,L|198:55,1,78.75,2|0,1:0|2:0,2:0:0:0:
479,25,207848,6,0,B|486:63|486:63|399:127|341:40,2,210,10|2|10,1:0|1:0|1:0,2:0:0:0:
413,124,208253,5,0,1:0:0:0:
398,142,208334,1,10,1:0:0:0:
395,164,208415,1,8,1:0:0:0:
402,186,208496,2,0,B|464:197|464:197|516:175,1,105,10|0,1:0|2:0,2:0:0:0:
327,357,208658,2,0,B|343:318|343:318|332:256,1,105,2|2,1:0|2:3,2:0:0:0:
417,270,208821,6,0,L|183:28,1,315,14|0,1:0|2:0,2:0:0:0:
197,43,209145,6,0,L|115:63,1,78.75,10|0,1:0|2:0,2:0:0:0:
7,53,209307,2,0,L|27:134,1,78.75,2|2,1:0|2:3,2:0:0:0:
73,316,209469,2,0,B|98:218|111:272|140:149,1,157.5,10|2,1:0|1:0,2:0:0:0:
505,53,209794,6,0,L|484:134,1,78.75,10|0,1:0|2:0,2:0:0:0:
400,339,209956,1,2,1:0:0:0:
420,328,210037,1,2,2:3:0:0:
439,316,210118,2,0,B|414:218|401:272|372:149,1,157.5,8|2,1:0|1:0,2:0:0:0:
250,0,210442,6,0,B|262:51|262:51|250:102|250:102|262:153,1,157.5,14|2,1:0|1:0,2:0:0:0:
125,315,210685,1,2,2:3:0:0:
169,280,210767,2,0,P|166:234|124:158,1,78.75,10|0,1:0|2:0,2:0:0:0:
340,241,210929,2,0,P|328:278|326:317,1,78.75,2|0,1:0|2:0,2:0:0:0:
42,193,211091,6,0,B|68:203|68:203|131:182|131:182|195:88|62:58,1,236.25,14|0,1:0|2:0,2:0:0:0:
42,193,211415,6,0,P|26:237|34:285,1,78.75,14|0,1:0|2:0,2:0:0:0:
154,384,211577,2,0,B|239:355,1,78.75,2|0,1:0|2:0,2:0:0:0:
413,288,211740,5,14,1:0:0:0:
211,210,211902,1,2,1:0:0:0:
424,128,212064,6,0,L|347:158,1,78.75,10|0,1:0|2:0,2:0:0:0:
121,246,212226,1,2,1:0:0:0:
121,246,212388,6,0,B|110:215|110:215|126:144,1,78.75,14|0,1:0|2:0,2:0:0:0:
322,74,212550,1,2,1:0:0:0:
308,84,212631,1,2,2:3:0:0:
294,93,212713,2,0,P|263:90|184:66,1,78.75,10|0,1:0|2:0,2:0:0:0:
11,57,212875,2,0,P|42:54|121:30,1,78.75,2|0,1:0|2:0,2:0:0:0:
216,291,213037,6,0,B|300:192|331:200|360:327,1,236.25,10|2,1:0|2:3,2:0:0:0:
359,325,213361,6,0,B|326:179|290:169|191:284,1,275.625,10|0,1:0|2:0,2:0:0:0:
191,285,213685,6,0,B|303:154|344:164|382:331,1,315,14|0,1:0|2:0,2:0:0:0:
382,332,214010,6,0,P|431:308|463:227,1,78.75,8|8,1:0|1:0,2:0:0:0:
486,215,214172,2,0,P|475:161|406:109,1,78.75,8|8,1:0|1:0,2:0:0:0:
421,72,214334,5,14,1:0:0:0:
406,82,214415,1,2,2:3:0:0:
391,92,214496,2,0,L|313:77,1,78.75,8|2,1:0|2:3,2:0:0:0:
158,10,214658,2,0,B|214:58|172:122|172:122|109:95,1,157.5,10|2,1:0|1:0,2:0:0:0:
35,253,214983,6,0,L|113:238,1,78.75,10|0,1:0|2:0,2:0:0:0:
308,166,215145,1,10,1:0:0:0:
291,174,215226,1,10,1:0:0:0:
275,183,215307,2,0,B|218:231|260:295|260:295,1,78.75,10|0,1:0|2:0,2:0:0:0:
471,333,215469,2,0,B|527:284|485:220|485:220,1,78.75,2|0,1:0|2:0,2:0:0:0:
407,159,215631,6,0,B|398:210|398:210|367:252|367:252|358:304,1,157.5,10|0,1:0|2:0,2:0:0:0:
398,374,215875,1,2,2:3:0:0:
398,374,215956,2,0,P|435:369|501:379,1,78.75,10|0,1:0|2:0,2:0:0:0:
279,325,216118,2,0,P|242:330|176:320,1,78.75,2|0,1:0|2:0,2:0:0:0:
407,159,216280,6,0,B|465:101|400:44|400:44|381:59|381:59|356:51|356:51|336:65|336:65|311:55,1,236.25,10|0,1:0|2:0,2:0:0:0:
407,159,216604,2,0,B|492:174,1,78.75,8|0,1:0|2:0,2:0:0:0:
222,124,216767,2,0,B|137:109,1,78.75,8|8,1:0|1:0,2:0:0:0:
311,55,216929,5,10,1:0:0:0:
385,245,217091,1,2,1:0:0:0:
70,300,217253,6,0,L|100:226,1,78.75,10|0,1:0|2:0,2:0:0:0:
144,110,217415,1,2,1:0:0:0:
75,152,217577,6,0,P|38:136|-2:138,1,78.75,10|0,1:0|2:0,2:0:0:0:
304,217,217740,1,2,2:3:0:0:
286,209,217821,1,2,2:3:0:0:
266,209,217902,1,10,1:0:0:0:
316,238,217983,5,8,1:0:0:0:
373,256,218064,1,8,1:0:0:0:
431,260,218145,1,8,1:0:0:0:
490,252,218226,6,0,P|514:222|504:170,4,78.7500000000002,14|2|2|2|2,1:0|2:1|2:1|2:1|2:0,2:0:0:0:
256,0,219199,2,0,L|256:320,1,315,14|0,1:0|2:0,2:0:0:0:
256,315,219523,6,0,L|168:338,1,91.8750000000001,4|0,1:0|2:0,2:0:0:0:
76,245,219685,1,2,2:1:0:0:
168,338,219848,2,0,L|256:315,1,91.8750000000001,8|0,1:0|2:0,2:0:0:0:
287,188,220010,1,2,2:1:0:0:
256,315,220172,2,0,L|168:338,1,91.8750000000001,8|0,1:0|2:0,2:0:0:0:
76,245,220334,1,2,2:1:0:0:
168,338,220496,2,0,L|256:315,1,91.8750000000001,8|0,1:0|2:0,2:0:0:0:
287,188,220658,1,2,2:1:0:0:
256,315,220820,2,0,L|168:338,1,91.8750000000001,10|0,1:0|2:0,2:0:0:0:
76,245,220983,1,2,2:1:0:0:
168,338,221145,2,0,L|256:315,1,91.8750000000001,10|0,1:0|2:0,2:0:0:0:
287,188,221307,1,2,2:1:0:0:
256,315,221469,2,0,L|168:338,1,91.8750000000001,10|0,1:0|2:0,2:0:0:0:
76,245,221631,1,2,2:1:0:0:
168,338,221794,2,0,L|256:315,1,91.8750000000001,10|0,1:0|2:0,2:0:0:0:
287,188,221956,1,2,2:1:0:0:
256,315,222118,2,0,L|168:338,1,91.8750000000001,10|0,1:0|2:0,2:0:0:0:
76,245,222280,1,2,2:1:0:0:
168,338,222442,2,0,L|256:315,1,91.8750000000001,10|0,1:0|2:0,2:0:0:0:
287,188,222604,1,2,2:1:0:0:
256,315,222766,2,0,L|168:338,1,91.8750000000001,10|0,1:0|2:0,2:0:0:0:
76,245,222929,1,2,2:1:0:0:
168,338,223091,2,0,L|256:315,1,91.8750000000001,10|0,1:0|2:0,2:0:0:0:
287,188,223253,1,2,2:1:0:0:
256,315,223415,2,0,L|168:338,1,91.8750000000001,10|0,1:0|2:0,2:0:0:0:
76,245,223577,1,2,2:1:0:0:
168,338,223740,2,0,L|256:315,1,91.8750000000001,10|0,1:0|2:0,2:0:0:0:
287,188,223902,1,2,2:1:0:0:
256,315,224064,2,0,L|168:338,1,91.8750000000001,10|0,1:0|2:0,2:0:0:0:
76,245,224226,1,2,2:1:0:0:
168,338,224388,2,0,L|256:315,1,91.8750000000001,10|0,1:0|2:0,2:0:0:0:
287,188,224550,1,2,2:1:0:0:
256,315,224712,6,0,L|168:338,1,91.8750000000001,14|0,1:0|2:0,2:0:0:0:
133,310,224875,6,0,L|224:310,1,91.8750000000001,8|0,1:0|2:0,2:0:0:0:
194,298,225037,6,0,L|106:275,1,91.8750000000001,8|0,1:0|2:0,2:0:0:0:
90,233,225199,6,0,L|169:278,1,91.8750000000001,8|0,1:0|2:0,2:0:0:0:
149,253,225361,6,0,L|85:189,1,91.8750000000001,8|0,1:0|2:0,2:0:0:0:
90,143,225523,6,0,L|137:223,1,91.8750000000001,8|0,1:0|2:0,2:0:0:0:
133,191,225685,6,0,L|109:104,1,91.8750000000001,8|0,1:0|2:0,2:0:0:0:
137,69,225848,6,0,L|137:160,1,91.8750000000001,8|0,1:0|2:0,2:0:0:0:
149,130,226010,6,0,L|172:42,1,91.8750000000001,8|0,1:0|2:0,2:0:0:0:
214,26,226172,6,0,L|169:105,1,91.8750000000001,8|0,1:0|2:0,2:0:0:0:
194,85,226334,6,0,L|258:21,1,91.8750000000001,8|0,1:0|2:0,2:0:0:0:
303,26,226496,6,0,L|224:73,1,91.8750000000001,8|0,1:0|2:0,2:0:0:0:
255,69,226658,6,0,L|343:45,1,91.8750000000001,8|0,1:0|2:0,2:0:0:0:
378,73,226821,6,0,L|287:73,1,91.8750000000001,8|0,1:0|2:0,2:0:0:0:
317,85,226983,6,0,L|405:108,1,91.8750000000001,8|0,1:0|2:0,2:0:0:0:
342,105,227145,6,0,L|421:150,1,91.8750000000001,8|0,1:0|2:0,2:0:0:0:
512,192,227307,5,8,1:0:0:0:
504,192,227388,1,8,1:0:0:0:
496,192,227469,2,0,L|417:192,1,78.7500030040742,8|8,1:0|1:0,2:0:0:0:
409,192,227631,5,8,1:0:0:0:
401,192,227712,1,8,1:0:0:0:
393,192,227793,2,0,L|314:192,1,78.7500030040742,8|8,1:0|1:0,2:0:0:0:
306,192,227956,5,8,1:0:0:0:
298,192,228037,1,8,1:0:0:0:
290,192,228118,2,0,L|211:192,1,78.7500030040742,8|8,1:0|1:0,2:0:0:0:
203,192,228280,5,8,1:0:0:0:
195,192,228361,1,8,1:0:0:0:
187,192,228442,2,0,L|108:192,1,78.7500030040742,8|8,1:0|1:0,2:0:0:0:
100,192,228604,6,2,L|28:192,64,65.625,2|2|2|2|2|2|2|2|2|2|2|2|2|2|2|2|2|2|2|2|2|2|2|2|2|2|2|2|2|2|2|2|2|2|2|2|2|2|2|2|2|2|2|2|2|2|2|2|2|2|2|2|2|2|2|2|2|2|2|2|2|2|2|2|0,2:3|2:3|2:3|2:3|2:3|2:3|2:3|2:3|2:3|2:3|2:3|2:3|2:3|2:3|2:3|2:3|2:3|2:3|2:3|2:3|2:3|2:3|2:3|2:3|2:3|2:3|2:3|2:3|2:3|2:3|2:3|2:3|2:3|2:3|2:3|2:3|2:3|2:3|2:3|2:3|2:3|2:3|2:3|2:3|2:3|2:3|2:3|2:3|2:3|2:3|2:3|2:3|2:3|2:3|2:3|2:3|2:3|2:3|2:3|2:3|2:3|2:3|2:3|2:3|2:0,2:3:0:0:
