osu file format v14

[General]
AudioFilename: audio.ogg
AudioLeadIn: 0
PreviewTime: 20915
Countdown: 0
SampleSet: Soft
StackLeniency: 0.3
Mode: 0
LetterboxInBreaks: 0
EpilepsyWarning: 1
WidescreenStoryboard: 1

[Editor]
Bookmarks: 1942,4537,14915,25294,35672,46050,56429,66807,77185,77348,77510,77672,77834,77996,78158,78321,78483,78645,78807,78969,79131,79294,79456,79618,79780,79942,80104,80267,80429,80591,80753,80915,81077,81240,81402,81564,81726,81888,82050,82213,82375,92753,103131,113510,123888,134267,144645,158915,169294,179672,200429,221185,232861
DistanceSpacing: 0.9
BeatDivisor: 8
GridSize: 4
TimelineZoom: 5.199998

[Metadata]
Title:INTERNET YAMERO
TitleUnicode:INTERNET YAMERO
Artist:Aiobahn feat. KOTOKO
ArtistUnicode:Aiobahn feat. KOTOKO
Creator:Ducky-
Version:BIG DATA'S NYMPHOMANIA
Source:NEEDY GIRL OVERDOSE
Tags:big data iljaaz anxient gorou wanpachi tohru mitsuhashi 前田地生 まろん maron iosys eurobeat rawstyle speedcore extratone ame-chan amechan wss playground overdose synthpop arcaea にゃるら nyalra nyarura xemono maeda chisei as_chisei インターネットやめろ electronic japanese pop jpop j-pop female vocal vocalist ft. featuring videogame video game music vgm denpa hardstyle techno hardcore synthwave streamer overload ame kangel omgkawaiiangel angel p-chan pchan tenshi muse dash fa featured artist
BeatmapID:4341639
BeatmapSetID:2074198

[Difficulty]
HPDrainRate:3.4
CircleSize:3.8
OverallDifficulty:9
ApproachRate:9.7
SliderMultiplier:3.59999990463257
SliderTickRate:1

[Events]
//Background and Video events
Video,-1880,"video.mp4"
0,0,"big_data.jpg",0,0
//Break Periods
2,75723,80217
2,143183,155460
//Storyboard Layer 0 (Background)
//Storyboard Layer 1 (Fail)
//Storyboard Layer 2 (Pass)
//Storyboard Layer 3 (Foreground)
//Storyboard Layer 4 (Overlay)
//Storyboard Sound Samples

[TimingPoints]
-2314,324.324324324324,4,2,1,60,1,0
280,-66.6666666666667,4,2,1,60,0,0
604,-500,4,2,1,60,0,0
929,-100,4,2,1,60,0,0
2550,-50,4,2,1,60,0,0
5469,-100,4,2,1,60,0,0
15685,-333.333333333333,4,2,1,60,0,0
17794,-133.333333333333,4,2,1,60,0,0
18118,-333.333333333333,4,2,1,60,0,0
21037,-66.6666666666667,4,2,1,60,0,0
21361,-500,4,2,1,60,0,0
21685,-66.6666666666667,4,2,1,60,0,0
22010,-500,4,2,1,60,0,0
22334,-100,4,2,1,60,0,0
23307,-200,4,2,1,60,0,0
23631,-76.9230769230769,4,2,1,80,0,0
24118,-90.9090909090909,4,2,1,80,0,0
24604,-71.4285714285714,4,2,1,80,0,0
24929,-200,4,2,1,80,0,0
25091,-76.9230769230769,4,2,1,80,0,0
25415,-90.9090909090909,4,2,1,80,0,0
25577,-71.4285714285714,4,2,1,80,0,0
25902,-222.222222222221,4,2,1,80,0,0
26226,-76.9230769230769,4,2,1,80,0,0
26713,-90.9090909090909,4,2,1,80,0,0
27199,-71.4285714285714,4,2,1,80,0,0
27523,-200,4,2,1,80,0,0
27685,-76.9230769230769,4,2,1,80,0,0
28010,-90.9090909090909,4,2,1,80,0,0
28496,-133.333333333333,4,2,1,80,0,0
28821,-76.9230769230769,4,2,1,80,0,0
29307,-71.4285714285714,4,2,1,80,0,0
29469,-50,4,2,1,80,0,0
29794,-166.666666666667,4,2,1,80,0,0
30118,-76.9230769230769,4,2,1,80,0,0
30767,-71.4285714285714,4,2,1,80,0,0
31091,-33.3333333333333,4,2,1,80,0,0
31253,-41.6666666666667,4,2,1,80,0,0
31415,-76.9230769230769,4,2,1,80,0,0
31740,-133.333333333333,4,2,1,80,0,0
31902,-76.9230769230769,4,2,1,80,0,0
32226,-66.6666666666667,4,2,1,80,0,0
32388,-200,4,2,1,80,0,0
32713,-66.6666666666667,4,2,1,80,0,0
33037,-90.9090909090909,4,2,1,80,0,0
34010,-181.818181818181,4,2,2,70,0,0
54604,-285.714285714284,4,2,2,70,0,0
54767,-133.333333333333,4,2,2,70,0,0
67740,-153.846153846153,4,2,2,70,0,0
80713,-153.846153846153,4,2,1,80,0,0
82983,-399.999999999994,4,2,1,80,0,0
85577,-83.3333333333333,4,2,1,80,0,0
87199,-153.846153846153,4,2,1,80,0,0
88172,-399.999999999994,4,2,1,80,0,0
91091,-95.2380952380949,4,2,1,80,0,0
91415,-117.647058823529,4,2,1,80,0,0
92226,-133.333333333333,4,2,1,80,0,0
93685,-105.263157894737,4,2,1,80,0,0
94577,-95.2380952380949,4,2,1,80,0,0
99929,-62.5,4,2,1,80,0,0
100172,-83.3333333333333,4,2,1,80,0,0
102118,-1000,4,2,1,80,0,0
102442,-83.3333333333333,4,2,1,80,0,0
103415,-1000,4,2,1,80,0,0
103740,-83.3333333333333,4,2,1,80,0,0
104713,-1000,4,2,1,80,0,0
105037,-83.3333333333333,4,2,1,80,0,0
106010,-1000,4,2,1,80,0,0
106334,-83.3333333333333,4,2,1,80,0,0
107956,-83.3333333333333,4,2,1,80,0,0
111848,-133.333333333333,4,2,1,80,0,0
112010,-76.9230769230769,4,2,1,80,0,0
112415,-333.333333333333,4,2,1,80,0,0
112658,-66.6666666666667,4,2,1,80,0,0
113631,-181.818181818181,4,2,1,80,0,0
113956,-133.333333333333,4,2,1,80,0,0
114604,-76.9230769230769,4,2,1,80,0,0
115010,-333.333333333333,4,2,1,80,0,0
115253,-66.6666666666667,4,2,1,80,0,0
116226,-181.818181818181,4,2,1,80,0,0
116550,-133.333333333333,4,2,1,80,0,0
117199,-76.9230769230769,4,2,1,80,0,0
117604,-333.333333333333,4,2,1,80,0,0
117848,-66.6666666666667,4,2,1,80,0,0
118821,-181.818181818181,4,2,1,80,0,0
119307,-76.9230769230769,4,2,1,80,0,0
119631,-133.333333333333,4,2,1,80,0,0
119794,-76.9230769230769,4,2,1,80,0,0
120199,-333.333333333333,4,2,1,80,0,0
120442,-66.6666666666667,4,2,1,80,0,0
121415,-181.818181818181,4,2,1,80,0,0
121902,-76.9230769230769,4,2,1,80,0,0
122388,-100,4,2,1,80,0,0
124172,-500,4,2,1,80,0,0
124334,-100,4,2,1,80,0,0
129361,-181.818181818181,4,2,1,80,0,0
129523,-105.263157894737,4,2,1,80,0,0
131307,-79.9999999999999,4,2,1,80,0,0
131956,-333.333333333333,4,2,1,80,0,0
132280,-100,4,2,1,80,0,0
132604,-43.4782608695652,4,2,1,90,0,0
133091,-200,4,2,1,90,0,0
133253,-38.4615384615385,4,2,1,90,0,0
133415,-55.5555555555556,4,2,1,90,0,0
133577,-58.8235294117647,4,2,1,90,0,0
133902,-333.333333333333,4,2,1,90,0,0
134226,-47.6190476190476,4,2,1,90,0,0
134388,-200,4,2,1,90,0,0
134550,-43.4782608695652,4,2,1,90,0,0
134875,-45.4545454545455,4,2,1,90,0,0
135361,-66.6666666666667,4,2,1,90,0,0
135523,-38.4615384615385,4,2,1,90,0,0
135848,-47.6190476190476,4,2,1,90,0,0
136172,-50,4,2,1,90,0,0
136334,-200,4,2,1,90,0,0
136496,-44.8430493273543,4,2,1,90,0,0
136821,-125,4,2,1,90,0,0
137145,-41.6666666666667,4,2,1,90,0,0
137469,-66.6666666666667,4,2,1,90,0,0
137550,-58.8235294117647,4,2,1,90,0,0
137631,-50,4,2,1,90,0,0
137713,-45.4545454545455,4,2,1,90,0,0
137794,-47.6190476190476,4,2,1,90,0,0
137956,-200,4,2,1,90,0,0
138118,-41.6666666666667,4,2,1,90,0,0
138280,-55.5555555555556,4,2,1,90,0,0
138442,-62.5,4,2,1,90,0,0
138767,-43.4782608695652,4,2,1,90,0,0
138929,-41.6666666666667,4,2,1,90,0,0
139253,-50,4,2,1,90,0,0
139415,-43.4782608695652,4,2,1,90,0,0
139577,-200,4,2,1,90,0,0
139740,-35.7142857142857,4,2,1,90,0,0
139902,-66.6666666666667,4,2,1,90,0,0
140064,-38.4615384615385,4,2,1,90,0,0
140226,-66.6666666666667,4,2,1,90,0,0
157253,-66.6666666666667,4,2,1,60,0,0
159848,-100,4,2,1,60,0,0
167631,-125,4,2,1,60,0,0
174118,-111.111111111111,4,2,1,60,0,0
175415,-66.6666666666667,4,2,1,60,0,0
175740,-500,4,2,1,60,0,0
176064,-66.6666666666667,4,2,1,60,0,0
176388,-500,4,2,1,60,0,0
176713,-100,4,2,1,60,0,0
177685,-200,4,2,1,90,0,0
178010,-76.9230769230769,4,2,1,80,0,0
178496,-90.9090909090909,4,2,1,80,0,0
178821,-71.4285714285714,4,2,1,80,0,0
179145,-62.5,4,2,1,80,0,0
179469,-100,4,2,1,80,0,0
179631,-222.222222222221,4,2,1,80,0,0
179794,-76.9230769230769,4,2,1,80,0,0
179956,-71.4285714285714,4,2,1,80,0,0
181091,-90.9090909090909,4,2,1,80,0,0
181415,-71.4285714285714,4,2,1,80,0,0
182226,-62.5,4,2,1,80,0,0
182550,-83.3333333333333,4,2,1,80,0,0
182875,-100,4,2,1,80,0,0
183199,-71.4285714285714,4,2,1,80,0,0
183523,-90.9090909090909,4,2,1,80,0,0
183848,-71.4285714285714,4,2,1,80,0,0
184172,-200,4,2,1,80,0,0
184334,-83.3333333333333,4,2,1,80,0,0
184821,-71.4285714285714,4,2,1,80,0,0
185307,-100,4,2,1,80,0,0
185469,-333.333333333333,4,2,1,80,0,0
185794,-71.4285714285714,4,2,1,80,0,0
186280,-90.9090909090909,4,2,1,80,0,0
186442,-76.9230769230769,4,2,1,80,0,0
186929,-66.6666666666667,4,2,1,80,0,0
187415,-25,4,2,1,80,0,0
187496,-27.027027027027,4,2,1,80,0,0
187577,-29.4117647058824,4,2,1,80,0,0
187658,-32.258064516129,4,2,1,80,0,0
187902,-333.333333333333,4,2,1,80,0,0
188064,-33.3333333333333,4,2,1,80,0,0
188388,-76.9230769230769,4,2,1,80,0,0
188713,-90.9090909090909,4,2,1,80,0,0
189361,-71.4285714285714,4,2,1,80,0,0
189523,-62.5,4,2,1,80,0,0
189848,-100,4,2,1,80,0,0
190010,-222.222222222221,4,2,1,80,0,0
190172,-76.9230769230769,4,2,1,80,0,0
190334,-71.4285714285714,4,2,1,80,0,0
191469,-90.9090909090909,4,2,1,80,0,0
191956,-71.4285714285714,4,2,1,80,0,0
192118,-66.6666666666667,4,2,1,80,0,0
192604,-71.4285714285714,4,2,1,80,0,0
193253,-100,4,2,1,80,0,0
193577,-62.5,4,2,1,80,0,0
193902,-90.9090909090909,4,2,1,80,0,0
194064,-55.5555555555556,4,2,1,80,0,0
194226,-25,4,2,1,80,0,0
194550,-100,4,2,1,80,0,0
194713,-71.4285714285714,4,2,1,80,0,0
195037,-90.9090909090909,4,2,1,80,0,0
195199,-71.4285714285714,4,2,1,80,0,0
195685,-100,4,2,1,80,0,0
195848,-333.333333333333,4,2,1,80,0,0
196172,-71.4285714285714,4,2,1,80,0,0
196658,-90.9090909090909,4,2,1,80,0,0
196821,-76.9230769230769,4,2,1,80,0,0
197307,-66.6666666666667,4,2,1,80,0,0
197794,-25,4,2,1,80,0,0
197875,-27.027027027027,4,2,1,80,0,0
198037,-32.258064516129,4,2,1,80,0,0
198280,-333.333333333333,4,2,1,80,0,0
198442,-33.3333333333333,4,2,1,80,0,0
198848,-76.9230769230769,4,2,1,80,0,0
199091,-90.9090909090909,4,2,1,80,0,0
199740,-71.4285714285714,4,2,1,80,0,0
200388,-399.999999999997,4,2,1,80,0,0
200713,-76.9230769230769,4,2,1,80,0,0
201037,-58.8235294117647,4,2,1,80,0,0
201361,-71.4285714285714,4,2,1,80,0,0
202658,-200,4,2,1,80,0,0
202983,-142.857142857143,4,2,1,80,0,0
203307,-100,4,2,1,80,0,0
204118,-76.9230769230769,4,2,1,80,0,0
204442,-133.333333333333,4,2,1,80,0,0
204929,-71.4285714285714,4,2,1,80,0,0
205415,-100,4,2,1,80,0,0
205902,-66.6666666666667,4,2,1,80,0,0
206226,-333.333333333333,4,2,1,80,0,0
206550,-76.9230769230769,4,2,1,80,0,0
207037,-90.9090909090909,4,2,1,80,0,0
207199,-222.222222222221,4,2,1,80,0,0
207523,-76.9230769230769,4,2,1,80,0,0
207685,-125,4,2,1,80,0,0
207848,-50,4,2,1,80,0,0
208172,-25,4,2,1,80,0,0
208253,-27.027027027027,4,2,1,80,0,0
208334,-29.4117647058824,4,2,1,80,0,0
208415,-32.258064516129,4,2,1,80,0,0
208496,-40,4,2,1,80,0,0
208577,-45.4545454545455,4,2,1,80,0,0
208658,-52.6315789473684,4,2,1,80,0,0
208740,-62.5,4,2,1,80,0,0
208821,-333.333333333333,4,2,1,80,0,0
208983,-33.3333333333333,4,2,1,80,0,0
209307,-71.4285714285714,4,2,1,80,0,0
210929,-90.9090909090909,4,2,1,80,0,0
211091,-62.5,4,2,1,80,0,0
211415,-333.333333333333,4,2,1,80,0,0
211740,-76.9230769230769,4,2,1,80,0,0
212713,-71.4285714285714,4,2,1,80,0,0
213037,-133.333333333333,4,2,1,80,0,0
213199,-83.3333333333333,4,2,1,80,0,0
213361,-166.666666666667,4,2,1,80,0,0
213523,-83.3333333333333,4,2,1,80,0,0
213685,-71.4285714285714,4,2,1,80,0,0
214010,-25,4,2,1,80,0,0
214091,-27.027027027027,4,2,1,80,0,0
214172,-29.4117647058824,4,2,1,80,0,0
214253,-32.258064516129,4,2,1,80,0,0
214415,-43.4782608695652,4,2,1,80,0,0
214658,-83.3333333333333,4,2,1,80,0,0
214821,-55.5555555555556,4,2,1,80,0,0
214983,-30.3030303030303,4,2,1,80,0,0
215145,-71.4285714285714,4,2,1,80,0,0
215307,-62.5,4,2,1,80,0,0
215631,-71.4285714285714,4,2,1,80,0,0
215956,-333.333333333333,4,2,1,80,0,0
216280,-40,4,2,1,80,0,0
216604,-50,4,2,1,80,0,0
217091,-71.4285714285714,4,2,1,80,0,0
217577,-1000,4,2,1,80,0,0
217740,-29.4117647058824,4,2,1,80,0,0
217821,-32.258064516129,4,2,1,80,0,0
217902,-40,4,2,1,80,0,0
217983,-45.4545454545455,4,2,1,80,0,0
218064,-52.6315789473684,4,2,1,80,0,0
218145,-62.5,4,2,1,80,0,0
218226,-71.4285714285714,4,2,1,80,0,0
218550,-83.3333333333333,4,2,1,80,0,0
219199,-76.9230769230769,4,2,1,80,0,0
219523,-76.9230769230769,4,2,1,90,0,0
219685,-66.6666666666667,4,2,1,90,0,0
219766,-66.6666666666667,4,2,1,5,0,0
219848,-66.6666666666667,4,2,1,90,0,0
220091,-66.6666666666667,4,2,1,5,0,0
220172,-66.6666666666667,4,2,1,90,0,0
220415,-66.6666666666667,4,2,1,5,0,0
220496,-66.6666666666667,4,2,1,90,0,0
220739,-66.6666666666667,4,2,1,5,0,0
220821,-66.6666666666667,4,2,1,90,0,0
221064,-66.6666666666667,4,2,1,5,0,0
221145,-66.6666666666667,4,2,1,90,0,0
221388,-66.6666666666667,4,2,1,5,0,0
221469,-66.6666666666667,4,2,1,90,0,0
221712,-66.6666666666667,4,2,1,5,0,0
221794,-66.6666666666667,4,2,1,90,0,0
222037,-66.6666666666667,4,2,1,5,0,0
222118,-66.6666666666667,4,2,1,90,0,0
222361,-66.6666666666667,4,2,1,5,0,0
222442,-66.6666666666667,4,2,1,90,0,0
222685,-66.6666666666667,4,2,1,5,0,0
222767,-66.6666666666667,4,2,1,90,0,0
223010,-66.6666666666667,4,2,1,5,0,0
223091,-66.6666666666667,4,2,1,90,0,0
223334,-66.6666666666667,4,2,1,5,0,0
223415,-66.6666666666667,4,2,1,90,0,0
223658,-66.6666666666667,4,2,1,5,0,0
223740,-66.6666666666667,4,2,1,90,0,0
223983,-66.6666666666667,4,2,1,5,0,0
224064,-66.6666666666667,4,2,1,90,0,0
224307,-66.6666666666667,4,2,1,5,0,0
224388,-66.6666666666667,4,2,1,90,0,0
224631,-66.6666666666667,4,2,1,5,0,0
224713,-100,4,2,1,90,0,0
224794,-100,4,2,1,5,0,0
224875,-100,4,2,1,90,0,0
224956,-100,4,2,1,5,0,0
225037,-100,4,2,1,90,0,0
225118,-100,4,2,1,5,0,0
225199,-100,4,2,1,90,0,0
225280,-100,4,2,1,5,0,0
225361,-142.857142857143,4,2,1,90,0,0
225442,-142.857142857143,4,2,1,5,0,0
225523,-142.857142857143,4,2,1,90,0,0
225604,-142.857142857143,4,2,1,5,0,0
225685,-142.857142857143,4,2,1,90,0,0
225766,-142.857142857143,4,2,1,5,0,0
225848,-142.857142857143,4,2,1,90,0,0
225929,-142.857142857143,4,2,1,5,0,0
226010,-250,4,2,1,90,0,0
226091,-250,4,2,1,5,0,0
226172,-250,4,2,1,90,0,0
226253,-250,4,2,1,5,0,0
226334,-250,4,2,1,90,0,0
226415,-250,4,2,1,5,0,0
226496,-250,4,2,1,90,0,0
226577,-250,4,2,1,5,0,0
226658,-500,4,2,1,90,0,0
226739,-500,4,2,1,5,0,0
226821,-500,4,2,1,90,0,0
226902,-500,4,2,1,5,0,0
226983,-500,4,2,1,90,0,0
227064,-500,4,2,1,5,0,0
227145,-500,4,2,1,90,0,0
227226,-500,4,2,1,5,0,0
227307,-500,4,2,1,90,0,0

[Colours]
Combo1 : 250,120,175
Combo2 : 147,200,253

[HitObjects]
511,328,280,6,1,L|94:261,1,404.999989271164,2|0,1:0|2:0,2:0:0:0:
111,263,604,2,1,L|98:219,1,35.9999990463257,2|0,1:0|2:0,2:0:0:0:
171,365,929,6,1,L|190:259,1,89.9999976158142,2|0,1:0|2:0,2:0:0:0:
42,136,1091,2,1,L|26:224,1,89.9999976158142,2|0,1:0|2:0,2:0:0:0:
255,234,1253,2,1,P|239:183|158:167,1,89.9999976158142,2|0,1:0|2:0,2:0:0:0:
25,298,1415,2,1,P|57:340|139:327,1,89.9999976158142,2|0,1:0|2:0,2:0:0:0:
453,101,1577,5,2,1:0:0:0:
284,0,1740,2,1,L|331:192,1,179.999995231628,2|0,1:0|2:0,2:0:0:0:
255,234,2064,5,2,1:0:0:0:
442,374,2226,2,1,L|395:182,1,179.999995231628,2|0,1:0|2:0,2:0:0:0:
398,193,2550,6,1,L|418:103,1,89.9999976158142,8|0,2:0|2:0,2:0:0:0:
352,384,2713,2,1,L|372:294,1,89.9999976158142,8|0,2:0|2:0,2:0:0:0:
450,13,2875,5,6,1:0:0:0:
76,371,5469,6,1,L|60:300,1,44.9999988079071,6|0,1:0|2:0,2:0:0:0:
443,59,8064,6,1,L|427:-12,1,44.9999988079071,6|0,1:0|2:0,2:0:0:0:
436,371,10658,6,1,L|451:300,1,44.9999988079071,6|0,1:0|2:0,2:0:0:0:
251,208,11956,2,1,L|266:137,1,44.9999988079071,4|0,1:0|2:0,2:0:0:0:
83,96,12604,6,0,L|98:25,1,44.9999988079071,12|0,1:0|2:0,1:0:0:0:
6,7,12848,1,8,2:0:0:0:
6,7,12929,2,1,L|15:50,1,44.9999988079071,8|0,2:0|2:0,2:0:0:0:
157,114,13091,2,0,L|166:157,1,44.9999988079071,10|0,1:0|2:0,2:0:0:0:
310,67,13253,5,8,1:0:0:0:
319,53,13334,1,0,1:0:0:0:
357,44,13415,1,0,1:0:0:0:
402,77,13496,1,0,1:0:0:0:
412,137,13577,1,0,1:0:0:0:
378,180,13658,1,0,1:0:0:0:
383,197,13740,1,0,1:0:0:0:
404,197,13821,1,0,1:0:0:0:
370,182,13902,1,2,1:0:0:0:
334,217,13983,1,0,1:0:0:0:
333,267,14064,1,0,1:0:0:0:
378,309,14145,1,0,1:0:0:0:
395,362,14226,5,0,1:0:0:0:
331,319,14307,1,0,1:0:0:0:
262,351,14388,1,0,1:0:0:0:
112,362,14550,5,2,1:0:0:0:
93,346,14631,1,0,1:0:0:0:
103,320,14713,1,0,1:0:0:0:
157,328,14794,1,0,1:0:0:0:
172,313,14875,1,0,1:0:0:0:
182,258,14956,1,0,1:0:0:0:
147,191,15037,1,0,1:0:0:0:
77,169,15118,1,0,1:0:0:0:
18,222,15199,1,2,1:0:0:0:
23,236,15280,5,0,1:0:0:0:
74,180,15361,1,0,1:0:0:0:
69,111,15442,1,0,1:0:0:0:
16,57,15523,1,0,1:0:0:0:
158,13,15685,6,1,L|150:65,1,26.9999992847443,2|0,1:3|2:0,2:0:0:0:
292,295,15848,5,8,1:0:0:0:
301,275,15929,1,0,1:0:0:0:
331,260,16010,1,0,1:0:0:0:
386,282,16091,1,0,1:0:0:0:
411,337,16172,1,0,1:0:0:0:
412,320,16253,1,0,1:0:0:0:
440,270,16334,1,0,1:0:0:0:
501,270,16415,1,0,1:0:0:0:
506,284,16496,5,2,1:0:0:0:
467,255,16577,1,0,1:0:0:0:
454,191,16658,1,0,1:0:0:0:
491,141,16740,1,0,1:0:0:0:
477,82,16821,2,1,L|487:43,3,26.9999992847443,0|0|0|0,1:0|1:0|1:0|1:0,2:0:0:0:
387,12,17145,5,2,1:0:0:0:
332,67,17226,1,0,1:0:0:0:
341,133,17307,1,0,1:0:0:0:
364,152,17388,1,0,1:0:0:0:
376,146,17469,1,0,1:0:0:0:
402,168,17550,1,0,1:0:0:0:
397,240,17631,1,0,1:0:0:0:
337,260,17713,1,0,1:0:0:0:
264,230,17794,6,0,P|257:191|239:150,2,67.4999982118609,2|0|0,1:0|1:0|1:0,2:0:0:0:
479,352,18037,1,8,2:3:0:0:
479,352,18118,2,0,L|469:398,1,26.9999992847443,8|0,1:3|2:0,2:0:0:0:
397,360,18280,2,0,L|402:333,1,26.9999992847443,2|0,1:2|2:0,2:0:0:0:
129,156,18442,5,4,1:0:0:0:
172,27,18604,5,0,1:0:0:0:
245,9,18685,1,0,1:0:0:0:
275,31,18767,1,2,1:0:0:0:
283,46,18848,2,1,L|276:87,1,26.9999992847443,0|0,1:0|1:0,2:0:0:0:
208,185,19010,1,0,1:0:0:0:
215,200,19091,2,1,L|219:173,1,26.9999992847443,8|0,1:2|1:0,2:0:0:0:
362,54,19253,2,1,L|355:95,1,26.9999992847443,0|0,1:0|1:0,2:0:0:0:
276,294,19415,1,8,1:0:0:0:
240,341,19496,1,0,1:0:0:0:
184,339,19577,1,0,1:0:0:0:
169,317,19658,1,0,1:0:0:0:
245,364,19740,5,4,1:0:0:0:
319,312,19821,1,0,1:0:0:0:
409,313,19902,1,0,1:0:0:0:
455,357,19983,1,0,1:0:0:0:
449,376,20064,1,2,1:0:0:0:
442,338,20145,1,0,1:0:0:0:
464,286,20226,1,0,1:0:0:0:
504,243,20307,1,0,1:0:0:0:
477,178,20388,5,8,1:2:0:0:
439,167,20469,1,0,1:0:0:0:
427,126,20550,1,0,1:0:0:0:
440,99,20631,1,0,1:0:0:0:
485,31,20713,5,8,1:0:0:0:
485,23,20794,1,0,1:0:0:0:
482,17,20875,1,0,1:0:0:0:
475,15,20956,1,0,1:0:0:0:
440,99,21037,6,1,L|-8:44,1,404.999989271164,12|0,1:0|1:0,2:0:0:0:
38,49,21361,2,0,L|25:1,1,35.9999990463257,10|0,1:0|1:0,1:0:0:0:
52,259,21685,6,1,L|500:204,1,404.999989271164,10|0,1:0|1:0,2:0:0:0:
453,209,22010,2,0,L|466:160,1,35.9999990463257,2|2,1:0|1:0,2:0:0:0:
258,370,22334,6,1,L|242:299,1,44.9999988079071,2|0,2:1|2:0,2:0:0:0:
254,195,22658,2,1,L|238:124,1,44.9999988079071,2|0,2:1|2:0,2:0:0:0:
257,45,22983,2,1,L|241:-26,1,44.9999988079071,2|0,2:1|2:0,2:0:0:0:
260,52,23307,6,1,L|254:73,1,22.4999994039536,12|0,1:0|2:0,2:0:0:0:
250,88,23388,2,1,L|244:109,1,22.4999994039536,8|0,1:0|2:0,2:0:0:0:
239,122,23469,2,1,L|233:143,1,22.4999994039536,8|0,1:0|2:0,2:0:0:0:
229,155,23550,2,1,L|223:176,1,22.4999994039536,8|0,1:0|2:0,2:0:0:0:
196,244,23631,6,0,L|81:217,1,116.999996900559,4|0,1:0|2:0,2:0:0:0:
210,318,23794,2,1,L|323:344,1,116.999996900559,2|2,2:0|2:0,2:0:0:0:
144,148,23956,1,8,1:0:0:0:
410,362,24118,2,0,L|384:247,1,98.9999973773957,0|0,1:0|2:0,2:0:0:0:
63,371,24280,5,8,1:0:0:0:
262,81,24442,1,2,2:1:0:0:
262,81,24523,1,2,2:3:0:0:
262,81,24604,2,0,L|325:350,1,251.99999332428,8|2,1:0|1:0,2:0:0:0:
372,202,24848,1,0,2:0:0:0:
372,202,24929,6,0,L|379:145,1,44.9999988079071,4|0,1:0|2:0,1:0:0:0:
185,0,25091,2,1,L|170:116,1,116.999996900559,2|2,1:0|2:0,2:0:0:0:
353,38,25253,1,10,1:0:0:0:
98,199,25415,2,0,L|83:82,1,98.9999973773957,2|0,1:0|2:0,2:0:0:0:
478,234,25577,6,0,P|285:162|282:6,1,377.99998998642,4|0,1:0|2:0,2:0:0:0:
281,20,25902,2,0,L|276:62,1,40.4999989271166,12|0,1:0|2:0,2:0:0:0:
231,263,26064,2,0,L|226:222,1,40.4999989271166,2|0,1:0|2:0,2:0:0:0:
478,363,26226,6,0,L|326:330,1,116.999996900559,14|0,1:0|2:0,2:0:0:0:
171,335,26388,2,1,L|285:359,1,116.999996900559,0|2,2:0|2:0,2:0:0:0:
467,262,26550,1,10,1:0:0:0:
104,384,26713,2,0,L|82:284,1,98.9999973773957,2|0,1:0|2:0,2:0:0:0:
279,79,26875,5,12,1:0:0:0:
290,366,27037,1,2,1:0:0:0:
290,366,27118,1,2,2:3:0:0:
290,366,27199,2,0,L|348:118,1,251.99999332428,10|2,1:0|1:0,2:0:0:0:
417,77,27442,1,2,2:3:0:0:
417,77,27523,6,0,L|424:127,1,44.9999988079071,12|0,1:0|2:0,2:0:0:0:
245,198,27685,2,1,L|225:59,1,116.999996900559,2|2,1:0|2:0,2:0:0:0:
414,250,27848,2,0,L|430:365,1,116.999996900559,10|0,1:0|2:0,2:0:0:0:
157,146,28010,2,0,L|140:29,1,98.9999973773957,2|0,1:0|2:0,2:0:0:0:
488,27,28172,6,0,P|401:39|351:130,1,197.999994754791,4|2,1:0|2:0,2:0:0:0:
314,291,28415,1,0,1:0:0:0:
324,292,28496,2,1,L|275:282,1,33.7499991059304,10|0,1:0|2:0,2:0:0:0:
280,284,28577,2,1,L|231:274,1,33.7499991059304,8|0,1:0|2:0,2:0:0:0:
237,277,28658,2,1,L|188:267,1,33.7499991059304,8|0,1:0|2:0,2:0:0:0:
196,268,28740,2,1,L|147:258,1,33.7499991059304,8|0,1:0|2:0,2:0:0:0:
92,249,28821,6,0,L|75:125,1,116.999996900559,14|0,1:0|2:0,2:0:0:0:
12,269,28983,2,1,L|27:384,1,116.999996900559,0|0,1:0|2:0,2:0:0:0:
194,136,29145,6,0,P|179:80|109:59,1,116.999996900559,8|0,1:0|2:0,2:0:0:0:
118,354,29307,2,0,P|184:353|192:289,1,125.99999666214,10|0,1:0|2:0,2:0:0:0:
0,104,29469,6,0,L|262:167,1,269.999992847443,14|0,1:0|2:0,2:0:0:0:
316,103,29631,1,8,1:0:0:0:
322,113,29713,1,8,1:0:0:0:
262,167,29794,6,0,L|285:234,1,53.9999985694884,14|0,1:0|2:0,2:0:0:0:
427,384,29956,2,0,L|409:332,1,53.9999985694884,2|0,2:1|2:0,2:0:0:0:
426,109,30118,6,0,L|401:243,1,116.999996900559,14|0,1:0|2:0,2:0:0:0:
316,384,30280,2,1,L|337:268,1,116.999996900559,2|2,2:1|2:0,2:0:0:0:
491,209,30442,1,10,1:0:0:0:
238,93,30604,1,2,1:0:0:0:
237,384,30767,6,0,B|183:187|19:333|-3:103,1,377.99998998642,12|0,1:0|2:0,2:0:0:0:
26,48,31091,2,0,P|77:-3|67:107,1,269.999992847443,12|0,1:0|2:0,2:0:0:0:
225,252,31253,2,0,P|308:249|239:182,1,215.999994277954,8|0,1:0|2:0,2:0:0:0:
114,365,31415,6,1,L|182:118,1,233.999993801117,10|0,1:0|1:0,2:0:0:0:
235,87,31658,1,8,1:0:0:0:
235,87,31740,2,1,L|216:9,1,67.4999982118609,8|0,1:0|2:0,2:0:0:0:
215,337,31902,2,0,L|327:305,1,116.999996900559,2|0,1:0|2:0,2:0:0:0:
122,59,32064,5,8,1:0:0:0:
476,66,32226,6,1,L|489:0,1,67.4999982118607,2|0,2:0|2:0,2:0:0:0:
460,66,32307,2,1,L|473:0,1,67.4999982118607,2|0,1:2|2:0,2:0:0:0:
482,69,32388,6,1,L|477:90,1,22.4999994039536,8|0,1:0|2:0,2:0:0:0:
470,135,32469,2,1,L|465:156,1,22.4999994039536,0|0,1:0|2:0,2:0:0:0:
456,197,32550,2,1,L|451:218,1,22.4999994039536,0|0,1:0|2:0,2:0:0:0:
440,265,32631,2,1,L|435:286,1,22.4999994039536,0|0,1:0|2:0,2:0:0:0:
449,365,32713,6,0,P|510:347|499:272,1,134.999996423721,4|0,1:0|2:0,2:0:0:0:
195,262,32875,2,1,P|134:244|145:169,1,134.999996423721,2|0,2:0|2:0,2:0:0:0:
232,0,33037,2,1,P|279:13|270:72,1,98.9999973773957,2|0,1:0|2:0,2:0:0:0:
380,189,33199,2,1,P|333:194|322:239,1,98.9999973773957,2|0,2:1|2:0,2:0:0:0:
251,364,33361,1,2,2:1:0:0:
249,376,33685,6,0,L|197:56,1,296.999992132187,14|0,1:0|2:0,2:0:0:0:
195,80,34010,6,0,L|66:62,1,98.9999973773961,4|0,3:2|2:0,2:0:0:0:
252,17,34334,2,0,L|350:30,1,98.9999973773961,10|0,2:0|2:0,2:0:0:0:
177,190,34658,1,2,3:2:0:0:
301,143,34821,2,1,P|318:195|301:250,1,98.9999973773961,2|10,2:0|2:0,2:0:0:0:
104,380,35145,6,0,P|113:329|164:306,1,98.9999973773961,2|0,2:0|3:0,2:0:0:0:
301,321,35469,2,0,P|374:314|447:298,1,148.499996066094,2|0,2:0|2:0,2:0:0:0:
447,288,35794,2,0,L|457:208,1,49.4999986886981,2|0,2:0|2:0,2:0:0:0:
268,47,35956,1,0,3:0:0:0:
303,135,36118,1,0,3:0:0:0:
372,71,36280,1,10,2:0:0:0:
146,0,36442,1,2,2:0:0:0:
146,0,36523,1,2,2:0:0:0:
138,0,36604,6,0,L|181:208,1,197.999994754792,2|8,3:2|2:0,2:0:0:0:
255,198,37091,1,2,2:0:0:0:
115,356,37253,1,2,3:2:0:0:
275,331,37415,2,0,L|148:299,1,98.9999973773961,2|8,2:0|2:0,2:0:0:0:
84,240,37740,6,1,P|64:201|80:143,1,98.9999973773961,2|2,2:0|3:2,2:0:0:0:
354,293,38064,2,1,P|366:340|345:383,1,98.9999973773961,2|8,2:0|2:0,2:0:0:0:
255,198,38388,1,2,2:0:0:0:
357,121,38550,1,0,3:0:0:0:
405,194,38713,1,0,3:0:0:0:
298,66,38875,2,1,P|314:28|381:14,1,98.9999973773961,10|2,2:0|2:0,2:0:0:0:
433,39,39199,6,0,L|210:0,1,197.999994754792,4|8,3:2|2:0,2:0:0:0:
277,189,39685,1,2,2:0:0:0:
59,318,39848,2,0,L|282:279,1,197.999994754792,0|10,3:2|2:0,2:0:0:0:
436,197,40334,1,2,2:0:0:0:
445,370,40496,6,0,P|480:342|483:286,1,98.9999973773961,0|0,3:2|2:0,2:0:0:0:
382,134,40821,2,0,P|347:162|344:218,1,98.9999973773961,10|0,2:0|2:0,2:0:0:0:
341,370,41145,1,0,3:2:0:0:
251,183,41307,1,2,3:2:0:0:
83,266,41469,1,10,2:0:0:0:
24,206,41631,1,2,2:0:0:0:
76,57,41794,6,0,P|174:83|292:96,1,197.999994754792,2|8,3:2|2:0,2:0:0:0:
344,45,42280,1,2,2:0:0:0:
176,248,42442,2,1,P|155:212|171:159,1,98.9999973773961,0|0,3:0|2:0,2:0:0:0:
374,227,42767,2,0,P|390:272|368:315,1,98.9999973773961,10|0,2:0|2:0,2:0:0:0:
314,373,43010,1,0,2:0:0:0:
314,373,43091,6,0,P|216:347|98:334,1,197.999994754792,0|10,3:2|2:0,2:0:0:0:
372,32,43740,6,1,L|387:93,1,49.4999986886981,2|0,3:2|2:0,2:0:0:0:
457,114,43902,2,1,L|468:65,1,49.4999986886981,0|0,3:0|2:0,2:0:0:0:
301,85,44064,1,10,2:0:0:0:
461,220,44226,5,0,2:0:0:0:
461,220,44307,1,0,2:0:0:0:
461,220,44388,2,0,P|402:209|351:193,1,98.9999973773961,6|2,3:2|2:3,2:0:0:0:
164,184,44713,1,10,2:0:0:0:
284,95,44875,1,2,2:3:0:0:
314,270,45037,1,2,3:0:0:0:
199,109,45199,2,0,P|186:58|179:5,1,98.9999973773961,2|8,2:0|2:0,2:0:0:0:
246,193,45523,6,0,P|238:254|212:353,1,148.499996066094,2|0,2:3|2:0,2:3:0:0:
209,342,45848,1,2,2:3:0:0:
151,249,46010,1,10,2:0:0:0:
305,330,46172,2,1,P|364:326|426:330,1,98.9999973773961,2|0,2:3|3:0,2:0:0:0:
499,183,46496,1,2,3:0:0:0:
480,327,46658,2,1,L|474:380,1,49.4999986886981,10|0,2:0|2:0,2:0:0:0:
376,141,46821,1,2,2:3:0:0:
376,141,46902,1,2,2:3:0:0:
376,141,46983,6,0,P|256:160|231:255,1,197.999994754792,4|8,3:2|2:0,2:0:0:0:
295,253,47469,1,2,2:3:0:0:
156,372,47631,1,0,3:2:0:0:
96,323,47794,2,1,P|90:270|78:226,1,98.9999973773961,2|10,2:3|2:0,2:0:0:0:
329,345,48118,6,0,L|209:326,1,98.9999973773961,2|0,2:3|3:2,2:0:0:0:
35,158,48442,2,1,L|132:173,1,98.9999973773961,2|10,2:3|2:0,2:0:0:0:
240,114,48767,1,2,2:3:0:0:
175,247,48929,1,0,3:0:0:0:
258,257,49091,1,2,3:0:0:0:
92,92,49253,2,1,P|75:56|86:-4,1,98.9999973773961,10|2,2:0|2:3,2:0:0:0:
351,31,49577,5,6,3:2:0:0:
246,169,49740,1,2,2:0:0:0:
438,140,49902,2,1,L|330:148,1,98.9999973773961,8|0,2:0|2:0,2:0:0:0:
186,90,50226,2,1,L|284:82,1,98.9999973773961,0|2,3:2|2:3,2:0:0:0:
473,214,50550,2,0,P|489:278|475:324,1,98.9999973773961,10|2,2:0|2:3,2:0:0:0:
257,307,50875,1,0,3:2:0:0:
257,307,51037,1,2,2:3:0:0:
356,384,51199,6,1,L|319:174,1,197.999994754792,10|0,2:0|3:0,2:0:0:0:
360,257,51685,2,1,L|428:266,1,49.4999986886981,2|0,3:0|2:0,2:0:0:0:
252,159,51848,2,1,L|231:93,1,49.4999986886981,10|0,2:0|2:0,2:0:0:0:
451,322,52010,1,2,2:3:0:0:
200,231,52172,6,0,P|101:192|59:103,1,197.999994754792,0|8,3:2|2:0,2:0:0:0:
125,42,52658,1,2,2:3:0:0:
224,87,52821,2,0,P|248:47|246:-8,1,98.9999973773961,0|2,3:0|2:3,2:0:0:0:
47,16,53145,2,0,P|58:84|60:135,1,98.9999973773961,8|2,2:0|2:3,2:0:0:0:
64,273,53469,5,0,3:0:0:0:
129,208,53631,1,2,2:3:0:0:
177,370,53794,2,1,L|73:350,1,98.9999973773961,10|2,2:0|2:3,2:0:0:0:
6,342,54037,1,0,3:0:0:0:
5,351,54118,1,0,3:0:0:0:
311,212,54280,5,8,2:0:0:0:
292,287,54361,1,8,2:0:0:0:
272,362,54442,1,8,2:0:0:0:
410,157,54604,6,1,L|396:112,1,31.4999991655352,10|0,2:0|2:0,2:0:0:0:
332,42,54767,6,0,L|508:76,1,134.999996423722,6|2,3:2|2:3,2:0:0:0:
255,91,55091,1,10,2:0:0:0:
384,235,55253,1,2,2:3:0:0:
176,163,55415,2,1,P|154:103|170:36,1,134.999996423722,2|2,3:2|2:3,2:0:0:0:
407,15,55740,2,1,P|446:2|485:1,1,67.4999982118609,10|0,2:0|2:0,2:0:0:0:
310,36,55902,5,2,2:3:0:0:
384,107,56064,1,0,3:0:0:0:
308,168,56226,1,2,2:3:0:0:
308,168,56307,1,2,2:3:0:0:
308,168,56388,1,8,2:0:0:0:
454,289,56550,6,0,P|465:242|459:152,1,134.999996423722,2|0,2:3|3:2,2:0:0:0:
248,258,56875,1,2,3:0:0:0:
353,384,57037,2,1,L|341:292,1,67.4999982118609,8|0,2:0|2:0,2:0:0:0:
328,197,57199,1,2,2:3:0:0:
66,79,57361,6,0,P|100:197|121:291,1,202.499994635583,2|0,3:2|2:0,2:0:0:0:
115,284,57685,1,10,2:0:0:0:
207,84,57848,2,1,P|191:144|181:222,1,134.999996423722,2|2,2:3|3:2,2:0:0:0:
323,362,58172,2,0,P|373:346|371:256,1,134.999996423722,2|8,2:3|2:0,2:0:0:0:
207,84,58496,6,1,P|178:76|129:56,1,67.4999982118609,2|0,2:3|2:0,2:0:0:0:
407,40,58658,1,0,3:0:0:0:
277,205,58821,1,2,2:3:0:0:
248,20,58983,1,10,2:0:0:0:
380,177,59145,2,1,P|435:191|540:204,1,134.999996423722,2|2,2:3|3:2,2:0:0:0:
300,95,59469,1,2,3:0:0:0:
488,6,59631,2,1,P|510:30|506:63,1,67.4999982118609,10|0,2:0|2:0,2:0:0:0:
434,83,59794,2,1,P|412:59|417:27,1,67.4999982118609,2|2,2:3|2:3,2:0:0:0:
501,360,59956,6,0,P|446:240|306:275,1,269.999992847443,2|8,3:2|2:0,2:0:0:0:
228,345,60442,1,2,2:3:0:0:
184,212,60604,2,1,L|164:147,2,67.4999982118609,2|0|2,3:2|2:0|2:3,2:0:0:0:
366,348,60929,2,1,P|419:362|503:369,1,134.999996423722,8|2,2:0|2:3,2:0:0:0:
324,171,61253,1,2,3:2:0:0:
259,218,61415,1,2,2:3:0:0:
328,256,61577,1,10,2:0:0:0:
214,54,61740,1,2,2:0:0:0:
214,54,61821,1,2,2:3:0:0:
214,54,61902,6,1,L|230:124,1,67.4999982118609,0|0,3:0|2:0,2:0:0:0:
315,18,62064,2,1,L|300:84,1,67.4999982118609,2|0,3:0|2:0,2:0:0:0:
107,20,62226,1,10,2:0:0:0:
384,93,62388,6,1,P|427:83|463:60,1,67.4999982118609,2|0,2:3|2:0,2:0:0:0:
192,217,62550,2,0,P|114:150|1:158,1,202.499994635583,2|0,3:2|2:0,2:0:0:0:
18,150,62875,2,1,P|-1:96|25:20,1,134.999996423722,8|2,2:0|2:0,2:0:0:0:
132,280,63199,1,0,3:2:0:0:
192,217,63361,2,1,P|214:279|194:342,1,134.999996423722,2|10,2:3|2:0,2:0:0:0:
73,366,63685,2,1,L|-3:344,1,67.4999982118609,2|0,2:3|2:0,2:0:0:0:
253,157,63848,2,0,L|529:236,1,269.999992847443,2|10,3:2|2:0,2:0:0:0:
491,309,64334,1,2,2:0:0:0:
361,47,64496,6,1,L|377:130,1,67.4999982118609,0|0,3:0|2:0,2:0:0:0:
448,102,64658,2,1,L|435:35,1,67.4999982118609,0|0,3:0|2:0,2:0:0:0:
102,32,64821,2,0,P|180:38|222:106,1,134.999996423722,10|0,2:0|2:0,2:0:0:0:
217,86,65064,1,2,2:0:0:0:
290,83,65145,6,0,P|281:182|128:239,1,269.999992847443,6|8,3:2|2:0,2:0:0:0:
329,271,65631,1,2,2:0:0:0:
174,345,65794,2,1,P|118:325|56:322,1,67.4999982118609,2|0,2:0|2:0,2:0:0:0:
168,167,65956,1,2,2:0:0:0:
335,384,66118,2,1,L|353:244,1,134.999996423722,8|2,2:0|2:0,2:0:0:0:
406,191,66361,1,0,2:0:0:0:
411,181,66442,5,0,3:0:0:0:
438,314,66604,2,1,L|452:390,2,67.5000007867814,2|0|8,3:0|2:0|2:0,2:0:0:0:
289,143,66929,1,2,3:0:0:0:
346,87,67091,2,1,L|333:20,2,67.4999982118609,0|0|2,3:0|2:0|2:0,2:0:0:0:
347,252,67415,1,8,2:0:0:0:
464,104,67577,1,2,3:0:0:0:
265,282,67740,6,0,B|110:221|240:221|71:155,1,233.999993801118,2|8,3:0|2:0,2:0:0:0:
70,69,68226,1,2,3:0:0:0:
108,265,68388,2,1,P|115:305|101:357,2,58.4999984502796,2|0|2,3:0|2:0|2:0,2:0:0:0:
219,103,68713,1,8,2:0:0:0:
146,64,68875,6,0,P|144:34|151:6,2,58.4999984502796,2|0|2,3:0|2:0|3:0,2:0:0:0:
81,167,69199,1,2,3:0:0:0:
312,83,69361,1,10,2:0:0:0:
288,159,69523,2,0,P|262:172|233:179,2,58.4999984502796,2|0|0,3:0|2:0|2:0,2:0:0:0:
385,62,69848,5,2,3:0:0:0:
393,280,70010,2,1,L|380:222,1,58.4999984502796,8|0,2:0|2:0,2:0:0:0:
467,242,70172,2,1,L|480:184,1,58.4999984502796,2|0,3:0|2:0,2:0:0:0:
338,350,70334,5,0,3:2:0:0:
332,348,70415,1,0,3:2:0:0:
326,347,70496,1,0,3:2:0:0:
320,346,70577,1,0,3:2:0:0:
315,345,70658,1,8,3:2:0:0:
309,344,70740,1,0,3:2:0:0:
303,343,70821,1,0,3:2:0:0:
297,342,70902,1,0,3:2:0:0:
292,340,70983,1,0,3:2:0:0:
286,339,71064,1,0,3:2:0:0:
280,338,71145,1,0,3:2:0:0:
274,337,71226,1,0,3:2:0:0:
269,336,71307,1,8,3:2:0:0:
263,335,71388,1,0,3:2:0:0:
257,334,71469,1,0,3:2:0:0:
251,333,71550,1,0,3:2:0:0:
231,259,71631,5,0,3:2:0:0:
225,257,71713,1,0,3:2:0:0:
219,256,71794,1,0,3:2:0:0:
213,255,71875,1,0,3:2:0:0:
208,254,71956,1,8,3:2:0:0:
202,253,72037,1,0,3:2:0:0:
196,252,72118,1,0,3:2:0:0:
190,251,72199,1,0,3:2:0:0:
185,249,72280,1,2,3:2:0:0:
179,248,72361,1,0,3:2:0:0:
173,247,72442,6,1,L|162:186,1,58.4999984502796,2|0,3:0|2:0,2:0:0:0:
106,332,72604,2,1,L|95:271,1,58.4999984502796,8|0,3:2|2:0,2:0:0:0:
245,363,72767,1,2,3:2:0:0:
41,35,72929,5,0,3:2:0:0:
50,24,73010,1,0,3:2:0:0:
62,15,73091,1,0,3:2:0:0:
76,9,73172,1,0,3:2:0:0:
90,7,73253,1,8,3:2:0:0:
104,7,73334,1,0,3:2:0:0:
119,11,73415,1,0,3:2:0:0:
132,17,73496,1,0,3:2:0:0:
143,27,73577,1,0,3:2:0:0:
152,38,73658,1,0,3:2:0:0:
158,51,73740,1,0,3:2:0:0:
161,65,73821,1,0,3:2:0:0:
161,80,73902,1,8,3:2:0:0:
158,94,73983,1,0,3:2:0:0:
152,108,74064,1,0,3:2:0:0:
143,119,74145,1,0,3:2:0:0:
132,129,74226,5,0,3:2:0:0:
121,139,74307,1,0,3:2:0:0:
112,151,74388,1,2,3:2:0:0:
106,165,74469,1,0,3:2:0:0:
104,179,74550,1,8,3:2:0:0:
104,193,74631,1,0,3:2:0:0:
108,208,74713,1,2,3:2:0:0:
114,221,74794,1,0,3:2:0:0:
124,232,74875,1,0,3:2:0:0:
135,241,74956,1,0,3:2:0:0:
148,247,75037,6,1,L|158:180,1,58.4999984502796,8|8,2:0|2:0,2:0:0:0:
294,99,75199,2,1,L|304:32,1,58.4999984502796,8|0,2:0|2:0,2:0:0:0:
241,345,75361,1,10,2:0:0:0:
309,384,75523,5,6,2:0:0:0:
430,280,80713,5,8,1:3:0:0:
401,301,80794,1,8,3:0:0:0:
365,302,80875,1,8,2:3:0:0:
336,283,80956,1,8,2:3:0:0:
286,210,81037,5,8,3:0:0:0:
228,172,81118,1,8,3:0:0:0:
157,173,81199,1,8,2:3:0:0:
101,215,81280,1,8,2:3:0:0:
47,278,81361,5,8,3:0:0:0:
89,312,81442,1,8,3:0:0:0:
123,300,81523,1,8,2:3:0:0:
131,282,81604,1,8,2:3:0:0:
180,369,81685,5,8,3:0:0:0:
244,321,81767,1,8,3:0:0:0:
314,317,81848,1,8,2:3:0:0:
336,328,81929,1,8,2:3:0:0:
419,328,82010,6,1,P|408:357|403:396,3,58.4999984502796,8|8|8|8,3:0|3:0|2:3|2:3,2:0:0:0:
448,259,82334,5,8,3:0:0:0:
375,241,82415,1,8,3:0:0:0:
313,202,82496,1,8,2:3:0:0:
267,145,82577,1,8,2:3:0:0:
238,65,82658,5,8,3:0:0:0:
282,69,82740,1,8,3:0:0:0:
310,104,82821,1,8,2:3:0:0:
306,148,82902,1,8,2:3:0:0:
232,204,82983,6,1,L|248:197,1,11.249999701977,8|0,3:0|2:0,2:0:0:0:
222,144,83064,2,1,L|235:132,1,11.249999701977,8|0,3:0|2:0,2:0:0:0:
180,99,83145,2,1,L|187:85,1,11.249999701977,8|0,3:0|0:0,2:0:0:0:
120,87,83226,2,1,P|121:77|124:76,1,11.249999701977,8|0,2:3|2:0,2:0:0:0:
56,52,83307,5,8,3:0:0:0:
77,47,83388,1,8,3:0:0:0:
98,43,83469,1,8,2:3:0:0:
119,39,83550,1,8,2:3:0:0:
206,74,83631,5,8,3:0:0:0:
253,24,83713,1,8,3:0:0:0:
317,0,83794,1,8,2:3:0:0:
386,4,83875,1,8,2:3:0:0:
447,92,83956,5,8,3:0:0:0:
422,118,84037,1,8,3:0:0:0:
387,111,84118,1,8,2:3:0:0:
376,78,84199,1,8,2:3:0:0:
461,98,84280,5,8,3:0:0:0:
469,155,84361,1,8,3:0:0:0:
471,214,84442,1,8,2:3:0:0:
467,272,84523,1,8,2:3:0:0:
473,360,84604,5,8,3:0:0:0:
461,356,84685,1,8,3:0:0:0:
448,352,84767,1,8,2:3:0:0:
437,349,84848,1,8,2:3:0:0:
363,275,84929,5,8,3:0:0:0:
315,328,85010,1,8,3:0:0:0:
248,354,85091,1,8,2:3:0:0:
177,345,85172,1,8,2:3:0:0:
116,250,85253,5,8,3:0:0:0:
188,224,85334,1,8,3:0:0:0:
223,250,85415,1,8,2:3:0:0:
231,272,85496,1,8,2:3:0:0:
163,355,85577,6,1,L|137:222,1,107.999997138977,8|0,3:0|2:0,2:0:0:0:
316,64,85740,2,1,L|341:196,1,107.999997138977,8|0,3:0|2:0,2:0:0:0:
28,224,85902,2,1,L|7:117,1,107.999997138977,8|8,3:0|3:0,2:0:0:0:
72,17,86064,5,8,2:3:0:0:
75,32,86145,1,8,2:3:0:0:
77,46,86226,5,8,3:0:0:0:
132,97,86307,1,8,3:0:0:0:
201,102,86388,1,8,2:3:0:0:
226,81,86469,1,8,2:3:0:0:
258,14,86550,5,8,3:0:0:0:
283,5,86631,1,8,3:0:0:0:
307,19,86713,1,8,2:3:0:0:
317,45,86794,1,8,2:3:0:0:
376,94,86875,5,8,3:0:0:0:
313,129,86956,1,8,3:0:0:0:
309,183,87037,1,8,3:0:0:0:
331,211,87118,1,8,3:0:0:0:
311,283,87199,6,1,P|319:312|324:347,3,58.4999984502796,8|8|8|8,3:0|3:0|2:3|2:3,2:0:0:0:
389,372,87523,5,8,3:0:0:0:
403,306,87604,1,8,3:0:0:0:
422,243,87685,1,8,2:3:0:0:
443,181,87767,1,8,2:3:0:0:
471,107,87848,5,8,3:0:0:0:
448,96,87929,1,8,3:0:0:0:
443,72,88010,1,8,2:3:0:0:
458,53,88091,1,8,2:3:0:0:
379,58,88172,6,1,L|393:48,1,11.249999701977,8|0,3:0|2:0,2:0:0:0:
343,27,88253,2,1,L|352:11,1,11.249999701977,8|0,3:0|2:0,2:0:0:0:
293,19,88334,2,1,L|288:2,1,11.249999701977,8|0,3:0|2:0,2:0:0:0:
240,40,88415,2,1,L|229:31,1,11.249999701977,8|0,3:0|2:0,2:0:0:0:
182,101,88496,5,8,3:0:0:0:
235,154,88577,1,8,3:0:0:0:
244,202,88658,1,8,2:3:0:0:
227,228,88740,1,8,2:3:0:0:
152,196,88821,5,8,3:0:0:0:
99,249,88902,1,8,3:0:0:0:
90,297,88983,1,8,2:3:0:0:
107,323,89064,1,8,2:3:0:0:
156,384,89145,5,8,3:0:0:0:
188,351,89226,1,8,3:0:0:0:
194,322,89307,1,8,2:3:0:0:
184,306,89388,1,8,2:3:0:0:
90,297,89469,5,8,3:0:0:0:
58,264,89550,1,8,3:0:0:0:
52,235,89631,1,8,3:0:0:0:
62,219,89713,1,8,3:0:0:0:
88,132,89794,5,8,3:0:0:0:
116,135,89875,1,8,3:0:0:0:
133,158,89956,1,8,2:3:0:0:
129,186,90037,1,8,2:3:0:0:
179,244,90118,5,8,3:0:0:0:
177,259,90199,1,8,3:0:0:0:
164,268,90280,1,8,2:3:0:0:
149,266,90361,1,8,2:3:0:0:
205,172,90442,5,8,3:0:0:0:
206,164,90523,1,8,3:0:0:0:
212,159,90604,1,8,2:3:0:0:
220,160,90685,1,8,2:3:0:0:
267,221,90767,5,8,3:0:0:0:
271,221,90848,1,8,3:0:0:0:
273,224,90929,1,8,3:0:0:0:
273,228,91010,1,8,3:0:0:0:
332,172,91091,6,0,P|338:130|351:78,1,94.4999974966053,12|0,3:0|2:0,2:0:0:0:
131,102,91253,1,2,2:3:0:0:
126,96,91334,1,8,2:3:0:0:
119,91,91415,2,1,L|101:10,1,76.4999979734424,8|8,3:0|2:3,2:0:0:0:
209,74,91577,2,1,L|227:-7,1,76.4999979734424,10|0,2:3|2:0,2:0:0:0:
31,213,91740,5,10,3:2:0:0:
84,196,91821,1,0,2:0:0:0:
140,204,91902,1,2,2:3:0:0:
185,237,91983,1,8,2:3:0:0:
229,330,92064,5,8,3:0:0:0:
145,312,92145,1,8,2:3:0:0:
64,283,92226,2,1,L|-14:259,1,67.4999982118609,10|0,2:3|2:0,2:0:0:0:
391,100,92388,5,14,3:0:0:0:
436,119,92469,1,0,2:0:0:0:
447,156,92550,1,2,2:3:0:0:
440,170,92631,1,8,2:3:0:0:
415,198,92713,2,1,P|410:235|427:279,1,67.4999982118609,8|2,3:0|2:0,2:0:0:0:
325,271,92875,2,1,P|340:304|379:332,1,67.4999982118609,2|8,2:3|2:3,2:0:0:0:
311,125,93037,5,10,3:2:0:0:
207,175,93118,1,2,2:0:0:0:
139,128,93199,1,2,2:3:0:0:
133,95,93280,1,8,2:3:0:0:
200,65,93361,2,1,P|209:37|205:-13,2,67.4999982118609,8|0|8,3:0|2:0|2:3,2:0:0:0:
135,204,93604,1,8,2:3:0:0:
125,215,93685,2,0,P|82:231|28:238,1,85.4999977350234,14|0,3:0|2:0,2:0:0:0:
325,271,93848,2,0,P|360:300|393:343,1,85.4999977350234,2|0,2:3|2:0,2:0:0:0:
283,6,94010,5,8,3:0:0:0:
335,45,94091,1,2,2:0:0:0:
342,85,94172,1,2,2:3:0:0:
330,112,94253,1,8,2:3:0:0:
355,157,94334,5,10,3:2:0:0:
444,185,94415,1,2,2:0:0:0:
512,121,94496,1,2,2:3:0:0:
436,65,94577,2,1,L|416:157,1,94.4999974966053,8|8,2:3|3:0,2:0:0:0:
251,291,94740,2,1,L|231:383,1,94.4999974966053,0|0,2:0|2:0,2:0:0:0:
12,95,94902,1,2,2:1:0:0:
10,104,94983,5,8,3:0:0:0:
57,130,95064,1,2,2:0:0:0:
115,131,95145,1,2,2:3:0:0:
164,104,95226,1,8,2:3:0:0:
197,22,95307,5,8,3:0:0:0:
188,104,95388,1,2,2:0:0:0:
212,158,95469,1,2,2:3:0:0:
239,184,95550,1,8,2:3:0:0:
313,202,95631,6,1,P|335:176|333:111,1,94.4999974966053,10|2,3:2|2:0,2:0:0:0:
132,240,95794,1,2,2:3:0:0:
125,251,95875,2,1,P|133:283|188:319,1,94.4999974966053,8|8,2:3|3:0,2:0:0:0:
259,324,96037,1,0,2:0:0:0:
268,312,96118,1,0,2:0:0:0:
429,17,96280,5,8,3:0:0:0:
470,64,96361,1,2,2:1:0:0:
486,123,96442,1,2,2:3:0:0:
471,185,96523,1,8,2:3:0:0:
390,174,96604,5,8,3:0:0:0:
456,250,96685,1,2,2:0:0:0:
482,322,96767,1,2,2:3:0:0:
481,360,96848,1,8,2:3:0:0:
406,379,96929,6,1,L|286:353,1,94.4999974966053,10|2,3:2|2:0,2:0:0:0:
316,227,97091,2,1,L|232:136,1,94.4999974966053,2|8,2:3|2:3,2:0:0:0:
316,75,97253,2,1,L|307:14,2,47.2499987483026,8|0|0,3:0|2:0|2:0,2:0:0:0:
172,60,97415,1,0,2:0:0:0:
170,48,97496,1,2,2:1:0:0:
169,39,97577,1,8,3:0:0:0:
91,34,97658,1,2,2:0:0:0:
29,80,97740,1,2,2:3:0:0:
1,153,97821,1,8,2:3:0:0:
20,232,97902,5,8,3:0:0:0:
90,283,97983,1,2,2:0:0:0:
111,361,98064,1,2,2:3:0:0:
117,371,98145,1,8,2:3:0:0:
189,347,98226,6,1,P|204:328|164:222,1,94.4999974966053,10|2,3:2|2:0,2:0:0:0:
343,72,98388,5,2,2:3:0:0:
253,109,98469,1,8,2:3:0:0:
162,143,98550,2,1,L|52:181,1,94.4999974966053,8|0,3:0|2:0,2:0:0:0:
399,16,98713,6,1,P|414:35|374:141,1,94.4999974966053,0|2,2:0|2:1,2:0:0:0:
470,350,98875,5,8,3:0:0:0:
409,283,98956,1,2,2:0:0:0:
334,289,99037,1,2,2:3:0:0:
307,330,99118,1,8,2:3:0:0:
321,364,99199,5,8,3:0:0:0:
374,279,99280,1,2,2:0:0:0:
421,191,99361,2,1,L|465:88,1,94.4999974966053,2|8,2:3|2:3,2:0:0:0:
29,15,99523,5,10,3:2:0:0:
46,103,99604,1,2,2:0:0:0:
21,178,99685,5,2,2:3:0:0:
104,244,99767,1,8,2:3:0:0:
138,317,99848,5,8,3:0:0:0:
215,298,99929,2,1,L|242:138,1,143.999996185303,0|0,2:0|2:0,2:0:0:0:
185,100,100091,1,8,2:3:0:0:
185,100,100172,6,0,P|158:42|188:-16,1,107.999997138977,10|0,3:0|2:0,2:0:0:0:
309,216,100334,2,0,P|336:274|306:332,1,107.999997138977,2|8,2:3|2:3,2:0:0:0:
346,104,100496,2,0,P|373:46|343:-12,1,107.999997138977,8|2,3:0|2:0,2:0:0:0:
104,244,100658,2,0,P|92:295|118:341,1,107.999997138977,2|8,2:3|2:3,2:0:0:0:
499,37,100821,5,10,3:2:0:0:
426,109,100902,1,2,2:0:0:0:
338,98,100983,1,2,2:3:0:0:
293,52,101064,1,8,2:3:0:0:
289,8,101145,5,8,3:0:0:0:
243,111,101226,1,2,2:0:0:0:
163,143,101307,1,8,2:3:0:0:
108,117,101388,1,2,2:3:0:0:
41,163,101469,6,1,L|15:44,1,107.999997138977,8|0,3:0|2:0,2:0:0:0:
190,231,101631,2,1,L|213:336,1,107.999997138977,2|0,2:0|2:0,2:0:0:0:
0,287,101794,5,8,3:0:0:0:
249,120,101956,2,1,L|272:14,1,107.999997138977,2|0,2:0|2:0,2:0:0:0:
382,328,102118,6,1,L|396:330,1,8.99999976158142,14|0,2:0|2:0,2:0:0:0:
456,361,102280,1,2,2:0:0:0:
451,281,102361,1,0,2:0:0:0:
342,384,102442,6,1,L|318:278,1,107.999997138977,8|0,3:0|2:0,2:0:0:0:
466,176,102604,2,1,L|489:70,1,107.999997138977,2|0,2:0|2:0,2:0:0:0:
109,256,102767,5,8,3:0:0:0:
353,24,102929,2,1,L|376:129,1,107.999997138977,8|8,2:3|2:3,2:0:0:0:
21,187,103091,5,8,3:0:0:0:
258,384,103253,2,1,L|234:278,1,107.999997138977,8|0,2:3|2:0,2:0:0:0:
186,34,103415,6,1,L|200:32,1,8.99999976158142,8|0,3:2|2:0,2:0:0:0:
255,81,103577,1,8,2:3:0:0:
260,1,103658,1,0,2:0:0:0:
170,111,103740,6,1,L|64:87,1,107.999997138977,8|0,3:0|2:0,2:0:0:0:
348,21,103902,2,1,L|453:44,1,107.999997138977,8|8,2:3|2:3,2:0:0:0:
115,252,104064,5,8,3:0:0:0:
388,111,104226,2,1,L|365:216,1,107.999997138977,8|0,2:3|2:0,2:0:0:0:
109,24,104388,5,8,3:0:0:0:
473,328,104550,2,1,L|450:223,1,107.999997138977,8|0,2:3|2:0,2:0:0:0:
64,87,104713,6,1,L|62:101,1,8.99999976158142,8|0,3:2|2:0,2:0:0:0:
31,161,104875,1,8,2:3:0:0:
111,156,104956,1,8,2:3:0:0:
0,47,105037,6,1,L|23:152,1,107.999997138977,8|0,3:0|2:0,2:0:0:0:
203,105,105199,2,1,L|180:0,1,107.999997138977,8|0,2:3|2:0,2:0:0:0:
75,283,105361,5,8,3:0:0:0:
332,335,105523,2,1,L|227:358,1,107.999997138977,8|0,2:3|2:0,2:0:0:0:
291,120,105685,5,8,3:0:0:0:
0,349,105848,2,1,L|105:372,1,107.999997138977,8|8,2:3|2:3,2:0:0:0:
492,109,106010,6,0,L|478:111,1,8.99999976158142,14|0,2:0|2:0,2:0:0:0:
423,62,106172,1,2,2:0:0:0:
418,142,106253,1,0,2:0:0:0:
490,25,106334,6,0,L|385:2,1,107.999997138977,8|0,3:0|2:0,2:0:0:0:
291,235,106496,2,1,L|396:258,1,107.999997138977,8|8,2:3|2:3,2:0:0:0:
43,78,106658,5,4,1:0:0:0:
116,63,106740,1,8,2:3:0:0:
183,94,106821,1,8,2:3:0:0:
221,158,106902,1,8,2:3:0:0:
215,232,106983,5,8,3:0:0:0:
209,297,107064,1,8,2:3:0:0:
242,353,107145,1,8,2:3:0:0:
302,380,107226,1,8,2:3:0:0:
366,367,107307,6,1,L|380:243,1,107.999997138977,12|0,2:0|2:0,2:0:0:0:
58,158,107469,2,1,L|70:265,1,107.999997138977,8|0,2:3|2:0,2:0:0:0:
489,27,107631,5,8,3:0:0:0:
456,28,107713,1,8,3:0:0:0:
425,20,107794,1,8,3:0:0:0:
399,2,107875,1,8,3:0:0:0:
321,16,107956,6,0,L|198:33,1,107.999997138977,4|0,1:0|2:0,2:0:0:0:
353,175,108118,1,8,3:0:0:0:
353,175,108199,1,8,3:0:0:0:
353,175,108280,2,1,L|459:160,1,107.999997138977,8|0,3:0|2:0,2:0:0:0:
179,95,108442,2,1,L|72:80,1,107.999997138977,8|0,3:0|2:0,2:0:0:0:
471,361,108604,5,14,3:2:0:0:
437,294,108685,1,8,3:0:0:0:
372,257,108767,1,8,3:0:0:0:
298,260,108848,1,8,3:0:0:0:
240,307,108929,5,8,3:0:0:0:
192,341,109010,1,8,3:0:0:0:
133,343,109091,1,8,3:0:0:0:
82,314,109172,1,8,3:0:0:0:
55,261,109253,6,1,L|67:152,1,107.999997138977,8|0,1:3|1:3,2:0:0:0:
278,17,109415,1,0,1:0:0:0:
278,17,109496,1,0,1:0:0:0:
278,17,109577,2,1,L|266:124,1,107.999997138977,8|0,1:3|1:0,2:0:0:0:
352,144,109740,1,0,1:0:0:0:
352,144,109821,1,0,1:0:0:0:
352,144,109902,6,1,L|363:36,1,107.999997138977,8|0,1:2|1:0,2:0:0:0:
66,153,110064,1,0,1:0:0:0:
157,188,110145,1,0,1:0:0:0:
254,222,110226,2,0,L|400:273,1,107.999997138977,8|0,1:0|1:0,1:0:0:0:
18,351,110388,5,0,1:0:0:0:
18,363,110469,1,0,1:0:0:0:
21,372,110550,1,8,1:0:0:0:
95,371,110631,1,0,1:0:0:0:
156,328,110713,1,0,1:0:0:0:
181,258,110794,1,0,1:0:0:0:
161,186,110875,1,8,1:0:0:0:
141,114,110956,1,0,1:0:0:0:
166,44,111037,1,0,1:0:0:0:
227,1,111118,1,0,1:0:0:0:
302,1,111199,5,10,1:0:0:0:
312,4,111280,1,8,3:0:0:0:
322,7,111361,1,2,2:0:0:0:
332,11,111442,1,8,3:0:0:0:
342,14,111523,1,8,1:0:0:0:
353,18,111604,1,8,3:0:0:0:
363,21,111685,1,8,1:0:0:0:
373,25,111767,1,8,3:0:0:0:
383,28,111848,6,1,L|365:93,1,67.4999982118609,4|0,1:0|2:0,2:0:0:0:
345,384,112010,2,1,L|244:15,1,350.999990701676,4|0,1:0|2:0,2:0:0:0:
247,52,112334,1,4,1:0:0:0:
240,59,112415,2,1,L|182:47,1,53.9999985694886,0|0,2:0|2:0,2:0:0:0:
380,236,112658,2,0,L|548:269,2,134.999996423721,4|0|0,1:0|2:0|2:0,2:0:0:0:
85,375,112983,5,6,1:2:0:0:
16,299,113064,1,2,2:0:0:0:
25,209,113145,1,2,2:0:0:0:
76,164,113226,1,2,2:0:0:0:
125,178,113307,1,2,2:0:0:0:
134,218,113388,1,2,2:0:0:0:
119,244,113469,1,2,2:0:0:0:
105,234,113550,1,2,2:0:0:0:
110,219,113631,2,1,P|113:254|101:287,3,49.4999986886981,2|2|2|0,2:0|2:0|2:0|2:0,2:0:0:0:
220,185,113956,6,1,P|204:142|197:103,1,67.4999982118609,2|0,2:1|2:0,2:0:0:0:
182,303,114118,2,1,P|190:335|202:367,1,67.4999982118609,4|0,1:0|2:0,2:0:0:0:
281,345,114280,2,1,P|265:302|258:263,1,67.4999982118609,4|0,1:3|2:0,2:0:0:0:
17,0,114442,6,1,L|82:17,1,67.4999982118609,4|0,1:0|2:0,2:0:0:0:
373,38,114604,2,1,L|4:138,1,350.999990701676,4|0,1:0|2:0,2:0:0:0:
41,136,114929,1,4,1:0:0:0:
48,143,115010,2,1,L|36:200,1,53.9999985694886,0|0,2:0|2:0,2:0:0:0:
429,132,115253,2,0,L|460:-32,2,134.999996423721,4|0|0,1:0|2:0|2:0,2:0:0:0:
354,384,115577,5,6,1:2:0:0:
423,308,115658,1,2,2:0:0:0:
414,218,115740,1,2,2:0:0:0:
363,173,115821,1,2,2:0:0:0:
314,187,115902,1,2,2:0:0:0:
305,227,115983,1,2,2:0:0:0:
320,253,116064,1,2,2:0:0:0:
334,243,116145,1,2,2:0:0:0:
329,228,116226,2,1,P|326:263|338:296,3,49.4999986886981,2|2|2|2,2:0|2:0|2:0|2:0,2:0:0:0:
196,151,116550,6,1,P|246:141|255:104,1,67.4999982118609,2|0,2:1|2:0,2:0:0:0:
221,247,116713,2,1,P|170:256|161:293,1,67.4999982118609,4|0,1:0|2:0,2:0:0:0:
177,359,116875,2,1,P|201:337|234:339,1,67.4999982118609,4|0,1:0|2:0,2:0:0:0:
389,9,117037,6,1,L|371:74,1,67.4999982118609,4|0,1:0|2:0,2:0:0:0:
371,376,117199,2,1,L|270:7,1,350.999990701676,4|0,1:0|2:0,2:0:0:0:
273,44,117523,1,4,1:0:0:0:
266,51,117604,2,1,L|208:39,1,53.9999985694886,0|0,2:0|2:0,2:0:0:0:
473,2,117848,2,0,L|427:163,2,134.999996423721,4|0|0,1:0|2:0|2:0,2:0:0:0:
0,139,118172,5,6,1:0:0:0:
76,208,118253,1,2,2:0:0:0:
166,199,118334,1,2,2:0:0:0:
211,148,118415,1,2,2:0:0:0:
197,99,118496,1,2,2:0:0:0:
157,90,118577,1,2,2:0:0:0:
131,105,118658,1,2,2:0:0:0:
141,119,118740,1,2,2:0:0:0:
156,114,118821,2,1,P|166:80|161:45,3,49.4999986886981,2|2|2|2,2:0|2:0|2:0|2:0,2:0:0:0:
58,11,119145,6,1,P|59:35|68:58,1,49.4999986886981,2|0,2:1|2:0,2:0:0:0:
256,272,119307,2,1,L|214:122,1,116.999996900559,6|0,1:0|2:0,2:0:0:0:
30,267,119469,2,1,L|61:379,1,116.999996900559,4|0,1:0|2:0,2:0:0:0:
442,160,119631,6,1,L|377:177,1,67.4999982118609,6|0,1:0|2:0,2:0:0:0:
86,198,119794,2,1,L|455:298,1,350.999990701676,4|0,1:0|2:0,2:0:0:0:
418,296,120118,1,4,1:0:0:0:
411,303,120199,2,1,L|423:360,1,53.9999985694886,0|0,2:0|2:0,2:0:0:0:
49,132,120442,2,0,L|18:-30,2,134.999996423721,4|0|0,1:0|2:0|2:0,2:0:0:0:
512,0,120767,5,4,1:0:0:0:
411,22,120848,1,2,2:0:0:0:
367,101,120929,1,2,2:0:0:0:
383,167,121010,1,2,2:0:0:0:
431,184,121091,1,2,2:0:0:0:
462,156,121172,1,2,2:0:0:0:
464,126,121253,1,2,2:0:0:0:
447,126,121334,1,2,2:0:0:0:
444,136,121415,2,1,P|444:163|453:193,3,49.4999986886981,2|2|2|2,2:0|2:0|2:0|2:0,2:0:0:0:
293,74,121740,5,2,2:1:0:0:
293,74,121902,2,1,L|145:103,1,116.999996900559,12|0,2:0|2:0,2:0:0:0:
487,34,122064,2,1,L|339:63,1,116.999996900559,10|0,2:0|2:0,2:0:0:0:
24,212,122226,5,12,1:0:0:0:
91,167,122388,2,0,P|153:188|183:305,1,179.999995231628,2|8,1:0|1:0,2:0:0:0:
383,261,122713,1,2,2:3:0:0:
428,272,122794,1,2,2:3:0:0:
446,299,122875,2,1,P|443:347|412:391,2,89.9999976158142,8|0|2,1:0|2:0|1:0,2:0:0:0:
216,213,123118,1,0,2:0:0:0:
188,289,123199,2,1,P|284:277|295:160,1,179.999995231628,8|2,2:0|1:0,2:0:0:0:
244,105,123442,5,0,2:0:0:0:
310,195,123523,2,0,P|322:140|373:122,1,89.9999976158142,8|0,1:0|2:0,2:0:0:0:
244,105,123685,2,1,P|225:55|174:42,1,89.9999976158142,2|0,1:0|2:0,2:0:0:0:
349,124,123848,6,0,P|438:105|489:6,1,179.999995231628,8|2,1:0|2:3,2:0:0:0:
489,28,124091,1,2,2:3:0:0:
411,41,124172,6,0,L|419:66,1,17.9999995231628,8|0,1:0|2:0,2:0:0:0:
184,154,124334,6,0,P|143:123|140:62,1,89.9999976158142,2|0,1:0|2:0,2:0:0:0:
53,6,124496,1,8,1:3:0:0:
64,0,124577,1,8,1:3:0:0:
73,5,124658,1,8,1:3:0:0:
74,16,124740,1,8,1:3:0:0:
31,89,124821,5,8,1:0:0:0:
185,154,124983,2,0,P|245:227|184:328,1,179.999995231628,2|8,1:0|1:0,2:0:0:0:
75,346,125307,1,2,1:0:0:0:
39,336,125388,1,0,2:0:0:0:
10,366,125469,2,1,P|-7:306|19:258,1,89.9999976158142,8|0,1:0|2:0,2:0:0:0:
222,297,125631,2,0,P|229:340|211:381,1,89.9999976158142,2|0,1:0|2:0,2:0:0:0:
0,281,125794,2,1,P|52:218|154:226,1,179.999995231628,8|2,1:0|1:0,2:0:0:0:
183,151,126037,5,0,2:0:0:0:
144,219,126118,2,0,P|243:202|247:110,1,179.999995231628,10|0,1:0|2:0,2:0:0:0:
342,192,126361,5,2,2:0:0:0:
342,192,126442,2,0,P|353:152|412:138,1,89.9999976158142,2|0,1:0|2:0,2:0:0:0:
189,77,126604,2,1,P|178:37|119:23,1,89.9999976158142,0|0,1:0|1:0,2:0:0:0:
258,135,126767,6,0,P|283:77|413:67,1,179.999995231628,8|0,1:0|1:0,2:0:0:0:
460,29,127010,1,0,2:0:0:0:
477,151,127091,1,8,1:3:0:0:
485,157,127172,1,8,1:3:0:0:
494,155,127253,1,8,1:3:0:0:
498,143,127334,1,8,1:3:0:0:
431,219,127415,5,8,1:0:0:0:
512,316,127577,2,0,L|311:270,1,179.999995231628,2|8,1:0|1:0,2:0:0:0:
194,328,127902,1,0,1:0:0:0:
193,340,127983,1,0,1:0:0:0:
190,354,128064,2,0,L|310:326,1,89.9999976158142,8|0,1:0|2:0,2:0:0:0:
408,302,128226,1,2,1:0:0:0:
130,154,128388,6,1,P|131:292|11:330,1,269.999992847443,8|0,1:0|2:0,2:0:0:0:
23,332,128713,6,0,L|-3:122,1,179.999995231628,10|0,1:0|2:0,2:0:0:0:
225,199,129037,2,0,L|251:-11,1,179.999995231628,10|0,1:0|1:0,2:0:0:0:
209,0,129280,1,0,1:0:0:0:
147,41,129361,2,0,L|153:90,1,49.4999986886981,8|0,1:0|2:0,2:0:0:0:
448,340,129523,6,1,P|468:303|507:288,1,85.4999977350234,0|0,1:0|1:0,2:0:0:0:
316,209,129685,2,1,P|304:168|321:130,1,85.4999977350234,8|8,1:3|1:3,2:0:0:0:
146,287,129848,2,1,P|109:266|94:226,1,85.4999977350234,8|8,1:3|1:3,2:0:0:0:
286,377,130010,5,4,1:0:0:0:
278,372,130658,6,1,L|249:21,1,341.999990940094,4|0,1:0|2:0,2:0:0:0:
172,22,131307,6,0,P|166:69|145:131,1,112.499997019768,4|0,1:0|2:0,2:0:0:0:
354,295,131469,2,0,P|360:248|381:186,1,112.499997019768,4|0,1:0|2:0,2:0:0:0:
76,197,131631,6,0,P|88:250|164:246,1,112.499997019768,4|0,1:0|2:0,2:0:0:0:
420,119,131794,2,0,P|408:66|332:70,1,112.499997019768,4|0,1:0|2:0,2:0:0:0:
201,359,131956,6,0,L|194:326,1,26.9999992847443,12|0,2:0|2:0,2:0:0:0:
275,14,132118,2,1,L|280:40,1,26.9999992847443,0|0,1:0|1:0,2:0:0:0:
236,190,132280,6,0,L|316:202,7,44.9999988079071,14|0|0|0|0|0|0|0,2:0|2:0|2:0|2:0|1:0|2:0|2:0|2:0,2:0:0:0:
231,109,132604,6,0,B|33:36|33:36|150:197|150:197|185:207|185:207|294:348,1,620.999983549119,12|0,1:0|2:0,2:0:0:0:
325,273,132929,2,0,B|266:253|225:300|225:300|24:251,1,310.499991774559,10|0,1:0|2:0,2:0:0:0:
27,244,133091,2,1,L|22:221,2,22.4999994039536,2|2|2,2:1|2:1|2:1,2:0:0:0:
506,63,133253,6,0,P|367:34|282:203,1,350.999990701675,14|0,1:0|2:0,2:0:0:0:
325,273,133415,2,1,P|389:252|410:160,1,161.999995708465,8|0,2:0|2:0,2:0:0:0:
72,14,133577,2,0,P|5:145|228:291,1,458.999987840653,8|2,1:0|2:0,2:0:0:0:
299,349,133902,6,0,P|322:309|311:266,1,80.9999978542329,8|0,1:0|2:0,2:0:0:0:
219,294,134226,6,0,B|335:328|335:328|355:347|355:347|439:367,1,188.99999499321,8|0,1:0|2:0,2:0:0:0:
402,361,134388,2,0,L|438:368,2,22.4999994039536,2|2|2,2:1|2:1|2:1,2:0:0:0:
72,257,134550,6,0,B|-5:368|-5:368|132:380|262:283|253:125|191:34,1,620.999983549119,14|0,1:0|2:0,2:0:0:0:
191,35,134875,2,0,B|95:-1|95:-1|64:83|108:138|177:147,1,296.999992132187,8|0,1:0|2:0,2:0:0:0:
176,152,135037,2,1,B|220:139|220:139|245:73|245:73|196:-7,1,197.999994754791,8|0,2:0|2:0,2:0:0:0:
122,0,135199,5,12,1:0:0:0:
512,59,135361,2,1,L|378:81,1,134.999996423721,8|0,2:1|2:0,2:0:0:0:
198,107,135523,6,0,B|-7:26|-7:26|188:234|188:234|194:269|194:269|307:387,1,701.99998140335,8|0,1:0|2:0,2:0:0:0:
367,354,135848,2,0,B|399:387|399:387|463:366|463:366|434:274|434:274|82:201,1,566.99998497963,12|0,1:0|2:0,2:0:0:0:
43,268,136172,2,0,B|-11:341|-11:341|196:227,1,269.999992847443,10|0,1:0|2:0,2:0:0:0:
151,247,136334,2,1,L|157:204,2,22.4999994039536,2|2|2,2:1|2:1|2:1,2:0:0:0:
311,311,136496,6,0,B|317:376|317:376|225:390|225:390|187:333|187:333|361:-5,1,602.099984049797,10|0,1:0|2:0,2:0:0:0:
356,17,136821,2,0,P|338:106|281:43,1,215.999994277954,12|0,1:0|2:0,2:0:0:0:
48,138,137145,6,0,B|400:221|400:221|409:243|409:243|386:298|386:298|395:310|395:310|492:334,1,539.999985694885,12|0,1:0|2:0,2:0:0:0:
472,329,137388,1,0,2:0:0:0:
472,329,137469,6,1,P|468:352|477:331,1,67.4999982118607,8|0,1:0|2:0,2:0:0:0:
388,317,137550,2,1,P|361:313|386:310,1,76.4999979734421,8|0,1:0|2:0,2:0:0:0:
317,249,137631,2,1,P|293:227|320:241,1,89.9999976158142,8|0,1:0|2:0,2:0:0:0:
306,149,137713,2,1,P|298:114|313:144,1,98.9999973773956,8|0,1:0|2:0,2:0:0:0:
345,24,137794,6,0,B|330:64|330:64|419:240|419:240|462:252,1,283.499992489815,8|0,1:0|2:0,2:0:0:0:
469,249,137956,2,1,L|479:209,2,22.4999994039536,2|2|2,2:1|2:1|2:1,2:0:0:0:
282,351,138118,6,0,P|169:357|102:177,1,323.999991416931,10|0,1:0|2:0,2:0:0:0:
115,111,138280,2,1,P|208:137|213:206,1,161.999995708465,2|0,2:3|2:0,2:0:0:0:
23,364,138442,6,0,P|154:237|386:336,1,431.999988555908,12|0,1:0|2:0,2:0:0:0:
469,249,138767,2,0,B|537:229|537:229|437:338,1,206.999994516373,8|0,1:0|2:0,2:0:0:0:
371,381,138929,2,0,B|345:360|345:360|271:53,1,323.999991416931,2|0,1:0|2:0,2:0:0:0:
258,5,139091,1,8,1:0:0:0:
192,311,139253,2,0,B|196:363|196:363|240:190,1,179.999995231628,2|0,1:0|2:0,2:0:0:0:
436,200,139415,6,0,B|305:153|305:153|267:158|267:158|143:109,1,310.499991774559,10|0,1:0|2:0,2:0:0:0:
137,116,139577,2,0,L|128:155,2,22.4999994039536,2|2|2,1:0|1:0|1:0,2:0:0:0:
369,3,139740,2,0,B|357:26|357:26|20:156,1,377.99998998642,12|0,1:0|2:0,2:0:0:0:
19,161,139902,2,1,B|-7:222|-7:222|61:265,1,134.999996423721,8|0,2:0|2:0,2:0:0:0:
459,365,140064,6,0,B|436:334|436:334|66:264,1,350.999990701675,10|0,1:0|2:0,2:0:0:0:
132,271,140226,2,1,L|127:231,2,67.4999982118607,0|0|0,2:0|2:0|2:0,2:0:0:0:
495,66,140388,5,12,1:0:0:0:
418,4,140469,1,0,1:0:0:0:
320,3,140550,1,0,1:0:0:0:
324,21,140631,5,8,1:0:0:0:
393,83,140713,1,8,1:0:0:0:
421,171,140794,1,8,1:0:0:0:
404,177,140875,5,0,1:0:0:0:
331,128,140956,1,0,1:0:0:0:
245,146,141037,1,8,1:0:0:0:
246,163,141118,5,0,1:0:0:0:
311,200,141199,1,0,1:0:0:0:
336,273,141280,1,0,1:0:0:0:
324,287,141361,5,8,1:0:0:0:
272,242,141442,1,0,1:0:0:0:
208,235,141523,1,0,1:0:0:0:
157,262,141604,1,0,1:0:0:0:
149,281,141685,5,8,1:0:0:0:
105,211,141767,1,0,2:0:0:0:
137,142,141848,1,2,2:3:0:0:
129,124,141929,5,2,2:3:0:0:
93,210,142010,1,8,1:0:0:0:
8,241,142091,1,0,2:0:0:0:
0,259,142172,5,2,2:3:0:0:
81,311,142253,1,2,2:3:0:0:
152,384,142334,1,8,1:0:0:0:
222,308,142415,5,0,2:0:0:0:
319,268,142496,1,2,2:3:0:0:
395,332,142577,1,2,2:3:0:0:
466,270,142658,6,0,L|450:183,1,67.4999982118607,8|8,1:0|1:0,2:0:0:0:
470,259,142740,2,0,L|454:172,1,67.4999982118607,8|8,1:0|1:0,2:0:0:0:
476,248,142821,2,0,L|460:161,1,67.4999982118607,8|8,1:0|1:0,2:0:0:0:
482,238,142902,2,0,L|466:151,1,67.4999982118607,8|8,1:0|1:0,2:0:0:0:
512,111,142983,5,0,2:0:0:0:
256,192,155956,12,12,157253,1:0:0:0:
76,371,159848,6,1,L|60:300,1,44.9999988079071,4|0,1:0|2:0,2:0:0:0:
255,198,162442,6,1,L|239:127,1,44.9999988079071,4|0,1:0|2:0,2:0:0:0:
453,61,165037,6,1,L|437:-10,1,44.9999988079071,4|0,1:0|2:0,2:0:0:0:
52,74,166334,6,1,L|68:3,1,44.9999988079071,4|0,1:0|2:0,2:0:0:0:
129,163,166983,6,1,L|144:92,1,44.9999988079071,12|0,1:0|2:0,2:0:0:0:
52,74,167226,5,8,1:0:0:0:
52,74,167307,2,1,L|61:117,1,44.9999988079071,10|0,1:0|2:0,2:0:0:0:
203,181,167469,2,1,L|212:224,1,44.9999988079071,10|0,1:0|2:0,2:0:0:0:
286,384,167631,6,1,P|340:317|426:345,1,143.999996185303,12|0,1:0|1:0,2:0:0:0:
512,170,167875,1,0,1:0:0:0:
512,170,167956,2,1,P|458:237|372:209,1,143.999996185303,0|0,1:0|1:0,2:0:0:0:
336,81,168199,5,0,1:0:0:0:
267,142,168280,2,1,L|242:-18,1,143.999996185303,2|0,1:0|1:0,2:0:0:0:
406,234,168604,2,1,L|428:376,1,143.999996185303,0|0,1:0|1:0,2:0:0:0:
428,376,168848,1,0,1:0:0:0:
339,377,168929,6,1,P|306:322|348:238,1,143.999996185303,2|0,1:0|1:0,2:0:0:0:
407,147,169172,1,0,1:0:0:0:
407,147,169253,2,1,P|432:81|398:20,1,143.999996185303,0|0,1:0|1:0,2:0:0:0:
242,219,169496,5,0,1:0:0:0:
171,262,169577,2,0,L|19:281,1,143.999996185303,2|0,1:0|1:0,2:0:0:0:
203,79,169902,6,0,L|313:65,1,71.9999980926514,2|0,1:0|2:0,2:0:0:0:
142,345,170064,2,0,L|252:331,1,71.9999980926514,2|0,1:0|2:0,2:0:0:0:
99,25,170226,6,1,P|73:97|110:154,1,143.999996185303,12|0,1:0|1:0,2:0:0:0:
407,147,170469,1,0,1:0:0:0:
407,147,170550,2,1,P|433:75|396:18,1,143.999996185303,0|0,1:0|1:0,2:0:0:0:
266,171,170794,5,0,1:0:0:0:
283,243,170875,2,1,L|309:393,1,143.999996185303,2|0,1:0|1:0,2:0:0:0:
400,21,171199,2,1,L|258:45,1,143.999996185303,0|0,1:0|1:0,2:0:0:0:
251,50,171442,1,0,1:0:0:0:
191,107,171523,6,1,P|237:144|317:94,1,143.999996185303,2|0,1:0|1:0,2:0:0:0:
117,209,171767,1,0,1:0:0:0:
117,209,171848,2,1,P|71:172|-9:222,1,143.999996185303,0|0,1:0|1:0,2:0:0:0:
141,320,172091,5,0,1:0:0:0:
182,384,172172,2,0,L|206:231,1,143.999996185303,2|0,1:0|1:0,2:0:0:0:
210,233,172415,1,8,2:0:0:0:
284,272,172496,2,0,L|378:259,1,71.9999980926514,8|0,2:0|2:0,2:0:0:0:
359,363,172658,2,0,L|287:353,1,71.9999980926514,0|0,1:0|2:0,2:0:0:0:
359,91,172821,6,1,B|431:67|431:67|509:139,1,143.999996185303,12|0,1:0|1:0,2:0:0:0:
167,167,173064,1,0,1:0:0:0:
167,167,173145,2,1,B|95:191|95:191|17:119,1,143.999996185303,0|0,1:0|1:0,2:0:0:0:
414,159,173388,5,0,1:0:0:0:
427,232,173469,2,1,L|451:398,1,143.999996185303,2|0,1:0|1:0,2:0:0:0:
258,158,173794,2,1,L|237:15,1,143.999996185303,0|0,1:0|1:0,2:0:0:0:
92,374,174118,6,1,P|53:301|77:228,1,161.999995708466,12|0,1:0|1:0,2:0:0:0:
327,100,174361,1,0,1:0:0:0:
327,95,174442,2,1,P|349:170|310:239,1,161.999995708466,0|0,1:0|1:0,2:0:0:0:
49,97,174685,5,0,1:0:0:0:
76,30,174767,2,0,L|237:14,1,161.999995708466,2|0,1:0|1:0,2:0:0:0:
338,341,175091,2,0,L|176:356,1,161.999995708466,2|0,1:0|1:0,2:0:0:0:
440,99,175415,6,1,L|-8:44,1,404.999989271164,12|0,1:0|1:0,2:0:0:0:
38,49,175740,2,1,L|25:1,1,35.9999990463257,0|0,1:0|1:0,2:0:0:0:
52,259,176064,6,1,L|500:204,1,404.999989271164,12|0,1:0|1:0,2:0:0:0:
453,209,176388,2,1,L|466:160,1,35.9999990463257,0|0,1:0|1:0,2:0:0:0:
258,370,176713,6,1,L|242:299,1,44.9999988079071,2|0,1:0|2:0,2:0:0:0:
254,195,177037,2,1,L|238:124,1,44.9999988079071,2|0,1:0|2:0,2:0:0:0:
257,44,177361,2,1,L|241:-27,1,44.9999988079071,2|0,1:0|2:0,2:0:0:0:
459,384,177685,6,0,L|465:363,1,22.4999994039536,10|0,1:0|2:0,2:0:0:0:
469,348,177767,2,0,L|475:327,1,22.4999994039536,10|0,1:0|2:0,2:0:0:0:
480,314,177848,2,0,L|486:293,1,22.4999994039536,10|0,1:0|2:0,2:0:0:0:
490,280,177929,2,0,L|496:259,1,22.4999994039536,10|0,1:0|2:0,2:0:0:0:
512,181,178010,6,0,L|281:221,1,233.999983089448,12|0,1:0|2:0,2:0:0:0:
190,270,178253,1,0,2:0:0:0:
197,264,178334,2,1,L|221:124,1,116.999991544724,10|1,1:0|2:0,2:0:0:0:
32,166,178496,2,1,L|129:183,1,99.0000003986359,2|2,2:0|2:0,2:0:0:0:
387,196,178658,5,10,1:0:0:0:
123,384,178821,2,0,L|101:254,1,125.99999666214,2|0,1:2|2:0,2:0:0:0:
327,73,178983,2,0,L|306:197,1,125.99999666214,8|0,1:0|2:0,2:0:0:0:
7,383,179145,6,0,L|64:45,1,287.999992370606,2|8,1:0|1:0,2:0:0:0:
88,18,179388,1,2,2:0:0:0:
88,18,179469,2,0,L|0:32,1,89.9999976158142,2|0,1:0|2:0,2:0:0:0:
218,125,179631,2,0,L|280:114,1,40.4999989271166,10|0,2:0|2:0,2:0:0:0:
9,184,179794,2,0,L|125:165,1,116.999996900559,2|0,1:0|2:0,2:0:0:0:
499,33,179956,6,0,P|313:117|335:279,1,377.99998998642,10|0,1:0|2:0,2:0:0:0:
226,265,180280,2,0,P|237:316|164:338,1,125.99999666214,10|0,1:0|2:0,2:0:0:0:
173,364,180442,2,0,P|122:348|139:273,1,125.99999666214,2|0,1:0|2:0,2:0:0:0:
383,215,180604,6,0,L|507:232,1,125.99999666214,10|0,1:0|2:0,2:0:0:0:
320,126,180767,2,1,L|196:109,1,125.99999666214,2|2,2:0|2:0,2:0:0:0:
443,41,180929,1,10,1:0:0:0:
237,289,181091,2,0,L|219:164,1,98.9999973773957,2|0,1:0|2:0,2:0:0:0:
492,126,181253,5,8,1:0:0:0:
166,0,181415,2,1,L|148:124,1,125.99999666214,2|0,1:0|2:0,2:0:0:0:
383,215,181577,2,0,L|400:90,1,125.99999666214,10|0,1:0|2:0,2:0:0:0:
77,179,181740,5,2,2:3:0:0:
77,179,181821,1,2,2:3:0:0:
77,179,181902,2,0,L|94:303,1,125.99999666214,4|0,1:0|2:0,2:0:0:0:
309,153,182064,1,0,2:0:0:0:
34,352,182226,2,0,L|73:64,1,287.999992370606,8|2,1:0|1:0,2:0:0:0:
145,0,182469,1,0,2:0:0:0:
145,0,182550,6,0,L|162:124,1,107.999997138977,10|0,1:0|2:0,2:0:0:0:
294,260,182713,2,1,L|308:153,1,107.999997138977,0|0,1:0|2:0,2:0:0:0:
73,66,182875,6,1,L|16:53,2,44.9999988079071,8|0|8,1:0|2:0|1:0,2:0:0:0:
327,57,183037,2,1,L|370:67,2,44.9999988079071,8|0|8,1:0|2:0|1:0,2:0:0:0:
256,370,183199,6,0,P|167:261|241:167,1,251.99999332428,14|0,1:0|2:0,2:0:0:0:
249,0,183442,1,2,2:0:0:0:
249,6,183523,2,0,L|229:151,1,98.9999973773957,10|0,1:0|2:0,2:0:0:0:
374,242,183685,2,0,L|391:117,1,98.9999973773957,2|0,1:0|2:0,2:0:0:0:
73,66,183848,6,0,L|107:315,1,251.99999332428,10|0,1:0|2:0,2:0:0:0:
50,362,184091,1,2,2:0:0:0:
50,362,184172,2,0,L|-1:350,1,44.9999988079071,10|0,1:0|2:0,2:0:0:0:
168,137,184334,2,0,L|364:183,1,107.999997138977,2|0,1:0|2:0,2:0:0:0:
374,384,184496,5,14,1:0:0:0:
176,223,184658,2,1,L|196:362,1,107.999997138977,0|0,2:0|2:0,2:0:0:0:
463,252,184821,2,1,L|428:2,1,251.99999332428,8|2,1:0|1:0,2:0:0:0:
335,10,185064,1,2,1:0:0:0:
328,0,185145,1,6,1:0:0:0:
502,109,185307,2,1,L|412:92,1,89.9999976158142,2|0,2:1|2:0,2:0:0:0:
95,65,185469,6,0,P|87:82|91:106,1,26.9999992847443,10|0,1:0|2:0,2:0:0:0:
180,46,185631,2,0,P|193:25|196:3,1,26.9999992847443,2|0,1:0|2:0,2:0:0:0:
21,195,185794,6,0,L|142:161,1,125.99999666214,6|0,1:0|2:0,2:0:0:0:
379,258,185956,2,1,L|257:224,1,125.99999666214,2|2,1:0|2:0,2:0:0:0:
12,110,186118,1,10,1:0:0:0:
201,339,186280,2,0,L|174:243,1,98.9999973773957,2|0,1:0|2:0,2:0:0:0:
290,18,186442,6,1,L|271:133,1,116.999996900559,10|0,1:0|2:0,2:0:0:0:
361,170,186604,1,2,1:0:0:0:
361,170,186685,1,2,1:0:0:0:
361,170,186767,2,0,L|380:49,1,116.999996900559,10|0,1:0|2:0,2:0:0:0:
116,382,186929,2,0,P|207:251|425:315,1,404.999989271164,2|0,1:0|2:0,2:0:0:0:
482,257,187253,1,2,2:0:0:0:
72,228,187415,6,1,B|60:304|-75:209|82:155|72:228,1,179.999995231628,8|0,1:0|2:0,2:0:0:0:
103,151,187496,2,1,B|52:204|-1:56|150:100|103:151,1,166.499995589257,8|0,1:0|2:0,2:0:0:0:
160,107,187577,2,1,B|92:120|130:-21|223:92|160:107,1,152.999995946884,8|0,1:0|2:0,2:0:0:0:
219,109,187658,2,1,B|162:84|263:0|272:131|219:109,1,139.499996304512,8|0,1:0|2:0,2:0:0:0:
246,144,187740,1,10,1:0:0:0:
53,33,187902,6,0,L|20:40,1,26.9999992847443,2|0,1:0|2:0,2:0:0:0:
182,185,188064,6,0,B|285:209|285:209|316:242|316:242|441:268,1,269.999992847443,14|0,1:0|2:0,2:0:0:0:
496,221,188226,1,2,1:0:0:0:
160,365,188388,6,0,P|48:346|32:235,1,233.999983089448,12|2,1:0|2:3,2:0:0:0:
110,248,188631,1,2,2:3:0:0:
108,238,188713,2,1,L|92:139,1,99.0000003986359,10|0,1:0|2:0,2:0:0:0:
262,88,188875,2,1,L|277:186,1,99.0000003986359,0|0,2:0|2:0,2:0:0:0:
387,384,189037,6,0,L|420:188,1,197.999994754791,10|2,1:0|2:3,2:0:0:0:
467,129,189280,1,0,2:0:0:0:
472,129,189361,2,0,L|436:-17,1,125.99999666214,8|0,1:0|2:0,2:0:0:0:
167,3,189523,6,0,L|224:341,1,287.999992370606,2|8,1:0|1:0,2:0:0:0:
262,88,189767,1,2,2:0:0:0:
262,88,189848,2,0,L|276:0,1,89.9999976158142,2|0,1:0|2:0,2:0:0:0:
63,103,190010,2,0,L|125:114,1,40.4999989271166,10|0,1:0|2:0,2:0:0:0:
473,25,190172,2,0,L|357:44,1,116.999996900559,2|0,1:0|2:0,2:0:0:0:
63,103,190334,6,0,P|68:280|237:335,1,377.99998998642,10|0,1:0|2:0,2:0:0:0:
424,267,190658,2,0,P|435:318|362:340,1,125.99999666214,10|0,1:0|2:0,2:0:0:0:
371,366,190821,2,0,P|320:350|337:275,1,125.99999666214,2|0,1:0|2:0,2:0:0:0:
460,44,190983,5,10,1:0:0:0:
178,168,191145,2,1,L|302:185,1,125.99999666214,2|2,1:0|2:0,2:0:0:0:
512,175,191307,1,8,1:0:0:0:
326,0,191469,2,0,L|340:97,1,99.0000003986359,2|0,1:0|2:0,2:0:0:0:
13,358,191631,6,0,L|63:8,1,297.000001195908,10|0,1:0|2:0,2:0:0:0:
55,63,191956,6,0,L|72:188,1,125.99999666214,8|0,1:0|2:0,2:0:0:0:
356,381,192118,6,1,P|271:245|50:317,1,405.000004720688,2|0,1:0|2:0,2:0:0:0:
13,358,192442,1,2,2:0:0:0:
223,31,192604,2,0,L|247:159,1,125.99999666214,10|0,1:0|2:0,2:0:0:0:
431,123,192767,2,1,L|407:0,1,125.99999666214,0|2,1:0|2:0,2:0:0:0:
137,21,192929,6,0,P|81:125|264:284,1,377.999978450776,6|0,1:0|2:0,2:0:0:0:
309,261,193253,6,1,L|319:217,2,44.9999988079071,8|0|8,1:0|2:0|1:0,2:0:0:0:
225,43,193415,2,1,L|235:0,2,44.9999988079071,8|0|8,1:0|2:0|1:0,2:0:0:0:
407,0,193577,6,0,P|520:127|446:221,1,287.999992370606,10|0,1:0|2:0,2:0:0:0:
393,222,193821,1,2,2:0:0:0:
393,222,193902,2,0,L|413:77,1,98.9999973773957,10|0,1:0|2:0,2:0:0:0:
330,269,194064,2,0,L|345:384,1,80.9999978542327,10|0,1:0|2:0,2:0:0:0:
0,137,194226,6,0,L|408:46,1,359.999990463257,12|0,1:0|2:0,2:0:0:0:
397,0,194388,1,8,1:0:0:0:
407,0,194469,1,8,1:0:0:0:
341,66,194550,2,1,L|324:145,2,44.9999988079071,10|0|0,1:0|2:0|2:0,2:0:0:0:
206,0,194713,6,0,P|146:116|212:222,1,251.999985633851,2|10,2:1|1:0,2:0:0:0:
41,312,195037,2,1,P|98:296|158:287,1,98.9999973773957,0|2,2:0|2:0,2:0:0:0:
314,120,195199,2,0,L|279:370,1,251.99999332428,10|2,1:0|2:0,2:0:0:0:
209,366,195442,1,2,2:0:0:0:
202,376,195523,1,10,1:0:0:0:
378,252,195685,2,1,L|395:342,1,89.9999976158142,0|2,2:0|2:0,2:0:0:0:
40,308,195848,6,0,P|32:291|36:267,1,26.9999992847443,10|0,1:0|2:0,2:0:0:0:
113,332,196010,2,0,P|126:353|129:375,1,26.9999992847443,8|0,1:0|2:0,2:0:0:0:
6,205,196172,6,0,L|128:171,1,125.99999666214,14|0,1:0|2:0,2:0:0:0:
331,174,196334,2,1,L|210:140,1,125.99999666214,2|2,1:0|2:3,2:0:0:0:
41,39,196496,1,8,1:0:0:0:
201,324,196658,2,0,L|228:228,1,98.9999973773957,2|0,1:0|2:0,2:0:0:0:
382,0,196821,6,0,L|401:115,1,116.999996900559,10|0,1:0|2:0,2:0:0:0:
196,9,196983,1,2,1:0:0:0:
196,9,197064,1,0,2:0:0:0:
196,9,197145,2,0,L|215:130,1,116.999996900559,10|0,1:0|2:0,2:0:0:0:
407,244,197307,2,0,P|250:212|90:400,1,405.000004720688,0|0,1:0|2:0,2:0:0:0:
27,323,197631,1,2,1:0:0:0:
146,69,197794,6,0,B|223:57|128:-78|74:79|146:69,1,179.999995231628,10|0,1:0|2:0,2:0:0:0:
69,98,197875,2,1,B|123:47|-25:-6|19:145|69:98,1,166.499995589257,8|0,1:0|2:0,2:0:0:0:
43,170,197956,2,1,B|58:98|-91:139|29:236|43:170,1,166.499995589257,8|0,1:0|2:0,2:0:0:0:
67,222,198037,2,1,B|43:165|-42:266|90:275|67:222,1,139.499996304512,8|0,1:0|2:0,2:0:0:0:
115,242,198118,1,8,1:0:0:0:
27,323,198280,6,0,L|-6:316,1,26.9999992847443,8|0,1:0|2:0,2:0:0:0:
182,199,198442,2,0,B|285:174|285:174|316:141|316:141|441:115,1,269.999992847443,12|0,1:0|2:0,2:0:0:0:
483,57,198604,1,8,1:0:0:0:
284,376,198767,5,14,1:0:0:0:
296,384,198848,2,1,L|262:127,1,233.999993801117,2|2,2:0|2:0,2:0:0:0:
266,152,199091,2,0,L|364:164,1,98.9999973773957,10|0,1:0|2:0,2:0:0:0:
212,32,199253,2,0,L|113:19,1,98.9999973773957,2|0,1:0|2:0,2:0:0:0:
361,22,199415,5,10,1:0:0:0:
7,258,199577,1,2,1:0:0:0:
7,258,199658,1,2,2:3:0:0:
7,258,199740,2,0,L|41:1,1,251.99999332428,10|2,1:0|1:0,2:0:0:0:
319,274,200064,5,10,1:0:0:0:
129,346,200226,2,1,L|253:320,1,125.99999666214,2|2,1:0|2:0,2:0:0:0:
458,280,200388,6,0,L|454:311,1,22.4999994039537,10|0,1:0|2:0,2:0:0:0:
197,225,200550,2,0,L|200:203,1,22.4999994039537,2|0,1:0|2:0,2:0:0:0:
481,0,200713,6,0,P|311:57|287:228,1,350.999990701676,10|0,1:0|2:0,2:0:0:0:
319,274,201037,6,0,L|340:36,1,229.499993920326,10|0,1:0|2:0,2:0:0:0:
276,4,201199,1,2,1:0:0:0:
78,146,201361,6,1,L|229:109,1,125.99999666214,10|0,1:0|2:0,2:0:0:0:
424,68,201523,1,2,1:0:0:0:
233,325,201685,2,0,L|203:202,1,125.99999666214,10|0,1:0|2:0,2:0:0:0:
166,36,201848,1,2,1:0:0:0:
151,369,202010,5,10,1:0:0:0:
367,137,202172,1,2,1:0:0:0:
367,137,202253,1,2,2:3:0:0:
367,137,202334,2,0,L|427:396,1,251.99999332428,10|2,1:0|1:0,2:0:0:0:
453,312,202577,1,0,2:0:0:0:
453,312,202658,6,0,L|509:327,1,44.9999988079071,14|0,1:0|2:0,2:0:0:0:
369,332,202821,2,1,L|325:320,1,44.9999988079071,0|2,1:0|2:3,2:0:0:0:
367,137,202983,6,0,L|442:93,1,62.9999983310699,8|0,1:0|2:0,2:0:0:0:
325,212,203145,2,0,L|266:245,1,62.9999983310699,2|0,1:0|2:0,2:0:0:0:
145,92,203307,6,0,L|176:-25,1,89.9999976158142,14|0,1:0|2:0,2:0:0:0:
159,176,203469,2,1,L|134:267,1,89.9999976158142,2|0,1:0|2:0,2:0:0:0:
490,8,203631,6,1,L|446:18,1,44.9999988079071,8|0,1:0|2:0,2:0:0:0:
447,18,203713,2,1,L|403:28,1,44.9999988079071,8|0,1:0|2:0,2:0:0:0:
404,28,203794,2,1,L|360:38,1,44.9999988079071,8|0,1:0|2:0,2:0:0:0:
361,38,203875,2,1,L|317:48,1,44.9999988079071,8|0,1:0|2:0,2:0:0:0:
240,64,203956,6,0,L|263:162,1,89.9999976158142,14|0,1:0|2:0,2:0:0:0:
398,384,204118,2,1,L|426:261,1,116.999996900559,2|2,1:0|2:3,2:0:0:0:
427,252,204280,1,10,1:0:0:0:
178,349,204442,2,0,L|111:335,1,67.4999982118609,2|0,1:0|2:0,2:0:0:0:
451,157,204604,5,10,1:0:0:0:
30,319,204767,1,2,1:0:0:0:
30,319,204848,1,2,2:3:0:0:
30,319,204929,2,0,L|319:252,1,251.99999332428,10|2,1:0|1:0,2:0:0:0:
402,21,205253,5,10,1:0:0:0:
266,169,205415,2,1,L|244:74,1,89.9999976158142,2|2,1:0|2:3,2:0:0:0:
230,9,205577,1,10,1:0:0:0:
471,318,205740,1,2,1:0:0:0:
471,318,205821,1,2,2:3:0:0:
471,318,205902,6,0,P|404:340|384:274,1,134.999996423721,10|0,1:0|2:0,2:0:0:0:
397,216,206064,2,1,P|453:189|489:240,1,134.999996423721,2|0,2:0|2:0,2:0:0:0:
168,193,206226,6,0,L|162:166,1,26.9999992847443,8|0,1:0|2:0,2:0:0:0:
309,358,206388,2,0,L|303:384,1,26.9999992847443,10|0,1:0|2:0,2:0:0:0:
499,48,206550,6,0,L|361:80,1,116.999996900559,10|0,1:0|2:0,2:0:0:0:
258,180,206713,2,1,L|396:148,1,116.999996900559,2|2,1:0|2:3,2:0:0:0:
160,59,206875,1,10,1:0:0:0:
229,359,207037,2,0,L|261:221,1,98.9999973773957,2|0,1:0|2:0,2:0:0:0:
297,63,207199,6,0,L|302:44,2,20.2499994635583,10|0|0,1:0|2:0|2:0,2:0:0:0:
55,238,207361,1,2,1:0:0:0:
55,238,207442,1,2,2:3:0:0:
55,238,207523,2,0,L|169:212,1,116.999996900559,8|0,1:0|2:0,2:0:0:0:
409,227,207685,2,0,L|316:248,1,71.9999980926514,2|0,1:0|2:0,2:0:0:0:
23,63,207848,6,0,L|378:155,1,359.999990463257,10|2,1:0|1:0,2:0:0:0:
375,161,208091,1,2,2:3:0:0:
351,60,208172,6,0,B|274:48|369:-87|423:70|351:60,1,179.999995231628,10|0,1:0|2:0,1:0:0:0:
426,88,208253,2,1,B|372:37|520:-16|476:135|426:88,1,166.499995589257,0|0,1:0|2:0,2:0:0:0:
469,147,208334,2,1,B|454:77|600:117|482:211|469:147,1,152.999995946884,10|0,1:0|2:0,2:0:0:0:
469,208,208415,2,1,B|493:151|578:252|446:261|469:208,1,139.499996304512,8|0,1:0|2:0,2:0:0:0:
392,258,208496,6,0,P|374:268|390:261,1,112.499997019768,10|0,1:0|2:0,2:0:0:0:
363,305,208577,2,1,P|359:317|363:307,1,98.9999973773956,2|0,1:0|2:0,2:0:0:0:
392,352,208658,2,1,P|397:369|394:353,1,85.4999977350236,2|0,1:0|2:0,2:0:0:0:
441,359,208740,2,1,P|453:368|443:359,1,71.9999980926514,2|0,2:3|2:0,2:0:0:0:
488,290,208821,6,0,L|515:305,1,26.9999992847443,14|0,1:0|2:0,2:0:0:0:
305,358,208983,2,0,B|203:304|203:304|151:305|151:305|47:247,1,269.999992847443,6|0,1:0|2:0,2:0:0:0:
30,183,209145,5,10,1:0:0:0:
359,24,209307,2,1,L|222:50,1,125.99999666214,2|2,1:0|2:3,2:0:0:0:
31,54,209469,2,0,P|161:76|171:197,1,251.99999332428,10|2,1:0|1:0,2:0:0:0:
10,341,209794,5,10,1:0:0:0:
311,366,209956,1,2,1:0:0:0:
311,366,210037,1,2,2:3:0:0:
311,366,210118,2,0,L|277:117,1,251.99999332428,8|2,1:0|1:0,2:0:0:0:
357,101,210361,1,0,2:0:0:0:
362,112,210442,6,0,L|332:250,1,125.99999666214,14|0,1:0|2:0,2:0:0:0:
131,49,210604,2,1,L|105:173,1,125.99999666214,2|2,1:0|2:3,2:0:0:0:
201,364,210767,1,10,1:0:0:0:
201,364,210848,1,0,2:0:0:0:
201,364,210929,2,0,L|175:241,1,98.9999973773957,2|0,1:0|2:0,2:0:0:0:
35,75,211091,6,0,P|72:269|277:295,1,431.999988555908,14|0,1:0|2:0,2:0:0:0:
335,235,211415,2,0,L|328:207,1,26.9999992847443,14|0,1:0|2:0,2:0:0:0:
110,356,211577,2,0,L|103:329,1,26.9999992847443,2|0,1:0|2:0,2:0:0:0:
491,169,211740,6,1,L|361:137,1,116.999996900559,14|2,1:0|2:3,2:0:0:0:
167,100,211902,1,2,1:0:0:0:
512,9,212064,6,0,L|398:36,1,116.999996900559,10|0,1:0|2:0,2:0:0:0:
115,45,212226,1,2,1:0:0:0:
377,141,212388,5,14,1:0:0:0:
345,367,212550,1,2,1:0:0:0:
345,367,212631,1,2,2:3:0:0:
345,367,212713,2,0,L|296:120,1,251.99999332428,10|2,1:0|1:0,2:0:0:0:
398,38,212956,1,0,2:0:0:0:
404,50,213037,6,0,L|390:121,1,67.4999982118609,10|0,1:0|2:0,2:0:0:0:
130,67,213199,2,1,L|151:173,1,107.999997138977,2|2,1:0|2:3,2:0:0:0:
248,277,213361,6,0,L|237:329,1,53.9999985694884,10|0,1:0|2:0,2:0:0:0:
472,146,213523,2,0,L|451:252,1,107.999997138977,2|0,1:0|2:0,2:0:0:0:
234,33,213685,6,0,P|59:54|28:232,1,377.99998998642,14|0,1:0|2:0,2:0:0:0:
50,332,214010,6,1,B|-27:334|49:480|122:330|50:332,1,179.999995231628,8|0,1:0|2:0,2:0:0:0:
135,307,214091,2,1,B|75:351|215:421|190:266|135:307,1,166.499995589257,8|0,1:0|2:0,2:0:0:0:
184,248,214172,2,1,B|161:314|308:292|204:186|184:248,1,152.999995946884,8|0,1:0|2:0,2:0:0:0:
177,188,214253,2,1,B|193:247|290:157|160:132|177:188,1,139.499996304512,8|0,1:0|2:0,2:0:0:0:
94,171,214334,5,14,1:0:0:0:
31,218,214415,2,1,B|183:185|183:185|208:164|208:164|441:119,1,413.999996929169,2|2,2:0|2:3,2:0:0:0:
472,189,214658,6,0,L|453:296,1,107.999997138977,10|0,1:0|2:0,2:0:0:0:
345,84,214821,2,0,L|317:-15,1,80.9999978542327,2|0,1:0|2:0,2:0:0:0:
502,384,214983,6,1,L|195:312,1,296.999992132187,10|0,1:0|2:0,2:0:0:0:
210,311,215145,2,1,L|192:237,1,62.99999833107,10|0,1:0|2:0,2:0:0:0:
133,329,215226,2,1,L|115:255,1,62.99999833107,10|0,1:0|2:0,2:0:0:0:
70,372,215307,6,0,P|1:244|89:140,1,287.999992370606,10|2,1:0|1:0,2:0:0:0:
97,71,215550,1,0,2:0:0:0:
86,143,215631,2,0,P|159:119|162:52,1,125.99999666214,10|0,1:0|2:0,2:0:0:0:
397,266,215794,2,1,P|337:256|313:200,1,125.99999666214,0|2,2:0|2:3,2:0:0:0:
237,1,215956,6,0,L|230:27,1,26.9999992847443,10|0,1:0|2:0,2:0:0:0:
304,43,216118,2,0,L|310:16,1,26.9999992847443,2|0,1:0|2:0,2:0:0:0:
22,73,216280,2,0,L|486:148,1,449.999988079071,10|2,1:0|1:0,2:0:0:0:
41,354,216604,6,0,P|116:362|130:261,1,179.999995231628,8|0,1:0|2:0,2:0:0:0:
103,203,216767,2,1,P|27:195|13:295,1,179.999995231628,8|8,1:0|1:0,2:0:0:0:
422,40,216929,5,10,1:0:0:0:
283,375,217091,2,0,L|257:232,1,125.99999666214,2|0,1:0|2:0,2:0:0:0:
223,60,217253,1,10,1:0:0:0:
474,247,217415,2,1,L|350:224,1,125.99999666214,0|2,2:0|2:3,2:0:0:0:
13,91,217577,6,0,L|11:79,1,8.99999976158142,10|0,1:0|2:0,2:0:0:0:
73,35,217740,6,1,B|19:-15|166:-68|122:81|73:35,1,152.999995946884,2|0,2:3|2:0,2:0:0:0:
110,110,217821,2,1,B|96:49|224:83|121:166|110:110,1,139.499996304512,2|0,2:3|2:0,2:0:0:0:
78,171,217902,6,1,P|68:189|78:174,1,112.499997019768,10|0,1:0|2:0,2:0:0:0:
78,229,217983,2,1,P|81:241|79:230,1,98.9999973773956,8|0,1:0|2:0,2:0:0:0:
124,252,218064,2,1,P|137:263|126:251,1,85.4999977350236,8|0,1:0|2:0,2:0:0:0:
170,234,218145,2,1,P|184:234|171:232,1,71.9999980926514,8|0,1:0|2:0,2:0:0:0:
206,153,218226,6,1,P|267:171|256:246,1,125.99999666214,14|0,1:0|2:0,2:0:0:0:
512,36,218388,2,1,P|451:54|462:129,1,125.99999666214,2|0,2:1|2:0,2:0:0:0:
317,373,218550,6,1,P|378:355|367:280,1,107.999997138977,2|0,2:1|2:0,2:0:0:0:
482,239,218713,6,1,P|421:221|432:146,1,107.999997138977,2|0,2:1|2:0,2:0:0:0:
274,12,218875,5,2,2:0:0:0:
274,12,219199,6,0,L|227:410,1,350.999990701676,14|0,1:0|2:0,2:0:0:0:
86,202,219523,5,4,1:0:0:0:
79,217,219604,1,0,2:0:0:0:
83,239,219685,2,0,B|154:206|129:251|236:190,1,134.999996423721,2|0,2:1|2:0,2:0:0:0:
425,181,219848,1,8,1:0:0:0:
432,166,219929,1,0,2:0:0:0:
428,144,220010,2,0,B|357:177|382:132|275:193,1,134.999996423721,2|0,2:1|2:0,2:0:0:0:
112,103,220172,5,8,1:0:0:0:
97,111,220253,1,0,2:0:0:0:
88,131,220334,2,0,B|165:144|118:167|241:178,1,134.999996423721,2|0,2:1|2:0,2:0:0:0:
399,281,220496,1,8,1:0:0:0:
413,273,220577,1,0,2:0:0:0:
423,252,220658,2,0,B|345:238|392:215|269:204,1,134.999996423721,2|0,2:1|2:0,2:0:0:0:
124,298,220821,5,10,1:0:0:0:
126,314,220902,1,0,2:0:0:0:
142,330,220983,2,0,B|181:262|186:313|239:202,1,134.999996423721,2|0,2:1|2:0,2:0:0:0:
389,86,221145,1,10,1:0:0:0:
386,70,221226,1,0,2:0:0:0:
369,53,221307,2,0,B|329:120|324:69|271:180,1,134.999996423721,2|0,2:1|2:0,2:0:0:0:
210,355,221469,5,10,1:0:0:0:
221,367,221550,1,0,2:0:0:0:
243,370,221631,2,0,B|236:291|270:330|249:209,1,134.999996423721,2|0,2:1|2:0,2:0:0:0:
302,28,221794,1,10,1:0:0:0:
291,17,221875,1,0,2:0:0:0:
268,13,221956,2,0,B|274:91|240:52|261:173,1,134.999996423721,2|0,2:1|2:0,2:0:0:0:
86,203,222118,5,10,1:0:0:0:
78,217,222199,1,0,2:0:0:0:
83,239,222280,2,0,B|154:206|129:251|236:190,1,134.999996423721,2|0,2:1|2:0,2:0:0:0:
426,182,222442,1,10,1:0:0:0:
432,167,222523,1,0,2:0:0:0:
428,144,222604,2,0,B|356:176|381:132|274:193,1,134.999996423721,2|0,2:1|2:0,2:0:0:0:
124,299,222767,5,10,1:0:0:0:
126,315,222848,1,0,2:0:0:0:
142,330,222929,2,0,B|181:262|186:313|239:202,1,134.999996423721,2|0,2:1|2:0,2:0:0:0:
389,85,223091,1,10,1:0:0:0:
386,69,223172,1,0,2:0:0:0:
369,53,223253,2,0,B|329:120|324:69|271:180,1,134.999996423721,2|0,2:1|2:0,2:0:0:0:
112,104,223415,5,10,1:0:0:0:
97,111,223496,1,0,2:0:0:0:
88,131,223577,2,0,B|165:144|118:167|241:178,1,134.999996423721,2|0,2:1|2:0,2:0:0:0:
400,281,223740,1,10,1:0:0:0:
413,273,223821,1,0,2:0:0:0:
423,252,223902,2,0,B|345:238|392:215|269:204,1,134.999996423721,2|0,2:1|2:0,2:0:0:0:
188,36,224064,5,10,1:0:0:0:
171,33,224145,1,0,2:0:0:0:
153,45,224226,2,0,B|208:100|157:92|251:172,1,134.999996423721,2|0,2:1|2:0,2:0:0:0:
323,349,224388,1,10,1:0:0:0:
338,350,224469,1,0,2:0:0:0:
358,338,224550,2,0,B|302:282|353:290|259:210,1,134.999996423721,2|0,2:1|2:0,2:0:0:0:
255,191,224713,6,0,L|256:27,1,89.9999976158142,14|0,1:0|2:0,2:0:0:0:
255,191,224875,6,0,L|254:280,1,89.9999976158142,8|0,1:0|2:0,2:0:0:0:
255,193,225037,6,0,L|344:193,1,89.9999976158142,8|0,1:0|2:0,2:0:0:0:
257,191,225199,6,0,L|167:190,1,89.9999976158142,8|0,1:0|2:0,2:0:0:0:
256,190,225361,6,0,L|339:107,1,62.9999983310699,8|0,1:0|2:0,2:0:0:0:
256,190,225523,6,0,L|209:236,1,62.9999983310699,8|0,1:0|2:0,2:0:0:0:
254,191,225685,6,0,L|300:237,1,62.9999983310699,8|0,1:0|2:0,2:0:0:0:
257,191,225848,6,0,L|211:145,1,62.9999983310699,8|0,1:0|2:0,2:0:0:0:
256,191,226010,6,0,L|323:191,1,35.9999990463257,8|0,1:0|2:0,2:0:0:0:
256,191,226172,6,0,L|219:191,1,35.9999990463257,8|0,1:0|2:0,2:0:0:0:
255,191,226334,6,0,L|255:228,1,35.9999990463257,8|0,1:0|2:0,2:0:0:0:
256,192,226496,6,0,L|256:155,1,35.9999990463257,8|0,1:0|2:0,2:0:0:0:
256,191,226658,6,0,L|280:215,1,17.9999995231628,8|0,1:0|2:0,2:0:0:0:
256,191,226821,6,0,L|243:178,1,17.9999995231628,8|0,1:0|2:0,2:0:0:0:
256,191,226983,6,0,L|242:204,1,17.9999995231628,8|0,1:0|2:0,2:0:0:0:
256,192,227145,6,0,L|269:178,1,17.9999995231628,8|0,1:0|2:0,2:0:0:0:
252,207,227307,5,8,1:0:0:0:
254,174,227388,1,8,1:0:0:0:
243,202,227469,1,8,1:0:0:0:
265,177,227550,1,8,1:0:0:0:
240,195,227631,1,8,1:0:0:0:
271,186,227713,1,8,1:0:0:0:
240,185,227794,1,8,1:0:0:0:
271,196,227875,1,8,1:0:0:0:
246,179,227956,1,8,1:0:0:0:
265,204,228037,1,8,1:0:0:0:
254,176,228118,1,8,1:0:0:0:
255,208,228199,1,8,1:0:0:0:
263,180,228280,1,8,1:0:0:0:
246,207,228361,1,8,1:0:0:0:
268,187,228442,1,8,1:0:0:0:
238,198,228523,1,8,1:0:0:0:
256,193,228604,6,2,L|256:181,64,8.99999976158142,2|2|2|2|2|2|2|2|2|2|2|2|2|2|2|2|2|2|2|2|2|2|2|2|2|2|2|2|2|2|2|2|2|2|2|2|2|2|2|2|2|2|2|2|2|2|2|2|2|2|2|2|2|2|2|2|2|2|2|2|2|2|2|2|0,2:3|2:3|2:3|2:3|2:3|2:3|2:3|2:3|2:3|2:3|2:3|2:3|2:3|2:3|2:3|2:3|2:3|2:3|2:3|2:3|2:3|2:3|2:3|2:3|2:3|2:3|2:3|2:3|2:3|2:3|2:3|2:3|2:3|2:3|2:3|2:3|2:3|2:3|2:3|2:3|2:3|2:3|2:3|2:3|2:3|2:3|2:3|2:3|2:3|2:3|2:3|2:3|2:3|2:3|2:3|2:3|2:3|2:3|2:3|2:3|2:3|2:3|2:3|2:3|2:0,2:3:0:0:
