osu file format v14

[General]
AudioFilename: audio.ogg
AudioLeadIn: 0
PreviewTime: 80909
Countdown: 0
SampleSet: Soft
StackLeniency: 0.7
Mode: 3
LetterboxInBreaks: 0
EpilepsyWarning: 1
SpecialStyle: 0
WidescreenStoryboard: 1

[Editor]
DistanceSpacing: 1.6
BeatDivisor: 4
GridSize: 4
TimelineZoom: 1.5

[Metadata]
Title:INTERNET OVERDOSE
TitleUnicode:INTERNET OVERDOSE
Artist:Aiobahn feat. KOTOKO
ArtistUnicode:Aiobahn feat. KOTOKO
Creator:FLeVI
Version:DenYi's Normal
Source:NEEDY GIRL OVERDOSE
Tags:streamer ame KAngel OMGkawaiiAngel p-chan tenshi overload video game japanese electronic pop j-pop jpop denpa eurobeat female vocal arcaea muse dash にゃるら nyalra nyarura theme song Drum-Hitnormal DenYi Seiran- -Timerains- ExNeko angel dudehacker WSS playground xemono visual novel cute
BeatmapID:3710262
BeatmapSetID:1794813

[Difficulty]
HPDrainRate:7
CircleSize:4
OverallDifficulty:7
ApproachRate:5
SliderMultiplier:1.4
SliderTickRate:1

[Events]
//Background and Video events
0,0,"BG.jpg",0,0
Video,0,"video.mp4"
//Break Periods
//Storyboard Layer 0 (Background)
//Storyboard Layer 1 (Fail)
//Storyboard Layer 2 (Pass)
//Storyboard Layer 3 (Foreground)
//Storyboard Layer 4 (Overlay)
//Storyboard Sound Samples
Sample,15251,0,"Kick_3-196.wav",70
Sample,85557,0,"Kick_3-196.wav",70
Sample,119422,0,"kick-distort2.wav",50
Sample,119606,0,"kick-distort2.wav",50
Sample,120894,0,"kick-distort2.wav",50
Sample,121630,0,"kick-distort2.wav",50
Sample,122367,0,"kick-distort2.wav",50
Sample,122551,0,"kick-distort2.wav",50
Sample,123839,0,"kick-distort2.wav",50
Sample,125311,0,"kick-distort2.wav",50
Sample,125495,0,"kick-distort2.wav",50
Sample,126416,0,"kick-distort2.wav",50
Sample,127152,0,"kick-distort2.wav",50
Sample,127520,0,"kick-distort2.wav",50
Sample,127520,0,"clap10.wav",70
Sample,127888,0,"kick-distort2.wav",50
Sample,128256,0,"clap10.wav",70
Sample,128256,0,"kick-distort2.wav",50
Sample,128440,0,"kick-distort2.wav",50
Sample,145925,0,"kick-distort2.wav",50
Sample,149054,0,"kick-distort2.wav",50
Sample,151078,0,"kick-distort2.wav",50
Sample,151814,0,"kick-distort2.wav",50
Sample,164330,0,"Kick_3-196.wav",70
Sample,165802,0,"Kick_3-196.wav",70
Sample,173900,0,"Kick_3-196.wav",70
Sample,181262,0,"Kick_3-196.wav",70
Sample,193778,0,"Kick_3-196.wav",70
Sample,199667,0,"Kick_3-196.wav",70
Sample,201140,0,"Kick_3-196.wav",70
Sample,204084,0,"Kick_3-196.wav",70

[TimingPoints]
2000,368.098159509202,4,2,1,30,1,0
52077,368.098159509202,3,2,1,30,1,0
69729,368.098159509202,4,2,1,30,1,0
81508,-100,4,2,1,30,0,1
93287,-100,4,2,1,30,0,0
169851,-100,4,2,1,30,0,1
181630,-100,4,2,1,30,0,0
211078,384.615384615385,4,2,1,30,1,0
211078,-95.705521,4,2,1,30,0,0
211847,397.350993377483,4,2,1,30,1,8
211847,-92.638037,4,2,1,30,0,0
212244,410.958904109589,4,2,1,30,1,8
212244,-89.570552,4,2,1,30,0,0
212449,428.571428571429,4,2,1,30,1,8
212449,-85.889571,4,2,1,30,0,0
212877,500,4,2,1,30,1,8
212877,-73.619632,4,2,1,30,0,0
213127,428.571428571429,4,2,1,30,1,8
213127,-85.889571,4,2,1,30,0,0
213341,476.190476190476,4,2,1,30,1,8
213341,-77.300613,4,2,1,30,0,0
213579,476.190476190476,4,2,1,30,1,8
213579,-77.300613,4,2,1,30,0,0
214293,545.454545454546,4,2,1,30,1,8
214293,-67.484663,4,2,1,30,0,0
214565,500,4,2,1,30,1,0
214565,-73.619632,4,2,1,30,0,0
214815,545.454545454546,4,2,1,30,1,8
214815,-67.484663,4,2,1,30,0,0
215087,600,4,2,1,30,1,8
215087,-61.349693,4,2,1,30,0,0
215387,545.454545454546,4,2,1,30,1,8
215387,-67.484663,4,2,1,30,0,0
215659,600,4,2,1,30,1,8
215659,-61.349693,4,2,1,30,0,0
216259,659.340659340659,4,2,1,30,1,8
216259,-55.828221,4,2,1,30,0,0

[HitObjects]
320,192,1999,128,0,2368:0:0:0:0:
448,192,1999,1,0,0:0:0:0:
64,192,2368,1,0,0:0:0:0:
320,192,2736,128,0,3104:0:0:0:0:
448,192,2736,1,0,0:0:0:0:
64,192,3104,1,0,0:0:0:0:
320,192,3472,128,0,3840:0:0:0:0:
448,192,3472,1,0,0:0:0:0:
64,192,3840,1,0,0:0:0:0:
64,192,4024,1,0,0:0:0:0:
448,192,4392,1,0,0:0:0:0:
320,192,4484,1,0,0:0:0:0:
192,192,4576,128,0,4944:0:0:0:0:
64,192,4944,1,0,0:0:0:70:cymbal-5.wav
448,192,4944,128,0,5680:0:0:0:70:Kick_3-196.wav
64,192,5680,128,0,6417:0:0:0:0:
320,192,6417,128,0,7153:0:0:0:0:
192,192,7153,128,0,7889:0:0:0:0:
448,192,7889,128,0,8625:0:0:0:0:
64,192,8625,128,0,9361:0:0:0:0:
448,192,9361,128,0,9730:0:0:0:0:
320,192,9730,128,0,10098:0:0:0:0:
192,192,10098,128,0,10466:0:0:0:0:
64,192,10466,128,0,10834:0:0:0:0:
320,192,10834,1,0,0:0:0:70:cymbal-5.wav
448,192,10834,1,0,0:0:0:70:Kick_3-196.wav
192,192,11018,1,0,0:0:0:0:
64,192,11202,1,0,0:0:0:70:Kick_3-196.wav
448,192,11202,1,0,0:0:0:0:
320,192,11386,1,0,0:0:0:0:
192,192,11570,1,0,0:0:0:70:Kick_3-196.wav
448,192,11570,128,0,12306:0:0:0:0:
64,192,11754,1,0,0:0:0:0:
192,192,11938,1,0,0:0:0:70:Kick_3-196.wav
320,192,12122,1,0,0:0:0:0:
64,192,12306,1,0,0:0:0:70:Kick_3-196.wav
192,192,12306,1,0,0:0:0:0:
320,192,12490,1,0,0:0:0:0:
64,192,12674,1,0,0:0:0:70:Kick_3-196.wav
448,192,12674,1,0,0:0:0:0:
192,192,12858,1,0,0:0:0:0:
64,192,13042,128,0,13779:0:0:0:70:Kick_3-196.wav
320,192,13042,1,0,0:0:0:0:
448,192,13226,1,0,0:0:0:0:
320,192,13411,1,0,0:0:0:70:Kick_3-196.wav
192,192,13595,1,0,0:0:0:0:
320,192,13779,1,0,0:0:0:70:Kick_3-196.wav
448,192,13779,1,0,0:0:0:0:
64,192,13963,1,0,0:0:0:0:
192,192,14147,1,0,0:0:0:70:Kick_3-196.wav
320,192,14147,1,0,0:0:0:0:
448,192,14331,1,0,0:0:0:0:
64,192,14515,1,0,0:0:0:70:Kick_3-196.wav
192,192,14515,1,0,0:0:0:0:
320,192,14699,1,0,0:0:0:0:
64,192,14883,1,0,0:0:0:70:Kick_3-196.wav
448,192,14883,1,0,0:0:0:0:
192,192,15067,1,0,0:0:0:50:Ride1.wav
320,192,15159,1,0,0:0:0:50:Ride1.wav
448,192,15251,1,0,0:0:0:50:Ride1.wav
64,192,15435,1,0,0:0:0:0:
320,192,15803,1,0,0:0:0:0:
192,192,16171,128,0,16355:0:0:0:0:
320,192,16355,128,0,16539:0:0:0:0:
448,192,16539,128,0,16723:0:0:0:0:
64,192,16723,128,0,16907:0:0:0:70:cymbal-5.wav
192,192,16723,128,0,16907:0:0:0:70:Kick_3-196.wav
320,192,17092,128,0,17276:0:0:0:50:snare10.wav
448,192,17092,128,0,17276:0:0:0:70:Kick_3-196.wav
64,192,17460,1,0,0:0:0:70:Kick_3-196.wav
192,192,17552,1,0,0:0:0:0:
320,192,17736,1,0,0:0:0:0:
64,192,17828,1,0,0:0:0:50:snare10.wav
448,192,17828,1,0,0:0:0:70:Kick_3-196.wav
64,192,18012,1,0,0:0:0:0:
320,192,18196,128,0,18380:0:0:0:70:Kick_3-196.wav
64,192,18380,128,0,18564:0:0:0:0:
320,192,18564,1,0,0:0:0:50:snare10.wav
448,192,18564,128,0,18748:0:0:0:70:Kick_3-196.wav
192,192,18748,128,0,18932:0:0:0:0:
448,192,18932,1,0,0:0:0:70:Kick_3-196.wav
320,192,19024,1,0,0:0:0:0:
192,192,19208,1,0,0:0:0:0:
64,192,19300,1,0,0:0:0:50:snare10.wav
448,192,19300,1,0,0:0:0:70:Kick_3-196.wav
448,192,19484,1,0,0:0:0:0:
64,192,19668,128,0,19852:0:0:0:70:Kick_3-196.wav
192,192,19668,128,0,19852:0:0:0:0:
320,192,20036,128,0,20220:0:0:0:50:snare10.wav
448,192,20036,128,0,20220:0:0:0:70:Kick_3-196.wav
64,192,20404,1,0,0:0:0:70:Kick_3-196.wav
192,192,20496,1,0,0:0:0:0:
320,192,20680,1,0,0:0:0:0:
64,192,20773,1,0,0:0:0:50:snare10.wav
448,192,20773,1,0,0:0:0:70:Kick_3-196.wav
64,192,20957,1,0,0:0:0:0:
320,192,21141,128,0,21325:0:0:0:70:Kick_3-196.wav
192,192,21509,1,0,0:0:0:50:snare10.wav
320,192,21509,128,0,21693:0:0:0:70:Kick_3-196.wav
64,192,21877,128,0,22061:0:0:0:70:Kick_3-196.wav
192,192,21877,128,0,22061:0:0:0:0:
320,192,22061,128,0,22245:0:0:0:0:
448,192,22061,128,0,22245:0:0:0:0:
64,192,22245,1,0,0:0:0:50:snare10.wav
192,192,22245,1,0,0:0:0:70:Kick_3-196.wav
320,192,22429,1,0,0:0:0:0:
192,192,22521,1,0,0:0:0:0:
64,192,22613,128,0,22797:0:0:0:70:cymbal-5.wav
448,192,22613,128,0,22797:0:0:0:70:Kick_3-196.wav
192,192,22981,128,0,23165:0:0:0:50:snare10.wav
320,192,22981,128,0,23165:0:0:0:70:Kick_3-196.wav
448,192,23349,1,0,0:0:0:70:Kick_3-196.wav
320,192,23441,1,0,0:0:0:0:
192,192,23625,1,0,0:0:0:0:
64,192,23717,1,0,0:0:0:50:snare10.wav
448,192,23717,1,0,0:0:0:70:Kick_3-196.wav
448,192,23901,1,0,0:0:0:0:
192,192,24085,128,0,24269:0:0:0:70:Kick_3-196.wav
448,192,24269,128,0,24453:0:0:0:0:
64,192,24453,128,0,24638:0:0:0:50:snare10.wav
192,192,24453,1,0,0:0:0:70:Kick_3-196.wav
320,192,24638,128,0,24822:0:0:0:0:
64,192,24822,1,0,0:0:0:70:Kick_3-196.wav
192,192,24914,1,0,0:0:0:0:
320,192,25098,1,0,0:0:0:0:
64,192,25190,1,0,0:0:0:50:snare10.wav
448,192,25190,1,0,0:0:0:70:Kick_3-196.wav
64,192,25374,1,0,0:0:0:0:
192,192,25558,128,0,25742:0:0:0:70:Kick_3-196.wav
320,192,25558,128,0,25742:0:0:0:0:
64,192,25926,128,0,26110:0:0:0:50:snare10.wav
448,192,25926,128,0,26110:0:0:0:70:Kick_3-196.wav
192,192,26294,1,0,0:0:0:70:Kick_3-196.wav
64,192,26386,1,0,0:0:0:0:
320,192,26570,1,0,0:0:0:0:
192,192,26662,1,0,0:0:0:50:snare10.wav
448,192,26662,1,0,0:0:0:70:Kick_3-196.wav
192,192,26846,1,0,0:0:0:0:
320,192,27030,128,0,27214:0:0:0:70:Kick_3-196.wav
448,192,27030,128,0,27214:0:0:0:0:
64,192,27214,1,0,0:0:0:0:
192,192,27398,128,0,27582:0:0:0:50:snare10.wav
320,192,27398,128,0,27582:0:0:0:70:Kick_3-196.wav
448,192,27582,1,0,0:0:0:0:
64,192,27766,128,0,27950:0:0:0:0:
192,192,27766,128,0,27950:0:0:0:0:
320,192,27950,1,0,0:0:0:0:
64,192,28134,128,0,28319:0:0:0:50:snare10.wav
448,192,28134,128,0,28319:0:0:0:0:
192,192,28319,1,0,0:0:0:0:
320,192,28503,1,0,0:0:0:50:Ride1.wav
448,192,28503,1,0,0:0:0:70:Kick1.wav
192,192,28687,1,0,0:0:0:0:
64,192,28871,1,0,0:0:0:70:clap10.wav
448,192,28871,1,0,0:0:0:70:Kick1.wav
448,192,29055,1,0,0:0:0:0:
192,192,29239,1,0,0:0:0:70:Kick1.wav
320,192,29423,1,0,0:0:0:0:
64,192,29607,1,0,0:0:0:70:clap10.wav
448,192,29607,1,0,0:0:0:70:Kick1.wav
64,192,29791,1,0,0:0:0:0:
192,192,29975,1,0,0:0:0:70:Kick1.wav
448,192,30159,1,0,0:0:0:0:
64,192,30343,1,0,0:0:0:70:clap10.wav
320,192,30343,1,0,0:0:0:70:Kick1.wav
320,192,30527,1,0,0:0:0:0:
448,192,30711,1,0,0:0:0:70:Kick1.wav
64,192,30895,1,0,0:0:0:0:
192,192,31079,1,0,0:0:0:70:clap10.wav
448,192,31079,1,0,0:0:0:70:Kick1.wav
192,192,31263,1,0,0:0:0:0:
320,192,31447,1,0,0:0:0:70:Kick1.wav
448,192,31631,1,0,0:0:0:0:
64,192,31815,1,0,0:0:0:70:clap10.wav
192,192,31815,1,0,0:0:0:70:Kick1.wav
64,192,31999,1,0,0:0:0:0:
320,192,32184,1,0,0:0:0:70:Kick1.wav
192,192,32368,1,0,0:0:0:0:
64,192,32552,1,0,0:0:0:70:clap10.wav
448,192,32552,1,0,0:0:0:70:Kick1.wav
448,192,32736,1,0,0:0:0:0:
320,192,32920,1,0,0:0:0:70:Kick1.wav
64,192,33104,1,0,0:0:0:0:
192,192,33288,1,0,0:0:0:70:clap10.wav
448,192,33288,1,0,0:0:0:70:Kick1.wav
192,192,33472,1,0,0:0:0:0:
320,192,33656,1,0,0:0:0:70:Kick1.wav
64,192,33840,1,0,0:0:0:0:
192,192,34024,1,0,0:0:0:70:clap10.wav
448,192,34024,1,0,0:0:0:70:Kick1.wav
448,192,34208,1,0,0:0:0:0:
64,192,34392,1,0,0:0:0:50:Ride1.wav
320,192,34392,1,0,0:0:0:70:Kick1.wav
192,192,34576,1,0,0:0:0:0:
320,192,34760,1,0,0:0:0:70:clap10.wav
448,192,34760,1,0,0:0:0:70:Kick1.wav
320,192,34944,1,0,0:0:0:0:
64,192,35128,1,0,0:0:0:70:Kick1.wav
448,192,35312,1,0,0:0:0:0:
192,192,35496,1,0,0:0:0:70:clap10.wav
320,192,35496,1,0,0:0:0:70:Kick1.wav
192,192,35680,1,0,0:0:0:0:
448,192,35865,1,0,0:0:0:70:Kick1.wav
320,192,36049,1,0,0:0:0:0:
64,192,36233,1,0,0:0:0:70:clap10.wav
192,192,36233,1,0,0:0:0:70:Kick1.wav
64,192,36417,1,0,0:0:0:0:
448,192,36601,1,0,0:0:0:70:Kick1.wav
192,192,36785,1,0,0:0:0:0:
64,192,36969,1,0,0:0:0:70:clap10.wav
320,192,36969,1,0,0:0:0:70:Kick1.wav
320,192,37153,1,0,0:0:0:0:
192,192,37337,1,0,0:0:0:70:Kick1.wav
64,192,37521,1,0,0:0:0:0:
320,192,37705,1,0,0:0:0:70:clap10.wav
448,192,37705,1,0,0:0:0:70:Kick1.wav
448,192,37889,1,0,0:0:0:0:
192,192,38073,1,0,0:0:0:70:Kick1.wav
320,192,38257,1,0,0:0:0:0:
64,192,38441,1,0,0:0:0:70:clap10.wav
448,192,38441,1,0,0:0:0:70:Kick1.wav
64,192,38625,1,0,0:0:0:0:
448,192,38809,1,0,0:0:0:70:Kick1.wav
320,192,38901,1,0,0:0:0:0:
192,192,38993,1,0,0:0:0:0:
192,192,39177,1,0,0:0:0:0:
64,192,39453,1,0,0:0:0:0:
192,192,39546,1,0,0:0:0:0:
320,192,39638,1,0,0:0:0:0:
320,192,39822,1,0,0:0:0:0:
448,192,40006,1,0,0:0:0:0:
64,192,40282,1,0,0:0:0:50:Ride1.wav
192,192,40282,1,0,0:0:0:70:Kick1.wav
448,192,40374,1,0,0:0:0:0:
192,192,40466,1,0,0:0:0:0:
320,192,40650,1,0,0:0:0:70:clap10.wav
448,192,40650,1,0,0:0:0:70:Kick1.wav
64,192,40742,1,0,0:0:0:0:
320,192,40834,1,0,0:0:0:0:
448,192,41018,128,0,41202:0:0:0:70:Kick1.wav
64,192,41202,128,0,41386:0:0:0:0:
192,192,41386,128,0,41570:0:0:0:70:clap10.wav
448,192,41386,1,0,0:0:0:70:Kick1.wav
320,192,41570,128,0,41754:0:0:0:0:
64,192,41754,128,0,41938:0:0:0:70:Kick1.wav
448,192,41938,128,0,42122:0:0:0:0:
64,192,42122,1,0,0:0:0:70:clap10.wav
192,192,42122,1,0,0:0:0:70:Kick1.wav
320,192,42214,1,0,0:0:0:0:
192,192,42306,1,0,0:0:0:0:
448,192,42490,128,0,42674:0:0:0:70:Kick1.wav
192,192,42674,128,0,42858:0:0:0:0:
320,192,42858,128,0,43042:0:0:0:70:clap10.wav
448,192,42858,1,0,0:0:0:70:Kick1.wav
64,192,43042,128,0,43226:0:0:0:0:
448,192,43226,1,0,0:0:0:70:Kick1.wav
192,192,43319,1,0,0:0:0:0:
448,192,43411,1,0,0:0:0:0:
64,192,43595,1,0,0:0:0:70:clap10.wav
192,192,43595,1,0,0:0:0:70:Kick1.wav
320,192,43687,1,0,0:0:0:0:
64,192,43779,1,0,0:0:0:0:
448,192,43963,128,0,44147:0:0:0:70:Kick1.wav
64,192,44147,128,0,44331:0:0:0:0:
320,192,44331,128,0,44515:0:0:0:70:clap10.wav
448,192,44331,1,0,0:0:0:70:Kick1.wav
192,192,44515,128,0,44699:0:0:0:0:
64,192,44699,128,0,45067:0:0:0:70:Kick1.wav
320,192,45067,1,0,0:0:0:70:clap10.wav
448,192,45067,128,0,45435:0:0:0:70:Kick1.wav
192,192,45435,128,0,45803:0:0:0:70:Kick1.wav
64,192,45803,1,0,0:0:0:70:clap10.wav
320,192,45803,128,0,46171:0:0:0:70:Kick1.wav
64,192,46171,1,0,0:0:0:50:Ride1.wav
448,192,46171,1,0,0:0:0:70:Kick1.wav
192,192,46263,1,0,0:0:0:0:
320,192,46355,1,0,0:0:0:0:
64,192,46539,1,0,0:0:0:70:clap10.wav
448,192,46539,1,0,0:0:0:70:Kick1.wav
320,192,46631,1,0,0:0:0:0:
192,192,46723,1,0,0:0:0:0:
448,192,46907,128,0,47092:0:0:0:70:Kick1.wav
320,192,47092,128,0,47276:0:0:0:0:
64,192,47276,128,0,47460:0:0:0:70:clap10.wav
448,192,47276,1,0,0:0:0:70:Kick1.wav
192,192,47460,128,0,47644:0:0:0:0:
448,192,47644,1,0,0:0:0:70:Kick1.wav
320,192,47736,1,0,0:0:0:0:
192,192,47828,1,0,0:0:0:0:
64,192,48012,1,0,0:0:0:70:clap10.wav
448,192,48012,1,0,0:0:0:70:Kick1.wav
192,192,48104,1,0,0:0:0:0:
320,192,48196,1,0,0:0:0:0:
64,192,48380,128,0,48564:0:0:0:70:Kick1.wav
192,192,48564,128,0,48748:0:0:0:0:
64,192,48748,1,0,0:0:0:70:clap10.wav
448,192,48748,128,0,48932:0:0:0:70:Kick1.wav
320,192,48932,128,0,49116:0:0:0:0:
64,192,49116,1,0,0:0:0:70:Kick1.wav
448,192,49208,1,0,0:0:0:0:
192,192,49300,1,0,0:0:0:0:
320,192,49484,1,0,0:0:0:70:clap10.wav
448,192,49484,1,0,0:0:0:70:Kick1.wav
192,192,49668,1,0,0:0:0:0:
64,192,49852,128,0,50036:0:0:0:70:Kick1.wav
320,192,50036,128,0,50220:0:0:0:0:
64,192,50220,1,0,0:0:0:70:clap10.wav
192,192,50220,128,0,50404:0:0:0:70:Kick1.wav
448,192,50404,128,0,50588:0:0:0:0:
64,192,50588,1,0,0:0:0:70:Kick1.wav
192,192,50680,1,0,0:0:0:0:
320,192,50773,1,0,0:0:0:0:
64,192,50957,1,0,0:0:0:70:clap10.wav
320,192,51049,1,0,0:0:0:0:
448,192,51325,1,0,0:0:0:0:
320,192,51417,1,0,0:0:0:0:
192,192,51509,1,0,0:0:0:0:
448,192,51693,1,0,0:0:0:70:clap10.wav
192,192,51785,1,0,0:0:0:0:
64,192,52077,1,0,0:0:0:50:Orchestra Hit.wav
448,192,52077,1,0,0:0:0:50:Orchestra Snare.wav
192,192,52445,1,0,0:0:0:50:Orchestra Snare.wav
320,192,52445,1,0,0:0:0:0:
64,192,52813,1,0,0:0:0:50:Orchestra Snare.wav
448,192,52813,1,0,0:0:0:0:
64,192,53181,1,0,0:0:0:50:Orchestra Snare.wav
192,192,53181,1,0,0:0:0:0:
192,192,53549,128,0,53917:0:0:0:50:Orchestra Snare.wav
320,192,53917,1,0,0:0:0:50:Orchestra Snare.wav
448,192,53917,1,0,0:0:0:0:
64,192,54285,1,0,0:0:0:50:Orchestra Hit.wav
448,192,54285,1,0,0:0:0:50:Orchestra Snare.wav
64,192,54653,1,0,0:0:0:50:Orchestra Snare.wav
192,192,54653,1,0,0:0:0:0:
320,192,54837,1,0,0:0:0:50:Orchestra Snare.wav
448,192,54837,1,0,0:0:0:0:
64,192,55021,1,0,0:0:0:50:Orchestra Snare.wav
192,192,55021,1,0,0:0:0:0:
320,192,55389,1,0,0:0:0:50:Orchestra Snare.wav
448,192,55389,1,0,0:0:0:0:
448,192,55757,128,0,56126:0:0:0:50:Orchestra Snare.wav
64,192,56126,1,0,0:0:0:50:Orchestra Snare.wav
192,192,56126,1,0,0:0:0:0:
64,192,56494,1,0,0:0:0:50:Orchestra Hit.wav
448,192,56494,1,0,0:0:0:50:Orchestra Snare.wav
192,192,56862,1,0,0:0:0:50:Orchestra Snare.wav
320,192,56862,1,0,0:0:0:0:
64,192,57230,1,0,0:0:0:50:Orchestra Snare.wav
448,192,57230,1,0,0:0:0:0:
64,192,57598,1,0,0:0:0:50:Orchestra Snare.wav
192,192,57598,1,0,0:0:0:0:
192,192,57966,128,0,58334:0:0:0:50:Orchestra Snare.wav
320,192,58334,1,0,0:0:0:50:Orchestra Snare.wav
448,192,58334,1,0,0:0:0:0:
64,192,58702,1,0,0:0:0:50:Orchestra Hit.wav
448,192,58702,1,0,0:0:0:50:Orchestra Snare.wav
64,192,59070,1,0,0:0:0:50:Orchestra Snare.wav
192,192,59070,1,0,0:0:0:0:
192,192,59254,1,0,0:0:0:50:Orchestra Snare.wav
320,192,59438,1,0,0:0:0:50:Orchestra Snare.wav
448,192,59438,1,0,0:0:0:0:
320,192,59623,1,0,0:0:0:50:Orchestra Snare.wav
64,192,59807,1,0,0:0:0:50:Orchestra Hit.wav
192,192,59807,1,0,0:0:0:50:Orchestra Snare.wav
64,192,60175,128,0,60543:0:0:0:50:Orchestra Snare.wav
320,192,60543,1,0,0:0:0:50:Orchestra Hit.wav
448,192,60543,1,0,0:0:0:50:Orchestra Snare.wav
64,192,60911,1,0,0:0:0:50:Orchestra Hit.wav
448,192,60911,1,0,0:0:0:50:Orchestra Snare.wav
192,192,61279,1,0,0:0:0:50:Orchestra Snare.wav
320,192,61279,1,0,0:0:0:0:
64,192,61647,1,0,0:0:0:50:Orchestra Snare.wav
448,192,61647,1,0,0:0:0:0:
64,192,62015,1,0,0:0:0:50:Orchestra Snare.wav
192,192,62015,1,0,0:0:0:0:
192,192,62383,128,0,62751:0:0:0:50:Orchestra Snare.wav
320,192,62751,1,0,0:0:0:50:Orchestra Snare.wav
448,192,62751,1,0,0:0:0:0:
64,192,63119,1,0,0:0:0:50:Orchestra Hit.wav
448,192,63119,1,0,0:0:0:50:Orchestra Snare.wav
64,192,63488,1,0,0:0:0:50:Orchestra Snare.wav
192,192,63488,1,0,0:0:0:0:
320,192,63672,1,0,0:0:0:50:Orchestra Snare.wav
448,192,63672,1,0,0:0:0:0:
64,192,63856,1,0,0:0:0:50:Orchestra Snare.wav
192,192,63856,1,0,0:0:0:0:
320,192,64224,1,0,0:0:0:50:Orchestra Snare.wav
448,192,64224,1,0,0:0:0:0:
320,192,64592,128,0,64960:0:0:0:50:Orchestra Snare.wav
64,192,64960,1,0,0:0:0:50:Orchestra Snare.wav
192,192,64960,1,0,0:0:0:0:
64,192,65328,1,0,0:0:0:50:Orchestra Hit.wav
448,192,65328,1,0,0:0:0:50:Orchestra Snare.wav
192,192,65696,1,0,0:0:0:50:Orchestra Snare.wav
320,192,65696,1,0,0:0:0:0:
64,192,66064,1,0,0:0:0:50:Orchestra Snare.wav
448,192,66064,1,0,0:0:0:0:
320,192,66432,1,0,0:0:0:50:Orchestra Hit.wav
448,192,66432,1,0,0:0:0:50:Orchestra Snare.wav
320,192,66800,128,0,67169:0:0:0:50:Orchestra Snare.wav
64,192,67169,1,0,0:0:0:50:Orchestra Hit.wav
192,192,67169,1,0,0:0:0:50:Orchestra Snare.wav
64,192,67537,1,0,0:0:0:50:Orchestra Hit.wav
448,192,67537,1,0,0:0:0:50:Orchestra Snare.wav
320,192,67905,1,0,0:0:0:50:Orchestra Snare.wav
448,192,67905,1,0,0:0:0:0:
320,192,68089,1,0,0:0:0:50:Orchestra Snare.wav
64,192,68273,1,0,0:0:0:50:Orchestra Snare.wav
192,192,68273,1,0,0:0:0:0:
192,192,68457,1,0,0:0:0:50:Orchestra Snare.wav
320,192,68641,128,0,69377:0:0:0:50:Orchestra Snare.wav
448,192,68641,1,0,0:0:0:0:
192,192,69009,128,0,69377:0:0:0:0:
64,192,69729,1,0,0:0:0:70:cymbal-5.wav
448,192,69729,128,0,70005:0:0:0:70:Kick_3-196.wav
320,192,70005,1,0,0:0:0:0:
192,192,70097,1,0,0:0:0:70:Kick_3-196.wav
320,192,70281,128,0,70465:0:0:0:0:
64,192,70465,128,0,70741:0:0:0:70:Kick_3-196.wav
448,192,70465,1,0,0:0:0:0:
192,192,70741,1,0,0:0:0:0:
320,192,70833,1,0,0:0:0:70:Kick_3-196.wav
448,192,71017,128,0,71201:0:0:0:0:
64,192,71201,1,0,0:0:0:70:Kick_3-196.wav
192,192,71201,128,0,71477:0:0:0:0:
320,192,71477,1,0,0:0:0:0:
448,192,71569,1,0,0:0:0:70:Kick_3-196.wav
64,192,71753,128,0,71937:0:0:0:0:
320,192,71937,128,0,72121:0:0:0:70:Kick_3-196.wav
448,192,71937,1,0,0:0:0:0:
192,192,72121,128,0,72305:0:0:0:0:
64,192,72305,1,0,0:0:0:70:Kick_3-196.wav
448,192,72305,128,0,72489:0:0:0:0:
320,192,72489,1,0,0:0:0:0:
64,192,72673,128,0,72949:0:0:0:70:Kick_3-196.wav
192,192,72673,1,0,0:0:0:0:
448,192,72949,1,0,0:0:0:0:
320,192,73041,1,0,0:0:0:70:Kick_3-196.wav
192,192,73225,128,0,73409:0:0:0:0:
320,192,73409,1,0,0:0:0:70:Kick_3-196.wav
448,192,73409,128,0,73686:0:0:0:0:
64,192,73686,1,0,0:0:0:0:
320,192,73778,1,0,0:0:0:70:Kick_3-196.wav
192,192,73962,128,0,74146:0:0:0:0:
64,192,74146,1,0,0:0:0:70:Kick_3-196.wav
320,192,74146,128,0,74422:0:0:0:0:
448,192,74422,1,0,0:0:0:0:
64,192,74514,1,0,0:0:0:70:Kick_3-196.wav
192,192,74698,128,0,74882:0:0:0:0:
320,192,74882,1,0,0:0:0:70:Kick_3-196.wav
448,192,74882,128,0,75066:0:0:0:0:
64,192,75066,128,0,75250:0:0:0:0:
192,192,75250,1,0,0:0:0:70:Kick_3-196.wav
320,192,75250,128,0,75434:0:0:0:0:
448,192,75434,1,0,0:0:0:0:
192,192,75618,128,0,75894:0:0:0:70:cymbal-5.wav
320,192,75618,1,0,0:0:0:70:Kick_3-196.wav
64,192,75894,1,0,0:0:0:0:
448,192,75986,1,0,0:0:0:70:Kick_3-196.wav
320,192,76170,128,0,76354:0:0:0:0:
64,192,76354,128,0,76630:0:0:0:70:Kick_3-196.wav
192,192,76354,1,0,0:0:0:0:
448,192,76630,1,0,0:0:0:0:
192,192,76722,1,0,0:0:0:70:Kick_3-196.wav
320,192,76906,128,0,77090:0:0:0:0:
64,192,77090,1,0,0:0:0:70:Kick_3-196.wav
448,192,77090,128,0,77367:0:0:0:0:
192,192,77367,1,0,0:0:0:0:
320,192,77459,1,0,0:0:0:70:Kick_3-196.wav
64,192,77643,128,0,77827:0:0:0:0:
192,192,77827,1,0,0:0:0:70:Kick_3-196.wav
448,192,77827,128,0,78011:0:0:0:0:
320,192,78011,128,0,78195:0:0:0:0:
64,192,78195,1,0,0:0:0:70:Kick_3-196.wav
192,192,78195,128,0,78379:0:0:0:0:
448,192,78379,1,0,0:0:0:0:
64,192,78563,1,0,0:0:0:70:Kick_3-196.wav
320,192,78563,128,0,78839:0:0:0:0:
448,192,78839,1,0,0:0:0:0:
192,192,78931,128,0,79115:0:0:0:70:Kick_3-196.wav
64,192,79115,1,0,0:0:0:0:
320,192,79299,1,0,0:0:0:70:Kick_3-196.wav
448,192,79299,128,0,79483:0:0:0:0:
64,192,79483,128,0,79667:0:0:0:0:
320,192,79667,128,0,79851:0:0:0:70:Kick_3-196.wav
64,192,79851,1,0,0:0:0:50:Ride1.wav
448,192,79851,1,0,0:0:0:0:
192,192,80035,128,0,80587:0:0:0:50:Ride1.wav
320,192,80035,1,0,0:0:0:70:Kick_3-196.wav
448,192,80219,1,0,0:0:0:0:
64,192,80587,1,0,0:0:0:0:
448,192,80955,128,0,81140:0:0:0:0:
192,192,81140,128,0,81324:0:0:0:0:
320,192,81324,128,0,81508:0:0:0:0:
64,192,81508,128,0,81692:0:0:0:70:cymbal-5.wav
448,192,81508,1,0,0:0:0:70:Kick_3-196.wav
64,192,81876,128,0,82152:0:0:0:50:snare10.wav
192,192,81876,1,0,0:0:0:70:Kick_3-196.wav
320,192,82152,1,0,0:0:0:0:
448,192,82244,128,0,82428:0:0:0:70:Kick_3-196.wav
192,192,82428,128,0,82612:0:0:0:0:
64,192,82612,1,0,0:0:0:50:snare10.wav
448,192,82612,1,0,0:0:0:70:Kick_3-196.wav
320,192,82796,128,0,82980:0:0:0:0:
192,192,82980,1,0,0:0:0:70:Kick_3-196.wav
448,192,82980,1,0,0:0:0:0:
320,192,83164,128,0,83348:0:0:0:0:
64,192,83348,1,0,0:0:0:50:snare10.wav
192,192,83348,128,0,83900:0:0:0:70:Kick_3-196.wav
320,192,83716,128,0,83900:0:0:0:70:Kick_3-196.wav
448,192,83716,1,0,0:0:0:0:
64,192,84084,128,0,84268:0:0:0:50:snare10.wav
320,192,84084,1,0,0:0:0:70:Kick_3-196.wav
448,192,84268,128,0,84452:0:0:0:0:
64,192,84452,1,0,0:0:0:70:Kick_3-196.wav
192,192,84452,128,0,84821:0:0:0:0:
320,192,84821,128,0,85189:0:0:0:50:snare10.wav
448,192,84821,1,0,0:0:0:70:Kick_3-196.wav
64,192,85189,128,0,85465:0:0:0:70:Kick_3-196.wav
192,192,85189,1,0,0:0:0:0:
448,192,85465,1,0,0:0:0:0:
192,192,85557,1,0,0:0:0:50:snare10.wav
320,192,85741,128,0,85925:0:0:0:0:
64,192,85925,1,0,0:0:0:70:Kick_3-196.wav
192,192,85925,128,0,86109:0:0:0:0:
448,192,86109,128,0,86293:0:0:0:0:
64,192,86293,128,0,86661:0:0:0:50:snare10.wav
192,192,86293,1,0,0:0:0:70:Kick_3-196.wav
320,192,86661,1,0,0:0:0:70:Kick_3-196.wav
448,192,86661,128,0,86845:0:0:0:0:
192,192,86845,128,0,87029:0:0:0:0:
320,192,87029,128,0,87213:0:0:0:50:snare10.wav
448,192,87029,1,0,0:0:0:70:Kick_3-196.wav
64,192,87213,128,0,87397:0:0:0:0:
192,192,87397,1,0,0:0:0:70:cymbal-5.wav
448,192,87397,128,0,87581:0:0:0:70:Kick_3-196.wav
320,192,87765,1,0,0:0:0:50:snare10.wav
448,192,87765,128,0,88041:0:0:0:70:Kick_3-196.wav
192,192,88041,1,0,0:0:0:0:
64,192,88133,128,0,88317:0:0:0:70:Kick_3-196.wav
320,192,88317,128,0,88502:0:0:0:0:
64,192,88502,1,0,0:0:0:50:snare10.wav
448,192,88502,1,0,0:0:0:70:Kick_3-196.wav
192,192,88686,128,0,88870:0:0:0:0:
64,192,88870,1,0,0:0:0:70:Kick_3-196.wav
320,192,88870,1,0,0:0:0:0:
192,192,89054,128,0,89238:0:0:0:0:
320,192,89238,128,0,89790:0:0:0:50:snare10.wav
448,192,89238,1,0,0:0:0:70:Kick_3-196.wav
64,192,89606,1,0,0:0:0:70:Kick_3-196.wav
192,192,89606,128,0,89790:0:0:0:0:
192,192,89974,1,0,0:0:0:50:snare10.wav
448,192,89974,128,0,90158:0:0:0:70:Kick_3-196.wav
64,192,90158,128,0,90342:0:0:0:0:
320,192,90342,128,0,90526:0:0:0:70:Kick_3-196.wav
448,192,90342,1,0,0:0:0:0:
192,192,90526,128,0,90710:0:0:0:0:
64,192,90710,1,0,0:0:0:50:snare10.wav
448,192,90710,128,0,90894:0:0:0:70:Kick_3-196.wav
320,192,90894,128,0,91078:0:0:0:0:
64,192,91078,128,0,91262:0:0:0:70:Kick_3-196.wav
192,192,91078,1,0,0:0:0:0:
448,192,91262,128,0,91446:0:0:0:0:
64,192,91446,1,0,0:0:0:50:snare10.wav
320,192,91446,1,0,0:0:0:70:Kick_3-196.wav
192,192,91630,128,0,91814:0:0:0:0:
64,192,91814,128,0,92182:0:0:0:70:Kick_3-196.wav
448,192,91814,1,0,0:0:0:0:
192,192,92182,1,0,0:0:0:50:snare10.wav
320,192,92182,128,0,92367:0:0:0:70:Kick_3-196.wav
320,192,92551,128,0,92735:0:0:0:70:Kick_3-196.wav
448,192,92551,1,0,0:0:0:0:
64,192,92735,128,0,92919:0:0:0:0:
192,192,92919,1,0,0:0:0:50:snare10.wav
448,192,92919,128,0,93103:0:0:0:70:Kick_3-196.wav
320,192,93103,128,0,93287:0:0:0:0:
64,192,93287,128,0,93471:0:0:0:70:cymbal-5.wav
192,192,93287,128,0,93471:0:0:0:70:Kick_3-196.wav
320,192,93655,128,0,93839:0:0:0:50:snare10.wav
448,192,93655,128,0,93839:0:0:0:70:Kick_3-196.wav
64,192,94023,1,0,0:0:0:70:Kick_3-196.wav
192,192,94115,1,0,0:0:0:0:
320,192,94299,1,0,0:0:0:0:
64,192,94391,1,0,0:0:0:50:snare10.wav
448,192,94391,1,0,0:0:0:70:Kick_3-196.wav
64,192,94575,1,0,0:0:0:0:
320,192,94759,128,0,94943:0:0:0:70:Kick_3-196.wav
64,192,94943,128,0,95127:0:0:0:0:
320,192,95127,1,0,0:0:0:50:snare10.wav
448,192,95127,128,0,95311:0:0:0:70:Kick_3-196.wav
192,192,95311,128,0,95495:0:0:0:0:
448,192,95495,1,0,0:0:0:70:Kick_3-196.wav
320,192,95587,1,0,0:0:0:0:
192,192,95771,1,0,0:0:0:0:
64,192,95863,1,0,0:0:0:50:snare10.wav
448,192,95863,1,0,0:0:0:70:Kick_3-196.wav
448,192,96048,1,0,0:0:0:0:
64,192,96232,128,0,96416:0:0:0:70:Kick_3-196.wav
192,192,96232,128,0,96416:0:0:0:0:
320,192,96600,128,0,96784:0:0:0:50:snare10.wav
448,192,96600,128,0,96784:0:0:0:70:Kick_3-196.wav
64,192,96968,1,0,0:0:0:70:Kick_3-196.wav
192,192,97060,1,0,0:0:0:0:
320,192,97244,1,0,0:0:0:0:
64,192,97336,1,0,0:0:0:50:snare10.wav
448,192,97336,1,0,0:0:0:70:Kick_3-196.wav
64,192,97520,1,0,0:0:0:0:
320,192,97704,128,0,97888:0:0:0:70:Kick_3-196.wav
192,192,98072,1,0,0:0:0:50:snare10.wav
320,192,98072,128,0,98256:0:0:0:70:Kick_3-196.wav
64,192,98440,128,0,98624:0:0:0:70:Kick_3-196.wav
192,192,98440,128,0,98624:0:0:0:0:
320,192,98624,128,0,98808:0:0:0:0:
448,192,98624,128,0,98808:0:0:0:0:
64,192,98808,1,0,0:0:0:50:snare10.wav
192,192,98808,1,0,0:0:0:70:Kick_3-196.wav
320,192,98992,1,0,0:0:0:0:
192,192,99084,1,0,0:0:0:0:
64,192,99176,128,0,99360:0:0:0:70:cymbal-5.wav
448,192,99176,128,0,99360:0:0:0:70:Kick_3-196.wav
192,192,99544,128,0,99728:0:0:0:50:snare10.wav
320,192,99544,128,0,99728:0:0:0:70:Kick_3-196.wav
448,192,99913,1,0,0:0:0:70:Kick_3-196.wav
320,192,100005,1,0,0:0:0:0:
192,192,100189,1,0,0:0:0:0:
64,192,100281,1,0,0:0:0:50:snare10.wav
448,192,100281,1,0,0:0:0:70:Kick_3-196.wav
448,192,100465,1,0,0:0:0:0:
192,192,100649,128,0,100833:0:0:0:70:Kick_3-196.wav
448,192,100833,128,0,101017:0:0:0:0:
64,192,101017,128,0,101201:0:0:0:50:snare10.wav
192,192,101017,1,0,0:0:0:70:Kick_3-196.wav
320,192,101201,128,0,101385:0:0:0:0:
64,192,101385,1,0,0:0:0:70:Kick_3-196.wav
192,192,101477,1,0,0:0:0:0:
320,192,101661,1,0,0:0:0:0:
64,192,101753,1,0,0:0:0:50:snare10.wav
448,192,101753,1,0,0:0:0:70:Kick_3-196.wav
64,192,101937,1,0,0:0:0:0:
192,192,102121,128,0,102305:0:0:0:70:Kick_3-196.wav
320,192,102121,128,0,102305:0:0:0:0:
64,192,102489,128,0,102673:0:0:0:50:snare10.wav
448,192,102489,128,0,102673:0:0:0:70:Kick_3-196.wav
320,192,102857,1,0,0:0:0:70:Kick_3-196.wav
448,192,102949,1,0,0:0:0:0:
192,192,103133,1,0,0:0:0:0:
64,192,103225,1,0,0:0:0:50:snare10.wav
320,192,103225,1,0,0:0:0:70:Kick_3-196.wav
320,192,103409,1,0,0:0:0:0:
64,192,103594,128,0,103778:0:0:0:70:Kick_3-196.wav
192,192,103594,128,0,103778:0:0:0:0:
448,192,103778,1,0,0:0:0:0:
192,192,103962,128,0,104146:0:0:0:50:snare10.wav
320,192,103962,128,0,104146:0:0:0:70:Kick_3-196.wav
64,192,104146,1,0,0:0:0:0:
320,192,104330,128,0,104514:0:0:0:0:
448,192,104330,128,0,104514:0:0:0:0:
192,192,104514,1,0,0:0:0:0:
64,192,104698,128,0,104882:0:0:0:0:
448,192,104698,128,0,104882:0:0:0:0:
320,192,104882,1,0,0:0:0:0:
64,192,105066,1,0,0:0:0:70:cymbal-5.wav
192,192,105066,1,0,0:0:0:50:kick-distort2.wav
192,192,105434,1,0,0:0:0:50:kick-distort2.wav
320,192,105802,1,0,0:0:0:50:kick-distort2.wav
448,192,105802,1,0,0:0:0:0:
320,192,106170,1,0,0:0:0:50:kick-distort2.wav
64,192,106538,1,0,0:0:0:50:kick-distort2.wav
192,192,106538,1,0,0:0:0:0:
192,192,106906,1,0,0:0:0:50:kick-distort2.wav
320,192,107275,1,0,0:0:0:50:kick-distort2.wav
448,192,107275,1,0,0:0:0:0:
320,192,107643,1,0,0:0:0:50:kick-distort2.wav
320,192,107827,1,0,0:0:0:50:kick-distort2.wav
192,192,108011,1,0,0:0:0:50:kick-distort2.wav
320,192,108011,1,0,0:0:0:0:
192,192,108379,1,0,0:0:0:50:kick-distort2.wav
64,192,108747,1,0,0:0:0:50:kick-distort2.wav
448,192,108747,1,0,0:0:0:0:
448,192,109115,1,0,0:0:0:50:kick-distort2.wav
448,192,109299,1,0,0:0:0:50:kick-distort2.wav
320,192,109483,1,0,0:0:0:50:kick-distort2.wav
448,192,109483,1,0,0:0:0:0:
64,192,109759,1,0,0:0:0:50:kick-distort2.wav
192,192,109851,1,0,0:0:0:50:kick-distort2.wav
192,192,110035,1,0,0:0:0:50:kick-distort2.wav
448,192,110219,1,0,0:0:0:50:kick-distort2.wav
320,192,110311,1,0,0:0:0:50:kick-distort2.wav
320,192,110495,1,0,0:0:0:50:kick-distort2.wav
64,192,110587,1,0,0:0:0:50:kick-distort2.wav
64,192,110771,1,0,0:0:0:50:kick-distort2.wav
64,192,110955,1,0,0:0:0:70:cymbal-5.wav
448,192,110955,1,0,0:0:0:50:kick-distort2.wav
448,192,111324,1,0,0:0:0:50:kick-distort2.wav
192,192,111692,1,0,0:0:0:50:kick-distort2.wav
320,192,111692,1,0,0:0:0:0:
192,192,112060,1,0,0:0:0:50:kick-distort2.wav
64,192,112428,1,0,0:0:0:50:kick-distort2.wav
448,192,112428,1,0,0:0:0:0:
448,192,112796,1,0,0:0:0:50:kick-distort2.wav
192,192,113164,1,0,0:0:0:50:kick-distort2.wav
320,192,113164,1,0,0:0:0:0:
192,192,113532,1,0,0:0:0:50:kick-distort2.wav
192,192,113716,1,0,0:0:0:50:kick-distort2.wav
192,192,113900,1,0,0:0:0:50:kick-distort2.wav
448,192,113900,1,0,0:0:0:0:
448,192,114268,1,0,0:0:0:50:kick-distort2.wav
64,192,114636,1,0,0:0:0:50:kick-distort2.wav
320,192,114636,1,0,0:0:0:0:
64,192,115005,1,0,0:0:0:50:kick-distort2.wav
64,192,115189,1,0,0:0:0:50:kick-distort2.wav
64,192,115373,1,0,0:0:0:50:kick-distort2.wav
192,192,115373,1,0,0:0:0:0:
448,192,115649,1,0,0:0:0:50:kick-distort2.wav
320,192,115741,1,0,0:0:0:50:kick-distort2.wav
320,192,115925,1,0,0:0:0:50:kick-distort2.wav
64,192,116109,1,0,0:0:0:50:kick-distort2.wav
192,192,116201,1,0,0:0:0:50:kick-distort2.wav
192,192,116385,1,0,0:0:0:50:kick-distort2.wav
448,192,116477,1,0,0:0:0:50:kick-distort2.wav
448,192,116661,1,0,0:0:0:50:kick-distort2.wav
64,192,116845,1,0,0:0:0:70:cymbal-5.wav
448,192,116845,1,0,0:0:0:50:kick-distort2.wav
192,192,117029,1,0,0:0:0:0:
320,192,117213,1,0,0:0:0:70:clap10.wav
448,192,117213,1,0,0:0:0:50:kick-distort2.wav
64,192,117397,1,0,0:0:0:0:
448,192,117581,1,0,0:0:0:50:kick-distort2.wav
320,192,117765,1,0,0:0:0:0:
64,192,117949,1,0,0:0:0:70:clap10.wav
192,192,117949,1,0,0:0:0:50:kick-distort2.wav
448,192,118133,1,0,0:0:0:0:
64,192,118317,1,0,0:0:0:50:kick-distort2.wav
192,192,118502,1,0,0:0:0:0:
320,192,118686,1,0,0:0:0:70:clap10.wav
448,192,118686,1,0,0:0:0:50:kick-distort2.wav
64,192,118870,1,0,0:0:0:0:
448,192,119054,1,0,0:0:0:50:kick-distort2.wav
192,192,119238,1,0,0:0:0:0:
320,192,119422,1,0,0:0:0:70:clap10.wav
320,192,119606,1,0,0:0:0:70:clap10.wav
64,192,119790,1,0,0:0:0:50:kick-distort2.wav
320,192,119790,1,0,0:0:0:0:
192,192,119974,1,0,0:0:0:0:
320,192,120158,1,0,0:0:0:70:clap10.wav
448,192,120158,1,0,0:0:0:50:kick-distort2.wav
64,192,120342,1,0,0:0:0:0:
448,192,120526,1,0,0:0:0:50:kick-distort2.wav
320,192,120710,1,0,0:0:0:0:
192,192,120894,1,0,0:0:0:70:clap10.wav
192,192,121078,1,0,0:0:0:50:kick-distort2.wav
192,192,121262,1,0,0:0:0:50:kick-distort2.wav
448,192,121262,1,0,0:0:0:0:
64,192,121538,1,0,0:0:0:50:kick-distort2.wav
192,192,121630,1,0,0:0:0:70:clap10.wav
192,192,121814,1,0,0:0:0:50:kick-distort2.wav
448,192,121998,1,0,0:0:0:50:kick-distort2.wav
320,192,122090,1,0,0:0:0:50:kick-distort2.wav
320,192,122275,1,0,0:0:0:50:kick-distort2.wav
64,192,122367,1,0,0:0:0:70:clap10.wav
64,192,122551,1,0,0:0:0:70:clap10.wav
64,192,122735,1,0,0:0:0:70:cymbal-5.wav
448,192,122735,1,0,0:0:0:50:kick-distort2.wav
320,192,122919,1,0,0:0:0:0:
64,192,123103,1,0,0:0:0:70:clap10.wav
192,192,123103,1,0,0:0:0:50:kick-distort2.wav
448,192,123287,1,0,0:0:0:0:
64,192,123471,1,0,0:0:0:50:kick-distort2.wav
320,192,123655,1,0,0:0:0:0:
192,192,123839,1,0,0:0:0:70:clap10.wav
192,192,124023,1,0,0:0:0:50:kick-distort2.wav
192,192,124207,1,0,0:0:0:70:cymbal-5.wav
448,192,124207,1,0,0:0:0:50:kick-distort2.wav
320,192,124391,1,0,0:0:0:0:
64,192,124575,1,0,0:0:0:70:clap10.wav
192,192,124575,1,0,0:0:0:50:kick-distort2.wav
448,192,124759,1,0,0:0:0:0:
64,192,124943,1,0,0:0:0:50:kick-distort2.wav
192,192,125127,1,0,0:0:0:0:
320,192,125311,1,0,0:0:0:70:clap10.wav
320,192,125495,1,0,0:0:0:70:clap10.wav
64,192,125679,1,0,0:0:0:70:cymbal-5.wav
320,192,125679,1,0,0:0:0:50:kick-distort2.wav
192,192,125863,1,0,0:0:0:0:
320,192,126048,1,0,0:0:0:70:clap10.wav
448,192,126048,1,0,0:0:0:50:kick-distort2.wav
64,192,126232,1,0,0:0:0:50:kick-distort2.wav
192,192,126324,1,0,0:0:0:50:kick-distort2.wav
320,192,126416,1,0,0:0:0:70:cymbal-5.wav
64,192,126784,1,0,0:0:0:70:clap10.wav
192,192,126784,1,0,0:0:0:50:kick-distort2.wav
448,192,126968,1,0,0:0:0:50:kick-distort2.wav
320,192,127060,1,0,0:0:0:0:
192,192,127152,1,0,0:0:0:70:cymbal-5.wav
448,192,127428,1,0,0:0:0:50:kick-distort2.wav
64,192,127520,1,0,0:0:0:70:cymbal-5.wav
64,192,127704,1,0,0:0:0:50:kick-distort2.wav
320,192,127888,1,0,0:0:0:70:cymbal-5.wav
192,192,127980,1,0,0:0:0:50:kick-distort2.wav
192,192,128164,1,0,0:0:0:50:kick-distort2.wav
448,192,128256,1,0,0:0:0:70:cymbal-5.wav
448,192,128440,1,0,0:0:0:70:clap10.wav
64,192,128624,128,0,129176:0:0:0:70:cymbal-5.wav
448,192,128624,1,0,0:0:0:50:kick-distort2.wav
320,192,129176,128,0,129728:0:0:0:0:
192,192,129728,128,0,130097:0:0:0:0:
448,192,130097,128,0,130649:0:0:0:0:
64,192,130649,128,0,131201:0:0:0:0:
192,192,131201,128,0,131569:0:0:0:0:
320,192,131569,128,0,132121:0:0:0:0:
64,192,132121,128,0,132673:0:0:0:0:
448,192,132673,128,0,133041:0:0:0:0:
192,192,133041,128,0,133778:0:0:0:0:
448,192,134146,128,0,134330:0:0:0:0:
320,192,134330,128,0,134514:0:0:0:0:
64,192,134514,128,0,135066:0:0:0:0:
448,192,135066,128,0,135618:0:0:0:0:
192,192,135618,128,0,135986:0:0:0:0:
320,192,135986,128,0,136538:0:0:0:0:
64,192,136538,128,0,137090:0:0:0:0:
192,192,137090,128,0,137459:0:0:0:0:
448,192,137459,128,0,138011:0:0:0:0:
64,192,138011,128,0,139115:0:0:0:0:
320,192,139667,1,0,0:0:0:0:
320,192,139851,128,0,140035:0:0:0:0:
64,192,140035,1,0,0:0:0:50:kick-distort2.wav
192,192,140035,1,0,0:0:0:0:
192,192,140219,128,0,140403:0:0:0:0:
320,192,140403,1,0,0:0:0:70:cymbal-5.wav
448,192,140403,128,0,140771:0:0:0:50:kick-distort2.wav
192,192,140771,1,0,0:0:0:70:clap10.wav
320,192,140955,128,0,141324:0:0:0:0:
64,192,141324,1,0,0:0:0:0:
192,192,141508,128,0,141876:0:0:0:70:clap10.wav
320,192,141876,128,0,142244:0:0:0:0:
448,192,142244,1,0,0:0:0:70:clap10.wav
64,192,142428,128,0,142796:0:0:0:0:
320,192,142796,1,0,0:0:0:0:
192,192,142980,128,0,143348:0:0:0:70:clap10.wav
64,192,143348,1,0,0:0:0:70:cymbal-5.wav
448,192,143348,128,0,143716:0:0:0:50:kick-distort2.wav
192,192,143716,1,0,0:0:0:70:clap10.wav
320,192,143900,128,0,144268:0:0:0:0:
448,192,144268,1,0,0:0:0:0:
64,192,144452,128,0,144821:0:0:0:70:clap10.wav
192,192,144821,128,0,145189:0:0:0:0:
320,192,145189,1,0,0:0:0:70:clap10.wav
192,192,145557,1,0,0:0:0:0:
192,192,145741,128,0,145925:0:0:0:0:
320,192,145925,1,0,0:0:0:70:cymbal-5.wav
448,192,145925,1,0,0:0:0:70:clap10.wav
320,192,146109,128,0,146293:0:0:0:70:clap10.wav
64,192,146293,128,0,146661:0:0:0:70:cymbal-5.wav
192,192,146293,1,0,0:0:0:50:kick-distort2.wav
320,192,146661,1,0,0:0:0:70:clap10.wav
448,192,146661,1,0,0:0:0:0:
192,192,146845,128,0,147213:0:0:0:0:
448,192,147213,1,0,0:0:0:0:
64,192,147397,1,0,0:0:0:70:clap10.wav
320,192,147397,128,0,147765:0:0:0:0:
192,192,147581,1,0,0:0:0:50:kick-distort2.wav
64,192,147765,128,0,148133:0:0:0:70:cymbal-5.wav
448,192,147765,1,0,0:0:0:50:kick-distort2.wav
192,192,148133,1,0,0:0:0:70:clap10.wav
320,192,148133,1,0,0:0:0:0:
448,192,148317,128,0,148686:0:0:0:0:
320,192,148686,1,0,0:0:0:0:
64,192,148870,1,0,0:0:0:70:clap10.wav
192,192,148870,128,0,149238:0:0:0:50:kick-distort2.wav
448,192,149054,1,0,0:0:0:70:clap10.wav
64,192,149238,1,0,0:0:0:70:cymbal-5.wav
320,192,149238,1,0,0:0:0:50:kick-distort2.wav
192,192,149606,1,0,0:0:0:70:clap10.wav
320,192,149606,1,0,0:0:0:0:
64,192,149974,1,0,0:0:0:70:cymbal-5.wav
320,192,149974,1,0,0:0:0:50:kick-distort2.wav
192,192,150342,1,0,0:0:0:70:clap10.wav
320,192,150342,1,0,0:0:0:0:
64,192,150710,1,0,0:0:0:70:cymbal-5.wav
448,192,150710,1,0,0:0:0:50:kick-distort2.wav
64,192,151078,1,0,0:0:0:70:cymbal-5.wav
448,192,151078,1,0,0:0:0:70:clap10.wav
64,192,151446,1,0,0:0:0:70:cymbal-5.wav
448,192,151446,1,0,0:0:0:50:kick-distort2.wav
192,192,151722,1,0,0:0:0:50:kick-distort2.wav
320,192,151814,1,0,0:0:0:70:cymbal-5.wav
448,192,151814,1,0,0:0:0:70:clap10.wav
64,192,151998,1,0,0:0:0:70:clap10.wav
192,192,151998,1,0,0:0:0:50:kick-distort2.wav
320,192,152182,1,0,0:0:0:70:cymbal-5.wav
448,192,152182,1,0,0:0:0:50:kick-distort2.wav
64,192,154759,1,0,0:0:0:70:cymbal-5.wav
192,192,154759,1,0,0:0:0:50:kick-distort2.wav
64,192,155127,1,0,0:0:0:70:cymbal-5.wav
192,192,155127,1,0,0:0:0:50:kick-distort2.wav
192,192,157336,128,0,157704:0:0:0:0:
320,192,157704,1,0,0:0:0:70:cymbal-5.wav
448,192,157704,1,0,0:0:0:70:Kick_3-196.wav
64,192,158072,128,0,158808:0:0:0:70:cymbal-5.wav
192,192,158072,1,0,0:0:0:70:Kick_3-196.wav
320,192,158440,1,0,0:0:0:70:Kick_3-196.wav
192,192,158808,1,0,0:0:0:70:Kick_3-196.wav
448,192,158808,128,0,159544:0:0:0:0:
320,192,159176,1,0,0:0:0:70:Kick_3-196.wav
64,192,159544,1,0,0:0:0:70:Kick_3-196.wav
192,192,159544,128,0,160281:0:0:0:0:
448,192,159913,1,0,0:0:0:70:Kick_3-196.wav
64,192,160281,1,0,0:0:0:70:Kick_3-196.wav
320,192,160281,128,0,161017:0:0:0:0:
192,192,160649,1,0,0:0:0:70:Kick_3-196.wav
64,192,161017,128,0,161753:0:0:0:70:Kick_3-196.wav
448,192,161017,1,0,0:0:0:0:
320,192,161385,1,0,0:0:0:70:Kick_3-196.wav
192,192,161753,1,0,0:0:0:70:Kick_3-196.wav
448,192,161753,128,0,162489:0:0:0:0:
320,192,162121,1,0,0:0:0:70:Kick_3-196.wav
64,192,162489,128,0,162857:0:0:0:70:Kick_3-196.wav
192,192,162489,1,0,0:0:0:0:
192,192,162857,128,0,163225:0:0:0:70:Kick_3-196.wav
320,192,162857,1,0,0:0:0:0:
64,192,163225,1,0,0:0:0:70:Kick_3-196.wav
448,192,163225,128,0,163594:0:0:0:0:
192,192,163594,1,0,0:0:0:70:Kick_3-196.wav
320,192,163594,128,0,163962:0:0:0:0:
64,192,163962,128,0,164330:0:0:0:70:cymbal-5.wav
448,192,163962,1,0,0:0:0:70:Kick_3-196.wav
192,192,164146,128,0,164330:0:0:0:0:
320,192,164330,1,0,0:0:0:50:snare10.wav
320,192,164514,1,0,0:0:0:0:
64,192,164698,128,0,164882:0:0:0:70:Kick_3-196.wav
448,192,164698,1,0,0:0:0:0:
320,192,164882,128,0,165066:0:0:0:0:
64,192,165066,1,0,0:0:0:50:snare10.wav
192,192,165066,128,0,165250:0:0:0:70:Kick_3-196.wav
320,192,165250,1,0,0:0:0:0:
64,192,165434,1,0,0:0:0:70:Kick_3-196.wav
448,192,165434,128,0,165802:0:0:0:0:
320,192,165618,128,0,165802:0:0:0:0:
192,192,165802,1,0,0:0:0:50:snare10.wav
192,192,165986,1,0,0:0:0:0:
64,192,166170,1,0,0:0:0:70:Kick_3-196.wav
448,192,166170,128,0,166354:0:0:0:0:
192,192,166354,128,0,166538:0:0:0:0:
320,192,166538,128,0,166722:0:0:0:50:snare10.wav
448,192,166538,1,0,0:0:0:70:Kick_3-196.wav
192,192,166722,1,0,0:0:0:0:
64,192,166906,128,0,167090:0:0:0:70:Kick_3-196.wav
448,192,166906,1,0,0:0:0:0:
192,192,167090,128,0,167275:0:0:0:0:
64,192,167275,1,0,0:0:0:50:snare10.wav
320,192,167275,128,0,167459:0:0:0:70:Kick_3-196.wav
448,192,167459,1,0,0:0:0:0:
64,192,167551,1,0,0:0:0:0:
320,192,167643,1,0,0:0:0:70:Kick_3-196.wav
192,192,167827,1,0,0:0:0:0:
64,192,168011,1,0,0:0:0:50:snare10.wav
448,192,168011,1,0,0:0:0:70:Kick_3-196.wav
320,192,168195,1,0,0:0:0:70:cymbal-5.wav
192,192,168287,1,0,0:0:0:70:cymbal-5.wav
64,192,168379,1,0,0:0:0:70:cymbal-5.wav
448,192,168379,1,0,0:0:0:70:Kick_3-196.wav
320,192,168563,1,0,0:0:0:0:
320,192,168931,1,0,0:0:0:0:
192,192,169299,128,0,169483:0:0:0:0:
448,192,169483,128,0,169667:0:0:0:0:
320,192,169667,128,0,169851:0:0:0:0:
64,192,169851,128,0,170035:0:0:0:70:cymbal-5.wav
448,192,169851,1,0,0:0:0:70:Kick_3-196.wav
64,192,170219,128,0,170495:0:0:0:50:snare10.wav
192,192,170219,1,0,0:0:0:70:Kick_3-196.wav
320,192,170495,1,0,0:0:0:0:
448,192,170587,128,0,170771:0:0:0:70:Kick_3-196.wav
192,192,170771,128,0,170955:0:0:0:0:
64,192,170955,1,0,0:0:0:50:snare10.wav
448,192,170955,1,0,0:0:0:70:Kick_3-196.wav
320,192,171140,128,0,171324:0:0:0:0:
192,192,171324,1,0,0:0:0:70:Kick_3-196.wav
448,192,171324,1,0,0:0:0:0:
320,192,171508,128,0,171692:0:0:0:0:
64,192,171692,1,0,0:0:0:50:snare10.wav
192,192,171692,128,0,172244:0:0:0:70:Kick_3-196.wav
320,192,172060,128,0,172244:0:0:0:70:Kick_3-196.wav
448,192,172060,1,0,0:0:0:0:
64,192,172428,128,0,172612:0:0:0:50:snare10.wav
320,192,172428,1,0,0:0:0:70:Kick_3-196.wav
448,192,172612,128,0,172796:0:0:0:0:
64,192,172796,1,0,0:0:0:70:Kick_3-196.wav
192,192,172796,128,0,173164:0:0:0:0:
320,192,173164,128,0,173532:0:0:0:50:snare10.wav
448,192,173164,1,0,0:0:0:70:Kick_3-196.wav
64,192,173532,128,0,173808:0:0:0:70:Kick_3-196.wav
192,192,173532,1,0,0:0:0:0:
448,192,173808,1,0,0:0:0:0:
192,192,173900,1,0,0:0:0:50:snare10.wav
320,192,174084,128,0,174268:0:0:0:0:
64,192,174268,1,0,0:0:0:70:Kick_3-196.wav
192,192,174268,128,0,174452:0:0:0:0:
448,192,174452,128,0,174636:0:0:0:0:
64,192,174636,128,0,175005:0:0:0:50:snare10.wav
192,192,174636,1,0,0:0:0:70:Kick_3-196.wav
320,192,175005,1,0,0:0:0:70:Kick_3-196.wav
448,192,175005,128,0,175189:0:0:0:0:
192,192,175189,128,0,175373:0:0:0:0:
320,192,175373,128,0,175557:0:0:0:50:snare10.wav
448,192,175373,1,0,0:0:0:70:Kick_3-196.wav
64,192,175557,128,0,175741:0:0:0:0:
192,192,175741,1,0,0:0:0:70:cymbal-5.wav
448,192,175741,128,0,175925:0:0:0:70:Kick_3-196.wav
320,192,176109,1,0,0:0:0:50:snare10.wav
448,192,176109,128,0,176385:0:0:0:70:Kick_3-196.wav
192,192,176385,1,0,0:0:0:0:
64,192,176477,128,0,176661:0:0:0:70:Kick_3-196.wav
320,192,176661,128,0,176845:0:0:0:0:
64,192,176845,1,0,0:0:0:50:snare10.wav
448,192,176845,1,0,0:0:0:70:Kick_3-196.wav
192,192,177029,128,0,177213:0:0:0:0:
64,192,177213,1,0,0:0:0:70:Kick_3-196.wav
320,192,177213,1,0,0:0:0:0:
192,192,177397,128,0,177581:0:0:0:0:
320,192,177581,128,0,178133:0:0:0:50:snare10.wav
448,192,177581,1,0,0:0:0:70:Kick_3-196.wav
64,192,177949,1,0,0:0:0:70:Kick_3-196.wav
192,192,177949,128,0,178133:0:0:0:0:
192,192,178317,1,0,0:0:0:50:snare10.wav
448,192,178317,128,0,178502:0:0:0:70:Kick_3-196.wav
64,192,178502,128,0,178686:0:0:0:0:
320,192,178686,128,0,178870:0:0:0:70:Kick_3-196.wav
448,192,178686,1,0,0:0:0:0:
192,192,178870,128,0,179054:0:0:0:0:
64,192,179054,1,0,0:0:0:50:snare10.wav
448,192,179054,128,0,179238:0:0:0:70:Kick_3-196.wav
320,192,179238,128,0,179422:0:0:0:0:
64,192,179422,128,0,179606:0:0:0:70:Kick_3-196.wav
192,192,179422,1,0,0:0:0:0:
448,192,179606,128,0,179790:0:0:0:0:
64,192,179790,1,0,0:0:0:50:snare10.wav
320,192,179790,1,0,0:0:0:70:Kick_3-196.wav
192,192,179974,128,0,180158:0:0:0:0:
64,192,180158,1,0,0:0:0:70:Kick_3-196.wav
448,192,180158,128,0,180526:0:0:0:0:
192,192,180526,1,0,0:0:0:50:snare10.wav
320,192,180526,128,0,180710:0:0:0:70:Kick_3-196.wav
320,192,180894,128,0,181078:0:0:0:70:Kick_3-196.wav
448,192,180894,1,0,0:0:0:0:
64,192,181078,128,0,181262:0:0:0:0:
448,192,181262,128,0,181446:0:0:0:50:snare10.wav
192,192,181446,128,0,181630:0:0:0:0:
320,192,181630,128,0,181814:0:0:0:70:cymbal-5.wav
448,192,181630,128,0,181814:0:0:0:70:Kick_3-196.wav
64,192,181998,128,0,182182:0:0:0:50:snare10.wav
192,192,181998,128,0,182182:0:0:0:70:Kick_3-196.wav
448,192,182367,1,0,0:0:0:70:Kick_3-196.wav
320,192,182459,1,0,0:0:0:0:
192,192,182643,1,0,0:0:0:0:
64,192,182735,1,0,0:0:0:50:snare10.wav
448,192,182735,1,0,0:0:0:70:Kick_3-196.wav
448,192,182919,1,0,0:0:0:0:
320,192,183103,128,0,183287:0:0:0:70:Kick_3-196.wav
64,192,183287,128,0,183471:0:0:0:0:
320,192,183471,1,0,0:0:0:50:snare10.wav
448,192,183471,128,0,183655:0:0:0:70:Kick_3-196.wav
192,192,183655,128,0,183839:0:0:0:0:
448,192,183839,1,0,0:0:0:70:Kick_3-196.wav
320,192,183931,1,0,0:0:0:0:
192,192,184115,1,0,0:0:0:0:
64,192,184207,1,0,0:0:0:50:snare10.wav
448,192,184207,1,0,0:0:0:70:Kick_3-196.wav
448,192,184391,1,0,0:0:0:0:
64,192,184575,128,0,184759:0:0:0:70:Kick_3-196.wav
192,192,184575,128,0,184759:0:0:0:0:
320,192,184943,128,0,185127:0:0:0:50:snare10.wav
448,192,184943,128,0,185127:0:0:0:70:Kick_3-196.wav
64,192,185311,1,0,0:0:0:70:Kick_3-196.wav
192,192,185403,1,0,0:0:0:0:
320,192,185587,1,0,0:0:0:0:
64,192,185679,1,0,0:0:0:50:snare10.wav
448,192,185679,1,0,0:0:0:70:Kick_3-196.wav
64,192,185863,1,0,0:0:0:0:
320,192,186048,128,0,186232:0:0:0:70:Kick_3-196.wav
192,192,186416,1,0,0:0:0:50:snare10.wav
320,192,186416,128,0,186600:0:0:0:70:Kick_3-196.wav
64,192,186784,128,0,186968:0:0:0:70:Kick_3-196.wav
192,192,186784,128,0,186968:0:0:0:0:
320,192,186968,128,0,187152:0:0:0:0:
448,192,186968,128,0,187152:0:0:0:0:
64,192,187152,1,0,0:0:0:50:snare10.wav
192,192,187152,1,0,0:0:0:70:Kick_3-196.wav
320,192,187336,1,0,0:0:0:0:
192,192,187428,1,0,0:0:0:0:
64,192,187520,128,0,187704:0:0:0:70:cymbal-5.wav
448,192,187520,128,0,187704:0:0:0:70:Kick_3-196.wav
192,192,187888,128,0,188072:0:0:0:50:snare10.wav
320,192,187888,128,0,188072:0:0:0:70:Kick_3-196.wav
448,192,188256,1,0,0:0:0:70:Kick_3-196.wav
320,192,188348,1,0,0:0:0:0:
192,192,188532,1,0,0:0:0:0:
64,192,188624,1,0,0:0:0:50:snare10.wav
448,192,188624,1,0,0:0:0:70:Kick_3-196.wav
64,192,188808,1,0,0:0:0:0:
320,192,188992,128,0,189176:0:0:0:70:Kick_3-196.wav
64,192,189176,128,0,189360:0:0:0:0:
320,192,189360,1,0,0:0:0:50:snare10.wav
448,192,189360,128,0,189544:0:0:0:70:Kick_3-196.wav
192,192,189544,128,0,189728:0:0:0:0:
448,192,189728,1,0,0:0:0:70:Kick_3-196.wav
320,192,189821,1,0,0:0:0:0:
192,192,190005,1,0,0:0:0:0:
64,192,190097,1,0,0:0:0:50:snare10.wav
448,192,190097,1,0,0:0:0:70:Kick_3-196.wav
448,192,190281,1,0,0:0:0:0:
192,192,190465,128,0,190649:0:0:0:70:Kick_3-196.wav
320,192,190465,128,0,190649:0:0:0:0:
64,192,190833,128,0,191017:0:0:0:50:snare10.wav
448,192,190833,128,0,191017:0:0:0:70:Kick_3-196.wav
192,192,191201,1,0,0:0:0:70:Kick_3-196.wav
64,192,191293,1,0,0:0:0:0:
320,192,191477,1,0,0:0:0:0:
192,192,191569,1,0,0:0:0:50:snare10.wav
448,192,191569,1,0,0:0:0:70:Kick_3-196.wav
192,192,191753,1,0,0:0:0:0:
320,192,191937,128,0,192121:0:0:0:70:Kick_3-196.wav
448,192,191937,128,0,192121:0:0:0:0:
64,192,192121,1,0,0:0:0:0:
192,192,192305,128,0,192489:0:0:0:50:snare10.wav
320,192,192305,128,0,192489:0:0:0:70:Kick_3-196.wav
448,192,192489,1,0,0:0:0:0:
64,192,192673,128,0,192857:0:0:0:70:Kick_3-196.wav
192,192,192673,128,0,192857:0:0:0:0:
320,192,192857,1,0,0:0:0:0:
64,192,193041,128,0,193225:0:0:0:50:snare10.wav
448,192,193041,128,0,193225:0:0:0:70:Kick_3-196.wav
192,192,193225,1,0,0:0:0:0:
320,192,193409,128,0,194514:0:0:0:70:cymbal-5.wav
448,192,193409,1,0,0:0:0:70:Kick_3-196.wav
64,192,193778,1,0,0:0:0:50:snare10.wav
192,192,194146,128,0,194514:0:0:0:70:Kick_3-196.wav
64,192,194514,1,0,0:0:0:50:snare10.wav
448,192,194514,1,0,0:0:0:70:Kick_3-196.wav
320,192,194698,1,0,0:0:0:0:
192,192,194882,128,0,195066:0:0:0:70:Kick_3-196.wav
448,192,195066,128,0,195250:0:0:0:0:
64,192,195250,128,0,195434:0:0:0:50:snare10.wav
192,192,195250,1,0,0:0:0:70:Kick_3-196.wav
320,192,195434,128,0,195618:0:0:0:0:
64,192,195618,1,0,0:0:0:70:Kick_3-196.wav
192,192,195710,1,0,0:0:0:0:
320,192,195894,1,0,0:0:0:0:
64,192,195986,128,0,196354:0:0:0:50:snare10.wav
448,192,195986,1,0,0:0:0:70:Kick_3-196.wav
192,192,196170,1,0,0:0:0:0:
320,192,196354,128,0,196538:0:0:0:70:Kick_3-196.wav
192,192,196538,128,0,196722:0:0:0:0:
64,192,196722,1,0,0:0:0:50:snare10.wav
448,192,196722,128,0,196906:0:0:0:70:Kick_3-196.wav
320,192,196906,128,0,197090:0:0:0:0:
192,192,197090,128,0,197275:0:0:0:70:Kick_3-196.wav
320,192,197275,128,0,197459:0:0:0:0:
64,192,197459,128,0,197643:0:0:0:50:snare10.wav
448,192,197459,1,0,0:0:0:70:Kick_3-196.wav
192,192,197643,128,0,197827:0:0:0:0:
448,192,197827,128,0,198011:0:0:0:70:Kick_3-196.wav
64,192,198011,128,0,198195:0:0:0:0:
320,192,198195,128,0,198563:0:0:0:50:snare10.wav
448,192,198195,1,0,0:0:0:70:Kick_3-196.wav
192,192,198563,128,0,198931:0:0:0:70:Kick_3-196.wav
64,192,198931,1,0,0:0:0:50:snare10.wav
448,192,198931,1,0,0:0:0:70:Kick_3-196.wav
320,192,199115,1,0,0:0:0:0:
192,192,199207,1,0,0:0:0:0:
64,192,199299,1,0,0:0:0:70:cymbal-5.wav
448,192,199299,128,0,200403:0:0:0:70:Kick_3-196.wav
192,192,199667,1,0,0:0:0:50:snare10.wav
320,192,200035,128,0,200403:0:0:0:70:Kick_3-196.wav
64,192,200403,1,0,0:0:0:50:snare10.wav
192,192,200403,1,0,0:0:0:70:Kick_3-196.wav
64,192,200587,128,0,200771:0:0:0:0:
320,192,200771,1,0,0:0:0:70:Kick_3-196.wav
448,192,200771,128,0,201324:0:0:0:0:
320,192,200955,1,0,0:0:0:0:
192,192,201140,1,0,0:0:0:50:snare10.wav
192,192,201324,128,0,201508:0:0:0:0:
320,192,201508,128,0,201876:0:0:0:70:Kick_3-196.wav
64,192,201692,1,0,0:0:0:0:
192,192,201876,1,0,0:0:0:50:snare10.wav
448,192,201876,128,0,202244:0:0:0:70:Kick_3-196.wav
320,192,202060,1,0,0:0:0:0:
192,192,202244,128,0,202428:0:0:0:70:Kick_3-196.wav
320,192,202428,128,0,202612:0:0:0:0:
64,192,202612,128,0,202796:0:0:0:50:snare10.wav
448,192,202612,1,0,0:0:0:70:Kick_3-196.wav
192,192,202796,128,0,202980:0:0:0:0:
320,192,202980,128,0,203164:0:0:0:70:Kick_3-196.wav
192,192,203164,128,0,203348:0:0:0:0:
64,192,203348,1,0,0:0:0:50:snare10.wav
448,192,203348,128,0,203532:0:0:0:70:Kick_3-196.wav
320,192,203532,128,0,203716:0:0:0:0:
64,192,203716,128,0,205189:0:0:0:70:Kick_3-196.wav
192,192,203716,1,0,0:0:0:0:
192,192,204084,1,0,0:0:0:50:snare10.wav
320,192,204452,1,0,0:0:0:0:
192,192,204636,1,0,0:0:0:0:
448,192,204821,1,0,0:0:0:0:
192,192,205189,1,0,0:0:0:70:cymbal-5.wav
320,192,205189,1,0,0:0:0:70:Kick_3-196.wav
448,192,205557,1,0,0:0:0:0:
64,192,205741,1,0,0:0:0:0:
320,192,205925,1,0,0:0:0:0:
192,192,206109,1,0,0:0:0:0:
448,192,206293,1,0,0:0:0:0:
64,192,206477,1,0,0:0:0:0:
192,192,206661,1,0,0:0:0:0:
448,192,206845,1,0,0:0:0:0:
320,192,207029,1,0,0:0:0:0:
192,192,207213,1,0,0:0:0:0:
64,192,207397,1,0,0:0:0:0:
448,192,207489,1,0,0:0:0:0:
320,192,207581,1,0,0:0:0:0:
64,192,207765,1,0,0:0:0:0:
192,192,207857,1,0,0:0:0:0:
320,192,207949,1,0,0:0:0:0:
64,192,208133,1,0,0:0:0:0:
448,192,208317,1,0,0:0:0:0:
192,192,208502,1,0,0:0:0:0:
320,192,208686,1,0,0:0:0:0:
64,192,208870,1,0,0:0:0:0:
448,192,209054,1,0,0:0:0:0:
192,192,209238,1,0,0:0:0:0:
64,192,209422,1,0,0:0:0:0:
448,192,209606,1,0,0:0:0:0:
192,192,209790,1,0,0:0:0:0:
320,192,209974,1,0,0:0:0:0:
64,192,210158,1,0,0:0:0:0:
448,192,210342,1,0,0:0:0:0:
192,192,210434,1,0,0:0:0:0:
320,192,210526,1,0,0:0:0:0:
64,192,210710,1,0,0:0:0:0:
448,192,210802,1,0,0:0:0:0:
192,192,210894,1,0,0:0:0:0:
320,192,211078,1,0,0:0:0:0:
448,192,211270,1,0,0:0:0:0:
64,192,211462,1,0,0:0:0:0:
192,192,211654,1,0,0:0:0:0:
448,192,211847,1,0,0:0:0:0:
320,192,212045,1,0,0:0:0:0:
192,192,212244,1,0,0:0:0:0:
64,192,212449,1,0,0:0:0:0:
448,192,212663,1,0,0:0:0:0:
192,192,212877,1,0,0:0:0:0:
320,192,213127,1,0,0:0:0:0:
64,192,213341,1,0,0:0:0:0:
448,192,213579,1,0,0:0:0:0:
320,192,213698,1,0,0:0:0:0:
192,192,213817,1,0,0:0:0:0:
64,192,214055,1,0,0:0:0:0:
448,192,214174,1,0,0:0:0:0:
320,192,214293,1,0,0:0:0:0:
64,192,214565,1,0,0:0:0:0:
192,192,214565,1,0,0:0:0:0:
448,192,214815,1,0,0:0:0:0:
64,192,215087,1,0,0:0:0:0:
192,192,215387,1,0,0:0:0:0:
320,192,215659,1,0,0:0:0:0:
448,192,215659,1,0,0:0:0:0:
192,192,216259,1,0,0:0:0:0:
64,192,216918,128,0,217907:0:0:0:0:
448,192,216918,1,0,0:0:0:0:
192,192,217907,1,0,0:0:0:0:
320,192,218072,1,0,0:0:0:0:
64,192,218237,1,0,0:0:0:0:
448,192,218237,128,0,220544:0:0:0:0:
