osu file format v14

[General]
AudioFilename: audio.ogg
AudioLeadIn: 0
PreviewTime: 80909
Countdown: 0
SampleSet: Soft
StackLeniency: 0.7
Mode: 3
LetterboxInBreaks: 0
EpilepsyWarning: 1
SpecialStyle: 0
WidescreenStoryboard: 0

[Editor]
DistanceSpacing: 1.6
BeatDivisor: 12
GridSize: 4
TimelineZoom: 2.499999

[Metadata]
Title:INTERNET OVERDOSE
TitleUnicode:INTERNET OVERDOSE
Artist:Aiobahn feat. KOTOKO
ArtistUnicode:Aiobahn feat. KOTOKO
Creator:FLeVI
Version:BLESSING
Source:NEEDY GIRL OVERDOSE
Tags:streamer ame KAngel OMGkawaiiAngel p-chan tenshi overload video game japanese electronic pop j-pop jpop denpa eurobeat female vocal arcaea muse dash にゃるら nyalra nyarura theme song Drum-Hitnormal DenYi Seiran- -Timerains- ExNeko angel dudehacker WSS playground xemono visual novel cute
BeatmapID:3678786
BeatmapSetID:1794813

[Difficulty]
HPDrainRate:9
CircleSize:4
OverallDifficulty:8
ApproachRate:5
SliderMultiplier:1.4
SliderTickRate:1

[Events]
//Background and Video events
0,0,"BG.jpg",0,0
Video,0,"video.mp4"
//Break Periods
//Storyboard Layer 0 (Background)
//Storyboard Layer 1 (Fail)
//Storyboard Layer 2 (Pass)
//Storyboard Layer 3 (Foreground)
//Storyboard Layer 4 (Overlay)
//Storyboard Sound Samples
Sample,11018,0,"hat5.wav",70
Sample,12858,0,"hat5.wav",70
Sample,15067,0,"hat5.wav",70
Sample,19116,0,"hat5.wav",70
Sample,22245,0,"wou_.wav",30
Sample,25006,0,"hat5.wav",70
Sample,40834,0,"Hat-CS02.wav",40
Sample,42306,0,"Hat-CS02.wav",40
Sample,43411,0,"Hat-CS02.wav",40
Sample,43779,0,"Hat-CS02.wav",40
Sample,47460,0,"Hat-CS02.wav",40
Sample,79851,0,"hat5.wav",70
Sample,95679,0,"hat5.wav",70
Sample,98808,0,"wou_.wav",30
Sample,101569,0,"hat5.wav",70
Sample,105066,0,"Ride1.wav",30
Sample,110955,0,"HiHat-Open.wav",40
Sample,111600,0,"Hat-CS02.wav",40
Sample,111876,0,"Hat-CS02.wav",40
Sample,112428,0,"HiHat-Open.wav",40
Sample,112980,0,"Hat-CS02.wav",40
Sample,113072,0,"Hat-CS02.wav",40
Sample,113900,0,"HiHat-Open.wav",40
Sample,114176,0,"Hat-CS02.wav",40
Sample,114544,0,"Hat-CS02.wav",40
Sample,115373,0,"HiHat-Open.wav",40
Sample,116293,0,"Hat-CS02.wav",40
Sample,116845,0,"HiHat-Open.wav",40
Sample,117121,0,"Hat-CS02.wav",40
Sample,117213,0,"Ride1.wav",30
Sample,117397,0,"Hat-CS02.wav",40
Sample,117489,0,"Hat-CS02.wav",40
Sample,117673,0,"Hat-CS02.wav",40
Sample,117765,0,"Hat-CS02.wav",40
Sample,117949,0,"Ride1.wav",30
Sample,118041,0,"Hat-CS02.wav",40
Sample,118133,0,"Hat-CS02.wav",40
Sample,118225,0,"Hat-CS02.wav",40
Sample,118317,0,"HiHat-Open.wav",40
Sample,118686,0,"Ride1.wav",30
Sample,118870,0,"Hat-CS02.wav",40
Sample,118962,0,"Hat-CS02.wav",40
Sample,119146,0,"Hat-CS02.wav",40
Sample,119238,0,"Hat-CS02.wav",40
Sample,119422,0,"Ride1.wav",30
Sample,119606,0,"hat5.wav",100
Sample,119606,0,"Hat-CS02.wav",40
Sample,119790,0,"HiHat-Open.wav",40
Sample,120066,0,"Hat-CS02.wav",40
Sample,120158,0,"Ride1.wav",30
Sample,120342,0,"Hat-CS02.wav",40
Sample,120434,0,"Hat-CS02.wav",40
Sample,120618,0,"Hat-CS02.wav",40
Sample,120710,0,"Hat-CS02.wav",40
Sample,120894,0,"Ride1.wav",30
Sample,120986,0,"Hat-CS02.wav",40
Sample,121078,0,"Hat-CS02.wav",40
Sample,121262,0,"HiHat-Open.wav",40
Sample,121630,0,"Ride1.wav",30
Sample,121814,0,"Hat-CS02.wav",40
Sample,121906,0,"Hat-CS02.wav",40
Sample,122182,0,"Hat-CS02.wav",40
Sample,122367,0,"Ride1.wav",30
Sample,122459,0,"Hat-CS02.wav",40
Sample,122551,0,"hat5.wav",100
Sample,122551,0,"Hat-CS02.wav",40
Sample,122735,0,"Ride1.wav",30
Sample,122735,0,"HiHat-Open.wav",40
Sample,122919,0,"hat5.wav",100
Sample,123011,0,"Hat-CS02.wav",40
Sample,123103,0,"Muted Snare.wav",8
Sample,123103,0,"Ride1.wav",30
Sample,123287,0,"hat5.wav",100
Sample,123287,0,"Hat-CS02.wav",40
Sample,123379,0,"Hat-CS02.wav",40
Sample,123471,0,"Ride1.wav",30
Sample,123563,0,"Hat-CS02.wav",40
Sample,123655,0,"hat5.wav",100
Sample,123655,0,"Hat-CS02.wav",40
Sample,123839,0,"Muted Snare.wav",8
Sample,123839,0,"Ride1.wav",30
Sample,123931,0,"Hat-CS02.wav",40
Sample,124023,0,"hat5.wav",100
Sample,124023,0,"Hat-CS02.wav",40
Sample,124115,0,"Hat-CS02.wav",40
Sample,124207,0,"Ride1.wav",30
Sample,124207,0,"HiHat-Open.wav",40
Sample,124391,0,"hat5.wav",100
Sample,124483,0,"Hat-CS02.wav",40
Sample,124575,0,"Muted Snare.wav",8
Sample,124575,0,"Ride1.wav",30
Sample,124759,0,"hat5.wav",100
Sample,124759,0,"Hat-CS02.wav",40
Sample,124851,0,"Hat-CS02.wav",40
Sample,124943,0,"Ride1.wav",30
Sample,125035,0,"Hat-CS02.wav",40
Sample,125127,0,"hat5.wav",100
Sample,125127,0,"Hat-CS02.wav",40
Sample,125311,0,"Muted Snare.wav",8
Sample,125311,0,"Ride1.wav",30
Sample,125403,0,"Hat-CS02.wav",40
Sample,125495,0,"Muted Snare.wav",8
Sample,125495,0,"hat5.wav",100
Sample,125495,0,"Hat-CS02.wav",40
Sample,125587,0,"Hat-CS02.wav",40
Sample,125679,0,"Ride1.wav",30
Sample,125679,0,"HiHat-Open.wav",40
Sample,125863,0,"hat5.wav",100
Sample,125955,0,"Hat-CS02.wav",40
Sample,126048,0,"Muted Snare.wav",10
Sample,126048,0,"Ride1.wav",30
Sample,126232,0,"hat5.wav",100
Sample,126232,0,"Hat-CS02.wav",40
Sample,126324,0,"Hat-CS02.wav",40
Sample,126416,0,"Ride1.wav",30
Sample,126508,0,"Hat-CS02.wav",40
Sample,126600,0,"hat5.wav",100
Sample,126600,0,"Hat-CS02.wav",40
Sample,126784,0,"Muted Snare.wav",10
Sample,126784,0,"Ride1.wav",30
Sample,126876,0,"Hat-CS02.wav",40
Sample,126968,0,"hat5.wav",100
Sample,126968,0,"Hat-CS02.wav",40
Sample,127152,0,"Ride1.wav",30
Sample,127152,0,"HiHat-Open.wav",40
Sample,127336,0,"hat5.wav",100
Sample,127428,0,"Hat-CS02.wav",40
Sample,127520,0,"Muted Snare.wav",10
Sample,127520,0,"Ride1.wav",30
Sample,127704,0,"hat5.wav",100
Sample,127704,0,"Hat-CS02.wav",40
Sample,127796,0,"Hat-CS02.wav",40
Sample,127888,0,"Ride1.wav",30
Sample,127980,0,"Hat-CS02.wav",40
Sample,128072,0,"hat5.wav",100
Sample,128072,0,"Hat-CS02.wav",40
Sample,128256,0,"Muted Snare.wav",10
Sample,128256,0,"Ride1.wav",30
Sample,128256,0,"kick-distort2.wav",50
Sample,128348,0,"Hat-CS02.wav",40
Sample,128440,0,"hat5.wav",100
Sample,128440,0,"Hat-CS02.wav",40
Sample,128440,0,"Muted Snare.wav",10
Sample,128532,0,"Hat-CS02.wav",40
Sample,128624,0,"Ride1.wav",30
Sample,145925,0,"Ride1.wav",50
Sample,147581,0,"Ride1.wav",50
Sample,147673,0,"Ride1.wav",50
Sample,148870,0,"Ride1.wav",50
Sample,149054,0,"hat5.wav",70
Sample,149238,0,"Ride1.wav",50
Sample,149422,0,"hat5.wav",70
Sample,149606,0,"Muted Snare.wav",8
Sample,149790,0,"hat5.wav",70
Sample,149974,0,"Ride1.wav",50
Sample,150158,0,"hat5.wav",70
Sample,150342,0,"Muted Snare.wav",8
Sample,150526,0,"hat5.wav",70
Sample,150710,0,"Ride1.wav",50
Sample,150894,0,"hat5.wav",70
Sample,151078,0,"Muted Snare.wav",10
Sample,151078,0,"Ride1.wav",50
Sample,151262,0,"hat5.wav",70
Sample,151446,0,"Ride1.wav",50
Sample,151630,0,"hat5.wav",70
Sample,151814,0,"kick-distort2.wav",50
Sample,151814,0,"Muted Snare.wav",10
Sample,151814,0,"Ride1.wav",50
Sample,151998,0,"Muted Snare.wav",10
Sample,151998,0,"hat5.wav",70
Sample,152182,0,"Ride1.wav",50
Sample,164882,0,"hat5.wav",70
Sample,167459,0,"hat5.wav",70
Sample,167551,0,"Rim.wav",50
Sample,168195,0,"hat5.wav",70
Sample,184023,0,"hat5.wav",70
Sample,187152,0,"wou_.wav",30
Sample,189913,0,"hat5.wav",70
Sample,198931,0,"wou_.wav",30

[TimingPoints]
2000,368.098159509202,4,2,1,30,1,0
52077,368.098159509202,3,2,1,30,1,0
69729,368.098159509202,4,2,1,30,1,0
81508,-100,4,2,1,30,0,1
93287,-100,4,2,1,30,0,0
169851,-100,4,2,1,30,0,1
181630,-100,4,2,1,30,0,0
211078,384.615384615385,4,2,1,30,1,0
211078,-95.705521,4,2,1,30,0,0
211847,397.350993377483,4,2,1,30,1,8
211847,-92.638037,4,2,1,30,0,0
212244,410.958904109589,4,2,1,30,1,8
212244,-89.570552,4,2,1,30,0,0
212449,428.571428571429,4,2,1,30,1,8
212449,-85.889571,4,2,1,30,0,0
212877,500,4,2,1,30,1,8
212877,-73.619632,4,2,1,30,0,0
213127,428.571428571429,4,2,1,30,1,8
213127,-85.889571,4,2,1,30,0,0
213341,476.190476190476,4,2,1,30,1,8
213341,-77.300613,4,2,1,30,0,0
213579,476.190476190476,4,2,1,30,1,8
213579,-77.300613,4,2,1,30,0,0
214293,545.454545454546,4,2,1,30,1,8
214293,-67.484663,4,2,1,30,0,0
214565,500,4,2,1,30,1,0
214565,-73.619632,4,2,1,30,0,0
214815,545.454545454546,4,2,1,30,1,8
214815,-67.484663,4,2,1,30,0,0
215087,600,4,2,1,30,1,8
215087,-61.349693,4,2,1,30,0,0
215387,545.454545454546,4,2,1,30,1,8
215387,-67.484663,4,2,1,30,0,0
215659,600,4,2,1,30,1,8
215659,-61.349693,4,2,1,30,0,0
216259,659.340659340659,4,2,1,30,1,8
216259,-55.828221,4,2,1,30,0,0

[HitObjects]
64,192,1999,5,0,0:0:0:0:
192,192,1999,1,0,0:0:0:0:
448,192,1999,1,0,0:0:0:0:
64,192,2368,1,0,0:0:0:0:
320,192,2368,1,0,0:0:0:0:
448,192,2368,1,0,0:0:0:0:
64,192,2736,1,0,0:0:0:0:
192,192,2736,1,0,0:0:0:0:
448,192,2736,1,0,0:0:0:0:
64,192,3104,1,0,0:0:0:0:
320,192,3104,1,0,0:0:0:0:
448,192,3104,1,0,0:0:0:0:
64,192,3472,1,0,0:0:0:0:
192,192,3472,1,0,0:0:0:0:
448,192,3472,1,0,0:0:0:0:
64,192,3840,1,0,0:0:0:0:
320,192,3840,1,0,0:0:0:0:
448,192,3840,1,0,0:0:0:0:
64,192,4024,1,0,0:0:0:0:
192,192,4024,1,0,0:0:0:0:
448,192,4024,1,0,0:0:0:0:
64,192,4392,128,0,4484:0:0:0:0:
448,192,4392,128,0,4484:0:0:0:0:
192,192,4484,128,0,4576:0:0:0:0:
320,192,4484,128,0,4576:0:0:0:0:
64,192,4576,128,0,4760:0:0:0:0:
448,192,4576,128,0,4760:0:0:0:0:
64,192,4944,128,0,6417:0:0:0:70:cymbal-5.wav
192,192,4944,128,0,6417:0:0:0:70:Kick_3-196.wav
320,192,4944,1,0,0:0:0:0:
448,192,4944,1,0,0:0:0:0:
448,192,5680,128,0,7889:0:0:0:0:
320,192,6417,128,0,7889:0:0:0:0:
64,192,7153,128,0,9361:0:0:0:0:
192,192,7889,128,0,9361:0:0:0:0:
320,192,8625,128,0,10190:0:0:0:0:
448,192,9361,128,0,10282:0:0:0:0:
64,192,9730,128,0,10742:0:0:0:0:
192,192,10098,128,0,10604:0:0:0:0:
320,192,10282,128,0,10558:0:0:0:0:
448,192,10374,128,0,10512:0:0:0:0:
448,192,10604,128,0,10742:0:0:0:0:
320,192,10650,128,0,10742:0:0:0:0:
192,192,10696,128,0,10834:0:0:0:0:
64,192,10834,1,0,0:0:0:70:cymbal-5.wav
320,192,10834,1,0,0:0:0:70:Kick_3-196.wav
448,192,10834,1,0,0:0:0:0:
192,192,10916,1,0,0:0:0:0:
448,192,10997,1,0,0:0:0:0:
320,192,11079,1,0,0:0:0:0:
448,192,11161,1,0,0:0:0:0:
64,192,11202,1,0,0:0:0:70:Kick_3-196.wav
192,192,11202,1,0,0:0:0:0:
320,192,11294,1,0,0:0:0:0:
64,192,11386,1,0,0:0:0:70:hat5.wav
192,192,11570,1,0,0:0:0:70:Kick_3-196.wav
448,192,11570,1,0,0:0:0:0:
320,192,11662,128,0,11846:0:0:0:0:
448,192,11754,128,0,11846:0:0:0:70:hat5.wav
64,192,11938,128,0,12168:0:0:0:70:Kick_3-196.wav
320,192,11938,1,0,0:0:0:0:
192,192,12030,128,0,12306:0:0:0:0:
448,192,12122,1,0,0:0:0:70:hat5.wav
320,192,12306,1,0,0:0:0:70:Kick_3-196.wav
448,192,12306,1,0,0:0:0:0:
64,192,12490,1,0,0:0:0:70:hat5.wav
448,192,12552,1,0,0:0:0:0:
320,192,12613,1,0,0:0:0:0:
64,192,12674,1,0,0:0:0:70:Kick_3-196.wav
192,192,12674,1,0,0:0:0:0:
448,192,12736,1,0,0:0:0:0:
320,192,12797,1,0,0:0:0:0:
192,192,12981,1,0,0:0:0:0:
64,192,13042,1,0,0:0:0:70:Kick_3-196.wav
448,192,13042,128,0,13226:0:0:0:0:
320,192,13134,128,0,13319:0:0:0:0:
64,192,13226,128,0,13411:0:0:0:70:hat5.wav
192,192,13319,128,0,13503:0:0:0:0:
320,192,13411,128,0,13595:0:0:0:70:Kick_3-196.wav
448,192,13411,128,0,13595:0:0:0:0:
64,192,13595,1,0,0:0:0:70:hat5.wav
192,192,13779,1,0,0:0:0:70:Kick_3-196.wav
448,192,13779,1,0,0:0:0:0:
320,192,13963,1,0,0:0:0:70:hat5.wav
64,192,14147,1,0,0:0:0:70:Kick_3-196.wav
448,192,14147,1,0,0:0:0:0:
192,192,14331,1,0,0:0:0:70:hat5.wav
64,192,14410,1,0,0:0:0:0:
320,192,14515,1,0,0:0:0:70:Kick_3-196.wav
448,192,14515,1,0,0:0:0:0:
192,192,14653,1,0,0:0:0:0:
448,192,14699,1,0,0:0:0:70:hat5.wav
320,192,14822,1,0,0:0:0:0:
64,192,14883,1,0,0:0:0:70:Kick_3-196.wav
192,192,14883,1,0,0:0:0:0:
448,192,14944,1,0,0:0:0:0:
320,192,15006,1,0,0:0:0:0:
64,192,15067,1,0,0:0:0:50:Ride1.wav
448,192,15113,1,0,0:0:0:0:
192,192,15159,1,0,0:0:0:50:Ride1.wav
64,192,15251,1,0,0:0:0:50:Ride1.wav
320,192,15251,1,0,0:0:0:70:Kick_3-196.wav
192,192,15343,1,0,0:0:0:0:
448,192,15435,1,0,0:0:0:70:hat5.wav
320,192,15481,1,0,0:0:0:0:
448,192,15803,1,0,0:0:0:70:hat5.wav
64,192,16171,128,0,16263:0:0:0:70:hat5.wav
448,192,16171,128,0,16263:0:0:0:0:
192,192,16263,128,0,16355:0:0:0:70:hat5.wav
320,192,16263,128,0,16355:0:0:0:0:
64,192,16355,128,0,16539:0:0:0:70:hat5.wav
448,192,16355,128,0,16539:0:0:0:0:
192,192,16539,128,0,16723:0:0:0:70:hat5.wav
64,192,16723,128,0,16907:0:0:0:70:cymbal-5.wav
320,192,16723,1,0,0:0:0:70:Kick_3-196.wav
448,192,16723,128,0,16907:0:0:0:0:
192,192,16907,1,0,0:0:0:70:hat5.wav
64,192,17092,128,0,17276:0:0:0:50:snare10.wav
192,192,17092,1,0,0:0:0:70:Kick_3-196.wav
448,192,17092,128,0,17276:0:0:0:0:
320,192,17276,1,0,0:0:0:70:hat5.wav
192,192,17368,1,0,0:0:0:50:Rim.wav
64,192,17460,1,0,0:0:0:70:Kick_3-196.wav
320,192,17460,128,0,17506:0:0:0:0:
448,192,17460,128,0,17506:0:0:0:0:
320,192,17552,128,0,17598:0:0:0:0:
448,192,17552,128,0,17598:0:0:0:0:
192,192,17644,1,0,0:0:0:70:hat5.wav
320,192,17736,128,0,17920:0:0:0:0:
448,192,17736,128,0,17920:0:0:0:0:
64,192,17828,1,0,0:0:0:50:snare10.wav
192,192,17828,1,0,0:0:0:70:Kick_3-196.wav
320,192,18012,128,0,18288:0:0:0:70:hat5.wav
448,192,18012,128,0,18288:0:0:0:0:
64,192,18196,1,0,0:0:0:70:Kick_3-196.wav
192,192,18196,1,0,0:0:0:0:
64,192,18380,128,0,18472:0:0:0:70:hat5.wav
320,192,18380,128,0,18472:0:0:0:0:
64,192,18564,128,0,18656:0:0:0:50:snare10.wav
320,192,18564,128,0,18656:0:0:0:70:Kick_3-196.wav
448,192,18564,1,0,0:0:0:0:
64,192,18748,128,0,18840:0:0:0:70:hat5.wav
320,192,18748,128,0,18840:0:0:0:0:
192,192,18840,1,0,0:0:0:50:Rim.wav
320,192,18932,128,0,19024:0:0:0:70:Kick_3-196.wav
448,192,18932,128,0,19024:0:0:0:0:
64,192,19024,128,0,19116:0:0:0:0:
192,192,19024,128,0,19116:0:0:0:0:
64,192,19208,128,0,19300:0:0:0:0:
192,192,19208,128,0,19300:0:0:0:0:
320,192,19300,1,0,0:0:0:50:snare10.wav
448,192,19300,1,0,0:0:0:70:Kick_3-196.wav
64,192,19392,128,0,19484:0:0:0:0:
448,192,19392,128,0,19484:0:0:0:0:
192,192,19484,128,0,19576:0:0:0:70:hat5.wav
320,192,19484,128,0,19576:0:0:0:0:
64,192,19668,128,0,19852:0:0:0:70:Kick_3-196.wav
192,192,19668,128,0,19852:0:0:0:0:
448,192,19668,1,0,0:0:0:0:
320,192,19852,1,0,0:0:0:70:hat5.wav
64,192,20036,128,0,20220:0:0:0:50:snare10.wav
192,192,20036,128,0,20220:0:0:0:70:Kick_3-196.wav
320,192,20036,1,0,0:0:0:0:
448,192,20220,1,0,0:0:0:70:hat5.wav
320,192,20312,1,0,0:0:0:50:Rim.wav
64,192,20404,128,0,20450:0:0:0:70:Kick_3-196.wav
192,192,20404,128,0,20450:0:0:0:0:
320,192,20496,128,0,20542:0:0:0:0:
448,192,20496,128,0,20542:0:0:0:0:
64,192,20588,1,0,0:0:0:70:hat5.wav
320,192,20680,128,0,20865:0:0:0:0:
448,192,20680,128,0,20865:0:0:0:0:
64,192,20773,1,0,0:0:0:50:snare10.wav
192,192,20773,1,0,0:0:0:70:Kick_3-196.wav
320,192,20957,128,0,21141:0:0:0:70:hat5.wav
448,192,20957,128,0,21141:0:0:0:0:
64,192,21141,128,0,21325:0:0:0:70:Kick_3-196.wav
192,192,21141,128,0,21325:0:0:0:0:
448,192,21325,128,0,21417:0:0:0:70:hat5.wav
64,192,21509,1,0,0:0:0:50:snare10.wav
192,192,21509,128,0,21693:0:0:0:70:Kick_3-196.wav
320,192,21509,128,0,21693:0:0:0:0:
64,192,21693,128,0,21785:0:0:0:70:hat5.wav
192,192,21785,1,0,0:0:0:50:Rim.wav
64,192,21877,1,0,0:0:0:70:Kick_3-196.wav
320,192,21877,128,0,21969:0:0:0:0:
448,192,21877,128,0,21969:0:0:0:0:
192,192,22061,128,0,22153:0:0:0:70:hat5.wav
320,192,22061,128,0,22153:0:0:0:0:
64,192,22245,128,0,22337:0:0:0:50:snare10.wav
192,192,22245,1,0,0:0:0:70:Kick_3-196.wav
448,192,22245,128,0,22337:0:0:0:70:hat5.wav
320,192,22337,128,0,22429:0:0:0:70:hat5.wav
64,192,22429,128,0,22521:0:0:0:70:hat5.wav
448,192,22429,128,0,22521:0:0:0:0:
192,192,22521,128,0,22613:0:0:0:70:hat5.wav
64,192,22613,128,0,22797:0:0:0:70:cymbal-5.wav
320,192,22613,1,0,0:0:0:70:Kick_3-196.wav
448,192,22613,128,0,22797:0:0:0:0:
192,192,22797,1,0,0:0:0:70:hat5.wav
64,192,22981,128,0,23165:0:0:0:50:snare10.wav
192,192,22981,1,0,0:0:0:70:Kick_3-196.wav
448,192,22981,128,0,23165:0:0:0:0:
320,192,23165,1,0,0:0:0:70:hat5.wav
192,192,23257,1,0,0:0:0:50:Rim.wav
64,192,23349,1,0,0:0:0:70:Kick_3-196.wav
320,192,23349,128,0,23395:0:0:0:0:
448,192,23349,128,0,23395:0:0:0:0:
320,192,23441,128,0,23487:0:0:0:0:
448,192,23441,128,0,23487:0:0:0:0:
192,192,23533,1,0,0:0:0:70:hat5.wav
320,192,23625,128,0,23809:0:0:0:0:
448,192,23625,128,0,23809:0:0:0:0:
64,192,23717,1,0,0:0:0:50:snare10.wav
192,192,23717,1,0,0:0:0:70:Kick_3-196.wav
320,192,23901,128,0,24177:0:0:0:70:hat5.wav
448,192,23901,128,0,24177:0:0:0:0:
64,192,24085,1,0,0:0:0:70:Kick_3-196.wav
192,192,24085,1,0,0:0:0:0:
64,192,24269,128,0,24361:0:0:0:70:hat5.wav
320,192,24269,128,0,24361:0:0:0:0:
64,192,24453,128,0,24546:0:0:0:50:snare10.wav
320,192,24453,128,0,24546:0:0:0:70:Kick_3-196.wav
448,192,24453,1,0,0:0:0:0:
64,192,24638,128,0,24730:0:0:0:70:hat5.wav
320,192,24638,128,0,24730:0:0:0:0:
192,192,24730,1,0,0:0:0:50:Rim.wav
320,192,24822,128,0,24914:0:0:0:70:Kick_3-196.wav
448,192,24822,128,0,24914:0:0:0:0:
64,192,24914,128,0,25006:0:0:0:0:
192,192,24914,128,0,25006:0:0:0:0:
64,192,25098,128,0,25190:0:0:0:0:
192,192,25098,128,0,25190:0:0:0:0:
320,192,25190,1,0,0:0:0:50:snare10.wav
448,192,25190,1,0,0:0:0:70:Kick_3-196.wav
64,192,25282,128,0,25374:0:0:0:0:
448,192,25282,128,0,25374:0:0:0:0:
192,192,25374,128,0,25466:0:0:0:70:hat5.wav
320,192,25374,128,0,25466:0:0:0:0:
64,192,25558,128,0,25742:0:0:0:70:Kick_3-196.wav
192,192,25558,128,0,25742:0:0:0:0:
448,192,25558,1,0,0:0:0:0:
320,192,25742,1,0,0:0:0:70:hat5.wav
64,192,25926,128,0,26110:0:0:0:50:snare10.wav
192,192,25926,128,0,26110:0:0:0:70:Kick_3-196.wav
320,192,25926,1,0,0:0:0:0:
448,192,26110,1,0,0:0:0:70:hat5.wav
320,192,26202,1,0,0:0:0:50:Rim.wav
64,192,26294,128,0,26340:0:0:0:70:Kick_3-196.wav
192,192,26294,128,0,26340:0:0:0:0:
320,192,26386,128,0,26432:0:0:0:0:
448,192,26386,128,0,26432:0:0:0:0:
64,192,26478,1,0,0:0:0:70:hat5.wav
320,192,26570,128,0,26754:0:0:0:0:
448,192,26570,128,0,26754:0:0:0:0:
64,192,26662,1,0,0:0:0:50:snare10.wav
192,192,26662,1,0,0:0:0:70:Kick_3-196.wav
320,192,26846,128,0,27030:0:0:0:70:hat5.wav
448,192,26846,128,0,27030:0:0:0:0:
64,192,27030,128,0,27214:0:0:0:70:Kick_3-196.wav
192,192,27030,128,0,27214:0:0:0:0:
320,192,27076,1,0,0:0:0:0:
448,192,27122,1,0,0:0:0:0:
320,192,27214,128,0,27306:0:0:0:70:hat5.wav
192,192,27306,1,0,0:0:0:0:
64,192,27398,128,0,27582:0:0:0:50:snare10.wav
448,192,27398,128,0,27582:0:0:0:70:Kick_3-196.wav
192,192,27582,128,0,27674:0:0:0:70:hat5.wav
64,192,27674,1,0,0:0:0:50:Rim.wav
320,192,27766,128,0,27950:0:0:0:0:
448,192,27766,128,0,27950:0:0:0:0:
64,192,27950,128,0,28042:0:0:0:70:hat5.wav
192,192,27950,128,0,28042:0:0:0:0:
320,192,28042,128,0,28134:0:0:0:0:
448,192,28042,128,0,28134:0:0:0:0:
64,192,28134,128,0,28319:0:0:0:50:snare10.wav
192,192,28134,128,0,28319:0:0:0:30:wou_.wav
320,192,28319,1,0,0:0:0:70:hat5.wav
448,192,28319,1,0,0:0:0:0:
64,192,28503,1,0,0:0:0:50:Ride1.wav
320,192,28503,1,0,0:0:0:70:Kick1.wav
448,192,28503,1,0,0:0:0:0:
192,192,28564,1,0,0:0:0:0:
64,192,28641,1,0,0:0:0:0:
448,192,28687,1,0,0:0:0:40:Hat-CS02.wav
320,192,28748,1,0,0:0:0:0:
448,192,28809,1,0,0:0:0:0:
64,192,28871,1,0,0:0:0:70:clap10.wav
192,192,28871,1,0,0:0:0:70:Kick1.wav
320,192,28993,1,0,0:0:0:0:
448,192,29055,1,0,0:0:0:40:Hat-CS02.wav
64,192,29239,1,0,0:0:0:70:Kick1.wav
192,192,29239,1,0,0:0:0:0:
320,192,29300,1,0,0:0:0:0:
448,192,29392,1,0,0:0:0:0:
192,192,29423,1,0,0:0:0:40:Hat-CS02.wav
64,192,29502,1,0,0:0:0:0:
320,192,29607,1,0,0:0:0:70:clap10.wav
448,192,29607,1,0,0:0:0:70:Kick1.wav
192,192,29730,1,0,0:0:0:0:
64,192,29791,1,0,0:0:0:40:Hat-CS02.wav
320,192,29975,1,0,0:0:0:70:Kick1.wav
448,192,29975,1,0,0:0:0:0:
64,192,30067,1,0,0:0:0:0:
320,192,30159,1,0,0:0:0:40:Hat-CS02.wav
448,192,30238,1,0,0:0:0:0:
64,192,30343,1,0,0:0:0:70:clap10.wav
192,192,30343,1,0,0:0:0:70:Kick1.wav
320,192,30404,1,0,0:0:0:0:
64,192,30527,1,0,0:0:0:40:Hat-CS02.wav
192,192,30548,1,0,0:0:0:0:
448,192,30619,1,0,0:0:0:0:
64,192,30711,1,0,0:0:0:70:Kick1.wav
320,192,30711,1,0,0:0:0:0:
192,192,30834,1,0,0:0:0:0:
320,192,30895,1,0,0:0:0:40:Hat-CS02.wav
64,192,31079,1,0,0:0:0:70:clap10.wav
192,192,31079,1,0,0:0:0:70:Kick1.wav
320,192,31263,1,0,0:0:0:40:Hat-CS02.wav
64,192,31447,1,0,0:0:0:70:Kick1.wav
448,192,31447,1,0,0:0:0:0:
192,192,31539,1,0,0:0:0:0:
448,192,31631,1,0,0:0:0:40:Hat-CS02.wav
320,192,31658,1,0,0:0:0:0:
64,192,31723,1,0,0:0:0:0:
192,192,31815,1,0,0:0:0:70:clap10.wav
448,192,31815,1,0,0:0:0:70:Kick1.wav
320,192,31953,1,0,0:0:0:0:
64,192,31999,1,0,0:0:0:40:Hat-CS02.wav
192,192,32078,1,0,0:0:0:0:
64,192,32184,1,0,0:0:0:70:Kick1.wav
448,192,32184,1,0,0:0:0:0:
320,192,32245,1,0,0:0:0:0:
64,192,32368,1,0,0:0:0:40:Hat-CS02.wav
192,192,32404,1,0,0:0:0:0:
320,192,32552,1,0,0:0:0:70:clap10.wav
448,192,32552,1,0,0:0:0:70:Kick1.wav
64,192,32644,1,0,0:0:0:0:
192,192,32690,1,0,0:0:0:0:
320,192,32736,1,0,0:0:0:40:Hat-CS02.wav
192,192,32828,1,0,0:0:0:0:
64,192,32920,1,0,0:0:0:70:Kick1.wav
448,192,32920,1,0,0:0:0:0:
320,192,32993,1,0,0:0:0:0:
192,192,33067,1,0,0:0:0:0:
448,192,33104,1,0,0:0:0:40:Hat-CS02.wav
320,192,33165,1,0,0:0:0:0:
64,192,33288,1,0,0:0:0:70:clap10.wav
192,192,33288,1,0,0:0:0:70:Kick1.wav
448,192,33349,1,0,0:0:0:0:
64,192,33472,1,0,0:0:0:40:Hat-CS02.wav
320,192,33533,1,0,0:0:0:0:
192,192,33656,1,0,0:0:0:70:Kick1.wav
448,192,33656,1,0,0:0:0:0:
64,192,33840,1,0,0:0:0:40:Hat-CS02.wav
192,192,34024,1,0,0:0:0:70:clap10.wav
320,192,34024,1,0,0:0:0:70:Kick1.wav
448,192,34208,1,0,0:0:0:40:Hat-CS02.wav
64,192,34392,1,0,0:0:0:50:Ride1.wav
320,192,34392,1,0,0:0:0:70:Kick1.wav
192,192,34576,1,0,0:0:0:40:Hat-CS02.wav
320,192,34714,1,0,0:0:0:0:
64,192,34760,1,0,0:0:0:70:clap10.wav
448,192,34760,1,0,0:0:0:70:Kick1.wav
192,192,34944,1,0,0:0:0:40:Hat-CS02.wav
320,192,35128,1,0,0:0:0:70:Kick1.wav
448,192,35128,1,0,0:0:0:0:
64,192,35210,1,0,0:0:0:0:
320,192,35312,1,0,0:0:0:40:Hat-CS02.wav
448,192,35450,1,0,0:0:0:0:
64,192,35496,1,0,0:0:0:70:clap10.wav
192,192,35496,1,0,0:0:0:70:Kick1.wav
320,192,35602,1,0,0:0:0:0:
192,192,35680,1,0,0:0:0:40:Hat-CS02.wav
448,192,35726,1,0,0:0:0:0:
64,192,35819,1,0,0:0:0:0:
320,192,35865,1,0,0:0:0:70:Kick1.wav
448,192,35865,1,0,0:0:0:0:
192,192,35911,1,0,0:0:0:0:
320,192,36003,1,0,0:0:0:0:
64,192,36049,1,0,0:0:0:40:Hat-CS02.wav
448,192,36095,1,0,0:0:0:0:
64,192,36233,1,0,0:0:0:70:clap10.wav
192,192,36233,1,0,0:0:0:70:Kick1.wav
320,192,36325,1,0,0:0:0:0:
192,192,36380,1,0,0:0:0:0:
448,192,36417,1,0,0:0:0:40:Hat-CS02.wav
320,192,36478,1,0,0:0:0:0:
64,192,36555,1,0,0:0:0:0:
192,192,36601,1,0,0:0:0:70:Kick1.wav
448,192,36601,1,0,0:0:0:0:
320,192,36683,1,0,0:0:0:0:
64,192,36785,1,0,0:0:0:40:Hat-CS02.wav
320,192,36969,1,0,0:0:0:70:clap10.wav
448,192,36969,1,0,0:0:0:70:Kick1.wav
192,192,37153,1,0,0:0:0:40:Hat-CS02.wav
64,192,37337,1,0,0:0:0:70:Kick1.wav
320,192,37337,1,0,0:0:0:0:
448,192,37411,1,0,0:0:0:0:
192,192,37521,1,0,0:0:0:40:Hat-CS02.wav
320,192,37567,1,0,0:0:0:0:
448,192,37664,1,0,0:0:0:0:
64,192,37705,1,0,0:0:0:70:clap10.wav
192,192,37705,1,0,0:0:0:70:Kick1.wav
320,192,37766,1,0,0:0:0:0:
448,192,37828,1,0,0:0:0:0:
192,192,37889,1,0,0:0:0:40:Hat-CS02.wav
64,192,37950,1,0,0:0:0:0:
320,192,38073,1,0,0:0:0:70:Kick1.wav
448,192,38073,1,0,0:0:0:0:
64,192,38257,1,0,0:0:0:40:Hat-CS02.wav
320,192,38380,1,0,0:0:0:0:
192,192,38441,1,0,0:0:0:70:clap10.wav
448,192,38441,1,0,0:0:0:70:Kick1.wav
320,192,38625,1,0,0:0:0:40:Hat-CS02.wav
64,192,38809,1,0,0:0:0:70:Kick1.wav
448,192,38855,1,0,0:0:0:0:
64,192,38901,1,0,0:0:0:0:
320,192,38993,1,0,0:0:0:0:
320,192,39085,1,0,0:0:0:0:
192,192,39177,1,0,0:0:0:0:
192,192,39269,1,0,0:0:0:0:
64,192,39453,1,0,0:0:0:0:
448,192,39546,1,0,0:0:0:0:
448,192,39638,1,0,0:0:0:0:
192,192,39730,1,0,0:0:0:0:
192,192,39822,1,0,0:0:0:0:
320,192,40006,1,0,0:0:0:0:
320,192,40098,1,0,0:0:0:0:
64,192,40282,1,0,0:0:0:50:Ride1.wav
192,192,40282,1,0,0:0:0:70:Kick1.wav
448,192,40282,1,0,0:0:0:0:
320,192,40374,1,0,0:0:0:0:
64,192,40466,1,0,0:0:0:40:Hat-CS02.wav
192,192,40558,1,0,0:0:0:0:
64,192,40650,1,0,0:0:0:70:clap10.wav
320,192,40650,1,0,0:0:0:70:Kick1.wav
448,192,40650,1,0,0:0:0:0:
192,192,40742,1,0,0:0:0:0:
320,192,40880,1,0,0:0:0:0:
64,192,41018,1,0,0:0:0:70:Kick1.wav
448,192,41018,1,0,0:0:0:0:
64,192,41202,1,0,0:0:0:40:Hat-CS02.wav
192,192,41386,1,0,0:0:0:70:clap10.wav
320,192,41386,1,0,0:0:0:70:Kick1.wav
448,192,41386,1,0,0:0:0:0:
320,192,41570,1,0,0:0:0:40:Hat-CS02.wav
64,192,41754,1,0,0:0:0:70:Kick1.wav
192,192,41754,1,0,0:0:0:0:
192,192,41938,1,0,0:0:0:40:Hat-CS02.wav
64,192,42122,1,0,0:0:0:70:clap10.wav
320,192,42122,1,0,0:0:0:70:Kick1.wav
448,192,42122,1,0,0:0:0:0:
192,192,42214,1,0,0:0:0:0:
192,192,42398,1,0,0:0:0:0:
64,192,42490,128,0,42674:0:0:0:70:Kick1.wav
448,192,42490,1,0,0:0:0:0:
448,192,42674,128,0,42858:0:0:0:40:Hat-CS02.wav
64,192,42858,1,0,0:0:0:70:clap10.wav
192,192,42858,1,0,0:0:0:70:Kick1.wav
320,192,42858,128,0,43042:0:0:0:0:
192,192,43042,128,0,43226:0:0:0:40:Hat-CS02.wav
64,192,43226,1,0,0:0:0:70:Kick1.wav
448,192,43226,1,0,0:0:0:0:
320,192,43288,1,0,0:0:0:0:
192,192,43374,1,0,0:0:0:0:
448,192,43472,1,0,0:0:0:0:
64,192,43595,1,0,0:0:0:70:clap10.wav
192,192,43595,1,0,0:0:0:70:Kick1.wav
320,192,43595,1,0,0:0:0:0:
448,192,43687,1,0,0:0:0:0:
192,192,43805,1,0,0:0:0:0:
64,192,43963,1,0,0:0:0:70:Kick1.wav
320,192,43963,1,0,0:0:0:0:
64,192,44147,1,0,0:0:0:40:Hat-CS02.wav
192,192,44331,1,0,0:0:0:70:clap10.wav
320,192,44331,1,0,0:0:0:70:Kick1.wav
448,192,44331,1,0,0:0:0:0:
64,192,44515,1,0,0:0:0:40:Hat-CS02.wav
320,192,44699,128,0,45067:0:0:0:70:Kick1.wav
448,192,44699,1,0,0:0:0:0:
192,192,44883,1,0,0:0:0:40:Hat-CS02.wav
64,192,45067,1,0,0:0:0:70:clap10.wav
192,192,45067,128,0,45435:0:0:0:70:Kick1.wav
448,192,45067,1,0,0:0:0:0:
320,192,45251,1,0,0:0:0:40:Hat-CS02.wav
64,192,45435,1,0,0:0:0:70:Kick1.wav
320,192,45435,128,0,45803:0:0:0:0:
192,192,45619,1,0,0:0:0:40:Hat-CS02.wav
64,192,45803,1,0,0:0:0:70:clap10.wav
192,192,45803,1,0,0:0:0:70:Kick1.wav
448,192,45803,128,0,46171:0:0:0:0:
320,192,45987,1,0,0:0:0:40:Hat-CS02.wav
64,192,46171,1,0,0:0:0:50:Ride1.wav
192,192,46171,1,0,0:0:0:70:Kick1.wav
320,192,46171,1,0,0:0:0:0:
448,192,46263,1,0,0:0:0:0:
192,192,46355,1,0,0:0:0:40:Hat-CS02.wav
64,192,46539,1,0,0:0:0:70:clap10.wav
192,192,46539,1,0,0:0:0:70:Kick1.wav
448,192,46539,1,0,0:0:0:0:
320,192,46631,1,0,0:0:0:0:
64,192,46723,1,0,0:0:0:40:Hat-CS02.wav
192,192,46815,1,0,0:0:0:0:
64,192,46907,1,0,0:0:0:70:Kick1.wav
448,192,46907,1,0,0:0:0:0:
448,192,47092,1,0,0:0:0:40:Hat-CS02.wav
64,192,47276,1,0,0:0:0:70:clap10.wav
192,192,47276,1,0,0:0:0:70:Kick1.wav
320,192,47276,1,0,0:0:0:0:
448,192,47398,1,0,0:0:0:0:
64,192,47644,1,0,0:0:0:70:Kick1.wav
320,192,47644,1,0,0:0:0:0:
448,192,47705,1,0,0:0:0:0:
192,192,47828,1,0,0:0:0:40:Hat-CS02.wav
64,192,48012,1,0,0:0:0:70:clap10.wav
320,192,48012,1,0,0:0:0:70:Kick1.wav
448,192,48012,1,0,0:0:0:0:
320,192,48196,1,0,0:0:0:40:Hat-CS02.wav
64,192,48380,1,0,0:0:0:70:Kick1.wav
192,192,48380,128,0,48564:0:0:0:0:
448,192,48564,128,0,48748:0:0:0:40:Hat-CS02.wav
64,192,48748,1,0,0:0:0:70:clap10.wav
192,192,48748,1,0,0:0:0:70:Kick1.wav
320,192,48748,128,0,48932:0:0:0:0:
64,192,48932,128,0,49116:0:0:0:40:Hat-CS02.wav
320,192,49116,1,0,0:0:0:70:Kick1.wav
448,192,49116,1,0,0:0:0:0:
64,192,49300,1,0,0:0:0:40:Hat-CS02.wav
192,192,49392,1,0,0:0:0:0:
64,192,49484,1,0,0:0:0:70:clap10.wav
320,192,49484,1,0,0:0:0:70:Kick1.wav
448,192,49484,1,0,0:0:0:0:
192,192,49576,1,0,0:0:0:0:
320,192,49668,1,0,0:0:0:40:Hat-CS02.wav
64,192,49852,1,0,0:0:0:70:Kick1.wav
448,192,49852,1,0,0:0:0:0:
64,192,50036,1,0,0:0:0:40:Hat-CS02.wav
192,192,50220,1,0,0:0:0:70:clap10.wav
320,192,50220,1,0,0:0:0:70:Kick1.wav
448,192,50220,1,0,0:0:0:0:
64,192,50404,1,0,0:0:0:40:Hat-CS02.wav
448,192,50588,1,0,0:0:0:70:Kick1.wav
192,192,50634,1,0,0:0:0:0:
448,192,50680,1,0,0:0:0:0:
64,192,50773,1,0,0:0:0:0:
64,192,50865,1,0,0:0:0:0:
320,192,50957,1,0,0:0:0:70:clap10.wav
448,192,50957,1,0,0:0:0:0:
320,192,51049,1,0,0:0:0:0:
192,192,51233,1,0,0:0:0:0:
448,192,51325,1,0,0:0:0:0:
448,192,51417,1,0,0:0:0:0:
64,192,51509,1,0,0:0:0:0:
64,192,51601,1,0,0:0:0:0:
320,192,51693,1,0,0:0:0:70:clap10.wav
448,192,51693,1,0,0:0:0:0:
192,192,51785,1,0,0:0:0:0:
192,192,51877,1,0,0:0:0:0:
64,192,52077,128,0,52353:0:0:0:50:Orchestra Hit.wav
320,192,52077,128,0,52169:0:0:0:50:Orchestra Snare.wav
448,192,52077,128,0,52445:0:0:0:0:
64,192,52445,128,0,52721:0:0:0:50:Orchestra Snare.wav
192,192,52445,128,0,52813:0:0:0:0:
64,192,52813,128,0,53181:0:0:0:50:Orchestra Snare.wav
448,192,52813,128,0,52997:0:0:0:0:
320,192,52997,128,0,53181:0:0:0:0:
192,192,53181,128,0,53549:0:0:0:50:Orchestra Snare.wav
448,192,53181,128,0,53457:0:0:0:0:
64,192,53549,128,0,53610:0:0:0:50:Orchestra Snare.wav
448,192,53549,128,0,53672:0:0:0:0:
320,192,53610,128,0,53733:0:0:0:0:
192,192,53672,128,0,53794:0:0:0:0:
64,192,53733,128,0,53856:0:0:0:0:
448,192,53794,128,0,53917:0:0:0:0:
320,192,53856,128,0,53917:0:0:0:0:
64,192,53917,128,0,54193:0:0:0:50:Orchestra Snare.wav
192,192,53917,128,0,54285:0:0:0:0:
64,192,54285,128,0,54561:0:0:0:50:Orchestra Hit.wav
320,192,54285,128,0,54653:0:0:0:50:Orchestra Snare.wav
448,192,54285,128,0,54377:0:0:0:0:
64,192,54653,128,0,54745:0:0:0:50:Orchestra Snare.wav
192,192,54653,128,0,55021:0:0:0:0:
64,192,54837,128,0,54929:0:0:0:50:Orchestra Snare.wav
64,192,55021,128,0,55389:0:0:0:50:Orchestra Snare.wav
448,192,55021,128,0,55144:0:0:0:0:
320,192,55144,128,0,55389:0:0:0:0:
192,192,55389,128,0,55757:0:0:0:50:Orchestra Snare.wav
448,192,55389,128,0,55665:0:0:0:0:
64,192,55757,128,0,55880:0:0:0:50:Orchestra Snare.wav
448,192,55757,128,0,55819:0:0:0:0:
192,192,55819,128,0,55942:0:0:0:0:
320,192,55880,128,0,56003:0:0:0:0:
448,192,55942,128,0,56064:0:0:0:0:
64,192,56003,128,0,56126:0:0:0:0:
192,192,56064,128,0,56126:0:0:0:0:
320,192,56126,128,0,56310:0:0:0:50:Orchestra Snare.wav
448,192,56126,128,0,56402:0:0:0:0:
64,192,56310,128,0,56494:0:0:0:0:
192,192,56494,128,0,56770:0:0:0:50:Orchestra Hit.wav
320,192,56494,128,0,56862:0:0:0:50:Orchestra Snare.wav
448,192,56494,128,0,56586:0:0:0:0:
192,192,56862,128,0,57138:0:0:0:50:Orchestra Snare.wav
448,192,56862,128,0,57230:0:0:0:0:
64,192,57230,128,0,57598:0:0:0:50:Orchestra Snare.wav
192,192,57230,128,0,57598:0:0:0:0:
320,192,57598,128,0,57874:0:0:0:50:Orchestra Snare.wav
448,192,57598,128,0,57966:0:0:0:0:
64,192,57966,128,0,58089:0:0:0:50:Orchestra Snare.wav
320,192,57966,128,0,58027:0:0:0:0:
192,192,58027,128,0,58150:0:0:0:0:
448,192,58089,128,0,58211:0:0:0:0:
320,192,58150,128,0,58273:0:0:0:0:
64,192,58211,128,0,58334:0:0:0:0:
192,192,58273,128,0,58334:0:0:0:0:
320,192,58334,128,0,58702:0:0:0:50:Orchestra Snare.wav
448,192,58334,128,0,58610:0:0:0:0:
64,192,58702,128,0,58794:0:0:0:50:Orchestra Hit.wav
192,192,58702,128,0,58978:0:0:0:50:Orchestra Snare.wav
448,192,58702,128,0,59070:0:0:0:0:
192,192,59070,128,0,59162:0:0:0:50:Orchestra Snare.wav
192,192,59254,128,0,59346:0:0:0:50:Orchestra Snare.wav
64,192,59438,128,0,59807:0:0:0:50:Orchestra Snare.wav
192,192,59438,128,0,59530:0:0:0:0:
192,192,59623,128,0,59715:0:0:0:50:Orchestra Snare.wav
192,192,59807,128,0,59899:0:0:0:50:Orchestra Hit.wav
320,192,59807,128,0,60175:0:0:0:50:Orchestra Snare.wav
448,192,59807,128,0,60083:0:0:0:0:
192,192,60175,128,0,60236:0:0:0:50:Orchestra Snare.wav
448,192,60175,128,0,60297:0:0:0:0:
320,192,60236,128,0,60359:0:0:0:0:
64,192,60297,128,0,60420:0:0:0:0:
192,192,60359,128,0,60481:0:0:0:0:
448,192,60420,128,0,60481:0:0:0:0:
320,192,60481,128,0,60543:0:0:0:0:
64,192,60543,128,0,60727:0:0:0:50:Orchestra Hit.wav
192,192,60543,128,0,60635:0:0:0:50:Orchestra Snare.wav
448,192,60543,128,0,60819:0:0:0:0:
192,192,60727,128,0,60911:0:0:0:0:
64,192,60911,128,0,61187:0:0:0:50:Orchestra Hit.wav
320,192,60911,128,0,61003:0:0:0:50:Orchestra Snare.wav
448,192,60911,128,0,61279:0:0:0:0:
64,192,61279,128,0,61555:0:0:0:50:Orchestra Snare.wav
192,192,61279,128,0,61647:0:0:0:0:
64,192,61647,128,0,62015:0:0:0:50:Orchestra Snare.wav
448,192,61647,128,0,61770:0:0:0:0:
320,192,61770,128,0,62015:0:0:0:0:
192,192,62015,128,0,62383:0:0:0:50:Orchestra Snare.wav
448,192,62015,128,0,62291:0:0:0:0:
64,192,62383,128,0,62445:0:0:0:50:Orchestra Snare.wav
448,192,62383,128,0,62506:0:0:0:0:
320,192,62445,128,0,62567:0:0:0:0:
192,192,62506,128,0,62629:0:0:0:0:
64,192,62567,128,0,62690:0:0:0:0:
448,192,62629,128,0,62751:0:0:0:0:
320,192,62690,128,0,62751:0:0:0:0:
64,192,62751,128,0,62874:0:0:0:50:Orchestra Snare.wav
192,192,62751,128,0,63027:0:0:0:0:
448,192,62874,128,0,63119:0:0:0:0:
64,192,63119,128,0,63396:0:0:0:50:Orchestra Hit.wav
192,192,63119,128,0,63211:0:0:0:50:Orchestra Snare.wav
320,192,63119,128,0,63488:0:0:0:0:
64,192,63488,128,0,63580:0:0:0:50:Orchestra Snare.wav
448,192,63488,128,0,63856:0:0:0:0:
64,192,63672,128,0,63764:0:0:0:50:Orchestra Snare.wav
64,192,63856,128,0,64224:0:0:0:50:Orchestra Snare.wav
192,192,63856,128,0,64224:0:0:0:0:
320,192,64224,128,0,64592:0:0:0:50:Orchestra Snare.wav
448,192,64224,128,0,64500:0:0:0:0:
64,192,64592,128,0,64715:0:0:0:50:Orchestra Snare.wav
448,192,64592,128,0,64653:0:0:0:0:
192,192,64653,128,0,64776:0:0:0:0:
320,192,64715,128,0,64837:0:0:0:0:
448,192,64776,128,0,64899:0:0:0:0:
64,192,64837,128,0,64960:0:0:0:0:
192,192,64899,128,0,64960:0:0:0:0:
320,192,64960,128,0,65083:0:0:0:50:Orchestra Snare.wav
448,192,64960,128,0,65236:0:0:0:0:
64,192,65083,128,0,65328:0:0:0:0:
192,192,65328,128,0,65604:0:0:0:50:Orchestra Hit.wav
320,192,65328,128,0,65696:0:0:0:50:Orchestra Snare.wav
448,192,65328,128,0,65420:0:0:0:0:
64,192,65696,128,0,66064:0:0:0:50:Orchestra Snare.wav
192,192,65696,128,0,65972:0:0:0:0:
192,192,66064,128,0,66432:0:0:0:50:Orchestra Snare.wav
448,192,66064,128,0,66340:0:0:0:0:
64,192,66432,128,0,66800:0:0:0:50:Orchestra Hit.wav
320,192,66432,128,0,66708:0:0:0:50:Orchestra Snare.wav
448,192,66432,128,0,66524:0:0:0:0:
320,192,66800,128,0,66923:0:0:0:50:Orchestra Snare.wav
448,192,66800,128,0,66862:0:0:0:0:
192,192,66862,128,0,66984:0:0:0:0:
64,192,66923,128,0,67046:0:0:0:0:
448,192,66984,128,0,67107:0:0:0:0:
320,192,67046,128,0,67107:0:0:0:0:
192,192,67107,128,0,67169:0:0:0:0:
64,192,67169,128,0,67537:0:0:0:50:Orchestra Hit.wav
320,192,67169,128,0,67261:0:0:0:50:Orchestra Snare.wav
448,192,67169,128,0,67445:0:0:0:0:
192,192,67537,128,0,67813:0:0:0:50:Orchestra Hit.wav
320,192,67537,128,0,67629:0:0:0:50:Orchestra Snare.wav
448,192,67537,128,0,69009:0:0:0:0:
192,192,67905,128,0,67997:0:0:0:50:Orchestra Snare.wav
192,192,68089,128,0,68181:0:0:0:50:Orchestra Snare.wav
192,192,68273,128,0,68365:0:0:0:50:Orchestra Snare.wav
192,192,68457,128,0,68549:0:0:0:50:Orchestra Snare.wav
192,192,68641,128,0,68825:0:0:0:50:Orchestra Snare.wav
320,192,69009,128,0,69592:0:0:0:0:
64,192,69193,128,0,69469:0:0:0:0:
192,192,69285,128,0,69530:0:0:0:0:
448,192,69377,128,0,69653:0:0:0:0:
64,192,69729,128,0,69913:0:0:0:70:cymbal-5.wav
192,192,69729,128,0,69913:0:0:0:70:Kick_3-196.wav
320,192,69729,1,0,0:0:0:0:
448,192,69913,1,0,0:0:0:70:hat5.wav
64,192,70005,128,0,70097:0:0:0:0:
192,192,70005,128,0,70097:0:0:0:0:
320,192,70097,1,0,0:0:0:70:Kick_3-196.wav
448,192,70097,1,0,0:0:0:0:
64,192,70281,128,0,70373:0:0:0:70:hat5.wav
192,192,70373,128,0,70465:0:0:0:0:
64,192,70465,1,0,0:0:0:70:Kick_3-196.wav
320,192,70465,128,0,70649:0:0:0:0:
448,192,70465,128,0,70649:0:0:0:0:
192,192,70649,1,0,0:0:0:70:hat5.wav
320,192,70741,128,0,70833:0:0:0:0:
448,192,70741,128,0,70833:0:0:0:0:
64,192,70833,1,0,0:0:0:70:Kick_3-196.wav
192,192,70833,1,0,0:0:0:0:
320,192,71017,128,0,71109:0:0:0:70:hat5.wav
192,192,71109,128,0,71201:0:0:0:0:
64,192,71201,128,0,71385:0:0:0:70:Kick_3-196.wav
320,192,71201,1,0,0:0:0:0:
448,192,71201,128,0,71385:0:0:0:0:
192,192,71385,1,0,0:0:0:70:hat5.wav
320,192,71477,128,0,71569:0:0:0:0:
448,192,71477,128,0,71569:0:0:0:0:
64,192,71569,1,0,0:0:0:70:Kick_3-196.wav
192,192,71569,1,0,0:0:0:0:
448,192,71753,128,0,71845:0:0:0:70:hat5.wav
320,192,71845,128,0,71937:0:0:0:0:
64,192,71937,128,0,72029:0:0:0:70:Kick_3-196.wav
192,192,71937,1,0,0:0:0:0:
448,192,71937,128,0,72029:0:0:0:0:
192,192,72121,128,0,72581:0:0:0:70:hat5.wav
64,192,72305,128,0,72581:0:0:0:70:Kick_3-196.wav
320,192,72305,128,0,72397:0:0:0:0:
448,192,72305,1,0,0:0:0:0:
448,192,72489,128,0,72673:0:0:0:70:hat5.wav
64,192,72673,128,0,72857:0:0:0:70:Kick_3-196.wav
192,192,72673,1,0,0:0:0:0:
320,192,72673,128,0,72857:0:0:0:0:
448,192,72857,1,0,0:0:0:70:hat5.wav
64,192,72949,128,0,73041:0:0:0:0:
320,192,72949,128,0,73041:0:0:0:0:
192,192,73041,1,0,0:0:0:70:Kick_3-196.wav
448,192,73041,1,0,0:0:0:0:
192,192,73225,128,0,73317:0:0:0:70:hat5.wav
64,192,73317,128,0,73409:0:0:0:0:
192,192,73409,128,0,73594:0:0:0:70:Kick_3-196.wav
320,192,73409,1,0,0:0:0:0:
448,192,73409,128,0,73594:0:0:0:0:
64,192,73594,1,0,0:0:0:70:hat5.wav
192,192,73686,128,0,73778:0:0:0:0:
448,192,73686,128,0,73778:0:0:0:0:
64,192,73778,1,0,0:0:0:70:Kick_3-196.wav
320,192,73778,1,0,0:0:0:0:
448,192,73962,128,0,74054:0:0:0:70:hat5.wav
320,192,74054,128,0,74146:0:0:0:0:
64,192,74146,128,0,74330:0:0:0:70:Kick_3-196.wav
192,192,74146,1,0,0:0:0:0:
448,192,74146,128,0,74330:0:0:0:0:
320,192,74330,1,0,0:0:0:70:hat5.wav
64,192,74422,128,0,74514:0:0:0:0:
192,192,74422,128,0,74514:0:0:0:0:
320,192,74514,1,0,0:0:0:70:Kick_3-196.wav
448,192,74514,1,0,0:0:0:0:
192,192,74698,128,0,74790:0:0:0:70:hat5.wav
320,192,74698,128,0,74790:0:0:0:0:
64,192,74882,128,0,75158:0:0:0:70:Kick_3-196.wav
192,192,74882,128,0,74974:0:0:0:0:
448,192,74882,1,0,0:0:0:0:
320,192,74974,128,0,75158:0:0:0:0:
448,192,75066,128,0,75434:0:0:0:70:hat5.wav
64,192,75250,128,0,75526:0:0:0:70:Kick_3-196.wav
192,192,75250,128,0,75526:0:0:0:0:
320,192,75250,1,0,0:0:0:0:
320,192,75434,128,0,75618:0:0:0:70:hat5.wav
64,192,75618,128,0,75802:0:0:0:70:cymbal-5.wav
192,192,75618,1,0,0:0:0:70:Kick_3-196.wav
448,192,75618,128,0,75802:0:0:0:0:
320,192,75802,1,0,0:0:0:70:hat5.wav
64,192,75894,128,0,75986:0:0:0:0:
448,192,75894,128,0,75986:0:0:0:0:
192,192,75986,1,0,0:0:0:70:Kick_3-196.wav
320,192,75986,1,0,0:0:0:0:
64,192,76170,128,0,76262:0:0:0:70:hat5.wav
448,192,76262,128,0,76354:0:0:0:0:
64,192,76354,1,0,0:0:0:70:Kick_3-196.wav
192,192,76354,128,0,76538:0:0:0:0:
320,192,76354,128,0,76538:0:0:0:0:
448,192,76538,1,0,0:0:0:70:hat5.wav
192,192,76630,128,0,76722:0:0:0:0:
320,192,76630,128,0,76722:0:0:0:0:
64,192,76722,1,0,0:0:0:70:Kick_3-196.wav
448,192,76722,1,0,0:0:0:0:
320,192,76906,128,0,76998:0:0:0:70:hat5.wav
192,192,76998,128,0,77090:0:0:0:0:
64,192,77090,128,0,77275:0:0:0:70:Kick_3-196.wav
320,192,77090,128,0,77275:0:0:0:0:
448,192,77090,1,0,0:0:0:0:
192,192,77275,1,0,0:0:0:70:hat5.wav
64,192,77367,128,0,77459:0:0:0:0:
320,192,77367,128,0,77459:0:0:0:0:
192,192,77459,1,0,0:0:0:70:Kick_3-196.wav
448,192,77459,1,0,0:0:0:0:
320,192,77643,128,0,77827:0:0:0:70:hat5.wav
64,192,77827,128,0,77919:0:0:0:70:Kick_3-196.wav
192,192,77827,128,0,77919:0:0:0:0:
448,192,77827,1,0,0:0:0:0:
448,192,78011,128,0,78471:0:0:0:70:hat5.wav
64,192,78195,1,0,0:0:0:70:Kick_3-196.wav
192,192,78195,128,0,78379:0:0:0:0:
320,192,78195,128,0,78471:0:0:0:0:
64,192,78379,128,0,78563:0:0:0:70:hat5.wav
192,192,78563,1,0,0:0:0:70:Kick_3-196.wav
320,192,78563,128,0,78747:0:0:0:0:
448,192,78563,128,0,78747:0:0:0:0:
64,192,78747,1,0,0:0:0:70:hat5.wav
320,192,78839,128,0,78931:0:0:0:0:
448,192,78839,128,0,78931:0:0:0:0:
64,192,78931,1,0,0:0:0:70:Kick_3-196.wav
192,192,78931,1,0,0:0:0:0:
448,192,79115,128,0,79207:0:0:0:70:hat5.wav
192,192,79207,128,0,79299:0:0:0:0:
64,192,79299,128,0,79575:0:0:0:70:Kick_3-196.wav
320,192,79299,1,0,0:0:0:0:
448,192,79299,128,0,79575:0:0:0:0:
320,192,79483,128,0,79943:0:0:0:70:hat5.wav
64,192,79667,1,0,0:0:0:70:Kick_3-196.wav
192,192,79667,128,0,79851:0:0:0:0:
448,192,79667,128,0,79943:0:0:0:0:
64,192,79851,128,0,79943:0:0:0:50:Ride1.wav
192,192,79943,1,0,0:0:0:50:Ride1.wav
64,192,80035,1,0,0:0:0:50:Ride1.wav
320,192,80035,1,0,0:0:0:70:Kick_3-196.wav
448,192,80035,128,0,80587:0:0:0:0:
192,192,80219,1,0,0:0:0:70:hat5.wav
192,192,80587,1,0,0:0:0:70:hat5.wav
64,192,80955,128,0,81140:0:0:0:0:
448,192,80955,1,0,0:0:0:0:
320,192,81048,1,0,0:0:0:0:
192,192,81140,128,0,81324:0:0:0:30:wou_.wav
448,192,81140,1,0,0:0:0:0:
320,192,81324,128,0,81508:0:0:0:0:
64,192,81508,128,0,81784:0:0:0:70:cymbal-5.wav
192,192,81508,1,0,0:0:0:70:Kick_3-196.wav
448,192,81508,128,0,81784:0:0:0:0:
320,192,81692,1,0,0:0:0:70:hat5.wav
64,192,81876,128,0,82152:0:0:0:50:snare10.wav
320,192,81876,1,0,0:0:0:70:Kick_3-196.wav
448,192,81876,128,0,82014:0:0:0:0:
192,192,82060,1,0,0:0:0:70:hat5.wav
448,192,82106,128,0,82244:0:0:0:0:
320,192,82152,1,0,0:0:0:50:Rim.wav
64,192,82244,128,0,82428:0:0:0:70:Kick_3-196.wav
192,192,82244,128,0,82336:0:0:0:0:
192,192,82428,128,0,82612:0:0:0:70:hat5.wav
320,192,82428,128,0,82520:0:0:0:0:
64,192,82612,1,0,0:0:0:50:snare10.wav
320,192,82612,1,0,0:0:0:70:Kick_3-196.wav
448,192,82612,1,0,0:0:0:0:
320,192,82796,128,0,83256:0:0:0:70:hat5.wav
448,192,82796,128,0,83072:0:0:0:0:
64,192,82980,1,0,0:0:0:70:Kick_3-196.wav
192,192,82980,1,0,0:0:0:0:
64,192,83164,128,0,83256:0:0:0:70:hat5.wav
448,192,83164,128,0,83348:0:0:0:0:
64,192,83348,128,0,83716:0:0:0:50:snare10.wav
192,192,83348,128,0,83624:0:0:0:70:Kick_3-196.wav
320,192,83348,1,0,0:0:0:0:
448,192,83532,1,0,0:0:0:70:hat5.wav
320,192,83624,1,0,0:0:0:50:Rim.wav
192,192,83716,128,0,83900:0:0:0:70:Kick_3-196.wav
448,192,83716,128,0,83900:0:0:0:0:
320,192,83900,1,0,0:0:0:70:hat5.wav
64,192,84084,1,0,0:0:0:50:snare10.wav
320,192,84084,128,0,84176:0:0:0:70:Kick_3-196.wav
448,192,84084,128,0,84268:0:0:0:0:
64,192,84268,128,0,84452:0:0:0:70:hat5.wav
192,192,84268,128,0,84360:0:0:0:0:
320,192,84452,128,0,84821:0:0:0:70:Kick_3-196.wav
448,192,84452,128,0,84728:0:0:0:0:
192,192,84636,1,0,0:0:0:70:hat5.wav
64,192,84821,128,0,85097:0:0:0:50:snare10.wav
192,192,84821,1,0,0:0:0:70:Kick_3-196.wav
448,192,84821,128,0,85189:0:0:0:0:
320,192,85005,1,0,0:0:0:70:hat5.wav
192,192,85097,1,0,0:0:0:50:Rim.wav
64,192,85189,128,0,85373:0:0:0:70:Kick_3-196.wav
320,192,85189,128,0,85465:0:0:0:0:
192,192,85373,1,0,0:0:0:70:hat5.wav
448,192,85419,128,0,85557:0:0:0:0:
64,192,85557,1,0,0:0:0:50:snare10.wav
192,192,85557,1,0,0:0:0:70:Kick_3-196.wav
320,192,85557,1,0,0:0:0:0:
64,192,85741,128,0,85925:0:0:0:70:hat5.wav
192,192,85741,128,0,85925:0:0:0:0:
320,192,85925,128,0,86017:0:0:0:70:Kick_3-196.wav
448,192,85925,128,0,86109:0:0:0:0:
192,192,86109,128,0,86201:0:0:0:70:hat5.wav
320,192,86109,128,0,86293:0:0:0:0:
64,192,86293,128,0,86477:0:0:0:50:snare10.wav
192,192,86293,128,0,86477:0:0:0:70:Kick_3-196.wav
448,192,86293,1,0,0:0:0:0:
320,192,86477,1,0,0:0:0:70:hat5.wav
64,192,86569,1,0,0:0:0:50:Rim.wav
192,192,86661,128,0,86845:0:0:0:70:Kick_3-196.wav
448,192,86661,128,0,86937:0:0:0:0:
64,192,86845,128,0,86937:0:0:0:70:hat5.wav
320,192,86845,128,0,87029:0:0:0:0:
64,192,87029,128,0,87213:0:0:0:50:snare10.wav
192,192,87029,128,0,87121:0:0:0:70:Kick_3-196.wav
448,192,87029,1,0,0:0:0:30:wou_.wav
192,192,87213,128,0,87397:0:0:0:70:hat5.wav
320,192,87213,128,0,87305:0:0:0:0:
64,192,87397,128,0,87673:0:0:0:70:cymbal-5.wav
320,192,87397,1,0,0:0:0:70:Kick_3-196.wav
448,192,87397,128,0,87673:0:0:0:0:
192,192,87581,1,0,0:0:0:70:hat5.wav
64,192,87765,128,0,87903:0:0:0:50:snare10.wav
192,192,87765,1,0,0:0:0:70:Kick_3-196.wav
448,192,87765,128,0,88041:0:0:0:0:
320,192,87949,1,0,0:0:0:70:hat5.wav
64,192,87995,128,0,88133:0:0:0:0:
192,192,88041,1,0,0:0:0:50:Rim.wav
320,192,88133,128,0,88225:0:0:0:70:Kick_3-196.wav
448,192,88133,128,0,88317:0:0:0:0:
192,192,88317,128,0,88409:0:0:0:70:hat5.wav
320,192,88317,128,0,88502:0:0:0:0:
64,192,88502,1,0,0:0:0:50:snare10.wav
192,192,88502,1,0,0:0:0:70:Kick_3-196.wav
448,192,88502,1,0,0:0:0:0:
64,192,88686,128,0,89238:0:0:0:70:hat5.wav
192,192,88686,128,0,88962:0:0:0:0:
320,192,88870,1,0,0:0:0:70:Kick_3-196.wav
448,192,88870,1,0,0:0:0:0:
192,192,89054,128,0,89238:0:0:0:70:hat5.wav
448,192,89054,128,0,89146:0:0:0:0:
320,192,89238,128,0,89514:0:0:0:50:snare10.wav
448,192,89238,128,0,89606:0:0:0:70:Kick_3-196.wav
64,192,89422,1,0,0:0:0:70:hat5.wav
192,192,89514,1,0,0:0:0:50:Rim.wav
64,192,89606,128,0,89790:0:0:0:70:Kick_3-196.wav
320,192,89606,128,0,89790:0:0:0:0:
448,192,89790,1,0,0:0:0:70:hat5.wav
64,192,89974,1,0,0:0:0:50:snare10.wav
192,192,89974,128,0,90066:0:0:0:70:Kick_3-196.wav
448,192,89974,128,0,90158:0:0:0:0:
64,192,90158,128,0,90342:0:0:0:70:hat5.wav
320,192,90158,128,0,90250:0:0:0:0:
320,192,90342,128,0,90434:0:0:0:70:Kick_3-196.wav
448,192,90342,128,0,90434:0:0:0:0:
320,192,90526,128,0,90710:0:0:0:70:hat5.wav
448,192,90526,128,0,90618:0:0:0:0:
64,192,90710,128,0,90802:0:0:0:50:snare10.wav
192,192,90710,128,0,90802:0:0:0:70:Kick_3-196.wav
448,192,90710,1,0,0:0:0:0:
64,192,90894,128,0,91078:0:0:0:70:hat5.wav
192,192,90894,128,0,90986:0:0:0:0:
320,192,90986,1,0,0:0:0:50:Rim.wav
192,192,91078,128,0,91354:0:0:0:70:Kick_3-196.wav
448,192,91078,128,0,91262:0:0:0:0:
320,192,91262,1,0,0:0:0:70:hat5.wav
64,192,91308,128,0,91446:0:0:0:0:
192,192,91446,1,0,0:0:0:50:snare10.wav
320,192,91446,1,0,0:0:0:70:Kick_3-196.wav
448,192,91446,1,0,0:0:0:0:
320,192,91630,128,0,91814:0:0:0:70:hat5.wav
448,192,91630,128,0,91814:0:0:0:0:
64,192,91814,128,0,92090:0:0:0:70:Kick_3-196.wav
192,192,91814,128,0,92090:0:0:0:0:
320,192,91998,1,0,0:0:0:70:hat5.wav
64,192,92182,1,0,0:0:0:50:snare10.wav
192,192,92182,128,0,92459:0:0:0:70:Kick_3-196.wav
320,192,92182,128,0,92459:0:0:0:0:
448,192,92367,1,0,0:0:0:70:hat5.wav
64,192,92459,1,0,0:0:0:50:Rim.wav
320,192,92551,128,0,92827:0:0:0:70:Kick_3-196.wav
448,192,92551,128,0,92827:0:0:0:0:
64,192,92735,1,0,0:0:0:70:hat5.wav
192,192,92827,1,0,0:0:0:0:
64,192,92919,128,0,93103:0:0:0:50:snare10.wav
320,192,92919,1,0,0:0:0:70:Kick_3-196.wav
448,192,92919,128,0,93103:0:0:0:30:wou_.wav
320,192,93103,128,0,93287:0:0:0:70:hat5.wav
64,192,93287,128,0,93471:0:0:0:70:cymbal-5.wav
192,192,93287,1,0,0:0:0:70:Kick_3-196.wav
448,192,93287,128,0,93471:0:0:0:0:
320,192,93471,1,0,0:0:0:70:hat5.wav
64,192,93655,128,0,93839:0:0:0:50:snare10.wav
320,192,93655,1,0,0:0:0:70:Kick_3-196.wav
448,192,93655,128,0,93839:0:0:0:0:
192,192,93839,1,0,0:0:0:70:hat5.wav
320,192,93931,1,0,0:0:0:50:Rim.wav
64,192,94023,128,0,94207:0:0:0:70:Kick_3-196.wav
192,192,94023,128,0,94115:0:0:0:0:
320,192,94115,128,0,94207:0:0:0:0:
448,192,94115,128,0,94207:0:0:0:0:
192,192,94207,1,0,0:0:0:70:hat5.wav
320,192,94299,128,0,94667:0:0:0:0:
448,192,94299,128,0,94667:0:0:0:0:
64,192,94391,1,0,0:0:0:50:snare10.wav
192,192,94391,1,0,0:0:0:70:Kick_3-196.wav
64,192,94575,128,0,94851:0:0:0:70:hat5.wav
192,192,94575,128,0,94851:0:0:0:0:
320,192,94759,1,0,0:0:0:70:Kick_3-196.wav
448,192,94759,1,0,0:0:0:0:
320,192,94943,128,0,95035:0:0:0:70:hat5.wav
448,192,94943,128,0,95127:0:0:0:0:
64,192,95127,1,0,0:0:0:50:snare10.wav
192,192,95127,128,0,95219:0:0:0:70:Kick_3-196.wav
320,192,95127,128,0,95311:0:0:0:0:
64,192,95311,128,0,95403:0:0:0:70:hat5.wav
192,192,95311,128,0,95495:0:0:0:0:
448,192,95403,1,0,0:0:0:50:Rim.wav
64,192,95495,128,0,95679:0:0:0:70:Kick_3-196.wav
320,192,95495,128,0,95587:0:0:0:0:
192,192,95587,128,0,95679:0:0:0:0:
448,192,95587,128,0,95679:0:0:0:0:
64,192,95771,128,0,95863:0:0:0:0:
192,192,95771,128,0,95863:0:0:0:0:
320,192,95863,1,0,0:0:0:50:snare10.wav
448,192,95863,1,0,0:0:0:70:Kick_3-196.wav
192,192,95955,128,0,96048:0:0:0:0:
448,192,95955,128,0,96140:0:0:0:0:
64,192,96048,128,0,96140:0:0:0:70:hat5.wav
320,192,96048,128,0,96140:0:0:0:0:
192,192,96232,1,0,0:0:0:70:Kick_3-196.wav
320,192,96232,128,0,96416:0:0:0:0:
448,192,96232,128,0,96416:0:0:0:0:
64,192,96416,1,0,0:0:0:70:hat5.wav
64,192,96600,1,0,0:0:0:50:snare10.wav
320,192,96600,128,0,96784:0:0:0:70:Kick_3-196.wav
448,192,96600,128,0,96784:0:0:0:0:
192,192,96784,1,0,0:0:0:70:hat5.wav
64,192,96876,1,0,0:0:0:50:Rim.wav
320,192,96968,128,0,97060:0:0:0:70:Kick_3-196.wav
448,192,96968,128,0,97152:0:0:0:0:
64,192,97060,128,0,97152:0:0:0:0:
192,192,97060,128,0,97152:0:0:0:0:
320,192,97152,1,0,0:0:0:70:hat5.wav
64,192,97244,128,0,97612:0:0:0:0:
192,192,97244,128,0,97612:0:0:0:0:
320,192,97336,1,0,0:0:0:50:snare10.wav
448,192,97336,1,0,0:0:0:70:Kick_3-196.wav
320,192,97520,128,0,97704:0:0:0:70:hat5.wav
448,192,97520,128,0,97704:0:0:0:0:
64,192,97704,128,0,97980:0:0:0:70:Kick_3-196.wav
192,192,97704,128,0,97888:0:0:0:0:
448,192,97888,128,0,98164:0:0:0:70:hat5.wav
64,192,98072,128,0,98256:0:0:0:50:snare10.wav
192,192,98072,1,0,0:0:0:70:Kick_3-196.wav
320,192,98072,128,0,98348:0:0:0:0:
192,192,98256,128,0,98532:0:0:0:70:hat5.wav
448,192,98348,1,0,0:0:0:50:Rim.wav
64,192,98440,128,0,98716:0:0:0:70:Kick_3-196.wav
320,192,98440,128,0,98532:0:0:0:0:
320,192,98624,128,0,98716:0:0:0:70:hat5.wav
448,192,98624,128,0,98716:0:0:0:0:
64,192,98808,128,0,98900:0:0:0:50:snare10.wav
192,192,98808,1,0,0:0:0:70:Kick_3-196.wav
448,192,98808,128,0,98900:0:0:0:70:hat5.wav
320,192,98900,128,0,99084:0:0:0:70:hat5.wav
64,192,98992,128,0,99084:0:0:0:70:hat5.wav
448,192,98992,128,0,99084:0:0:0:0:
192,192,99084,128,0,99176:0:0:0:70:hat5.wav
64,192,99176,128,0,99360:0:0:0:70:cymbal-5.wav
320,192,99176,1,0,0:0:0:70:Kick_3-196.wav
448,192,99176,128,0,99360:0:0:0:0:
192,192,99360,1,0,0:0:0:70:hat5.wav
64,192,99544,128,0,99728:0:0:0:50:snare10.wav
192,192,99544,1,0,0:0:0:70:Kick_3-196.wav
448,192,99544,128,0,99728:0:0:0:0:
320,192,99728,1,0,0:0:0:70:hat5.wav
192,192,99821,1,0,0:0:0:50:Rim.wav
320,192,99913,128,0,100005:0:0:0:70:Kick_3-196.wav
448,192,99913,128,0,100097:0:0:0:0:
64,192,100005,128,0,100097:0:0:0:0:
192,192,100005,128,0,100097:0:0:0:0:
320,192,100097,1,0,0:0:0:70:hat5.wav
64,192,100189,128,0,100557:0:0:0:0:
192,192,100189,128,0,100557:0:0:0:0:
320,192,100281,1,0,0:0:0:50:snare10.wav
448,192,100281,1,0,0:0:0:70:Kick_3-196.wav
320,192,100465,128,0,100741:0:0:0:70:hat5.wav
448,192,100465,128,0,100741:0:0:0:0:
64,192,100649,1,0,0:0:0:70:Kick_3-196.wav
192,192,100649,1,0,0:0:0:0:
64,192,100833,128,0,101017:0:0:0:70:hat5.wav
192,192,100833,128,0,100925:0:0:0:0:
192,192,101017,128,0,101201:0:0:0:50:snare10.wav
320,192,101017,128,0,101109:0:0:0:70:Kick_3-196.wav
448,192,101017,1,0,0:0:0:0:
320,192,101201,128,0,101385:0:0:0:70:hat5.wav
448,192,101201,128,0,101293:0:0:0:0:
64,192,101293,1,0,0:0:0:50:Rim.wav
192,192,101385,128,0,101477:0:0:0:70:Kick_3-196.wav
448,192,101385,128,0,101569:0:0:0:0:
64,192,101477,128,0,101569:0:0:0:0:
320,192,101477,128,0,101569:0:0:0:0:
320,192,101661,128,0,101753:0:0:0:0:
448,192,101661,128,0,101753:0:0:0:0:
64,192,101753,1,0,0:0:0:50:snare10.wav
192,192,101753,1,0,0:0:0:70:Kick_3-196.wav
64,192,101845,128,0,102029:0:0:0:0:
320,192,101845,128,0,101937:0:0:0:0:
192,192,101937,128,0,102029:0:0:0:70:hat5.wav
448,192,101937,128,0,102029:0:0:0:0:
64,192,102121,1,0,0:0:0:70:Kick_3-196.wav
320,192,102121,128,0,102305:0:0:0:0:
448,192,102121,128,0,102305:0:0:0:0:
192,192,102305,1,0,0:0:0:70:hat5.wav
192,192,102489,1,0,0:0:0:50:snare10.wav
320,192,102489,128,0,102673:0:0:0:70:Kick_3-196.wav
448,192,102489,128,0,102673:0:0:0:0:
64,192,102673,1,0,0:0:0:70:hat5.wav
192,192,102765,1,0,0:0:0:50:Rim.wav
320,192,102857,128,0,102949:0:0:0:70:Kick_3-196.wav
448,192,102857,128,0,103041:0:0:0:0:
64,192,102949,128,0,103041:0:0:0:0:
192,192,102949,128,0,103041:0:0:0:0:
320,192,103041,1,0,0:0:0:70:hat5.wav
64,192,103133,128,0,103502:0:0:0:0:
192,192,103133,128,0,103502:0:0:0:0:
320,192,103225,1,0,0:0:0:50:snare10.wav
448,192,103225,1,0,0:0:0:70:Kick_3-196.wav
320,192,103409,128,0,103594:0:0:0:70:hat5.wav
448,192,103409,128,0,103594:0:0:0:0:
64,192,103594,128,0,103778:0:0:0:70:Kick_3-196.wav
192,192,103594,128,0,103870:0:0:0:0:
320,192,103640,1,0,0:0:0:0:
448,192,103686,1,0,0:0:0:0:
320,192,103778,128,0,104054:0:0:0:70:hat5.wav
64,192,103870,1,0,0:0:0:0:
192,192,103962,128,0,104146:0:0:0:50:snare10.wav
448,192,103962,128,0,104238:0:0:0:70:Kick_3-196.wav
64,192,104146,128,0,104422:0:0:0:70:hat5.wav
320,192,104238,1,0,0:0:0:50:Rim.wav
192,192,104330,128,0,104514:0:0:0:0:
448,192,104330,128,0,104514:0:0:0:0:
64,192,104514,128,0,104606:0:0:0:0:
320,192,104514,128,0,104606:0:0:0:0:
192,192,104606,128,0,104698:0:0:0:0:
448,192,104606,128,0,104698:0:0:0:0:
64,192,104698,128,0,104882:0:0:0:30:wou_.wav
320,192,104698,128,0,104882:0:0:0:0:
192,192,104882,1,0,0:0:0:0:
448,192,104882,1,0,0:0:0:0:
320,192,105066,1,0,0:0:0:70:cymbal-5.wav
448,192,105066,1,0,0:0:0:50:kick-distort2.wav
64,192,105204,1,0,0:0:0:0:
320,192,105311,1,0,0:0:0:0:
64,192,105434,1,0,0:0:0:50:kick-distort2.wav
192,192,105434,1,0,0:0:0:30:Ride1.wav
320,192,105495,1,0,0:0:0:0:
448,192,105618,1,0,0:0:0:0:
192,192,105664,1,0,0:0:0:0:
320,192,105756,1,0,0:0:0:0:
64,192,105802,1,0,0:0:0:50:kick-distort2.wav
448,192,105802,1,0,0:0:0:30:Ride1.wav
192,192,105894,1,0,0:0:0:0:
64,192,106048,1,0,0:0:0:0:
320,192,106170,1,0,0:0:0:50:kick-distort2.wav
448,192,106170,1,0,0:0:0:30:Ride1.wav
192,192,106354,1,0,0:0:0:0:
64,192,106538,1,0,0:0:0:50:kick-distort2.wav
320,192,106538,1,0,0:0:0:30:Ride1.wav
448,192,106722,1,0,0:0:0:0:
64,192,106906,1,0,0:0:0:50:kick-distort2.wav
192,192,106906,1,0,0:0:0:30:Ride1.wav
320,192,107090,1,0,0:0:0:0:
192,192,107275,1,0,0:0:0:50:kick-distort2.wav
448,192,107275,1,0,0:0:0:30:Ride1.wav
64,192,107643,1,0,0:0:0:50:kick-distort2.wav
192,192,107643,1,0,0:0:0:30:Ride1.wav
448,192,107735,1,0,0:0:0:0:
64,192,107827,1,0,0:0:0:50:kick-distort2.wav
192,192,107827,1,0,0:0:0:0:
320,192,107919,1,0,0:0:0:0:
64,192,108011,1,0,0:0:0:50:kick-distort2.wav
448,192,108011,1,0,0:0:0:30:Ride1.wav
192,192,108072,1,0,0:0:0:0:
320,192,108195,1,0,0:0:0:0:
448,192,108287,1,0,0:0:0:0:
64,192,108379,1,0,0:0:0:50:kick-distort2.wav
192,192,108379,1,0,0:0:0:30:Ride1.wav
320,192,108471,1,0,0:0:0:0:
192,192,108600,1,0,0:0:0:0:
64,192,108673,1,0,0:0:0:0:
320,192,108747,1,0,0:0:0:50:kick-distort2.wav
448,192,108747,1,0,0:0:0:30:Ride1.wav
192,192,108821,1,0,0:0:0:0:
448,192,108931,1,0,0:0:0:0:
64,192,108992,1,0,0:0:0:0:
320,192,109115,1,0,0:0:0:50:kick-distort2.wav
448,192,109115,1,0,0:0:0:30:Ride1.wav
192,192,109207,1,0,0:0:0:0:
320,192,109299,1,0,0:0:0:50:kick-distort2.wav
448,192,109299,1,0,0:0:0:0:
64,192,109391,1,0,0:0:0:0:
192,192,109483,1,0,0:0:0:50:kick-distort2.wav
320,192,109483,1,0,0:0:0:30:Ride1.wav
448,192,109575,1,0,0:0:0:0:
64,192,109759,1,0,0:0:0:50:kick-distort2.wav
192,192,109759,1,0,0:0:0:0:
320,192,109851,1,0,0:0:0:50:kick-distort2.wav
448,192,109851,1,0,0:0:0:30:Ride1.wav
64,192,109943,1,0,0:0:0:0:
320,192,110035,1,0,0:0:0:50:kick-distort2.wav
448,192,110035,1,0,0:0:0:0:
192,192,110127,1,0,0:0:0:0:
64,192,110219,1,0,0:0:0:50:kick-distort2.wav
448,192,110219,1,0,0:0:0:30:Ride1.wav
192,192,110311,1,0,0:0:0:50:kick-distort2.wav
320,192,110311,1,0,0:0:0:0:
192,192,110495,1,0,0:0:0:50:kick-distort2.wav
320,192,110495,1,0,0:0:0:0:
64,192,110587,1,0,0:0:0:50:kick-distort2.wav
448,192,110587,1,0,0:0:0:30:Ride1.wav
192,192,110771,1,0,0:0:0:50:kick-distort2.wav
320,192,110771,1,0,0:0:0:0:
64,192,110955,1,0,0:0:0:70:cymbal-5.wav
320,192,110955,1,0,0:0:0:50:kick-distort2.wav
448,192,110955,1,0,0:0:0:30:Ride1.wav
192,192,111232,1,0,0:0:0:40:Hat-CS02.wav
64,192,111324,1,0,0:0:0:50:kick-distort2.wav
448,192,111324,1,0,0:0:0:30:Ride1.wav
320,192,111508,1,0,0:0:0:40:Hat-CS02.wav
448,192,111587,1,0,0:0:0:0:
64,192,111692,1,0,0:0:0:50:kick-distort2.wav
192,192,111692,1,0,0:0:0:30:Ride1.wav
320,192,111784,1,0,0:0:0:40:Hat-CS02.wav
64,192,111845,1,0,0:0:0:0:
192,192,111937,1,0,0:0:0:0:
320,192,112060,1,0,0:0:0:50:kick-distort2.wav
448,192,112060,1,0,0:0:0:30:Ride1.wav
64,192,112152,1,0,0:0:0:40:Hat-CS02.wav
192,192,112244,1,0,0:0:0:40:Hat-CS02.wav
448,192,112336,1,0,0:0:0:40:Hat-CS02.wav
64,192,112428,1,0,0:0:0:50:kick-distort2.wav
192,192,112428,1,0,0:0:0:30:Ride1.wav
320,192,112551,1,0,0:0:0:0:
64,192,112704,1,0,0:0:0:40:Hat-CS02.wav
192,192,112796,1,0,0:0:0:50:kick-distort2.wav
448,192,112796,1,0,0:0:0:30:Ride1.wav
320,192,112949,1,0,0:0:0:0:
192,192,113011,1,0,0:0:0:0:
64,192,113164,1,0,0:0:0:50:kick-distort2.wav
448,192,113164,1,0,0:0:0:30:Ride1.wav
320,192,113256,1,0,0:0:0:40:Hat-CS02.wav
192,192,113348,1,0,0:0:0:40:Hat-CS02.wav
320,192,113532,1,0,0:0:0:50:kick-distort2.wav
448,192,113532,1,0,0:0:0:30:Ride1.wav
64,192,113624,1,0,0:0:0:40:Hat-CS02.wav
320,192,113716,1,0,0:0:0:50:kick-distort2.wav
448,192,113716,1,0,0:0:0:40:Hat-CS02.wav
192,192,113808,1,0,0:0:0:40:Hat-CS02.wav
64,192,113900,1,0,0:0:0:50:kick-distort2.wav
448,192,113900,1,0,0:0:0:30:Ride1.wav
320,192,113953,1,0,0:0:0:0:
192,192,114146,1,0,0:0:0:0:
320,192,114227,1,0,0:0:0:0:
64,192,114268,1,0,0:0:0:50:kick-distort2.wav
448,192,114268,1,0,0:0:0:30:Ride1.wav
320,192,114406,1,0,0:0:0:0:
192,192,114452,1,0,0:0:0:40:Hat-CS02.wav
448,192,114575,1,0,0:0:0:0:
64,192,114636,1,0,0:0:0:50:kick-distort2.wav
192,192,114636,1,0,0:0:0:30:Ride1.wav
320,192,114728,1,0,0:0:0:40:Hat-CS02.wav
64,192,114821,1,0,0:0:0:40:Hat-CS02.wav
192,192,114913,1,0,0:0:0:0:
320,192,115005,1,0,0:0:0:50:kick-distort2.wav
448,192,115005,1,0,0:0:0:30:Ride1.wav
64,192,115097,1,0,0:0:0:40:Hat-CS02.wav
320,192,115189,1,0,0:0:0:50:kick-distort2.wav
448,192,115189,1,0,0:0:0:40:Hat-CS02.wav
192,192,115281,1,0,0:0:0:40:Hat-CS02.wav
64,192,115373,1,0,0:0:0:50:kick-distort2.wav
448,192,115373,1,0,0:0:0:30:Ride1.wav
320,192,115526,1,0,0:0:0:0:
64,192,115649,1,0,0:0:0:50:kick-distort2.wav
192,192,115649,1,0,0:0:0:40:Hat-CS02.wav
320,192,115741,1,0,0:0:0:50:kick-distort2.wav
448,192,115741,1,0,0:0:0:30:Ride1.wav
64,192,115833,1,0,0:0:0:0:
320,192,115925,1,0,0:0:0:50:kick-distort2.wav
448,192,115925,1,0,0:0:0:40:Hat-CS02.wav
192,192,116017,1,0,0:0:0:40:Hat-CS02.wav
64,192,116109,1,0,0:0:0:50:kick-distort2.wav
448,192,116109,1,0,0:0:0:30:Ride1.wav
192,192,116201,1,0,0:0:0:50:kick-distort2.wav
320,192,116201,1,0,0:0:0:40:Hat-CS02.wav
448,192,116324,1,0,0:0:0:0:
64,192,116385,1,0,0:0:0:50:kick-distort2.wav
192,192,116385,1,0,0:0:0:0:
320,192,116477,1,0,0:0:0:50:kick-distort2.wav
448,192,116477,1,0,0:0:0:30:Ride1.wav
64,192,116569,1,0,0:0:0:40:Hat-CS02.wav
192,192,116661,1,0,0:0:0:50:kick-distort2.wav
320,192,116661,1,0,0:0:0:40:Hat-CS02.wav
448,192,116753,1,0,0:0:0:40:Hat-CS02.wav
64,192,116845,1,0,0:0:0:70:cymbal-5.wav
192,192,116845,1,0,0:0:0:50:kick-distort2.wav
320,192,116845,1,0,0:0:0:30:Ride1.wav
448,192,117029,128,0,117121:0:0:0:100:hat5.wav
64,192,117213,1,0,0:0:0:70:clap10.wav
192,192,117213,1,0,0:0:0:50:kick-distort2.wav
320,192,117397,128,0,117489:0:0:0:100:hat5.wav
448,192,117520,1,0,0:0:0:0:
64,192,117581,1,0,0:0:0:50:kick-distort2.wav
192,192,117581,1,0,0:0:0:30:Ride1.wav
320,192,117704,1,0,0:0:0:0:
192,192,117765,128,0,117857:0:0:0:100:hat5.wav
448,192,117888,1,0,0:0:0:0:
64,192,117949,1,0,0:0:0:70:clap10.wav
192,192,117949,1,0,0:0:0:50:kick-distort2.wav
320,192,118011,1,0,0:0:0:0:
64,192,118133,128,0,118225:0:0:0:100:hat5.wav
320,192,118317,1,0,0:0:0:50:kick-distort2.wav
448,192,118317,1,0,0:0:0:30:Ride1.wav
192,192,118363,1,0,0:0:0:0:
448,192,118502,128,0,118594:0:0:0:100:hat5.wav
320,192,118594,1,0,0:0:0:40:Hat-CS02.wav
64,192,118686,1,0,0:0:0:70:clap10.wav
192,192,118686,1,0,0:0:0:50:kick-distort2.wav
448,192,118778,1,0,0:0:0:0:
64,192,118870,128,0,118962:0:0:0:100:hat5.wav
320,192,118948,1,0,0:0:0:0:
192,192,119054,1,0,0:0:0:50:kick-distort2.wav
448,192,119054,1,0,0:0:0:30:Ride1.wav
64,192,119115,1,0,0:0:0:0:
320,192,119238,128,0,119330:0:0:0:100:hat5.wav
64,192,119330,1,0,0:0:0:70:clap10.wav
192,192,119330,1,0,0:0:0:0:
320,192,119422,1,0,0:0:0:70:clap10.wav
448,192,119422,1,0,0:0:0:50:kick-distort2.wav
192,192,119514,1,0,0:0:0:40:Hat-CS02.wav
320,192,119606,1,0,0:0:0:70:clap10.wav
448,192,119606,128,0,119698:0:0:0:50:kick-distort2.wav
64,192,119698,1,0,0:0:0:40:Hat-CS02.wav
192,192,119790,1,0,0:0:0:50:kick-distort2.wav
448,192,119790,1,0,0:0:0:30:Ride1.wav
320,192,119974,128,0,120066:0:0:0:100:hat5.wav
64,192,120158,1,0,0:0:0:70:clap10.wav
448,192,120158,1,0,0:0:0:50:kick-distort2.wav
192,192,120342,128,0,120434:0:0:0:100:hat5.wav
64,192,120526,1,0,0:0:0:50:kick-distort2.wav
320,192,120526,1,0,0:0:0:30:Ride1.wav
192,192,120608,1,0,0:0:0:0:
448,192,120710,128,0,120802:0:0:0:100:hat5.wav
320,192,120833,1,0,0:0:0:0:
64,192,120894,1,0,0:0:0:70:clap10.wav
192,192,120894,1,0,0:0:0:50:kick-distort2.wav
448,192,121032,1,0,0:0:0:0:
64,192,121078,1,0,0:0:0:50:kick-distort2.wav
192,192,121078,128,0,121170:0:0:0:100:hat5.wav
320,192,121170,1,0,0:0:0:40:Hat-CS02.wav
64,192,121262,1,0,0:0:0:50:kick-distort2.wav
448,192,121262,1,0,0:0:0:30:Ride1.wav
192,192,121354,1,0,0:0:0:0:
320,192,121446,128,0,121538:0:0:0:100:hat5.wav
64,192,121538,1,0,0:0:0:50:kick-distort2.wav
192,192,121538,1,0,0:0:0:40:Hat-CS02.wav
320,192,121630,1,0,0:0:0:70:clap10.wav
448,192,121630,1,0,0:0:0:50:kick-distort2.wav
64,192,121814,128,0,121906:0:0:0:50:kick-distort2.wav
448,192,121814,1,0,0:0:0:100:hat5.wav
64,192,121998,1,0,0:0:0:50:kick-distort2.wav
192,192,121998,1,0,0:0:0:30:Ride1.wav
320,192,122090,1,0,0:0:0:50:kick-distort2.wav
448,192,122090,1,0,0:0:0:40:Hat-CS02.wav
192,192,122182,128,0,122275:0:0:0:100:hat5.wav
64,192,122275,1,0,0:0:0:50:kick-distort2.wav
448,192,122275,1,0,0:0:0:0:
192,192,122367,1,0,0:0:0:70:clap10.wav
320,192,122367,1,0,0:0:0:50:kick-distort2.wav
448,192,122505,1,0,0:0:0:0:
64,192,122551,128,0,122643:0:0:0:70:clap10.wav
192,192,122551,1,0,0:0:0:50:kick-distort2.wav
320,192,122643,1,0,0:0:0:40:Hat-CS02.wav
64,192,122735,1,0,0:0:0:70:cymbal-5.wav
192,192,122735,1,0,0:0:0:50:kick-distort2.wav
448,192,122735,1,0,0:0:0:8:Muted Snare.wav
320,192,122827,1,0,0:0:0:8:Muted Snare.wav
64,192,122919,1,0,0:0:0:8:Muted Snare.wav
320,192,123011,1,0,0:0:0:8:Muted Snare.wav
64,192,123103,1,0,0:0:0:70:clap10.wav
192,192,123103,1,0,0:0:0:50:kick-distort2.wav
320,192,123195,1,0,0:0:0:8:Muted Snare.wav
192,192,123287,1,0,0:0:0:8:Muted Snare.wav
320,192,123379,1,0,0:0:0:8:Muted Snare.wav
64,192,123471,1,0,0:0:0:50:kick-distort2.wav
448,192,123471,1,0,0:0:0:8:Muted Snare.wav
192,192,123563,1,0,0:0:0:8:Muted Snare.wav
448,192,123655,1,0,0:0:0:8:Muted Snare.wav
192,192,123747,1,0,0:0:0:8:Muted Snare.wav
320,192,123839,1,0,0:0:0:70:clap10.wav
448,192,123839,1,0,0:0:0:50:kick-distort2.wav
192,192,123931,1,0,0:0:0:8:Muted Snare.wav
320,192,124023,1,0,0:0:0:50:kick-distort2.wav
448,192,124023,1,0,0:0:0:8:Muted Snare.wav
192,192,124115,1,0,0:0:0:8:Muted Snare.wav
64,192,124207,1,0,0:0:0:70:cymbal-5.wav
320,192,124207,1,0,0:0:0:50:kick-distort2.wav
448,192,124207,1,0,0:0:0:8:Muted Snare.wav
192,192,124299,1,0,0:0:0:8:Muted Snare.wav
320,192,124391,1,0,0:0:0:8:Muted Snare.wav
192,192,124483,1,0,0:0:0:8:Muted Snare.wav
320,192,124575,1,0,0:0:0:70:clap10.wav
448,192,124575,1,0,0:0:0:50:kick-distort2.wav
64,192,124667,1,0,0:0:0:8:Muted Snare.wav
320,192,124759,1,0,0:0:0:8:Muted Snare.wav
64,192,124851,1,0,0:0:0:8:Muted Snare.wav
192,192,124943,1,0,0:0:0:50:kick-distort2.wav
448,192,124943,1,0,0:0:0:8:Muted Snare.wav
320,192,125035,1,0,0:0:0:8:Muted Snare.wav
192,192,125127,1,0,0:0:0:8:Muted Snare.wav
320,192,125219,1,0,0:0:0:70:clap10.wav
448,192,125219,1,0,0:0:0:8:Muted Snare.wav
64,192,125311,1,0,0:0:0:70:clap10.wav
192,192,125311,1,0,0:0:0:50:kick-distort2.wav
448,192,125403,1,0,0:0:0:8:Muted Snare.wav
64,192,125495,1,0,0:0:0:70:clap10.wav
192,192,125495,1,0,0:0:0:50:kick-distort2.wav
448,192,125587,1,0,0:0:0:8:Muted Snare.wav
64,192,125679,1,0,0:0:0:70:cymbal-5.wav
192,192,125679,1,0,0:0:0:50:kick-distort2.wav
320,192,125679,1,0,0:0:0:10:Muted Snare.wav
448,192,125771,1,0,0:0:0:10:Muted Snare.wav
320,192,125863,1,0,0:0:0:10:Muted Snare.wav
192,192,125955,1,0,0:0:0:10:Muted Snare.wav
64,192,126048,1,0,0:0:0:70:clap10.wav
448,192,126048,1,0,0:0:0:50:kick-distort2.wav
320,192,126140,1,0,0:0:0:10:Muted Snare.wav
64,192,126232,1,0,0:0:0:50:kick-distort2.wav
192,192,126232,1,0,0:0:0:10:Muted Snare.wav
320,192,126324,1,0,0:0:0:50:kick-distort2.wav
448,192,126324,1,0,0:0:0:10:Muted Snare.wav
192,192,126416,1,0,0:0:0:70:cymbal-5.wav
320,192,126416,1,0,0:0:0:50:kick-distort2.wav
448,192,126416,1,0,0:0:0:10:Muted Snare.wav
64,192,126508,1,0,0:0:0:10:Muted Snare.wav
192,192,126600,1,0,0:0:0:10:Muted Snare.wav
320,192,126692,1,0,0:0:0:10:Muted Snare.wav
64,192,126784,1,0,0:0:0:70:clap10.wav
448,192,126784,1,0,0:0:0:50:kick-distort2.wav
192,192,126876,1,0,0:0:0:10:Muted Snare.wav
320,192,126968,1,0,0:0:0:50:kick-distort2.wav
448,192,126968,1,0,0:0:0:10:Muted Snare.wav
64,192,127060,1,0,0:0:0:10:Muted Snare.wav
192,192,127060,1,0,0:0:0:40:Hat-CS02.wav
64,192,127152,1,0,0:0:0:70:cymbal-5.wav
192,192,127152,1,0,0:0:0:50:kick-distort2.wav
448,192,127152,1,0,0:0:0:10:Muted Snare.wav
320,192,127244,1,0,0:0:0:10:Muted Snare.wav
192,192,127336,1,0,0:0:0:10:Muted Snare.wav
320,192,127428,1,0,0:0:0:50:kick-distort2.wav
448,192,127428,1,0,0:0:0:10:Muted Snare.wav
64,192,127520,1,0,0:0:0:70:cymbal-5.wav
320,192,127520,1,0,0:0:0:70:clap10.wav
448,192,127520,1,0,0:0:0:50:kick-distort2.wav
192,192,127612,1,0,0:0:0:10:Muted Snare.wav
64,192,127704,1,0,0:0:0:50:kick-distort2.wav
320,192,127704,1,0,0:0:0:10:Muted Snare.wav
448,192,127796,1,0,0:0:0:10:Muted Snare.wav
64,192,127888,1,0,0:0:0:70:cymbal-5.wav
192,192,127888,1,0,0:0:0:50:kick-distort2.wav
320,192,127888,1,0,0:0:0:10:Muted Snare.wav
64,192,127980,1,0,0:0:0:50:kick-distort2.wav
192,192,127980,1,0,0:0:0:10:Muted Snare.wav
448,192,128072,1,0,0:0:0:10:Muted Snare.wav
192,192,128164,1,0,0:0:0:50:kick-distort2.wav
320,192,128164,1,0,0:0:0:10:Muted Snare.wav
64,192,128256,1,0,0:0:0:70:cymbal-5.wav
448,192,128256,1,0,0:0:0:70:clap10.wav
192,192,128348,1,0,0:0:0:70:clap10.wav
320,192,128348,1,0,0:0:0:10:Muted Snare.wav
64,192,128440,1,0,0:0:0:70:clap10.wav
448,192,128440,1,0,0:0:0:50:kick-distort2.wav
192,192,128532,1,0,0:0:0:70:clap10.wav
320,192,128532,1,0,0:0:0:10:Muted Snare.wav
64,192,128624,128,0,129544:0:0:0:70:cymbal-5.wav
448,192,128624,1,0,0:0:0:50:kick-distort2.wav
320,192,129176,128,0,130097:0:0:0:0:
64,192,129728,128,0,130649:0:0:0:0:
448,192,130097,128,0,131201:0:0:0:0:
320,192,130649,128,0,132489:0:0:0:0:
192,192,131201,128,0,131937:0:0:0:0:
64,192,131569,128,0,131937:0:0:0:0:
448,192,131569,128,0,132857:0:0:0:0:
64,192,132121,128,0,133640:0:0:0:0:
192,192,132121,128,0,132489:0:0:0:0:
192,192,132673,128,0,133686:0:0:0:0:
320,192,132673,128,0,132857:0:0:0:0:
320,192,133041,128,0,133732:0:0:0:0:
448,192,133041,128,0,133778:0:0:0:0:
448,192,134146,128,0,134514:0:0:0:0:
320,192,134330,128,0,134514:0:0:0:0:
64,192,134514,128,0,135618:0:0:0:0:
192,192,135066,128,0,136906:0:0:0:0:
320,192,135618,128,0,136354:0:0:0:0:
64,192,135986,128,0,136354:0:0:0:0:
448,192,135986,128,0,137275:0:0:0:0:
64,192,136538,128,0,136906:0:0:0:0:
320,192,136538,128,0,137827:0:0:0:0:
64,192,137090,128,0,139161:0:0:0:0:
192,192,137090,128,0,137275:0:0:0:0:
192,192,137459,128,0,139115:0:0:0:0:
448,192,137459,128,0,137827:0:0:0:0:
320,192,138011,128,0,139069:0:0:0:0:
448,192,138011,128,0,139023:0:0:0:0:
192,192,139667,128,0,139851:0:0:0:0:
320,192,139851,128,0,140035:0:0:0:0:
64,192,140035,128,0,140219:0:0:0:50:kick-distort2.wav
448,192,140035,1,0,0:0:0:50:Ride1.wav
192,192,140219,128,0,140403:0:0:0:0:
64,192,140403,1,0,0:0:0:70:cymbal-5.wav
320,192,140403,128,0,140955:0:0:0:50:kick-distort2.wav
448,192,140403,1,0,0:0:0:50:Ride1.wav
192,192,140587,1,0,0:0:0:70:hat5.wav
64,192,140771,1,0,0:0:0:70:clap10.wav
192,192,140771,1,0,0:0:0:0:
448,192,140955,128,0,141508:0:0:0:70:hat5.wav
64,192,141140,1,0,0:0:0:0:
320,192,141232,1,0,0:0:0:0:
192,192,141324,1,0,0:0:0:70:hat5.wav
64,192,141508,1,0,0:0:0:70:clap10.wav
320,192,141508,128,0,141876:0:0:0:0:
192,192,141692,1,0,0:0:0:70:hat5.wav
64,192,141876,128,0,142428:0:0:0:0:
192,192,142060,1,0,0:0:0:70:hat5.wav
320,192,142244,1,0,0:0:0:70:clap10.wav
448,192,142244,1,0,0:0:0:0:
192,192,142428,128,0,142980:0:0:0:70:hat5.wav
320,192,142612,1,0,0:0:0:0:
448,192,142704,1,0,0:0:0:0:
64,192,142796,1,0,0:0:0:70:hat5.wav
448,192,142888,1,0,0:0:0:70:clap10.wav
64,192,142980,1,0,0:0:0:70:clap10.wav
320,192,142980,128,0,143348:0:0:0:0:
64,192,143164,1,0,0:0:0:70:clap10.wav
192,192,143164,1,0,0:0:0:70:hat5.wav
64,192,143348,128,0,143900:0:0:0:70:cymbal-5.wav
192,192,143348,1,0,0:0:0:50:kick-distort2.wav
448,192,143348,1,0,0:0:0:50:Ride1.wav
320,192,143532,1,0,0:0:0:70:hat5.wav
192,192,143716,1,0,0:0:0:70:clap10.wav
320,192,143716,1,0,0:0:0:0:
448,192,143900,128,0,144452:0:0:0:70:hat5.wav
192,192,144084,1,0,0:0:0:0:
64,192,144176,1,0,0:0:0:0:
320,192,144268,1,0,0:0:0:70:hat5.wav
64,192,144452,1,0,0:0:0:70:clap10.wav
192,192,144452,128,0,144821:0:0:0:0:
448,192,144636,1,0,0:0:0:70:hat5.wav
320,192,144821,128,0,145189:0:0:0:0:
64,192,145005,1,0,0:0:0:70:hat5.wav
192,192,145189,1,0,0:0:0:70:clap10.wav
448,192,145189,1,0,0:0:0:0:
320,192,145373,1,0,0:0:0:70:hat5.wav
64,192,145557,1,0,0:0:0:0:
448,192,145557,128,0,145741:0:0:0:0:
192,192,145649,1,0,0:0:0:0:
320,192,145741,128,0,145925:0:0:0:70:hat5.wav
64,192,145925,128,0,146109:0:0:0:70:cymbal-5.wav
192,192,145925,1,0,0:0:0:70:clap10.wav
448,192,145925,1,0,0:0:0:50:kick-distort2.wav
192,192,146109,128,0,146293:0:0:0:70:clap10.wav
320,192,146109,1,0,0:0:0:70:hat5.wav
64,192,146293,128,0,146845:0:0:0:70:cymbal-5.wav
320,192,146293,1,0,0:0:0:50:kick-distort2.wav
448,192,146293,1,0,0:0:0:50:Ride1.wav
192,192,146477,1,0,0:0:0:70:hat5.wav
192,192,146661,1,0,0:0:0:70:clap10.wav
448,192,146661,1,0,0:0:0:0:
320,192,146753,1,0,0:0:0:0:
448,192,146845,128,0,147397:0:0:0:70:hat5.wav
320,192,146937,1,0,0:0:0:0:
192,192,147029,1,0,0:0:0:0:
64,192,147213,1,0,0:0:0:70:hat5.wav
320,192,147305,1,0,0:0:0:0:
64,192,147397,128,0,147673:0:0:0:70:clap10.wav
192,192,147397,1,0,0:0:0:0:
320,192,147581,1,0,0:0:0:50:kick-distort2.wav
448,192,147581,1,0,0:0:0:70:hat5.wav
192,192,147673,1,0,0:0:0:50:kick-distort2.wav
64,192,147765,1,0,0:0:0:70:cymbal-5.wav
320,192,147765,128,0,148317:0:0:0:50:kick-distort2.wav
448,192,147765,1,0,0:0:0:50:Ride1.wav
192,192,147949,1,0,0:0:0:70:hat5.wav
192,192,148133,1,0,0:0:0:70:clap10.wav
448,192,148133,1,0,0:0:0:0:
64,192,148225,1,0,0:0:0:0:
448,192,148317,128,0,148870:0:0:0:70:hat5.wav
192,192,148502,1,0,0:0:0:0:
64,192,148594,1,0,0:0:0:0:
320,192,148686,1,0,0:0:0:70:hat5.wav
192,192,148778,1,0,0:0:0:70:clap10.wav
64,192,148870,128,0,149146:0:0:0:70:clap10.wav
320,192,148870,1,0,0:0:0:50:kick-distort2.wav
320,192,149054,1,0,0:0:0:70:clap10.wav
448,192,149054,1,0,0:0:0:50:kick-distort2.wav
192,192,149146,1,0,0:0:0:50:kick-distort2.wav
64,192,149238,1,0,0:0:0:70:cymbal-5.wav
320,192,149238,1,0,0:0:0:50:kick-distort2.wav
448,192,149238,1,0,0:0:0:8:Muted Snare.wav
192,192,149330,1,0,0:0:0:8:Muted Snare.wav
64,192,149422,1,0,0:0:0:8:Muted Snare.wav
320,192,149514,1,0,0:0:0:8:Muted Snare.wav
64,192,149606,1,0,0:0:0:70:clap10.wav
448,192,149698,1,0,0:0:0:8:Muted Snare.wav
64,192,149790,1,0,0:0:0:8:Muted Snare.wav
320,192,149882,1,0,0:0:0:8:Muted Snare.wav
64,192,149974,1,0,0:0:0:70:cymbal-5.wav
192,192,149974,1,0,0:0:0:50:kick-distort2.wav
448,192,149974,1,0,0:0:0:8:Muted Snare.wav
320,192,150066,1,0,0:0:0:8:Muted Snare.wav
448,192,150158,1,0,0:0:0:8:Muted Snare.wav
192,192,150250,1,0,0:0:0:8:Muted Snare.wav
448,192,150342,1,0,0:0:0:70:clap10.wav
64,192,150434,1,0,0:0:0:8:Muted Snare.wav
448,192,150526,1,0,0:0:0:8:Muted Snare.wav
192,192,150618,1,0,0:0:0:8:Muted Snare.wav
64,192,150710,1,0,0:0:0:70:cymbal-5.wav
320,192,150710,1,0,0:0:0:50:kick-distort2.wav
448,192,150710,1,0,0:0:0:10:Muted Snare.wav
192,192,150802,1,0,0:0:0:10:Muted Snare.wav
64,192,150894,1,0,0:0:0:10:Muted Snare.wav
320,192,150986,1,0,0:0:0:10:Muted Snare.wav
64,192,151078,1,0,0:0:0:70:cymbal-5.wav
192,192,151078,1,0,0:0:0:70:clap10.wav
448,192,151078,1,0,0:0:0:50:kick-distort2.wav
320,192,151170,1,0,0:0:0:10:Muted Snare.wav
448,192,151262,1,0,0:0:0:10:Muted Snare.wav
192,192,151354,1,0,0:0:0:10:Muted Snare.wav
64,192,151446,1,0,0:0:0:70:cymbal-5.wav
320,192,151446,1,0,0:0:0:50:kick-distort2.wav
448,192,151446,1,0,0:0:0:10:Muted Snare.wav
192,192,151538,1,0,0:0:0:10:Muted Snare.wav
64,192,151630,1,0,0:0:0:10:Muted Snare.wav
320,192,151722,1,0,0:0:0:50:kick-distort2.wav
448,192,151722,1,0,0:0:0:10:Muted Snare.wav
320,192,151814,1,0,0:0:0:70:cymbal-5.wav
448,192,151814,1,0,0:0:0:70:clap10.wav
64,192,151906,1,0,0:0:0:70:clap10.wav
192,192,151906,1,0,0:0:0:10:Muted Snare.wav
320,192,151998,1,0,0:0:0:70:clap10.wav
448,192,151998,1,0,0:0:0:50:kick-distort2.wav
64,192,152090,1,0,0:0:0:70:clap10.wav
192,192,152090,1,0,0:0:0:10:Muted Snare.wav
320,192,152182,1,0,0:0:0:70:cymbal-5.wav
448,192,152182,1,0,0:0:0:50:kick-distort2.wav
320,192,152367,1,0,0:0:0:0:
64,192,152551,1,0,0:0:0:0:
192,192,152735,1,0,0:0:0:0:
448,192,152827,1,0,0:0:0:0:
64,192,153011,1,0,0:0:0:0:
320,192,153103,1,0,0:0:0:0:
448,192,153287,1,0,0:0:0:0:
192,192,153471,1,0,0:0:0:0:
320,192,153563,1,0,0:0:0:0:
64,192,153655,1,0,0:0:0:0:
448,192,153839,1,0,0:0:0:0:
64,192,154023,1,0,0:0:0:0:
192,192,154207,1,0,0:0:0:0:
320,192,154299,1,0,0:0:0:0:
64,192,154483,1,0,0:0:0:0:
320,192,154575,1,0,0:0:0:0:
64,192,154759,1,0,0:0:0:70:cymbal-5.wav
192,192,154759,1,0,0:0:0:50:kick-distort2.wav
448,192,154759,1,0,0:0:0:50:Ride1.wav
320,192,154943,1,0,0:0:0:0:
192,192,155035,1,0,0:0:0:0:
64,192,155127,1,0,0:0:0:70:cymbal-5.wav
320,192,155127,1,0,0:0:0:50:kick-distort2.wav
448,192,155127,1,0,0:0:0:50:Ride1.wav
192,192,155311,1,0,0:0:0:0:
64,192,155495,1,0,0:0:0:0:
64,192,155679,1,0,0:0:0:0:
320,192,155771,1,0,0:0:0:0:
64,192,155955,1,0,0:0:0:0:
192,192,156048,1,0,0:0:0:0:
448,192,156232,1,0,0:0:0:0:
192,192,156416,1,0,0:0:0:0:
320,192,156508,1,0,0:0:0:0:
64,192,156600,1,0,0:0:0:0:
448,192,156784,1,0,0:0:0:0:
192,192,156968,1,0,0:0:0:0:
192,192,157152,1,0,0:0:0:0:
320,192,157244,1,0,0:0:0:0:
448,192,157336,128,0,157888:0:0:0:0:
192,192,157520,128,0,157980:0:0:0:0:
64,192,157704,1,0,0:0:0:70:cymbal-5.wav
320,192,157704,1,0,0:0:0:70:Kick_3-196.wav
64,192,158072,1,0,0:0:0:70:cymbal-5.wav
320,192,158072,1,0,0:0:0:70:Kick_3-196.wav
448,192,158072,1,0,0:0:0:0:
320,192,158256,1,0,0:0:0:0:
64,192,158348,1,0,0:0:0:0:
192,192,158440,1,0,0:0:0:70:Kick_3-196.wav
448,192,158440,1,0,0:0:0:0:
320,192,158532,1,0,0:0:0:0:
192,192,158624,1,0,0:0:0:0:
64,192,158716,1,0,0:0:0:0:
320,192,158808,1,0,0:0:0:70:Kick_3-196.wav
448,192,158808,1,0,0:0:0:0:
192,192,158992,1,0,0:0:0:0:
320,192,159135,1,0,0:0:0:0:
64,192,159176,1,0,0:0:0:70:Kick_3-196.wav
448,192,159176,1,0,0:0:0:0:
320,192,159299,1,0,0:0:0:0:
64,192,159381,1,0,0:0:0:0:
192,192,159463,1,0,0:0:0:0:
320,192,159544,1,0,0:0:0:70:Kick_3-196.wav
448,192,159544,1,0,0:0:0:0:
64,192,159636,1,0,0:0:0:0:
192,192,159728,1,0,0:0:0:0:
64,192,159821,1,0,0:0:0:0:
320,192,159913,1,0,0:0:0:70:Kick_3-196.wav
448,192,159913,1,0,0:0:0:0:
192,192,160097,1,0,0:0:0:0:
320,192,160189,1,0,0:0:0:0:
64,192,160281,1,0,0:0:0:70:Kick_3-196.wav
448,192,160281,1,0,0:0:0:0:
320,192,160434,1,0,0:0:0:0:
64,192,160649,1,0,0:0:0:70:Kick_3-196.wav
192,192,160649,1,0,0:0:0:0:
192,192,161017,1,0,0:0:0:70:Kick_3-196.wav
448,192,161017,1,0,0:0:0:0:
64,192,161155,1,0,0:0:0:0:
320,192,161201,1,0,0:0:0:0:
64,192,161385,1,0,0:0:0:70:Kick_3-196.wav
192,192,161385,1,0,0:0:0:0:
448,192,161569,1,0,0:0:0:0:
64,192,161753,1,0,0:0:0:70:Kick_3-196.wav
320,192,161753,1,0,0:0:0:0:
192,192,161845,1,0,0:0:0:0:
320,192,161983,1,0,0:0:0:0:
448,192,162075,1,0,0:0:0:0:
64,192,162121,1,0,0:0:0:70:Kick_3-196.wav
192,192,162121,1,0,0:0:0:0:
320,192,162195,1,0,0:0:0:0:
64,192,162268,1,0,0:0:0:0:
192,192,162367,1,0,0:0:0:0:
320,192,162489,1,0,0:0:0:70:Kick_3-196.wav
448,192,162489,1,0,0:0:0:0:
64,192,162563,1,0,0:0:0:0:
192,192,162636,1,0,0:0:0:0:
320,192,162710,1,0,0:0:0:0:
64,192,162857,1,0,0:0:0:70:Kick_3-196.wav
448,192,162857,1,0,0:0:0:0:
64,192,163225,1,0,0:0:0:70:Kick_3-196.wav
192,192,163225,128,0,163502:0:0:0:0:
320,192,163409,128,0,163686:0:0:0:0:
448,192,163502,128,0,163640:0:0:0:0:
64,192,163594,1,0,0:0:0:70:Kick_3-196.wav
192,192,163594,128,0,163732:0:0:0:0:
448,192,163732,128,0,163870:0:0:0:0:
320,192,163778,128,0,163870:0:0:0:0:
192,192,163824,128,0,163962:0:0:0:0:
64,192,163962,1,0,0:0:0:70:cymbal-5.wav
320,192,163962,1,0,0:0:0:70:Kick_3-196.wav
448,192,163962,1,0,0:0:0:0:
192,192,164054,1,0,0:0:0:0:
320,192,164146,1,0,0:0:0:70:hat5.wav
64,192,164238,1,0,0:0:0:0:
192,192,164330,1,0,0:0:0:50:snare10.wav
320,192,164330,1,0,0:0:0:70:Kick_3-196.wav
448,192,164330,1,0,0:0:0:0:
64,192,164422,1,0,0:0:0:0:
192,192,164514,1,0,0:0:0:70:hat5.wav
448,192,164606,1,0,0:0:0:50:Rim.wav
64,192,164698,128,0,164790:0:0:0:70:Kick_3-196.wav
320,192,164698,128,0,164790:0:0:0:0:
192,192,164790,128,0,164882:0:0:0:0:
448,192,164790,128,0,164974:0:0:0:0:
192,192,164974,128,0,165066:0:0:0:0:
64,192,165066,128,0,165250:0:0:0:50:snare10.wav
320,192,165066,128,0,165342:0:0:0:70:Kick_3-196.wav
448,192,165066,1,0,0:0:0:0:
192,192,165250,1,0,0:0:0:70:hat5.wav
64,192,165434,1,0,0:0:0:70:Kick_3-196.wav
448,192,165434,1,0,0:0:0:0:
320,192,165526,1,0,0:0:0:0:
192,192,165618,1,0,0:0:0:70:hat5.wav
448,192,165710,1,0,0:0:0:0:
64,192,165802,1,0,0:0:0:50:snare10.wav
192,192,165802,1,0,0:0:0:70:Kick_3-196.wav
320,192,165802,1,0,0:0:0:0:
448,192,165894,1,0,0:0:0:0:
320,192,165986,1,0,0:0:0:70:hat5.wav
64,192,166078,1,0,0:0:0:50:Rim.wav
192,192,166170,128,0,166262:0:0:0:70:Kick_3-196.wav
448,192,166170,128,0,166262:0:0:0:0:
64,192,166262,128,0,166354:0:0:0:0:
320,192,166262,128,0,166354:0:0:0:0:
192,192,166354,128,0,166446:0:0:0:70:hat5.wav
448,192,166354,128,0,166446:0:0:0:0:
64,192,166446,128,0,166538:0:0:0:0:
320,192,166446,128,0,166538:0:0:0:0:
192,192,166538,128,0,166814:0:0:0:50:snare10.wav
448,192,166538,128,0,166722:0:0:0:70:Kick_3-196.wav
320,192,166722,1,0,0:0:0:70:hat5.wav
64,192,166906,1,0,0:0:0:70:Kick_3-196.wav
448,192,166906,1,0,0:0:0:0:
320,192,166952,1,0,0:0:0:0:
192,192,167090,1,0,0:0:0:70:hat5.wav
64,192,167275,1,0,0:0:0:50:snare10.wav
192,192,167275,1,0,0:0:0:70:Kick_3-196.wav
448,192,167275,1,0,0:0:0:0:
320,192,167413,1,0,0:0:0:0:
64,192,167505,1,0,0:0:0:0:
320,192,167643,1,0,0:0:0:70:Kick_3-196.wav
448,192,167643,1,0,0:0:0:0:
192,192,167704,1,0,0:0:0:0:
448,192,167827,1,0,0:0:0:70:hat5.wav
64,192,168011,1,0,0:0:0:50:snare10.wav
192,192,168011,1,0,0:0:0:70:Kick_3-196.wav
320,192,168057,1,0,0:0:0:0:
448,192,168103,1,0,0:0:0:0:
64,192,168195,1,0,0:0:0:70:cymbal-5.wav
192,192,168287,1,0,0:0:0:70:cymbal-5.wav
64,192,168379,128,0,168563:0:0:0:70:cymbal-5.wav
320,192,168379,128,0,168563:0:0:0:70:Kick_3-196.wav
448,192,168379,1,0,0:0:0:0:
192,192,168563,128,0,168839:0:0:0:70:hat5.wav
448,192,168563,128,0,169115:0:0:0:0:
320,192,168747,128,0,168931:0:0:0:0:
192,192,168931,128,0,169299:0:0:0:70:hat5.wav
64,192,169299,128,0,169667:0:0:0:0:
448,192,169299,1,0,0:0:0:0:
320,192,169391,1,0,0:0:0:0:
192,192,169483,128,0,169667:0:0:0:30:wou_.wav
448,192,169483,1,0,0:0:0:0:
320,192,169667,128,0,169851:0:0:0:0:
64,192,169851,128,0,170127:0:0:0:70:cymbal-5.wav
192,192,169851,128,0,170035:0:0:0:70:Kick_3-196.wav
448,192,169851,128,0,170127:0:0:0:0:
320,192,170035,1,0,0:0:0:70:hat5.wav
64,192,170219,128,0,170495:0:0:0:50:snare10.wav
320,192,170219,128,0,170403:0:0:0:70:Kick_3-196.wav
448,192,170219,128,0,170357:0:0:0:0:
192,192,170403,1,0,0:0:0:70:hat5.wav
448,192,170449,128,0,170863:0:0:0:0:
320,192,170495,1,0,0:0:0:50:Rim.wav
64,192,170587,128,0,170863:0:0:0:70:Kick_3-196.wav
192,192,170587,128,0,170679:0:0:0:0:
192,192,170771,128,0,170955:0:0:0:70:hat5.wav
320,192,170771,128,0,170863:0:0:0:0:
64,192,170955,1,0,0:0:0:50:snare10.wav
320,192,170955,1,0,0:0:0:70:Kick_3-196.wav
448,192,170955,1,0,0:0:0:0:
320,192,171140,128,0,171416:0:0:0:70:hat5.wav
448,192,171140,128,0,171600:0:0:0:0:
64,192,171324,1,0,0:0:0:70:Kick_3-196.wav
192,192,171324,1,0,0:0:0:0:
64,192,171508,128,0,171600:0:0:0:70:hat5.wav
320,192,171508,128,0,171876:0:0:0:0:
64,192,171692,128,0,172244:0:0:0:50:snare10.wav
192,192,171692,128,0,171968:0:0:0:70:Kick_3-196.wav
448,192,171692,1,0,0:0:0:0:
448,192,171876,1,0,0:0:0:70:hat5.wav
320,192,171968,1,0,0:0:0:50:Rim.wav
192,192,172060,128,0,172244:0:0:0:70:Kick_3-196.wav
448,192,172060,128,0,172244:0:0:0:0:
320,192,172244,1,0,0:0:0:70:hat5.wav
64,192,172428,1,0,0:0:0:50:snare10.wav
192,192,172428,128,0,172796:0:0:0:70:Kick_3-196.wav
448,192,172428,128,0,172704:0:0:0:0:
64,192,172612,128,0,172980:0:0:0:70:hat5.wav
320,192,172612,128,0,172704:0:0:0:0:
320,192,172796,128,0,173164:0:0:0:70:Kick_3-196.wav
448,192,172796,128,0,173072:0:0:0:0:
192,192,172980,1,0,0:0:0:70:hat5.wav
64,192,173164,128,0,173440:0:0:0:50:snare10.wav
192,192,173164,128,0,173348:0:0:0:70:Kick_3-196.wav
448,192,173164,128,0,173532:0:0:0:0:
320,192,173348,1,0,0:0:0:70:hat5.wav
192,192,173440,1,0,0:0:0:50:Rim.wav
64,192,173532,128,0,173808:0:0:0:70:Kick_3-196.wav
320,192,173532,128,0,173808:0:0:0:0:
192,192,173716,1,0,0:0:0:70:hat5.wav
448,192,173762,128,0,173900:0:0:0:0:
64,192,173900,1,0,0:0:0:50:snare10.wav
192,192,173900,1,0,0:0:0:70:Kick_3-196.wav
320,192,173900,1,0,0:0:0:0:
64,192,174084,128,0,174452:0:0:0:70:hat5.wav
192,192,174084,128,0,174268:0:0:0:0:
320,192,174268,128,0,174360:0:0:0:70:Kick_3-196.wav
448,192,174268,128,0,174544:0:0:0:0:
192,192,174452,128,0,174544:0:0:0:70:hat5.wav
320,192,174452,128,0,174728:0:0:0:0:
64,192,174636,128,0,174821:0:0:0:50:snare10.wav
192,192,174636,128,0,174821:0:0:0:70:Kick_3-196.wav
448,192,174636,1,0,0:0:0:0:
320,192,174821,1,0,0:0:0:70:hat5.wav
64,192,174913,1,0,0:0:0:50:Rim.wav
192,192,175005,128,0,175281:0:0:0:70:Kick_3-196.wav
448,192,175005,128,0,175281:0:0:0:0:
64,192,175189,128,0,175281:0:0:0:70:hat5.wav
320,192,175189,128,0,175465:0:0:0:0:
64,192,175373,128,0,175649:0:0:0:50:snare10.wav
192,192,175373,128,0,175465:0:0:0:70:Kick_3-196.wav
448,192,175373,128,0,175649:0:0:0:30:wou_.wav
192,192,175557,128,0,175741:0:0:0:70:hat5.wav
320,192,175557,128,0,175649:0:0:0:0:
64,192,175741,128,0,176017:0:0:0:70:cymbal-5.wav
320,192,175741,128,0,175925:0:0:0:70:Kick_3-196.wav
448,192,175741,128,0,176017:0:0:0:0:
192,192,175925,1,0,0:0:0:70:hat5.wav
64,192,176109,128,0,176247:0:0:0:50:snare10.wav
192,192,176109,128,0,176293:0:0:0:70:Kick_3-196.wav
448,192,176109,128,0,176385:0:0:0:0:
320,192,176293,1,0,0:0:0:70:hat5.wav
64,192,176339,128,0,176753:0:0:0:0:
192,192,176385,1,0,0:0:0:50:Rim.wav
320,192,176477,128,0,176569:0:0:0:70:Kick_3-196.wav
448,192,176477,128,0,176753:0:0:0:0:
192,192,176661,128,0,176753:0:0:0:70:hat5.wav
320,192,176661,128,0,176845:0:0:0:0:
64,192,176845,1,0,0:0:0:50:snare10.wav
192,192,176845,1,0,0:0:0:70:Kick_3-196.wav
448,192,176845,1,0,0:0:0:0:
64,192,177029,128,0,177581:0:0:0:70:hat5.wav
192,192,177029,128,0,177305:0:0:0:0:
320,192,177213,1,0,0:0:0:70:Kick_3-196.wav
448,192,177213,1,0,0:0:0:0:
192,192,177397,128,0,177765:0:0:0:70:hat5.wav
448,192,177397,128,0,177489:0:0:0:0:
320,192,177581,128,0,177857:0:0:0:50:snare10.wav
448,192,177581,128,0,178133:0:0:0:70:Kick_3-196.wav
64,192,177765,1,0,0:0:0:70:hat5.wav
192,192,177857,1,0,0:0:0:50:Rim.wav
64,192,177949,128,0,178133:0:0:0:70:Kick_3-196.wav
320,192,177949,128,0,178133:0:0:0:0:
192,192,178133,1,0,0:0:0:70:hat5.wav
64,192,178317,128,0,178686:0:0:0:50:snare10.wav
320,192,178317,1,0,0:0:0:70:Kick_3-196.wav
448,192,178317,128,0,178594:0:0:0:0:
192,192,178502,128,0,178870:0:0:0:70:hat5.wav
320,192,178502,128,0,178594:0:0:0:0:
320,192,178686,128,0,178962:0:0:0:70:Kick_3-196.wav
448,192,178686,128,0,179054:0:0:0:0:
64,192,178870,1,0,0:0:0:70:hat5.wav
64,192,179054,128,0,179422:0:0:0:50:snare10.wav
192,192,179054,128,0,179330:0:0:0:70:Kick_3-196.wav
320,192,179054,128,0,179238:0:0:0:0:
448,192,179238,1,0,0:0:0:70:hat5.wav
320,192,179330,1,0,0:0:0:50:Rim.wav
192,192,179422,128,0,179698:0:0:0:70:Kick_3-196.wav
448,192,179422,128,0,179698:0:0:0:0:
320,192,179606,1,0,0:0:0:70:hat5.wav
64,192,179652,128,0,179790:0:0:0:0:
192,192,179790,1,0,0:0:0:50:snare10.wav
320,192,179790,1,0,0:0:0:70:Kick_3-196.wav
448,192,179790,1,0,0:0:0:0:
192,192,179974,128,0,180434:0:0:0:70:hat5.wav
320,192,179974,128,0,180158:0:0:0:0:
64,192,180158,128,0,180434:0:0:0:70:Kick_3-196.wav
448,192,180158,128,0,180342:0:0:0:0:
320,192,180342,1,0,0:0:0:70:hat5.wav
64,192,180526,128,0,180710:0:0:0:50:snare10.wav
192,192,180526,128,0,180802:0:0:0:70:Kick_3-196.wav
320,192,180526,128,0,181170:0:0:0:0:
448,192,180710,1,0,0:0:0:70:hat5.wav
64,192,180802,1,0,0:0:0:50:Rim.wav
192,192,180894,128,0,181078:0:0:0:70:Kick_3-196.wav
448,192,180894,128,0,181170:0:0:0:0:
64,192,181078,1,0,0:0:0:70:hat5.wav
192,192,181170,1,0,0:0:0:0:
64,192,181262,128,0,181446:0:0:0:50:snare10.wav
320,192,181262,1,0,0:0:0:70:Kick_3-196.wav
448,192,181262,128,0,181446:0:0:0:30:wou_.wav
192,192,181446,128,0,181630:0:0:0:70:hat5.wav
64,192,181630,128,0,182275:0:0:0:70:cymbal-5.wav
320,192,181630,128,0,181814:0:0:0:70:Kick_3-196.wav
448,192,181630,128,0,181814:0:0:0:0:
192,192,181814,1,0,0:0:0:70:hat5.wav
192,192,181998,1,0,0:0:0:50:snare10.wav
320,192,181998,128,0,182182:0:0:0:70:Kick_3-196.wav
448,192,181998,128,0,182182:0:0:0:0:
192,192,182182,1,0,0:0:0:70:hat5.wav
320,192,182275,1,0,0:0:0:50:Rim.wav
64,192,182367,128,0,182551:0:0:0:70:Kick_3-196.wav
192,192,182367,128,0,182459:0:0:0:0:
448,192,182367,128,0,183011:0:0:0:0:
320,192,182459,128,0,182551:0:0:0:0:
192,192,182551,1,0,0:0:0:70:hat5.wav
320,192,182643,128,0,183011:0:0:0:0:
64,192,182735,1,0,0:0:0:50:snare10.wav
192,192,182735,1,0,0:0:0:70:Kick_3-196.wav
64,192,182919,128,0,183195:0:0:0:70:hat5.wav
192,192,182919,128,0,183195:0:0:0:0:
320,192,183103,1,0,0:0:0:70:Kick_3-196.wav
448,192,183103,1,0,0:0:0:0:
192,192,183287,128,0,183379:0:0:0:70:hat5.wav
448,192,183287,128,0,183563:0:0:0:0:
64,192,183471,128,0,183747:0:0:0:50:snare10.wav
192,192,183471,1,0,0:0:0:70:Kick_3-196.wav
320,192,183471,128,0,183563:0:0:0:0:
192,192,183655,128,0,183839:0:0:0:70:hat5.wav
448,192,183655,128,0,183747:0:0:0:0:
320,192,183747,1,0,0:0:0:50:Rim.wav
64,192,183839,128,0,184023:0:0:0:70:Kick_3-196.wav
448,192,183839,128,0,184023:0:0:0:0:
192,192,183931,128,0,184023:0:0:0:0:
320,192,183931,128,0,184023:0:0:0:0:
320,192,184115,128,0,184207:0:0:0:0:
448,192,184115,128,0,184207:0:0:0:0:
64,192,184207,1,0,0:0:0:50:snare10.wav
192,192,184207,1,0,0:0:0:70:Kick_3-196.wav
64,192,184299,128,0,184483:0:0:0:0:
320,192,184299,128,0,184483:0:0:0:0:
192,192,184391,128,0,184483:0:0:0:70:hat5.wav
448,192,184391,128,0,184483:0:0:0:0:
64,192,184575,128,0,185219:0:0:0:70:Kick_3-196.wav
192,192,184575,128,0,184759:0:0:0:0:
320,192,184575,128,0,184759:0:0:0:0:
448,192,184759,1,0,0:0:0:70:hat5.wav
192,192,184943,128,0,185127:0:0:0:50:snare10.wav
320,192,184943,128,0,185127:0:0:0:70:Kick_3-196.wav
448,192,184943,1,0,0:0:0:0:
448,192,185127,1,0,0:0:0:70:hat5.wav
320,192,185219,1,0,0:0:0:50:Rim.wav
64,192,185311,128,0,185495:0:0:0:70:Kick_3-196.wav
192,192,185311,128,0,185403:0:0:0:0:
448,192,185311,128,0,185955:0:0:0:0:
320,192,185403,128,0,185495:0:0:0:0:
192,192,185495,1,0,0:0:0:70:hat5.wav
320,192,185587,128,0,185955:0:0:0:0:
64,192,185679,1,0,0:0:0:50:snare10.wav
192,192,185679,1,0,0:0:0:70:Kick_3-196.wav
64,192,185863,128,0,185955:0:0:0:70:hat5.wav
192,192,185863,128,0,186048:0:0:0:0:
64,192,186048,128,0,186140:0:0:0:70:Kick_3-196.wav
320,192,186048,128,0,186140:0:0:0:0:
448,192,186048,128,0,186324:0:0:0:0:
192,192,186232,128,0,186324:0:0:0:70:hat5.wav
320,192,186232,128,0,186508:0:0:0:0:
64,192,186416,128,0,186692:0:0:0:50:snare10.wav
192,192,186416,128,0,186600:0:0:0:70:Kick_3-196.wav
448,192,186416,128,0,186508:0:0:0:0:
320,192,186600,128,0,186692:0:0:0:70:hat5.wav
448,192,186600,128,0,186692:0:0:0:0:
192,192,186692,128,0,186876:0:0:0:50:Rim.wav
64,192,186784,128,0,187060:0:0:0:70:Kick_3-196.wav
320,192,186784,128,0,186876:0:0:0:0:
448,192,186784,128,0,187060:0:0:0:0:
192,192,186968,128,0,187060:0:0:0:70:hat5.wav
320,192,186968,128,0,187152:0:0:0:0:
64,192,187152,128,0,187244:0:0:0:50:snare10.wav
192,192,187152,128,0,187336:0:0:0:70:Kick_3-196.wav
448,192,187152,128,0,187244:0:0:0:70:hat5.wav
320,192,187244,128,0,187428:0:0:0:70:hat5.wav
64,192,187336,128,0,187428:0:0:0:70:hat5.wav
448,192,187336,128,0,187428:0:0:0:0:
192,192,187428,128,0,187520:0:0:0:70:hat5.wav
64,192,187520,128,0,187704:0:0:0:70:cymbal-5.wav
320,192,187520,128,0,187704:0:0:0:70:Kick_3-196.wav
448,192,187520,128,0,188164:0:0:0:0:
192,192,187704,1,0,0:0:0:70:hat5.wav
64,192,187888,128,0,188072:0:0:0:50:snare10.wav
192,192,187888,1,0,0:0:0:70:Kick_3-196.wav
320,192,187888,128,0,188072:0:0:0:0:
192,192,188072,1,0,0:0:0:70:hat5.wav
320,192,188164,1,0,0:0:0:50:Rim.wav
64,192,188256,128,0,188900:0:0:0:70:Kick_3-196.wav
192,192,188256,128,0,188440:0:0:0:0:
448,192,188256,128,0,188348:0:0:0:0:
320,192,188348,128,0,188440:0:0:0:0:
448,192,188440,1,0,0:0:0:70:hat5.wav
192,192,188532,128,0,188900:0:0:0:0:
320,192,188624,1,0,0:0:0:50:snare10.wav
448,192,188624,1,0,0:0:0:70:Kick_3-196.wav
320,192,188808,128,0,189084:0:0:0:70:hat5.wav
448,192,188808,128,0,189084:0:0:0:0:
64,192,188992,1,0,0:0:0:70:Kick_3-196.wav
192,192,188992,1,0,0:0:0:0:
64,192,189176,128,0,189452:0:0:0:70:hat5.wav
320,192,189176,128,0,189268:0:0:0:0:
192,192,189360,128,0,189452:0:0:0:50:snare10.wav
320,192,189360,1,0,0:0:0:70:Kick_3-196.wav
448,192,189360,128,0,189636:0:0:0:0:
64,192,189544,128,0,189636:0:0:0:70:hat5.wav
320,192,189544,128,0,189728:0:0:0:0:
192,192,189636,1,0,0:0:0:50:Rim.wav
64,192,189728,128,0,189913:0:0:0:70:Kick_3-196.wav
448,192,189728,128,0,189913:0:0:0:0:
192,192,189821,128,0,189913:0:0:0:0:
320,192,189821,128,0,189913:0:0:0:0:
64,192,190005,128,0,190097:0:0:0:0:
192,192,190005,128,0,190097:0:0:0:0:
320,192,190097,1,0,0:0:0:50:snare10.wav
448,192,190097,1,0,0:0:0:70:Kick_3-196.wav
192,192,190189,128,0,190373:0:0:0:0:
448,192,190189,128,0,190373:0:0:0:0:
64,192,190281,128,0,190373:0:0:0:70:hat5.wav
320,192,190281,128,0,190373:0:0:0:0:
192,192,190465,128,0,190649:0:0:0:70:Kick_3-196.wav
320,192,190465,128,0,190649:0:0:0:0:
448,192,190465,128,0,191109:0:0:0:0:
64,192,190649,1,0,0:0:0:70:hat5.wav
64,192,190833,1,0,0:0:0:50:snare10.wav
192,192,190833,128,0,191017:0:0:0:70:Kick_3-196.wav
320,192,190833,128,0,191017:0:0:0:0:
64,192,191017,1,0,0:0:0:70:hat5.wav
192,192,191109,1,0,0:0:0:50:Rim.wav
64,192,191201,128,0,191845:0:0:0:70:Kick_3-196.wav
320,192,191201,128,0,191293:0:0:0:0:
448,192,191201,128,0,191385:0:0:0:0:
192,192,191293,128,0,191385:0:0:0:0:
320,192,191385,1,0,0:0:0:70:hat5.wav
192,192,191477,128,0,191845:0:0:0:0:
320,192,191569,1,0,0:0:0:50:snare10.wav
448,192,191569,1,0,0:0:0:70:Kick_3-196.wav
320,192,191753,128,0,191937:0:0:0:70:hat5.wav
448,192,191753,128,0,191845:0:0:0:0:
64,192,191937,128,0,192213:0:0:0:70:Kick_3-196.wav
192,192,191937,128,0,192029:0:0:0:0:
448,192,191937,128,0,192029:0:0:0:0:
192,192,192121,128,0,192397:0:0:0:70:hat5.wav
320,192,192121,128,0,192213:0:0:0:0:
64,192,192305,128,0,192397:0:0:0:50:snare10.wav
320,192,192305,128,0,192489:0:0:0:70:Kick_3-196.wav
448,192,192305,128,0,192581:0:0:0:0:
64,192,192489,128,0,192581:0:0:0:70:hat5.wav
192,192,192489,128,0,192581:0:0:0:0:
320,192,192581,128,0,192765:0:0:0:50:Rim.wav
64,192,192673,128,0,192857:0:0:0:70:Kick_3-196.wav
192,192,192673,128,0,192949:0:0:0:0:
448,192,192673,128,0,192765:0:0:0:0:
320,192,192857,128,0,192949:0:0:0:70:hat5.wav
448,192,192857,128,0,192949:0:0:0:0:
64,192,192949,128,0,193317:0:0:0:0:
192,192,193041,128,0,193133:0:0:0:50:snare10.wav
320,192,193041,128,0,193317:0:0:0:70:Kick_3-196.wav
448,192,193041,128,0,193317:0:0:0:30:wou_.wav
192,192,193225,128,0,193409:0:0:0:70:hat5.wav
64,192,193409,128,0,193594:0:0:0:70:cymbal-5.wav
320,192,193409,128,0,193594:0:0:0:70:Kick_3-196.wav
448,192,193409,128,0,194698:0:0:0:0:
192,192,193594,1,0,0:0:0:70:hat5.wav
64,192,193778,128,0,193962:0:0:0:50:snare10.wav
192,192,193778,1,0,0:0:0:70:Kick_3-196.wav
320,192,193778,128,0,193962:0:0:0:0:
192,192,193962,1,0,0:0:0:70:hat5.wav
320,192,194054,1,0,0:0:0:50:Rim.wav
64,192,194146,128,0,194238:0:0:0:70:Kick_3-196.wav
192,192,194146,128,0,194330:0:0:0:0:
320,192,194238,128,0,194330:0:0:0:0:
64,192,194330,1,0,0:0:0:70:hat5.wav
320,192,194422,128,0,194606:0:0:0:0:
64,192,194514,1,0,0:0:0:50:snare10.wav
192,192,194514,1,0,0:0:0:70:Kick_3-196.wav
192,192,194698,128,0,194974:0:0:0:70:hat5.wav
320,192,194790,128,0,194974:0:0:0:0:
64,192,194882,1,0,0:0:0:70:Kick_3-196.wav
448,192,194882,128,0,195112:0:0:0:0:
64,192,195066,128,0,195158:0:0:0:70:hat5.wav
320,192,195066,128,0,195250:0:0:0:0:
448,192,195204,128,0,195342:0:0:0:0:
64,192,195250,128,0,195342:0:0:0:50:snare10.wav
192,192,195250,1,0,0:0:0:70:Kick_3-196.wav
320,192,195342,128,0,195434:0:0:0:0:
64,192,195434,128,0,195526:0:0:0:70:hat5.wav
448,192,195434,128,0,195526:0:0:0:0:
192,192,195526,1,0,0:0:0:50:Rim.wav
320,192,195526,128,0,195618:0:0:0:0:
64,192,195618,128,0,195710:0:0:0:70:Kick_3-196.wav
448,192,195618,128,0,195710:0:0:0:0:
192,192,195710,128,0,195802:0:0:0:0:
320,192,195710,128,0,195802:0:0:0:0:
64,192,195802,1,0,0:0:0:70:hat5.wav
320,192,195894,128,0,195986:0:0:0:0:
64,192,195986,128,0,196055:0:0:0:50:snare10.wav
448,192,195986,1,0,0:0:0:70:Kick_3-196.wav
192,192,196032,128,0,196101:0:0:0:0:
320,192,196078,128,0,196147:0:0:0:0:
448,192,196124,128,0,196193:0:0:0:0:
64,192,196170,128,0,196239:0:0:0:70:hat5.wav
192,192,196216,128,0,196285:0:0:0:0:
320,192,196262,128,0,196331:0:0:0:0:
448,192,196308,128,0,196377:0:0:0:0:
64,192,196354,128,0,196446:0:0:0:70:Kick_3-196.wav
192,192,196354,128,0,196538:0:0:0:0:
320,192,196446,128,0,196630:0:0:0:0:
64,192,196538,128,0,196630:0:0:0:70:hat5.wav
192,192,196630,128,0,196722:0:0:0:0:
64,192,196722,128,0,196814:0:0:0:50:snare10.wav
320,192,196722,128,0,196906:0:0:0:70:Kick_3-196.wav
448,192,196722,128,0,196814:0:0:0:0:
192,192,196814,128,0,196998:0:0:0:0:
448,192,196906,128,0,197090:0:0:0:70:hat5.wav
320,192,196998,128,0,197090:0:0:0:50:Rim.wav
64,192,197090,128,0,197182:0:0:0:70:Kick_3-196.wav
192,192,197090,128,0,197275:0:0:0:0:
320,192,197182,128,0,197367:0:0:0:0:
448,192,197182,128,0,197275:0:0:0:0:
64,192,197275,128,0,197367:0:0:0:70:hat5.wav
192,192,197367,128,0,197459:0:0:0:0:
448,192,197367,128,0,197551:0:0:0:0:
64,192,197459,128,0,197551:0:0:0:50:snare10.wav
320,192,197459,128,0,197643:0:0:0:70:Kick_3-196.wav
192,192,197551,128,0,197735:0:0:0:0:
64,192,197643,128,0,197735:0:0:0:70:hat5.wav
448,192,197643,128,0,197735:0:0:0:0:
320,192,197735,128,0,197827:0:0:0:0:
64,192,197827,128,0,198103:0:0:0:70:Kick_3-196.wav
192,192,197827,128,0,198103:0:0:0:0:
448,192,197827,128,0,197919:0:0:0:0:
320,192,198011,128,0,198103:0:0:0:70:hat5.wav
448,192,198011,128,0,198287:0:0:0:0:
64,192,198195,128,0,198471:0:0:0:50:snare10.wav
192,192,198195,128,0,198287:0:0:0:70:Kick_3-196.wav
320,192,198195,128,0,198379:0:0:0:0:
192,192,198379,128,0,198471:0:0:0:70:hat5.wav
448,192,198379,128,0,198471:0:0:0:0:
320,192,198471,128,0,198655:0:0:0:50:Rim.wav
64,192,198563,128,0,198655:0:0:0:70:Kick_3-196.wav
192,192,198563,128,0,198839:0:0:0:0:
448,192,198563,128,0,198839:0:0:0:0:
64,192,198747,128,0,198931:0:0:0:70:hat5.wav
320,192,198747,128,0,198839:0:0:0:0:
192,192,198931,128,0,199023:0:0:0:50:snare10.wav
320,192,198931,128,0,199023:0:0:0:70:Kick_3-196.wav
448,192,198931,128,0,199115:0:0:0:70:hat5.wav
64,192,199023,128,0,199207:0:0:0:70:hat5.wav
192,192,199115,128,0,199207:0:0:0:70:hat5.wav
320,192,199115,128,0,199207:0:0:0:0:
448,192,199207,128,0,199299:0:0:0:70:hat5.wav
64,192,199299,128,0,199391:0:0:0:70:cymbal-5.wav
192,192,199299,128,0,199483:0:0:0:70:Kick_3-196.wav
320,192,199299,128,0,199483:0:0:0:0:
448,192,199391,128,0,200035:0:0:0:0:
64,192,199483,1,0,0:0:0:70:hat5.wav
64,192,199667,1,0,0:0:0:50:snare10.wav
192,192,199667,128,0,199851:0:0:0:70:Kick_3-196.wav
320,192,199667,128,0,199851:0:0:0:0:
64,192,199851,1,0,0:0:0:70:hat5.wav
192,192,199943,128,0,200035:0:0:0:50:Rim.wav
64,192,200035,128,0,200127:0:0:0:70:Kick_3-196.wav
320,192,200035,128,0,200587:0:0:0:0:
192,192,200127,128,0,200219:0:0:0:0:
448,192,200127,128,0,200219:0:0:0:0:
64,192,200219,1,0,0:0:0:70:hat5.wav
448,192,200311,128,0,200495:0:0:0:0:
64,192,200403,1,0,0:0:0:50:snare10.wav
192,192,200403,1,0,0:0:0:70:Kick_3-196.wav
192,192,200587,128,0,200679:0:0:0:70:hat5.wav
448,192,200587,128,0,200863:0:0:0:0:
64,192,200679,128,0,200771:0:0:0:0:
192,192,200771,1,0,0:0:0:70:Kick_3-196.wav
320,192,200771,128,0,201324:0:0:0:0:
64,192,200955,128,0,201048:0:0:0:70:hat5.wav
192,192,200955,128,0,201140:0:0:0:0:
64,192,201140,128,0,201232:0:0:0:50:snare10.wav
448,192,201140,128,0,201324:0:0:0:70:Kick_3-196.wav
64,192,201324,128,0,201416:0:0:0:70:hat5.wav
192,192,201324,128,0,201508:0:0:0:0:
448,192,201416,128,0,201508:0:0:0:50:Rim.wav
64,192,201508,128,0,201945:0:0:0:70:Kick_3-196.wav
320,192,201508,128,0,201600:0:0:0:0:
192,192,201600,128,0,201692:0:0:0:0:
448,192,201600,128,0,201692:0:0:0:0:
320,192,201692,1,0,0:0:0:70:hat5.wav
192,192,201784,128,0,201876:0:0:0:0:
320,192,201876,1,0,0:0:0:50:snare10.wav
448,192,201876,1,0,0:0:0:70:Kick_3-196.wav
192,192,201922,128,0,201991:0:0:0:0:
320,192,201968,128,0,202037:0:0:0:0:
448,192,202014,128,0,202083:0:0:0:0:
64,192,202060,128,0,202152:0:0:0:70:hat5.wav
192,192,202106,128,0,202244:0:0:0:0:
320,192,202198,128,0,202290:0:0:0:0:
64,192,202244,128,0,202336:0:0:0:70:Kick_3-196.wav
448,192,202244,128,0,202428:0:0:0:0:
192,192,202336,128,0,202520:0:0:0:0:
320,192,202428,128,0,202520:0:0:0:70:hat5.wav
448,192,202520,128,0,202612:0:0:0:0:
64,192,202612,128,0,202796:0:0:0:50:snare10.wav
192,192,202612,128,0,202704:0:0:0:70:Kick_3-196.wav
320,192,202612,128,0,202704:0:0:0:0:
448,192,202704,128,0,202888:0:0:0:0:
192,192,202796,128,0,202980:0:0:0:70:hat5.wav
64,192,202888,128,0,202980:0:0:0:50:Rim.wav
320,192,202980,128,0,203072:0:0:0:70:Kick_3-196.wav
448,192,202980,128,0,203164:0:0:0:0:
64,192,203072,128,0,203256:0:0:0:0:
192,192,203072,128,0,203164:0:0:0:0:
320,192,203164,128,0,203256:0:0:0:70:hat5.wav
192,192,203256,128,0,203440:0:0:0:0:
448,192,203256,128,0,203348:0:0:0:0:
64,192,203348,128,0,203532:0:0:0:50:snare10.wav
320,192,203348,128,0,203486:0:0:0:70:Kick_3-196.wav
448,192,203440,128,0,203624:0:0:0:0:
192,192,203532,128,0,203578:0:0:0:70:hat5.wav
320,192,203578,128,0,203624:0:0:0:0:
64,192,203624,128,0,203716:0:0:0:0:
192,192,203670,128,0,203716:0:0:0:0:
320,192,203716,128,0,203992:0:0:0:70:Kick_3-196.wav
448,192,203716,128,0,203992:0:0:0:0:
64,192,203900,128,0,203992:0:0:0:70:hat5.wav
192,192,203900,128,0,204176:0:0:0:0:
64,192,204084,128,0,204360:0:0:0:50:snare10.wav
320,192,204084,128,0,204268:0:0:0:70:Kick_3-196.wav
448,192,204084,128,0,204176:0:0:0:0:
192,192,204268,128,0,204360:0:0:0:70:hat5.wav
448,192,204268,128,0,204544:0:0:0:0:
320,192,204360,128,0,204544:0:0:0:50:Rim.wav
64,192,204452,128,0,204636:0:0:0:0:
192,192,204452,128,0,204636:0:0:0:0:
320,192,204636,128,0,204728:0:0:0:0:
448,192,204636,128,0,204728:0:0:0:0:
64,192,204728,128,0,204913:0:0:0:0:
192,192,204728,128,0,204913:0:0:0:0:
320,192,204821,128,0,205097:0:0:0:30:wou_.wav
448,192,204821,128,0,205097:0:0:0:0:
64,192,205005,1,0,0:0:0:0:
192,192,205005,1,0,0:0:0:0:
64,192,205189,1,0,0:0:0:70:cymbal-5.wav
192,192,205189,1,0,0:0:0:70:Kick_3-196.wav
320,192,205189,128,0,205465:0:0:0:0:
448,192,205189,128,0,208133:0:0:0:0:
64,192,205373,1,0,0:0:0:0:
192,192,205465,1,0,0:0:0:0:
320,192,205557,1,0,0:0:0:0:
64,192,205649,1,0,0:0:0:0:
192,192,205741,1,0,0:0:0:0:
64,192,205925,128,0,206201:0:0:0:0:
320,192,206109,1,0,0:0:0:0:
192,192,206201,1,0,0:0:0:0:
64,192,206293,1,0,0:0:0:0:
320,192,206385,1,0,0:0:0:0:
192,192,206477,1,0,0:0:0:0:
320,192,206661,1,0,0:0:0:0:
64,192,206845,1,0,0:0:0:0:
192,192,206937,1,0,0:0:0:0:
320,192,207121,1,0,0:0:0:0:
192,192,207213,1,0,0:0:0:0:
64,192,207397,1,0,0:0:0:0:
192,192,207489,1,0,0:0:0:0:
64,192,207581,1,0,0:0:0:0:
320,192,207673,1,0,0:0:0:0:
192,192,207765,1,0,0:0:0:0:
64,192,207857,1,0,0:0:0:0:
320,192,207949,1,0,0:0:0:0:
192,192,208041,1,0,0:0:0:0:
64,192,208133,128,0,208778:0:0:0:0:
320,192,208133,1,0,0:0:0:0:
448,192,208317,1,0,0:0:0:0:
192,192,208409,1,0,0:0:0:0:
320,192,208502,1,0,0:0:0:0:
448,192,208594,1,0,0:0:0:0:
192,192,208686,1,0,0:0:0:0:
64,192,208870,1,0,0:0:0:0:
320,192,208870,128,0,209514:0:0:0:0:
448,192,209054,1,0,0:0:0:0:
64,192,209146,1,0,0:0:0:0:
192,192,209238,1,0,0:0:0:0:
448,192,209330,1,0,0:0:0:0:
64,192,209422,1,0,0:0:0:0:
320,192,209606,1,0,0:0:0:0:
192,192,209790,1,0,0:0:0:0:
448,192,209882,1,0,0:0:0:0:
320,192,210066,1,0,0:0:0:0:
64,192,210158,1,0,0:0:0:0:
448,192,210342,1,0,0:0:0:0:
192,192,210434,1,0,0:0:0:0:
448,192,210526,1,0,0:0:0:0:
320,192,210618,1,0,0:0:0:0:
64,192,210710,128,0,211078:0:0:0:0:
448,192,210802,1,0,0:0:0:0:
192,192,210894,1,0,0:0:0:0:
320,192,210986,1,0,0:0:0:0:
192,192,211078,128,0,211751:0:0:0:0:
448,192,211078,1,0,0:0:0:0:
320,192,211270,1,0,0:0:0:0:
64,192,211366,1,0,0:0:0:0:
448,192,211462,1,0,0:0:0:0:
64,192,211558,1,0,0:0:0:0:
320,192,211654,1,0,0:0:0:0:
192,192,211847,1,0,0:0:0:0:
448,192,211847,128,0,212556:0:0:0:0:
64,192,212045,1,0,0:0:0:0:
320,192,212145,1,0,0:0:0:0:
192,192,212244,1,0,0:0:0:0:
320,192,212346,1,0,0:0:0:0:
64,192,212449,1,0,0:0:0:0:
448,192,212663,1,0,0:0:0:0:
64,192,212877,1,0,0:0:0:0:
192,192,213002,1,0,0:0:0:0:
448,192,213127,1,0,0:0:0:0:
192,192,213234,1,0,0:0:0:0:
320,192,213341,1,0,0:0:0:0:
448,192,213579,1,0,0:0:0:0:
320,192,213698,1,0,0:0:0:0:
192,192,213817,1,0,0:0:0:0:
64,192,213936,1,0,0:0:0:0:
448,192,214055,1,0,0:0:0:0:
192,192,214174,1,0,0:0:0:0:
320,192,214293,1,0,0:0:0:0:
192,192,214429,1,0,0:0:0:0:
64,192,214565,128,0,215523:0:0:0:0:
320,192,214565,1,0,0:0:0:0:
448,192,214565,1,0,0:0:0:0:
192,192,214815,1,0,0:0:0:0:
320,192,215087,1,0,0:0:0:0:
192,192,215387,1,0,0:0:0:0:
64,192,215659,1,0,0:0:0:0:
320,192,215659,1,0,0:0:0:0:
448,192,215659,128,0,216753:0:0:0:0:
64,192,216259,1,0,0:0:0:0:
192,192,216259,1,0,0:0:0:0:
64,192,216918,1,0,0:0:0:0:
192,192,216918,1,0,0:0:0:0:
448,192,216918,1,0,0:0:0:0:
320,192,217907,1,0,0:0:0:0:
192,192,218072,1,0,0:0:0:0:
64,192,218237,1,0,0:0:0:0:
320,192,218237,1,0,0:0:0:0:
448,192,218237,1,0,0:0:0:0:
